  0
SECTION
  2
HEADER
  9
$ACADVER
  1
AC1014
  9
$ACADMAINTVER
 70
     0
  9
$DWGCODEPAGE
  3
ANSI_932
  9
$INSBASE
 10
0.0
 20
0.0
 30
0.0
  9
$EXTMIN
 10
-48.590239
 20
-98.838
 30
0.0
  9
$EXTMAX
 10
104.814218
 20
18.335788
 30
0.0
  9
$LIMMIN
 10
-62.533357
 20
-75.850221
  9
$LIMMAX
 10
106.538325
 20
17.639673
  9
$ORTHOMODE
 70
     0
  9
$REGENMODE
 70
     1
  9
$FILLMODE
 70
     1
  9
$QTEXTMODE
 70
     0
  9
$MIRRTEXT
 70
     1
  9
$DRAGMODE
 70
     2
  9
$LTSCALE
 40
0.5
  9
$OSMODE
 70
    51
  9
$ATTMODE
 70
     1
  9
$TEXTSIZE
 40
0.2
  9
$TRACEWID
 40
0.05
  9
$TEXTSTYLE
  7
STANDARD
  9
$CLAYER
  8
0
  9
$CELTYPE
  6
BYLAYER
  9
$CECOLOR
 62
   256
  9
$CELTSCALE
 40
1.0
  9
$DELOBJ
 70
     1
  9
$DISPSILH
 70
     0
  9
$DIMSCALE
 40
1.0
  9
$DIMASZ
 40
2.0
  9
$DIMEXO
 40
1.0
  9
$DIMDLI
 40
10.0
  9
$DIMRND
 40
0.0
  9
$DIMDLE
 40
0.0
  9
$DIMEXE
 40
1.0
  9
$DIMTP
 40
0.0
  9
$DIMTM
 40
0.0
  9
$DIMTXT
 40
3.0
  9
$DIMCEN
 40
2.0
  9
$DIMTSZ
 40
0.0
  9
$DIMTOL
 70
     0
  9
$DIMLIM
 70
     0
  9
$DIMTIH
 70
     0
  9
$DIMTOH
 70
     0
  9
$DIMSE1
 70
     0
  9
$DIMSE2
 70
     0
  9
$DIMTAD
 70
     1
  9
$DIMZIN
 70
     8
  9
$DIMBLK
  1

  9
$DIMASO
 70
     1
  9
$DIMSHO
 70
     1
  9
$DIMPOST
  1

  9
$DIMAPOST
  1

  9
$DIMALT
 70
     0
  9
$DIMALTD
 70
     2
  9
$DIMALTF
 40
25.4
  9
$DIMLFAC
 40
1.0
  9
$DIMTOFL
 70
     1
  9
$DIMTVP
 40
0.0
  9
$DIMTIX
 70
     0
  9
$DIMSOXD
 70
     0
  9
$DIMSAH
 70
     1
  9
$DIMBLK1
  1
_OPEN30
  9
$DIMBLK2
  1
_OPEN30
  9
$DIMSTYLE
  2
寸法
  9
$DIMCLRD
 70
     1
  9
$DIMCLRE
 70
     1
  9
$DIMCLRT
 70
     1
  9
$DIMTFAC
 40
1.0
  9
$DIMGAP
 40
1.0
  9
$DIMJUST
 70
     0
  9
$DIMSD1
 70
     0
  9
$DIMSD2
 70
     0
  9
$DIMTOLJ
 70
     1
  9
$DIMTZIN
 70
     0
  9
$DIMALTZ
 70
     0
  9
$DIMALTTZ
 70
     0
  9
$DIMFIT
 70
     3
  9
$DIMUPT
 70
     0
  9
$DIMUNIT
 70
     2
  9
$DIMDEC
 70
     1
  9
$DIMTDEC
 70
     4
  9
$DIMALTU
 70
     2
  9
$DIMALTTD
 70
     2
  9
$DIMTXSTY
  7
STANDARD
  9
$DIMAUNIT
 70
     0
  9
$LUNITS
 70
     2
  9
$LUPREC
 70
     4
  9
$SKETCHINC
 40
0.1
  9
$FILLETRAD
 40
0.0
  9
$AUNITS
 70
     0
  9
$AUPREC
 70
     0
  9
$MENU
  1
acad
  9
$ELEVATION
 40
0.0
  9
$PELEVATION
 40
0.0
  9
$THICKNESS
 40
0.0
  9
$LIMCHECK
 70
     0
  9
$BLIPMODE
 70
     0
  9
$CHAMFERA
 40
0.0
  9
$CHAMFERB
 40
0.0
  9
$CHAMFERC
 40
0.0
  9
$CHAMFERD
 40
0.0
  9
$SKPOLY
 70
     0
  9
$TDCREATE
 40
2451944.724790162
  9
$TDUPDATE
 40
2451977.638564815
  9
$TDINDWG
 40
0.0148797454
  9
$TDUSRTIMER
 40
0.0148797454
  9
$USRTIMER
 70
     1
  9
$ANGBASE
 50
0.0
  9
$ANGDIR
 70
     0
  9
$PDMODE
 70
     0
  9
$PDSIZE
 40
0.0
  9
$PLINEWID
 40
0.0
  9
$COORDS
 70
     1
  9
$SPLFRAME
 70
     0
  9
$SPLINETYPE
 70
     6
  9
$SPLINESEGS
 70
     8
  9
$ATTDIA
 70
     0
  9
$ATTREQ
 70
     1
  9
$HANDLING
 70
     1
  9
$HANDSEED
  5
2D8
  9
$SURFTAB1
 70
     6
  9
$SURFTAB2
 70
     6
  9
$SURFTYPE
 70
     6
  9
$SURFU
 70
     6
  9
$SURFV
 70
     6
  9
$UCSNAME
  2

  9
$UCSORG
 10
0.0
 20
0.0
 30
0.0
  9
$UCSXDIR
 10
1.0
 20
0.0
 30
0.0
  9
$UCSYDIR
 10
0.0
 20
1.0
 30
0.0
  9
$PUCSNAME
  2

  9
$PUCSORG
 10
0.0
 20
0.0
 30
0.0
  9
$PUCSXDIR
 10
1.0
 20
0.0
 30
0.0
  9
$PUCSYDIR
 10
0.0
 20
1.0
 30
0.0
  9
$USERI1
 70
     0
  9
$USERI2
 70
     0
  9
$USERI3
 70
     0
  9
$USERI4
 70
     0
  9
$USERI5
 70
     0
  9
$USERR1
 40
0.0
  9
$USERR2
 40
0.0
  9
$USERR3
 40
0.0
  9
$USERR4
 40
0.0
  9
$USERR5
 40
0.0
  9
$WORLDVIEW
 70
     1
  9
$SHADEDGE
 70
     3
  9
$SHADEDIF
 70
    70
  9
$TILEMODE
 70
     1
  9
$MAXACTVP
 70
    48
  9
$PINSBASE
 10
0.0
 20
0.0
 30
0.0
  9
$PLIMCHECK
 70
     0
  9
$PEXTMIN
 10
1.000000E+20
 20
1.000000E+20
 30
1.000000E+20
  9
$PEXTMAX
 10
-1.000000E+20
 20
-1.000000E+20
 30
-1.000000E+20
  9
$PLIMMIN
 10
0.0
 20
0.0
  9
$PLIMMAX
 10
12.0
 20
9.0
  9
$UNITMODE
 70
     0
  9
$VISRETAIN
 70
     1
  9
$PLINEGEN
 70
     0
  9
$PSLTSCALE
 70
     1
  9
$TREEDEPTH
 70
  3020
  9
$PICKSTYLE
 70
     1
  9
$CMLSTYLE
  2
STANDARD
  9
$CMLJUST
 70
     0
  9
$CMLSCALE
 40
1.0
  9
$PROXYGRAPHICS
 70
     1
  9
$MEASUREMENT
 70
     0
  0
ENDSEC
  0
SECTION
  2
CLASSES
  0
ENDSEC
  0
SECTION
  2
TABLES
  0
TABLE
  2
VPORT
  5
8
100
AcDbSymbolTable
 70
     2
  0
VPORT
  5
2D7
100
AcDbSymbolTableRecord
100
AcDbViewportTableRecord
  2
*ACTIVE
 70
     0
 10
0.0
 20
0.0
 11
1.0
 21
1.0
 12
22.002484
 22
-35.365564
 13
0.0
 23
0.0
 14
1.0
 24
1.0
 15
10.0
 25
10.0
 16
0.0
 26
0.0
 36
1.0
 17
0.0
 27
0.0
 37
0.0
 40
128.487145
 41
1.710425
 42
50.0
 43
0.0
 44
0.0
 50
0.0
 51
0.0
 71
     0
 72
   100
 73
     1
 74
     1
 75
     0
 76
     0
 77
     0
 78
     0
  0
ENDTAB
  0
TABLE
  2
LTYPE
  5
5
100
AcDbSymbolTable
 70
     5
  0
LTYPE
  5
12
100
AcDbSymbolTableRecord
100
AcDbLinetypeTableRecord
  2
BYBLOCK
 70
     0
  3

 72
    65
 73
     0
 40
0.0
  0
LTYPE
  5
13
100
AcDbSymbolTableRecord
100
AcDbLinetypeTableRecord
  2
BYLAYER
 70
     0
  3

 72
    65
 73
     0
 40
0.0
  0
LTYPE
  5
14
100
AcDbSymbolTableRecord
100
AcDbLinetypeTableRecord
  2
CONTINUOUS
 70
     0
  3
Solid line
 72
    65
 73
     0
 40
0.0
  0
LTYPE
  5
1F
100
AcDbSymbolTableRecord
100
AcDbLinetypeTableRecord
  2
DASHED
 70
     0
  3
__ __ __ __ __ __ __ __ __ __ __ __ __ __ __
 72
    65
 73
     2
 40
3.5
 49
2.0
 74
     0
 49
-1.5
 74
     0
  0
LTYPE
  5
20
100
AcDbSymbolTableRecord
100
AcDbLinetypeTableRecord
  2
CENTER
 70
     0
  3
____ _ ____ _ ____ _ ____ _ ____ _ ____ _ ____
 72
    65
 73
     4
 40
17.5
 49
13.0
 74
     0
 49
-1.5
 74
     0
 49
1.5
 74
     0
 49
-1.5
 74
     0
  0
LTYPE
  5
21
100
AcDbSymbolTableRecord
100
AcDbLinetypeTableRecord
  2
PHANTOM
 70
     0
  3
_____ _ _ _____ _ _ _____ _ _ _____ _ _ ____  
 72
    65
 73
     6
 40
15.5
 49
8.0
 74
     0
 49
-1.5
 74
     0
 49
1.5
 74
     0
 49
-1.5
 74
     0
 49
1.5
 74
     0
 49
-1.5
 74
     0
  0
LTYPE
  5
22
100
AcDbSymbolTableRecord
100
AcDbLinetypeTableRecord
  2
DOT
 70
     0
  3
. . . . . . . . . . . . . . . . . . . . . . . .
 72
    65
 73
     2
 40
0.25
 49
0.0
 74
     0
 49
-0.25
 74
     0
  0
ENDTAB
  0
TABLE
  2
LAYER
  5
2
100
AcDbSymbolTable
 70
     3
  0
LAYER
  5
E
100
AcDbSymbolTableRecord
100
AcDbLayerTableRecord
  2
0
 70
     0
 62
     7
  6
CONTINUOUS
  0
LAYER
  5
15B
100
AcDbSymbolTableRecord
100
AcDbLayerTableRecord
  2
寸法
 70
     0
 62
     1
  6
CONTINUOUS
  0
LAYER
  5
174
100
AcDbSymbolTableRecord
100
AcDbLayerTableRecord
  2
DEFPOINTS
 70
     0
 62
     7
  6
CONTINUOUS
  0
ENDTAB
  0
TABLE
  2
STYLE
  5
3
100
AcDbSymbolTable
 70
     2
  0
STYLE
  5
F
100
AcDbSymbolTableRecord
100
AcDbTextStyleTableRecord
  2
STANDARD
 70
     0
 40
0.0
 41
1.0
 50
0.0
 71
     0
 42
0.2
  3
txt
  4
BIGFONT
  0
STYLE
  5
15C
100
AcDbSymbolTableRecord
100
AcDbTextStyleTableRecord
  2
寸法
 70
     0
 40
0.0
 41
1.0
 50
0.0
 71
     0
 42
1.767677
  3
txt.shx
  4
bigfont.shx
  0
ENDTAB
  0
TABLE
  2
VIEW
  5
6
100
AcDbSymbolTable
 70
     0
  0
ENDTAB
  0
TABLE
  2
UCS
  5
7
100
AcDbSymbolTable
 70
     0
  0
ENDTAB
  0
TABLE
  2
APPID
  5
9
100
AcDbSymbolTable
 70
     3
  0
APPID
  5
10
100
AcDbSymbolTableRecord
100
AcDbRegAppTableRecord
  2
ACAD
 70
     0
  0
APPID
  5
15F
100
AcDbSymbolTableRecord
100
AcDbRegAppTableRecord
  2
CONTENTTABDATA
 70
     0
  0
APPID
  5
160
100
AcDbSymbolTableRecord
100
AcDbRegAppTableRecord
  2
CONTENTCURRENTTAB
 70
     0
  0
ENDTAB
  0
TABLE
  2
DIMSTYLE
  5
A
100
AcDbSymbolTable
 70
     3
  0
DIMSTYLE
105
14D
100
AcDbSymbolTableRecord
100
AcDbDimStyleTableRecord
  2
STANDARD
 70
     0
  3

  4

  5

  6

  7

 40
1.0
 41
0.18
 42
0.0625
 43
0.38
 44
0.18
 45
0.0
 46
0.0
 47
0.0
 48
0.0
140
0.18
141
0.09
142
0.0
143
25.4
144
1.0
145
0.0
146
1.0
147
0.09
 71
     0
 72
     0
 73
     1
 74
     1
 75
     0
 76
     0
 77
     0
 78
     0
170
     0
171
     2
172
     0
173
     0
174
     0
175
     0
176
     0
177
     0
178
     0
270
     2
271
     4
272
     4
273
     2
274
     2
340
F
275
     0
280
     0
281
     0
282
     0
283
     1
284
     0
285
     0
286
     0
287
     3
288
     0
  0
DIMSTYLE
105
15D
100
AcDbSymbolTableRecord
100
AcDbDimStyleTableRecord
  2
STANDARD_WS
 70
     0
  3

  4

  5

  6

  7

 40
0.707071
 41
2.5
 42
0.625
 43
3.75
 44
1.25
 45
0.0
 46
0.0
 47
0.0
 48
0.0
140
2.5
141
2.5
142
0.0
143
0.0394
144
1.0
145
0.0
146
1.0
147
0.625
 71
     0
 72
     0
 73
     0
 74
     0
 75
     0
 76
     0
 77
     1
 78
     8
170
     0
171
     4
172
     1
173
     0
174
     0
175
     0
176
     0
177
     0
178
     0
270
     2
271
     4
272
     4
273
     8
274
     4
340
F
275
     0
280
     0
281
     0
282
     0
283
     1
284
     0
285
     0
286
     0
287
     3
288
     0
  0
DIMSTYLE
105
15E
102
{ACAD_REACTORS
330
178
330
185
330
1A0
330
1AD
330
1BA
330
1C7
330
1D9
330
1F7
330
205
330
212
330
21F
330
22E
330
242
330
283
330
2A5
102
}
100
AcDbSymbolTableRecord
100
AcDbDimStyleTableRecord
  2
寸法
 70
     0
  3

  4

  5

  6
_OPEN30
  7
_OPEN30
 40
1.0
 41
2.0
 42
1.0
 43
10.0
 44
1.0
 45
0.0
 46
0.0
 47
0.0
 48
0.0
140
3.0
141
2.0
142
0.0
143
25.4
144
1.0
145
0.0
146
1.0
147
1.0
 71
     0
 72
     0
 73
     0
 74
     0
 75
     0
 76
     0
 77
     1
 78
     8
170
     0
171
     2
172
     1
173
     1
174
     0
175
     0
176
     1
177
     1
178
     1
270
     2
271
     2
272
     4
273
     2
274
     2
340
F
275
     0
280
     0
281
     0
282
     0
283
     1
284
     0
285
     0
286
     0
287
     3
288
     0
  0
ENDTAB
  0
TABLE
  2
BLOCK_RECORD
  5
1
100
AcDbSymbolTable
 70
    20
  0
BLOCK_RECORD
  5
18
100
AcDbSymbolTableRecord
100
AcDbBlockTableRecord
  2
*MODEL_SPACE
  0
BLOCK_RECORD
  5
15
100
AcDbSymbolTableRecord
100
AcDbBlockTableRecord
  2
*PAPER_SPACE
  0
BLOCK_RECORD
  5
155
100
AcDbSymbolTableRecord
100
AcDbBlockTableRecord
  2
_OPEN30
  0
BLOCK_RECORD
  5
161
100
AcDbSymbolTableRecord
100
AcDbBlockTableRecord
  2
テンプレ-ト
  0
BLOCK_RECORD
  5
16F
100
AcDbSymbolTableRecord
100
AcDbBlockTableRecord
  2
*D2
  0
BLOCK_RECORD
  5
179
100
AcDbSymbolTableRecord
100
AcDbBlockTableRecord
  2
*D3
  0
BLOCK_RECORD
  5
194
100
AcDbSymbolTableRecord
100
AcDbBlockTableRecord
  2
*D5
  0
BLOCK_RECORD
  5
1A1
100
AcDbSymbolTableRecord
100
AcDbBlockTableRecord
  2
*D6
  0
BLOCK_RECORD
  5
1AE
100
AcDbSymbolTableRecord
100
AcDbBlockTableRecord
  2
*D7
  0
BLOCK_RECORD
  5
1BB
100
AcDbSymbolTableRecord
100
AcDbBlockTableRecord
  2
*D8
  0
BLOCK_RECORD
  5
1C9
100
AcDbSymbolTableRecord
100
AcDbBlockTableRecord
  2
*D9
  0
BLOCK_RECORD
  5
1E9
100
AcDbSymbolTableRecord
100
AcDbBlockTableRecord
  2
*D10
  0
BLOCK_RECORD
  5
1F9
100
AcDbSymbolTableRecord
100
AcDbBlockTableRecord
  2
*D11
  0
BLOCK_RECORD
  5
206
100
AcDbSymbolTableRecord
100
AcDbBlockTableRecord
  2
*D12
  0
BLOCK_RECORD
  5
213
100
AcDbSymbolTableRecord
100
AcDbBlockTableRecord
  2
*D13
  0
BLOCK_RECORD
  5
220
100
AcDbSymbolTableRecord
100
AcDbBlockTableRecord
  2
*D14
  0
BLOCK_RECORD
  5
230
100
AcDbSymbolTableRecord
100
AcDbBlockTableRecord
  2
*D15
  0
BLOCK_RECORD
  5
252
100
AcDbSymbolTableRecord
100
AcDbBlockTableRecord
  2
A$C454F4B6C
  0
BLOCK_RECORD
  5
25B
100
AcDbSymbolTableRecord
100
AcDbBlockTableRecord
  2
A$C72956472
  0
BLOCK_RECORD
  5
27B
100
AcDbSymbolTableRecord
100
AcDbBlockTableRecord
  2
*D18
  0
BLOCK_RECORD
  5
299
100
AcDbSymbolTableRecord
100
AcDbBlockTableRecord
  2
*D19
  0
ENDTAB
  0
ENDSEC
  0
SECTION
  2
BLOCKS
  0
BLOCK
  5
19
100
AcDbEntity
  8
0
100
AcDbBlockBegin
  2
*MODEL_SPACE
 70
     0
 10
0.0
 20
0.0
 30
0.0
  3
*MODEL_SPACE
  1

  0
ENDBLK
  5
1A
100
AcDbEntity
  8
0
100
AcDbBlockEnd
  0
BLOCK
  5
16
100
AcDbEntity
 67
     1
  8
0
100
AcDbBlockBegin
  2
*PAPER_SPACE
 70
     0
 10
0.0
 20
0.0
 30
0.0
  3
*PAPER_SPACE
  1

  0
ENDBLK
  5
17
100
AcDbEntity
 67
     1
  8
0
100
AcDbBlockEnd
  0
BLOCK
  5
159
100
AcDbEntity
  8
0
100
AcDbBlockBegin
  2
_OPEN30
 70
     0
 10
0.0
 20
0.0
 30
0.0
  3
_OPEN30
  1

  0
LINE
  5
156
100
AcDbEntity
  8
0
  6
BYBLOCK
 62
     0
100
AcDbLine
 10
-1.0
 20
0.267949
 30
0.0
 11
0.0
 21
0.0
 31
0.0
  0
LINE
  5
157
100
AcDbEntity
  8
0
  6
BYBLOCK
 62
     0
100
AcDbLine
 10
0.0
 20
0.0
 30
0.0
 11
-1.0
 21
-0.267949
 31
0.0
  0
LINE
  5
158
100
AcDbEntity
  8
0
  6
BYBLOCK
 62
     0
100
AcDbLine
 10
0.0
 20
0.0
 30
0.0
 11
-1.0
 21
0.0
 31
0.0
  0
ENDBLK
  5
15A
100
AcDbEntity
  8
0
100
AcDbBlockEnd
  0
BLOCK
  5
162
100
AcDbEntity
  8
0
100
AcDbBlockBegin
  2
テンプレ-ト
 70
     0
 10
0.0
 20
0.0
 30
0.0
  3
テンプレ-ト
  1

  0
ENDBLK
  5
163
100
AcDbEntity
  8
0
100
AcDbBlockEnd
  0
BLOCK
  5
170
100
AcDbEntity
  8
0
100
AcDbBlockBegin
  2
*D2
 70
     1
 10
0.0
 20
0.0
 30
0.0
  3
*D2
  1

  0
LINE
  5
171
100
AcDbEntity
  8
0
  6
BYBLOCK
 62
     1
100
AcDbLine
 10
-28.491835
 20
13.363599
 30
0.0
 11
-42.211777
 21
10.167025
 31
0.0
  0
MTEXT
  5
172
100
AcDbEntity
  8
0
  6
BYBLOCK
 62
     1
100
AcDbMText
 10
-33.928689
 20
14.663838
 30
0.0
 40
3.0
 41
0.0
 71
     5
 72
     1
  1
\A1;\U+220538
 11
0.973916
 21
0.22691
 31
0.0
  0
INSERT
  5
173
100
AcDbEntity
  8
0
  6
BYBLOCK
 62
     1
100
AcDbBlockReference
  2
_OPEN30
 10
-44.159609
 20
9.713205
 30
0.0
 41
2.0
 42
2.0
 43
2.0
 50
193.115223
  0
POINT
  5
175
100
AcDbEntity
  8
DEFPOINTS
  6
BYBLOCK
 62
     0
100
AcDbPoint
 10
-44.159609
 20
9.713205
 30
0.0
  0
POINT
  5
176
100
AcDbEntity
  8
DEFPOINTS
  6
BYBLOCK
 62
     0
100
AcDbPoint
 10
-7.150811
 20
18.335788
 30
0.0
  0
ENDBLK
  5
177
100
AcDbEntity
  8
0
100
AcDbBlockEnd
  0
BLOCK
  5
17A
100
AcDbEntity
  8
0
100
AcDbBlockBegin
  2
*D3
 70
     1
 10
0.0
 20
0.0
 30
0.0
  3
*D3
  1

  0
LINE
  5
17B
100
AcDbEntity
  8
0
  6
BYBLOCK
 62
     1
100
AcDbLine
 10
0.0
 20
9.0
 30
0.0
 11
-6.711772
 21
9.0
 31
0.0
  0
LINE
  5
17C
100
AcDbEntity
  8
0
  6
BYBLOCK
 62
     1
100
AcDbLine
 10
-1.0
 20
0.0
 30
0.0
 11
-6.711772
 21
0.0
 31
0.0
  0
LINE
  5
17D
100
AcDbEntity
  8
0
  6
BYBLOCK
 62
     1
100
AcDbLine
 10
-5.711772
 20
7.0
 30
0.0
 11
-5.711772
 21
2.0
 31
0.0
  0
INSERT
  5
17E
100
AcDbEntity
  8
0
  6
BYBLOCK
 62
     1
100
AcDbBlockReference
  2
_OPEN30
 10
-5.711772
 20
9.0
 30
0.0
 41
2.0
 42
2.0
 43
2.0
 50
90.0
  0
INSERT
  5
17F
100
AcDbEntity
  8
0
  6
BYBLOCK
 62
     1
100
AcDbBlockReference
  2
_OPEN30
 10
-5.711772
 20
0.0
 30
0.0
 41
2.0
 42
2.0
 43
2.0
 50
270.0
  0
MTEXT
  5
180
100
AcDbEntity
  8
0
  6
BYBLOCK
 62
     1
100
AcDbMText
 10
-8.211772
 20
4.5
 30
0.0
 40
3.0
 41
0.0
 71
     5
 72
     1
  1
\A1;9
 11
0.0
 21
1.0
 31
0.0
  0
POINT
  5
181
100
AcDbEntity
  8
DEFPOINTS
  6
BYBLOCK
 62
     0
100
AcDbPoint
 10
1.0
 20
9.0
 30
0.0
  0
POINT
  5
182
100
AcDbEntity
  8
DEFPOINTS
  6
BYBLOCK
 62
     0
100
AcDbPoint
 10
0.0
 20
0.0
 30
0.0
  0
POINT
  5
183
100
AcDbEntity
  8
DEFPOINTS
  6
BYBLOCK
 62
     0
100
AcDbPoint
 10
-5.711772
 20
0.0
 30
0.0
  0
ENDBLK
  5
184
100
AcDbEntity
  8
0
100
AcDbBlockEnd
  0
BLOCK
  5
195
100
AcDbEntity
  8
0
100
AcDbBlockBegin
  2
*D5
 70
     1
 10
0.0
 20
0.0
 30
0.0
  3
*D5
  1

  0
LINE
  5
196
100
AcDbEntity
  8
0
  6
BYBLOCK
 62
     1
100
AcDbLine
 10
43.0
 20
9.0
 30
0.0
 11
60.53857
 21
9.0
 31
0.0
  0
LINE
  5
197
100
AcDbEntity
  8
0
  6
BYBLOCK
 62
     1
100
AcDbLine
 10
43.0
 20
-2.0
 30
0.0
 11
60.53857
 21
-2.0
 31
0.0
  0
LINE
  5
198
100
AcDbEntity
  8
0
  6
BYBLOCK
 62
     1
100
AcDbLine
 10
59.53857
 20
7.0
 30
0.0
 11
59.53857
 21
0.0
 31
0.0
  0
INSERT
  5
199
100
AcDbEntity
  8
0
  6
BYBLOCK
 62
     1
100
AcDbBlockReference
  2
_OPEN30
 10
59.53857
 20
9.0
 30
0.0
 41
2.0
 42
2.0
 43
2.0
 50
90.0
  0
INSERT
  5
19A
100
AcDbEntity
  8
0
  6
BYBLOCK
 62
     1
100
AcDbBlockReference
  2
_OPEN30
 10
59.53857
 20
-2.0
 30
0.0
 41
2.0
 42
2.0
 43
2.0
 50
270.0
  0
MTEXT
  5
19B
100
AcDbEntity
  8
0
  6
BYBLOCK
 62
     1
100
AcDbMText
 10
57.03857
 20
3.5
 30
0.0
 40
3.0
 41
0.0
 71
     5
 72
     1
  1
\A1;11
 11
0.0
 21
1.0
 31
0.0
  0
POINT
  5
19C
100
AcDbEntity
  8
DEFPOINTS
  6
BYBLOCK
 62
     0
100
AcDbPoint
 10
42.0
 20
9.0
 30
0.0
  0
POINT
  5
19D
100
AcDbEntity
  8
DEFPOINTS
  6
BYBLOCK
 62
     0
100
AcDbPoint
 10
42.0
 20
-2.0
 30
0.0
  0
POINT
  5
19E
100
AcDbEntity
  8
DEFPOINTS
  6
BYBLOCK
 62
     0
100
AcDbPoint
 10
59.53857
 20
-2.0
 30
0.0
  0
ENDBLK
  5
19F
100
AcDbEntity
  8
0
100
AcDbBlockEnd
  0
BLOCK
  5
1A2
100
AcDbEntity
  8
0
100
AcDbBlockBegin
  2
*D6
 70
     1
 10
0.0
 20
0.0
 30
0.0
  3
*D6
  1

  0
LINE
  5
1A3
100
AcDbEntity
  8
0
  6
BYBLOCK
 62
     1
100
AcDbLine
 10
50.0
 20
2.5
 30
0.0
 11
50.0
 21
-10.255489
 31
0.0
  0
LINE
  5
1A4
100
AcDbEntity
  8
0
  6
BYBLOCK
 62
     1
100
AcDbLine
 10
42.0
 20
-3.0
 30
0.0
 11
42.0
 21
-10.255489
 31
0.0
  0
LINE
  5
1A5
100
AcDbEntity
  8
0
  6
BYBLOCK
 62
     1
100
AcDbLine
 10
48.0
 20
-9.255489
 30
0.0
 11
44.0
 21
-9.255489
 31
0.0
  0
INSERT
  5
1A6
100
AcDbEntity
  8
0
  6
BYBLOCK
 62
     1
100
AcDbBlockReference
  2
_OPEN30
 10
50.0
 20
-9.255489
 30
0.0
 41
2.0
 42
2.0
 43
2.0
  0
INSERT
  5
1A7
100
AcDbEntity
  8
0
  6
BYBLOCK
 62
     1
100
AcDbBlockReference
  2
_OPEN30
 10
42.0
 20
-9.255489
 30
0.0
 41
2.0
 42
2.0
 43
2.0
 50
180.0
  0
MTEXT
  5
1A8
100
AcDbEntity
  8
0
  6
BYBLOCK
 62
     1
100
AcDbMText
 10
46.0
 20
-6.755489
 30
0.0
 40
3.0
 41
0.0
 71
     5
 72
     1
  1
\A1;8
  0
POINT
  5
1A9
100
AcDbEntity
  8
DEFPOINTS
  6
BYBLOCK
 62
     0
100
AcDbPoint
 10
50.0
 20
3.5
 30
0.0
  0
POINT
  5
1AA
100
AcDbEntity
  8
DEFPOINTS
  6
BYBLOCK
 62
     0
100
AcDbPoint
 10
42.0
 20
-2.0
 30
0.0
  0
POINT
  5
1AB
100
AcDbEntity
  8
DEFPOINTS
  6
BYBLOCK
 62
     0
100
AcDbPoint
 10
42.0
 20
-9.255489
 30
0.0
  0
ENDBLK
  5
1AC
100
AcDbEntity
  8
0
100
AcDbBlockEnd
  0
BLOCK
  5
289
100
AcDbEntity
  8
0
100
AcDbBlockBegin
  2
*D7
 70
     1
 10
0.0
 20
0.0
 30
0.0
  3
*D7
  1

  0
LINE
  5
28A
100
AcDbEntity
  8
0
  6
BYBLOCK
 62
     1
100
AcDbLine
 10
50.0
 20
2.5
 30
0.0
 11
50.0
 21
-20.99648
 31
0.0
  0
LINE
  5
28B
100
AcDbEntity
  8
0
  6
BYBLOCK
 62
     1
100
AcDbLine
 10
8.617821
 20
-5.975501
 30
0.0
 11
8.617821
 21
-20.99648
 31
0.0
  0
LINE
  5
28C
100
AcDbEntity
  8
0
  6
BYBLOCK
 62
     1
100
AcDbLine
 10
48.0
 20
-19.99648
 30
0.0
 11
10.617821
 21
-19.99648
 31
0.0
  0
INSERT
  5
28D
100
AcDbEntity
  8
0
  6
BYBLOCK
 62
     1
100
AcDbBlockReference
  2
_OPEN30
 10
50.0
 20
-19.99648
 30
0.0
 41
2.0
 42
2.0
 43
2.0
  0
INSERT
  5
28E
100
AcDbEntity
  8
0
  6
BYBLOCK
 62
     1
100
AcDbBlockReference
  2
_OPEN30
 10
8.617821
 20
-19.99648
 30
0.0
 41
2.0
 42
2.0
 43
2.0
 50
180.0
  0
MTEXT
  5
28F
100
AcDbEntity
  8
0
  6
BYBLOCK
 62
     1
100
AcDbMText
 10
29.30891
 20
-17.49648
 30
0.0
 40
3.0
 41
0.0
 71
     5
 72
     1
  1
\A1;41.4
  0
POINT
  5
290
100
AcDbEntity
  8
DEFPOINTS
  6
BYBLOCK
 62
     0
100
AcDbPoint
 10
50.0
 20
3.5
 30
0.0
  0
POINT
  5
291
100
AcDbEntity
  8
DEFPOINTS
  6
BYBLOCK
 62
     0
100
AcDbPoint
 10
8.617821
 20
-4.975501
 30
0.0
  0
POINT
  5
292
100
AcDbEntity
  8
DEFPOINTS
  6
BYBLOCK
 62
     0
100
AcDbPoint
 10
8.617821
 20
-19.99648
 30
0.0
  0
ENDBLK
  5
293
100
AcDbEntity
  8
0
100
AcDbBlockEnd
  0
BLOCK
  5
1BC
100
AcDbEntity
  8
0
100
AcDbBlockBegin
  2
*D8
 70
     1
 10
0.0
 20
0.0
 30
0.0
  3
*D8
  1

  0
LINE
  5
1BD
100
AcDbEntity
  8
0
  6
BYBLOCK
 62
     1
100
AcDbLine
 10
50.0
 20
2.5
 30
0.0
 11
50.0
 21
-31.249244
 31
0.0
  0
LINE
  5
1BE
100
AcDbEntity
  8
0
  6
BYBLOCK
 62
     1
100
AcDbLine
 10
0.0
 20
-1.0
 30
0.0
 11
0.0
 21
-31.249244
 31
0.0
  0
LINE
  5
1BF
100
AcDbEntity
  8
0
  6
BYBLOCK
 62
     1
100
AcDbLine
 10
48.0
 20
-30.249244
 30
0.0
 11
2.0
 21
-30.249244
 31
0.0
  0
INSERT
  5
1C0
100
AcDbEntity
  8
0
  6
BYBLOCK
 62
     1
100
AcDbBlockReference
  2
_OPEN30
 10
50.0
 20
-30.249244
 30
0.0
 41
2.0
 42
2.0
 43
2.0
  0
INSERT
  5
1C1
100
AcDbEntity
  8
0
  6
BYBLOCK
 62
     1
100
AcDbBlockReference
  2
_OPEN30
 10
0.0
 20
-30.249244
 30
0.0
 41
2.0
 42
2.0
 43
2.0
 50
180.0
  0
MTEXT
  5
1C2
100
AcDbEntity
  8
0
  6
BYBLOCK
 62
     1
100
AcDbMText
 10
25.0
 20
-27.749244
 30
0.0
 40
3.0
 41
0.0
 71
     5
 72
     1
  1
\A1;50
  0
POINT
  5
1C3
100
AcDbEntity
  8
DEFPOINTS
  6
BYBLOCK
 62
     0
100
AcDbPoint
 10
50.0
 20
3.5
 30
0.0
  0
POINT
  5
1C4
100
AcDbEntity
  8
DEFPOINTS
  6
BYBLOCK
 62
     0
100
AcDbPoint
 10
0.0
 20
0.0
 30
0.0
  0
POINT
  5
1C5
100
AcDbEntity
  8
DEFPOINTS
  6
BYBLOCK
 62
     0
100
AcDbPoint
 10
0.0
 20
-30.249244
 30
0.0
  0
ENDBLK
  5
1C6
100
AcDbEntity
  8
0
100
AcDbBlockEnd
  0
BLOCK
  5
1DA
100
AcDbEntity
  8
0
100
AcDbBlockBegin
  2
*D9
 70
     1
 10
0.0
 20
0.0
 30
0.0
  3
*D9
  1

  0
LINE
  5
1DB
100
AcDbEntity
  8
0
  6
BYBLOCK
 62
     1
100
AcDbLine
 10
0.0
 20
-2.0
 30
0.0
 11
0.0
 21
-13.937074
 31
0.0
  0
LINE
  5
1DC
100
AcDbEntity
  8
0
  6
BYBLOCK
 62
     1
100
AcDbLine
 10
9.483846
 20
-5.475501
 30
0.0
 11
12.06986
 21
-6.968537
 31
0.0
  0
ARC
  5
1DD
100
AcDbEntity
  8
0
  6
BYBLOCK
 62
     1
100
AcDbCircle
 10
0.0
 20
0.0
 30
0.0
 40
12.937074
100
AcDbArc
 50
252.267091
 51
261.133545
  0
ARC
  5
1DE
100
AcDbEntity
  8
0
  6
BYBLOCK
 62
     1
100
AcDbCircle
 10
0.0
 20
0.0
 30
0.0
 40
12.937074
100
AcDbArc
 50
338.866456
 51
347.732911
  0
ARC
  5
1DF
100
AcDbEntity
  8
0
  6
BYBLOCK
 62
     1
100
AcDbCircle
 10
0.0
 20
0.0
 30
0.0
 40
12.937074
100
AcDbArc
 50
270.0
 51
330.000002
  0
INSERT
  5
1E0
100
AcDbEntity
  8
0
  6
BYBLOCK
 62
     1
100
AcDbBlockReference
  2
_OPEN30
 10
0.0
 20
-12.937074
 30
0.0
 41
2.0
 42
2.0
 43
2.0
 50
355.566773
  0
INSERT
  5
1E1
100
AcDbEntity
  8
0
  6
BYBLOCK
 62
     1
100
AcDbBlockReference
  2
_OPEN30
 10
11.203835
 20
-6.468537
 30
0.0
 41
2.0
 42
2.0
 43
2.0
 50
244.433229
  0
MTEXT
  5
1E2
100
AcDbEntity
  8
0
  6
BYBLOCK
 62
     1
100
AcDbMText
 10
-4.016538
 20
-9.633272
 30
0.0
 40
3.0
 41
0.0
 71
     5
 72
     1
  1
\A1;60°
 11
0.922986
 21
-0.384834
 31
0.0
  0
POINT
  5
1E3
100
AcDbEntity
  8
DEFPOINTS
  6
BYBLOCK
 62
     0
100
AcDbPoint
 10
8.315791
 20
-9.910373
 30
0.0
  0
POINT
  5
1E4
100
AcDbEntity
  8
DEFPOINTS
  6
BYBLOCK
 62
     0
100
AcDbPoint
 10
0.0
 20
0.0
 30
0.0
  0
POINT
  5
1E5
100
AcDbEntity
  8
DEFPOINTS
  6
BYBLOCK
 62
     0
100
AcDbPoint
 10
8.617821
 20
-4.975501
 30
0.0
  0
POINT
  5
1E6
100
AcDbEntity
  8
DEFPOINTS
  6
BYBLOCK
 62
     0
100
AcDbPoint
 10
0.2
 20
-0.11547
 30
0.0
  0
POINT
  5
1E7
100
AcDbEntity
  8
DEFPOINTS
  6
BYBLOCK
 62
     0
100
AcDbPoint
 10
0.0
 20
-1.0
 30
0.0
  0
ENDBLK
  5
1E8
100
AcDbEntity
  8
0
100
AcDbBlockEnd
  0
BLOCK
  5
1EA
100
AcDbEntity
  8
0
100
AcDbBlockBegin
  2
*D10
 70
     1
 10
0.0
 20
0.0
 30
0.0
  3
*D10
  1

  0
LINE
  5
1EB
100
AcDbEntity
  8
0
  6
BYBLOCK
 62
     1
100
AcDbLine
 10
29.0
 20
-50.805694
 30
0.0
 11
29.0
 21
-49.059338
 31
0.0
  0
LINE
  5
1EC
100
AcDbEntity
  8
0
  6
BYBLOCK
 62
     1
100
AcDbLine
 10
31.0
 20
-50.805694
 30
0.0
 11
31.0
 21
-49.059338
 31
0.0
  0
LINE
  5
1ED
100
AcDbEntity
  8
0
  6
BYBLOCK
 62
     1
100
AcDbLine
 10
27.0
 20
-50.059338
 30
0.0
 11
25.0
 21
-50.059338
 31
0.0
  0
LINE
  5
1EE
100
AcDbEntity
  8
0
  6
BYBLOCK
 62
     1
100
AcDbLine
 10
33.0
 20
-50.059338
 30
0.0
 11
39.0
 21
-50.059338
 31
0.0
  0
LINE
  5
1EF
100
AcDbEntity
  8
0
  6
BYBLOCK
 62
     1
100
AcDbLine
 10
29.0
 20
-50.059338
 30
0.0
 11
31.0
 21
-50.059338
 31
0.0
  0
INSERT
  5
1F0
100
AcDbEntity
  8
0
  6
BYBLOCK
 62
     1
100
AcDbBlockReference
  2
_OPEN30
 10
29.0
 20
-50.059338
 30
0.0
 41
2.0
 42
2.0
 43
2.0
  0
INSERT
  5
1F1
100
AcDbEntity
  8
0
  6
BYBLOCK
 62
     1
100
AcDbBlockReference
  2
_OPEN30
 10
31.0
 20
-50.059338
 30
0.0
 41
2.0
 42
2.0
 43
2.0
 50
180.0
  0
MTEXT
  5
1F2
100
AcDbEntity
  8
0
  6
BYBLOCK
 62
     1
100
AcDbMText
 10
37.0
 20
-47.559338
 30
0.0
 40
3.0
 41
0.0
 71
     5
 72
     1
  1
\A1;2
  0
POINT
  5
1F3
100
AcDbEntity
  8
DEFPOINTS
  6
BYBLOCK
 62
     0
100
AcDbPoint
 10
29.0
 20
-51.805694
 30
0.0
  0
POINT
  5
1F4
100
AcDbEntity
  8
DEFPOINTS
  6
BYBLOCK
 62
     0
100
AcDbPoint
 10
31.0
 20
-51.805694
 30
0.0
  0
POINT
  5
1F5
100
AcDbEntity
  8
DEFPOINTS
  6
BYBLOCK
 62
     0
100
AcDbPoint
 10
31.0
 20
-50.059338
 30
0.0
  0
ENDBLK
  5
1F6
100
AcDbEntity
  8
0
100
AcDbBlockEnd
  0
BLOCK
  5
1FA
100
AcDbEntity
  8
0
100
AcDbBlockBegin
  2
*D11
 70
     1
 10
0.0
 20
0.0
 30
0.0
  3
*D11
  1

  0
LINE
  5
1FB
100
AcDbEntity
  8
0
  6
BYBLOCK
 62
     1
100
AcDbLine
 10
30.0
 20
-50.805694
 30
0.0
 11
30.0
 21
-38.811737
 31
0.0
  0
LINE
  5
1FC
100
AcDbEntity
  8
0
  6
BYBLOCK
 62
     1
100
AcDbLine
 10
50.0
 20
-60.34287
 30
0.0
 11
50.0
 21
-38.811737
 31
0.0
  0
LINE
  5
1FD
100
AcDbEntity
  8
0
  6
BYBLOCK
 62
     1
100
AcDbLine
 10
32.0
 20
-39.811737
 30
0.0
 11
48.0
 21
-39.811737
 31
0.0
  0
INSERT
  5
1FE
100
AcDbEntity
  8
0
  6
BYBLOCK
 62
     1
100
AcDbBlockReference
  2
_OPEN30
 10
30.0
 20
-39.811737
 30
0.0
 41
2.0
 42
2.0
 43
2.0
 50
180.0
  0
INSERT
  5
1FF
100
AcDbEntity
  8
0
  6
BYBLOCK
 62
     1
100
AcDbBlockReference
  2
_OPEN30
 10
50.0
 20
-39.811737
 30
0.0
 41
2.0
 42
2.0
 43
2.0
  0
MTEXT
  5
200
100
AcDbEntity
  8
0
  6
BYBLOCK
 62
     1
100
AcDbMText
 10
40.0
 20
-37.311737
 30
0.0
 40
3.0
 41
0.0
 71
     5
 72
     1
  1
\A1;20
  0
POINT
  5
201
100
AcDbEntity
  8
DEFPOINTS
  6
BYBLOCK
 62
     0
100
AcDbPoint
 10
30.0
 20
-51.805694
 30
0.0
  0
POINT
  5
202
100
AcDbEntity
  8
DEFPOINTS
  6
BYBLOCK
 62
     0
100
AcDbPoint
 10
50.0
 20
-61.34287
 30
0.0
  0
POINT
  5
203
100
AcDbEntity
  8
DEFPOINTS
  6
BYBLOCK
 62
     0
100
AcDbPoint
 10
50.0
 20
-39.811737
 30
0.0
  0
ENDBLK
  5
204
100
AcDbEntity
  8
0
100
AcDbBlockEnd
  0
BLOCK
  5
207
100
AcDbEntity
  8
0
100
AcDbBlockBegin
  2
*D12
 70
     1
 10
0.0
 20
0.0
 30
0.0
  3
*D12
  1

  0
LINE
  5
208
100
AcDbEntity
  8
0
  6
BYBLOCK
 62
     1
100
AcDbLine
 10
43.0
 20
-54.84287
 30
0.0
 11
60.847372
 21
-54.84287
 31
0.0
  0
LINE
  5
209
100
AcDbEntity
  8
0
  6
BYBLOCK
 62
     1
100
AcDbLine
 10
43.0
 20
-67.34287
 30
0.0
 11
60.847372
 21
-67.34287
 31
0.0
  0
LINE
  5
20A
100
AcDbEntity
  8
0
  6
BYBLOCK
 62
     1
100
AcDbLine
 10
59.847372
 20
-56.84287
 30
0.0
 11
59.847372
 21
-65.34287
 31
0.0
  0
INSERT
  5
20B
100
AcDbEntity
  8
0
  6
BYBLOCK
 62
     1
100
AcDbBlockReference
  2
_OPEN30
 10
59.847372
 20
-54.84287
 30
0.0
 41
2.0
 42
2.0
 43
2.0
 50
90.0
  0
INSERT
  5
20C
100
AcDbEntity
  8
0
  6
BYBLOCK
 62
     1
100
AcDbBlockReference
  2
_OPEN30
 10
59.847372
 20
-67.34287
 30
0.0
 41
2.0
 42
2.0
 43
2.0
 50
270.0
  0
MTEXT
  5
20D
100
AcDbEntity
  8
0
  6
BYBLOCK
 62
     1
100
AcDbMText
 10
57.347372
 20
-61.09287
 30
0.0
 40
3.0
 41
0.0
 71
     5
 72
     1
  1
\A1;12.5
 11
0.0
 21
1.0
 31
0.0
  0
POINT
  5
20E
100
AcDbEntity
  8
DEFPOINTS
  6
BYBLOCK
 62
     0
100
AcDbPoint
 10
42.0
 20
-54.84287
 30
0.0
  0
POINT
  5
20F
100
AcDbEntity
  8
DEFPOINTS
  6
BYBLOCK
 62
     0
100
AcDbPoint
 10
42.0
 20
-67.34287
 30
0.0
  0
POINT
  5
210
100
AcDbEntity
  8
DEFPOINTS
  6
BYBLOCK
 62
     0
100
AcDbPoint
 10
59.847372
 20
-67.34287
 30
0.0
  0
ENDBLK
  5
211
100
AcDbEntity
  8
0
100
AcDbBlockEnd
  0
BLOCK
  5
214
100
AcDbEntity
  8
0
100
AcDbBlockBegin
  2
*D13
 70
     1
 10
0.0
 20
0.0
 30
0.0
  3
*D13
  1

  0
LINE
  5
215
100
AcDbEntity
  8
0
  6
BYBLOCK
 62
     1
100
AcDbLine
 10
-1.000002
 20
-57.34287
 30
0.0
 11
-6.223559
 21
-57.34287
 31
0.0
  0
LINE
  5
216
100
AcDbEntity
  8
0
  6
BYBLOCK
 62
     1
100
AcDbLine
 10
1.266028
 20
-67.34287
 30
0.0
 11
-6.223559
 21
-67.34287
 31
0.0
  0
LINE
  5
217
100
AcDbEntity
  8
0
  6
BYBLOCK
 62
     1
100
AcDbLine
 10
-5.223559
 20
-59.34287
 30
0.0
 11
-5.223559
 21
-65.34287
 31
0.0
  0
INSERT
  5
218
100
AcDbEntity
  8
0
  6
BYBLOCK
 62
     1
100
AcDbBlockReference
  2
_OPEN30
 10
-5.223559
 20
-57.34287
 30
0.0
 41
2.0
 42
2.0
 43
2.0
 50
90.0
  0
INSERT
  5
219
100
AcDbEntity
  8
0
  6
BYBLOCK
 62
     1
100
AcDbBlockReference
  2
_OPEN30
 10
-5.223559
 20
-67.34287
 30
0.0
 41
2.0
 42
2.0
 43
2.0
 50
270.0
  0
MTEXT
  5
21A
100
AcDbEntity
  8
0
  6
BYBLOCK
 62
     1
100
AcDbMText
 10
-7.723559
 20
-62.34287
 30
0.0
 40
3.0
 41
0.0
 71
     5
 72
     1
  1
\A1;10
 11
0.0
 21
1.0
 31
0.0
  0
POINT
  5
21B
100
AcDbEntity
  8
DEFPOINTS
  6
BYBLOCK
 62
     0
100
AcDbPoint
 10
-0.000002
 20
-57.34287
 30
0.0
  0
POINT
  5
21C
100
AcDbEntity
  8
DEFPOINTS
  6
BYBLOCK
 62
     0
100
AcDbPoint
 10
2.266028
 20
-67.34287
 30
0.0
  0
POINT
  5
21D
100
AcDbEntity
  8
DEFPOINTS
  6
BYBLOCK
 62
     0
100
AcDbPoint
 10
-5.223559
 20
-67.34287
 30
0.0
  0
ENDBLK
  5
21E
100
AcDbEntity
  8
0
100
AcDbBlockEnd
  0
BLOCK
  5
221
100
AcDbEntity
  8
0
100
AcDbBlockBegin
  2
*D14
 70
     1
 10
0.0
 20
0.0
 30
0.0
  3
*D14
  1

  0
LINE
  5
222
100
AcDbEntity
  8
0
  6
BYBLOCK
 62
     1
100
AcDbLine
 10
92.0
 20
-62.34287
 30
0.0
 11
104.814218
 21
-62.34287
 31
0.0
  0
LINE
  5
223
100
AcDbEntity
  8
0
  6
BYBLOCK
 62
     1
100
AcDbLine
 10
81.0
 20
-67.34287
 30
0.0
 11
104.814218
 21
-67.34287
 31
0.0
  0
LINE
  5
224
100
AcDbEntity
  8
0
  6
BYBLOCK
 62
     1
100
AcDbLine
 10
103.814218
 20
-60.34287
 30
0.0
 11
103.814218
 21
-58.34287
 31
0.0
  0
LINE
  5
225
100
AcDbEntity
  8
0
  6
BYBLOCK
 62
     1
100
AcDbLine
 10
103.814218
 20
-69.34287
 30
0.0
 11
103.814218
 21
-71.34287
 31
0.0
  0
LINE
  5
226
100
AcDbEntity
  8
0
  6
BYBLOCK
 62
     1
100
AcDbLine
 10
103.814218
 20
-62.34287
 30
0.0
 11
103.814218
 21
-67.34287
 31
0.0
  0
INSERT
  5
227
100
AcDbEntity
  8
0
  6
BYBLOCK
 62
     1
100
AcDbBlockReference
  2
_OPEN30
 10
103.814218
 20
-62.34287
 30
0.0
 41
2.0
 42
2.0
 43
2.0
 50
270.0
  0
INSERT
  5
228
100
AcDbEntity
  8
0
  6
BYBLOCK
 62
     1
100
AcDbBlockReference
  2
_OPEN30
 10
103.814218
 20
-67.34287
 30
0.0
 41
2.0
 42
2.0
 43
2.0
 50
90.0
  0
MTEXT
  5
229
100
AcDbEntity
  8
0
  6
BYBLOCK
 62
     1
100
AcDbMText
 10
101.314218
 20
-64.84287
 30
0.0
 40
3.0
 41
0.0
 71
     5
 72
     1
  1
\A1;5
 11
0.0
 21
1.0
 31
0.0
  0
POINT
  5
22A
100
AcDbEntity
  8
DEFPOINTS
  6
BYBLOCK
 62
     0
100
AcDbPoint
 10
91.0
 20
-62.34287
 30
0.0
  0
POINT
  5
22B
100
AcDbEntity
  8
DEFPOINTS
  6
BYBLOCK
 62
     0
100
AcDbPoint
 10
80.0
 20
-67.34287
 30
0.0
  0
POINT
  5
22C
100
AcDbEntity
  8
DEFPOINTS
  6
BYBLOCK
 62
     0
100
AcDbPoint
 10
103.814218
 20
-67.34287
 30
0.0
  0
ENDBLK
  5
22D
100
AcDbEntity
  8
0
100
AcDbBlockEnd
  0
BLOCK
  5
243
100
AcDbEntity
  8
0
100
AcDbBlockBegin
  2
*D15
 70
     1
 10
0.0
 20
0.0
 30
0.0
  3
*D15
  1

  0
LINE
  5
244
100
AcDbEntity
  8
0
  6
BYBLOCK
 62
     1
100
AcDbLine
 10
96.108943
 20
-64.202373
 30
0.0
 11
96.984451
 21
-64.521031
 31
0.0
  0
LINE
  5
245
100
AcDbEntity
  8
0
  6
BYBLOCK
 62
     1
100
AcDbLine
 10
93.0
 20
-62.34287
 30
0.0
 11
97.368519
 21
-62.34287
 31
0.0
  0
ARC
  5
246
100
AcDbEntity
  8
0
  6
BYBLOCK
 62
     1
100
AcDbCircle
 10
91.0
 20
-62.34287
 30
0.0
 40
5.368519
100
AcDbArc
 50
297.059004
 51
318.529503
  0
ARC
  5
247
100
AcDbEntity
  8
0
  6
BYBLOCK
 62
     1
100
AcDbCircle
 10
91.0
 20
-62.34287
 30
0.0
 40
5.368519
100
AcDbArc
 50
21.470499
 51
42.940999
  0
ARC
  5
248
100
AcDbEntity
  8
0
  6
BYBLOCK
 62
     1
100
AcDbCircle
 10
91.0
 20
-62.34287
 30
0.0
 40
5.368519
100
AcDbArc
 50
340.000003
 51
0.0
  0
INSERT
  5
249
100
AcDbEntity
  8
0
  6
BYBLOCK
 62
     1
100
AcDbBlockReference
  2
_OPEN30
 10
96.044758
 20
-64.179011
 30
0.0
 41
2.0
 42
2.0
 43
2.0
 50
59.264753
  0
INSERT
  5
24A
100
AcDbEntity
  8
0
  6
BYBLOCK
 62
     1
100
AcDbBlockReference
  2
_OPEN30
 10
96.368519
 20
-62.34287
 30
0.0
 41
2.0
 42
2.0
 43
2.0
 50
280.73525
  0
MTEXT
  5
24B
100
AcDbEntity
  8
0
  6
BYBLOCK
 62
     1
100
AcDbMText
 10
98.26395
 20
-59.318201
 30
0.0
 40
3.0
 41
0.0
 71
     5
 72
     1
  1
\A1;20°
 11
0.384401
 21
-0.923166
 31
0.0
  0
POINT
  5
24C
100
AcDbEntity
  8
DEFPOINTS
  6
BYBLOCK
 62
     0
100
AcDbPoint
 10
96.22381
 20
-63.580935
 30
0.0
  0
POINT
  5
24D
100
AcDbEntity
  8
DEFPOINTS
  6
BYBLOCK
 62
     0
100
AcDbPoint
 10
91.0
 20
-62.34287
 30
0.0
  0
POINT
  5
24E
100
AcDbEntity
  8
DEFPOINTS
  6
BYBLOCK
 62
     0
100
AcDbPoint
 10
75.489616
 20
-56.697553
 30
0.0
  0
POINT
  5
24F
100
AcDbEntity
  8
DEFPOINTS
  6
BYBLOCK
 62
     0
100
AcDbPoint
 10
95.16925
 20
-63.860353
 30
0.0
  0
POINT
  5
250
100
AcDbEntity
  8
DEFPOINTS
  6
BYBLOCK
 62
     0
100
AcDbPoint
 10
92.0
 20
-62.34287
 30
0.0
  0
ENDBLK
  5
251
100
AcDbEntity
  8
0
100
AcDbBlockEnd
  0
BLOCK
  5
259
100
AcDbEntity
  8
0
 62
     1
100
AcDbBlockBegin
  2
A$C454F4B6C
 70
     0
 10
0.0
 20
0.0
 30
0.0
  3
A$C454F4B6C
  1

  0
LINE
  5
253
100
AcDbEntity
  8
寸法
  6
CONTINUOUS
 62
     1
100
AcDbLine
 10
16.017877
 20
5.006003
 30
0.0
 11
8.288703
 21
5.006003
 31
0.0
  0
TEXT
  5
254
100
AcDbEntity
  8
寸法
  6
CONTINUOUS
100
AcDbText
 10
0.0
 20
12.863186
 30
0.0
 40
3.0
  1
-8°
100
AcDbText
  0
INSERT
  5
255
100
AcDbEntity
  8
寸法
  6
CONTINUOUS
 62
     1
100
AcDbBlockReference
  2
_OPEN30
 10
8.288703
 20
14.988109
 30
0.0
 41
2.0
 42
2.0
 43
2.0
 50
90.0
  0
LINE
  5
256
100
AcDbEntity
  8
寸法
  6
CONTINUOUS
 62
     1
100
AcDbLine
 10
8.288703
 20
12.988109
 30
0.0
 11
8.288703
 21
5.006003
 31
0.0
  0
INSERT
  5
257
100
AcDbEntity
  8
寸法
  6
CONTINUOUS
 62
     1
100
AcDbBlockReference
  2
_OPEN30
 10
18.017877
 20
5.006003
 30
0.0
 41
2.0
 42
2.0
 43
2.0
  0
TEXT
  5
258
100
AcDbEntity
  8
寸法
  6
CONTINUOUS
100
AcDbText
 10
15.924573
 20
0.0
 30
0.0
 40
3.0
  1
-6°
100
AcDbText
  0
ENDBLK
  5
25A
100
AcDbEntity
  8
0
 62
     1
100
AcDbBlockEnd
  0
BLOCK
  5
25D
100
AcDbEntity
  8
0
100
AcDbBlockBegin
  2
A$C72956472
 70
     0
 10
0.0
 20
0.0
 30
0.0
  3
A$C72956472
  1

  0
INSERT
  5
25C
100
AcDbEntity
  8
寸法
 62
     1
100
AcDbBlockReference
  2
A$C454F4B6C
 10
0.0
 20
0.0
 30
0.0
  0
ENDBLK
  5
25E
100
AcDbEntity
  8
0
100
AcDbBlockEnd
  0
BLOCK
  5
27C
100
AcDbEntity
  8
0
100
AcDbBlockBegin
  2
*D18
 70
     1
 10
0.0
 20
0.0
 30
0.0
  3
*D18
  1

  0
LINE
  5
27D
100
AcDbEntity
  8
0
  6
BYBLOCK
 62
     1
100
AcDbLine
 10
21.160619
 20
-71.275399
 30
0.0
 11
14.99984
 21
-80.98595
 31
0.0
  0
MTEXT
  5
27E
100
AcDbEntity
  8
0
  6
BYBLOCK
 62
     1
100
AcDbMText
 10
16.50496
 20
-73.946979
 30
0.0
 40
3.0
 41
0.0
 71
     5
 72
     1
  1
\A1;\U+220560
 11
0.53572
 21
0.844396
 31
0.0
  0
INSERT
  5
27F
100
AcDbEntity
  8
0
  6
BYBLOCK
 62
     1
100
AcDbBlockReference
  2
_OPEN30
 10
13.9284
 20
-82.674741
 30
0.0
 41
2.0
 42
2.0
 43
2.0
 50
237.607251
  0
POINT
  5
280
100
AcDbEntity
  8
DEFPOINTS
  6
BYBLOCK
 62
     0
100
AcDbPoint
 10
13.9284
 20
-82.674741
 30
0.0
  0
POINT
  5
281
100
AcDbEntity
  8
DEFPOINTS
  6
BYBLOCK
 62
     0
100
AcDbPoint
 10
46.071596
 20
-32.010998
 30
0.0
  0
ENDBLK
  5
282
100
AcDbEntity
  8
0
100
AcDbBlockEnd
  0
BLOCK
  5
2C7
100
AcDbEntity
  8
0
100
AcDbBlockBegin
  2
*D19
 70
     1
 10
0.0
 20
0.0
 30
0.0
  3
*D19
  1

  0
LINE
  5
2C8
100
AcDbEntity
  8
0
  6
BYBLOCK
 62
     1
100
AcDbLine
 10
7.525
 20
-4.921911
 30
0.0
 11
-15.058918
 21
-4.921911
 31
0.0
  0
LINE
  5
2C9
100
AcDbEntity
  8
0
  6
BYBLOCK
 62
     1
100
AcDbLine
 10
0.0
 20
9.0
 30
0.0
 11
-15.058918
 21
9.0
 31
0.0
  0
LINE
  5
2CA
100
AcDbEntity
  8
0
  6
BYBLOCK
 62
     1
100
AcDbLine
 10
-14.058918
 20
-2.921911
 30
0.0
 11
-14.058918
 21
7.0
 31
0.0
  0
INSERT
  5
2CB
100
AcDbEntity
  8
0
  6
BYBLOCK
 62
     1
100
AcDbBlockReference
  2
_OPEN30
 10
-14.058918
 20
-4.921911
 30
0.0
 41
2.0
 42
2.0
 43
2.0
 50
270.0
  0
INSERT
  5
2CC
100
AcDbEntity
  8
0
  6
BYBLOCK
 62
     1
100
AcDbBlockReference
  2
_OPEN30
 10
-14.058918
 20
9.0
 30
0.0
 41
2.0
 42
2.0
 43
2.0
 50
90.0
  0
MTEXT
  5
2CD
100
AcDbEntity
  8
0
  6
BYBLOCK
 62
     1
100
AcDbMText
 10
-16.558918
 20
2.039044
 30
0.0
 40
3.0
 41
0.0
 71
     5
 72
     1
  1
\A1;13.9
 11
0.0
 21
1.0
 31
0.0
  0
POINT
  5
2CE
100
AcDbEntity
  8
DEFPOINTS
  6
BYBLOCK
 62
     0
100
AcDbPoint
 10
8.525
 20
-4.921911
 30
0.0
  0
POINT
  5
2CF
100
AcDbEntity
  8
DEFPOINTS
  6
BYBLOCK
 62
     0
100
AcDbPoint
 10
1.0
 20
9.0
 30
0.0
  0
POINT
  5
2D0
100
AcDbEntity
  8
DEFPOINTS
  6
BYBLOCK
 62
     0
100
AcDbPoint
 10
-14.058918
 20
9.0
 30
0.0
  0
ENDBLK
  5
2D1
100
AcDbEntity
  8
0
100
AcDbBlockEnd
  0
ENDSEC
  0
SECTION
  2
ENTITIES
  0
POINT
  5
24
100
AcDbEntity
  8
0
  6
CONTINUOUS
 62
     7
100
AcDbPoint
 10
0.0
 20
0.0
 30
0.0
  0
POINT
  5
25
100
AcDbEntity
  8
0
  6
CONTINUOUS
 62
     7
100
AcDbPoint
 10
-0.000002
 20
-57.34287
 30
0.0
  0
POINT
  5
26
100
AcDbEntity
  8
0
  6
CONTINUOUS
 62
     7
100
AcDbPoint
 10
80.0
 20
-67.34287
 30
0.0
  0
POINT
  5
27
100
AcDbEntity
  8
0
  6
CONTINUOUS
 62
     7
100
AcDbPoint
 10
-25.65521
 20
0.0
 30
0.0
  0
POINT
  5
28
100
AcDbEntity
  8
0
  6
CONTINUOUS
 62
     7
100
AcDbPoint
 10
-25.65521
 20
-4.975503
 30
0.0
  0
LINE
  5
29
100
AcDbEntity
  8
0
  6
CONTINUOUS
 62
     7
100
AcDbLine
 10
0.2
 20
0.57735
 30
0.0
 11
8.525001
 21
5.383791
 31
0.0
  0
LINE
  5
2A
100
AcDbEntity
  8
0
  6
CONTINUOUS
 62
     7
100
AcDbLine
 10
9.125
 20
5.437382
 30
0.0
 11
9.125
 21
-4.975501
 31
0.0
  0
LINE
  5
2B
100
AcDbEntity
  8
0
  6
CONTINUOUS
 62
     7
100
AcDbLine
 10
1.0
 20
9.0
 30
0.0
 11
42.0
 21
9.0
 31
0.0
  0
LINE
  5
2C
100
AcDbEntity
  8
0
  6
CONTINUOUS
 62
     7
100
AcDbLine
 10
42.0
 20
9.0
 30
0.0
 11
42.0
 21
-2.0
 31
0.0
  0
LINE
  5
2D
100
AcDbEntity
  8
0
  6
CONTINUOUS
 62
     7
100
AcDbLine
 10
15.0
 20
-2.0
 30
0.0
 11
42.0
 21
-2.0
 31
0.0
  0
LINE
  5
2E
100
AcDbEntity
  8
0
  6
CONTINUOUS
 62
     7
100
AcDbLine
 10
23.73205
 20
-1.0
 30
0.0
 11
25.930552
 21
-1.0
 31
0.0
  0
LINE
  5
2F
100
AcDbEntity
  8
0
  6
CONTINUOUS
 62
     7
100
AcDbLine
 10
8.143594
 20
8.0
 30
0.0
 11
42.0
 21
8.0
 31
0.0
  0
LINE
  5
30
100
AcDbEntity
  8
0
  6
CONTINUOUS
 62
     7
100
AcDbLine
 10
80.0
 20
-55.84287
 30
0.0
 11
80.0
 21
-67.34287
 31
0.0
  0
LINE
  5
31
100
AcDbEntity
  8
0
  6
CONTINUOUS
 62
     7
100
AcDbLine
 10
91.0
 20
-55.84287
 30
0.0
 11
91.0
 21
-67.273054
 31
0.0
  0
LINE
  5
32
100
AcDbEntity
  8
0
  6
CONTINUOUS
 62
     7
100
AcDbLine
 10
80.0
 20
-67.34287
 30
0.0
 11
83.0
 21
-67.34287
 31
0.0
  0
LINE
  5
33
100
AcDbEntity
  8
0
  6
CONTINUOUS
 62
     7
100
AcDbLine
 10
81.0
 20
-54.84287
 30
0.0
 11
90.0
 21
-54.84287
 31
0.0
  0
LINE
  5
34
100
AcDbEntity
  8
0
  6
CONTINUOUS
 62
     7
100
AcDbLine
 10
81.0
 20
-54.84287
 30
0.0
 11
80.0
 21
-55.842866
 31
0.0
  0
LINE
  5
35
100
AcDbEntity
  8
0
  6
CONTINUOUS
 62
     7
100
AcDbLine
 10
89.999992
 20
-54.842866
 30
0.0
 11
91.0
 21
-55.842866
 31
0.0
  0
LINE
  5
36
100
AcDbEntity
  8
0
  6
CENTER
 62
     1
100
AcDbLine
 10
75.489616
 20
-56.697553
 30
0.0
 11
95.16925
 21
-63.860353
 31
0.0
  0
LINE
  5
37
100
AcDbEntity
  8
0
  6
CONTINUOUS
 62
     7
100
AcDbLine
 10
87.691139
 20
-57.413919
 30
0.0
 11
91.0
 21
-58.618249
 31
0.0
  0
LINE
  5
38
100
AcDbEntity
  8
0
  6
CONTINUOUS
 62
     7
100
AcDbLine
 10
85.296997
 20
-63.991769
 30
0.0
 11
91.0
 21
-66.067491
 31
0.0
  0
LINE
  5
39
100
AcDbEntity
  8
0
  6
CONTINUOUS
 62
     7
100
AcDbLine
 10
80.0
 20
-63.92613
 30
0.0
 11
84.698463
 21
-65.636232
 31
0.0
  0
LINE
  5
3A
100
AcDbEntity
  8
0
  6
CONTINUOUS
 62
     7
100
AcDbLine
 10
85.743896
 20
-54.84287
 30
0.0
 11
88.289673
 21
-55.76946
 31
0.0
  0
LINE
  5
3B
100
AcDbEntity
  8
0
  6
CONTINUOUS
 62
     7
100
AcDbLine
 10
88.289673
 20
-55.76946
 30
0.0
 11
84.698463
 21
-65.636232
 31
0.0
  0
LINE
  5
3C
100
AcDbEntity
  8
0
  6
CONTINUOUS
 62
     7
100
AcDbLine
 10
25.615469
 20
3.743893
 30
0.0
 11
34.384529
 21
3.743893
 31
0.0
  0
LINE
  5
3D
100
AcDbEntity
  8
0
  6
CONTINUOUS
 62
     7
100
AcDbLine
 10
34.069447
 20
-1.0
 30
0.0
 11
42.0
 21
-1.0
 31
0.0
  0
LINE
  5
3E
100
AcDbEntity
  8
0
  6
CONTINUOUS
 62
     7
100
AcDbLine
 10
50.0
 20
-59.34287
 30
0.0
 11
50.0
 21
-63.34287
 31
0.0
  0
LINE
  5
3F
100
AcDbEntity
  8
0
  6
CONTINUOUS
 62
     7
100
AcDbLine
 10
45.0
 20
-57.34287
 30
0.0
 11
45.0
 21
-65.34287
 31
0.0
  0
LINE
  5
40
100
AcDbEntity
  8
0
  6
CONTINUOUS
 62
     7
100
AcDbLine
 10
47.500004
 20
-56.84287
 30
0.0
 11
50.000004
 21
-59.34287
 31
0.0
  0
LINE
  5
41
100
AcDbEntity
  8
0
  6
CONTINUOUS
 62
     7
100
AcDbLine
 10
47.5
 20
-65.84287
 30
0.0
 11
50.0
 21
-63.34287
 31
0.0
  0
LINE
  5
42
100
AcDbEntity
  8
0
  6
CONTINUOUS
 62
     7
100
AcDbLine
 10
45.5
 20
-65.84287
 30
0.0
 11
47.5
 21
-65.84287
 31
0.0
  0
LINE
  5
43
100
AcDbEntity
  8
0
  6
CONTINUOUS
 62
     7
100
AcDbLine
 10
45.5
 20
-56.84287
 30
0.0
 11
47.5
 21
-56.84287
 31
0.0
  0
LINE
  5
44
100
AcDbEntity
  8
0
  6
CONTINUOUS
 62
     7
100
AcDbLine
 10
45.499996
 20
-56.842874
 30
0.0
 11
45.0
 21
-57.34287
 31
0.0
  0
LINE
  5
45
100
AcDbEntity
  8
0
  6
CONTINUOUS
 62
     7
100
AcDbLine
 10
45.000008
 20
-65.34287
 30
0.0
 11
45.5
 21
-65.842866
 31
0.0
  0
LINE
  5
46
100
AcDbEntity
  8
0
  6
CONTINUOUS
 62
     7
100
AcDbLine
 10
45.5
 20
-56.84287
 30
0.0
 11
45.5
 21
-65.84287
 31
0.0
  0
LINE
  5
47
100
AcDbEntity
  8
0
  6
CONTINUOUS
 62
     7
100
AcDbLine
 10
47.5
 20
-56.84287
 30
0.0
 11
47.5
 21
-65.84287
 31
0.0
  0
LINE
  5
48
100
AcDbEntity
  8
0
  6
CONTINUOUS
 62
     7
100
AcDbLine
 10
50.0
 20
5.5
 30
0.0
 11
50.0
 21
1.5
 31
0.0
  0
LINE
  5
49
100
AcDbEntity
  8
0
  6
CENTER
 62
     1
100
AcDbLine
 10
39.097404
 20
3.5
 30
0.0
 11
51.930676
 21
3.5
 31
0.0
  0
LINE
  5
4A
100
AcDbEntity
  8
0
  6
CONTINUOUS
 62
     7
100
AcDbLine
 10
45.0
 20
7.5
 30
0.0
 11
45.0
 21
-0.5
 31
0.0
  0
LINE
  5
4B
100
AcDbEntity
  8
0
  6
CONTINUOUS
 62
     7
100
AcDbLine
 10
42.0
 20
1.0
 30
0.0
 11
45.0
 21
1.0
 31
0.0
  0
LINE
  5
4C
100
AcDbEntity
  8
0
  6
CONTINUOUS
 62
     7
100
AcDbLine
 10
42.0
 20
6.0
 30
0.0
 11
45.0
 21
6.0
 31
0.0
  0
LINE
  5
4D
100
AcDbEntity
  8
0
  6
CONTINUOUS
 62
     7
100
AcDbLine
 10
47.500004
 20
8.0
 30
0.0
 11
50.0
 21
5.500001
 31
0.0
  0
LINE
  5
4E
100
AcDbEntity
  8
0
  6
CONTINUOUS
 62
     7
100
AcDbLine
 10
47.5
 20
-1.0
 30
0.0
 11
50.0
 21
1.5
 31
0.0
  0
LINE
  5
4F
100
AcDbEntity
  8
0
  6
CONTINUOUS
 62
     7
100
AcDbLine
 10
45.5
 20
-1.0
 30
0.0
 11
47.5
 21
-1.0
 31
0.0
  0
LINE
  5
50
100
AcDbEntity
  8
0
  6
CONTINUOUS
 62
     7
100
AcDbLine
 10
45.5
 20
8.0
 30
0.0
 11
47.5
 21
8.0
 31
0.0
  0
LINE
  5
51
100
AcDbEntity
  8
0
  6
CONTINUOUS
 62
     7
100
AcDbLine
 10
45.5
 20
7.999997
 30
0.0
 11
45.000004
 21
7.499999
 31
0.0
  0
LINE
  5
52
100
AcDbEntity
  8
0
  6
CONTINUOUS
 62
     7
100
AcDbLine
 10
45.000004
 20
-0.499996
 30
0.0
 11
45.500004
 21
-0.999997
 31
0.0
  0
LINE
  5
53
100
AcDbEntity
  8
0
  6
CONTINUOUS
 62
     7
100
AcDbLine
 10
45.5
 20
8.0
 30
0.0
 11
45.5
 21
-1.000001
 31
0.0
  0
LINE
  5
54
100
AcDbEntity
  8
0
  6
CONTINUOUS
 62
     7
100
AcDbLine
 10
47.5
 20
8.0
 30
0.0
 11
47.5
 21
-1.0
 31
0.0
  0
LINE
  5
55
100
AcDbEntity
  8
0
  6
CONTINUOUS
 62
     7
100
AcDbLine
 10
42.0
 20
1.5
 30
0.0
 11
45.0
 21
1.5
 31
0.0
  0
LINE
  5
56
100
AcDbEntity
  8
0
  6
CONTINUOUS
 62
     7
100
AcDbLine
 10
42.0
 20
5.5
 30
0.0
 11
45.0
 21
5.5
 31
0.0
  0
LINE
  5
57
100
AcDbEntity
  8
0
  6
CONTINUOUS
 62
     7
100
AcDbLine
 10
5.125
 20
3.4208
 30
0.0
 11
5.125
 21
5.730202
 31
0.0
  0
LINE
  5
58
100
AcDbEntity
  8
0
  6
CONTINUOUS
 62
     7
100
AcDbLine
 10
8.617821
 20
-4.975501
 30
0.0
 11
0.2
 21
-0.11547
 31
0.0
  0
LINE
  5
59
100
AcDbEntity
  8
0
  6
CONTINUOUS
 62
     7
100
AcDbLine
 10
23.73205
 20
-1.0
 30
0.0
 11
8.143594
 21
8.0
 31
0.0
  0
LINE
  5
5A
100
AcDbEntity
  8
0
  6
CONTINUOUS
 62
     7
100
AcDbLine
 10
23.73205
 20
-1.0
 30
0.0
 11
15.0
 21
-2.0
 31
0.0
  0
LINE
  5
5B
100
AcDbEntity
  8
0
  6
CONTINUOUS
 62
     7
100
AcDbLine
 10
9.125
 20
-4.0
 30
0.0
 11
13.8453
 21
-4.0
 31
0.0
  0
LINE
  5
5C
100
AcDbEntity
  8
0
  6
CONTINUOUS
 62
     7
100
AcDbLine
 10
1.0
 20
9.0
 30
0.0
 11
1.0
 21
1.039231
 31
0.0
  0
LINE
  5
5D
100
AcDbEntity
  8
0
  6
CONTINUOUS
 62
     7
100
AcDbLine
 10
8.143594
 20
8.0
 30
0.0
 11
1.0
 21
9.0
 31
0.0
  0
LINE
  5
5E
100
AcDbEntity
  8
0
  6
CONTINUOUS
 62
     7
100
AcDbLine
 10
15.0
 20
-2.0
 30
0.0
 11
13.8453
 21
-4.0
 31
0.0
  0
LINE
  5
5F
100
AcDbEntity
  8
0
  6
CONTINUOUS
 62
     7
100
AcDbLine
 10
42.0
 20
-54.84287
 30
0.0
 11
42.0
 21
-67.34287
 31
0.0
  0
LINE
  5
60
100
AcDbEntity
  8
0
  6
CONTINUOUS
 62
     7
100
AcDbLine
 10
8.143594
 20
-54.84287
 30
0.0
 11
42.0
 21
-54.84287
 31
0.0
  0
LINE
  5
61
100
AcDbEntity
  8
0
  6
CONTINUOUS
 62
     7
100
AcDbLine
 10
15.0
 20
-55.84287
 30
0.0
 11
24.959396
 21
-55.84287
 31
0.0
  0
LINE
  5
62
100
AcDbEntity
  8
0
  6
CONTINUOUS
 62
     7
100
AcDbLine
 10
2.266028
 20
-67.34287
 30
0.0
 11
42.0
 21
-67.34287
 31
0.0
  0
LINE
  5
63
100
AcDbEntity
  8
0
  6
CENTER
 62
     1
100
AcDbLine
 10
14.5
 20
-62.34287
 30
0.0
 11
9.5
 21
-62.34287
 31
0.0
  0
LINE
  5
64
100
AcDbEntity
  8
0
  6
CENTER
 62
     1
100
AcDbLine
 10
12.0
 20
-59.84287
 30
0.0
 11
12.0
 21
-64.84287
 31
0.0
  0
LINE
  5
65
100
AcDbEntity
  8
0
  6
CONTINUOUS
 62
     7
100
AcDbLine
 10
29.0
 20
-57.413919
 30
0.0
 11
31.0
 21
-57.413919
 31
0.0
  0
LINE
  5
66
100
AcDbEntity
  8
0
  6
CONTINUOUS
 62
     7
100
AcDbLine
 10
35.040546
 20
-55.84287
 30
0.0
 11
42.0
 21
-55.84287
 31
0.0
  0
LINE
  5
67
100
AcDbEntity
  8
0
  6
CONTINUOUS
 62
     7
100
AcDbLine
 10
29.0
 20
-58.618246
 30
0.0
 11
31.0
 21
-58.618246
 31
0.0
  0
LINE
  5
68
100
AcDbEntity
  8
0
  6
CENTER
 62
     1
100
AcDbLine
 10
39.097404
 20
-61.34287
 30
0.0
 11
51.930676
 21
-61.34287
 31
0.0
  0
LINE
  5
69
100
AcDbEntity
  8
0
  6
CONTINUOUS
 62
     7
100
AcDbLine
 10
42.0
 20
-63.84287
 30
0.0
 11
45.0
 21
-63.84287
 31
0.0
  0
LINE
  5
6A
100
AcDbEntity
  8
0
  6
CONTINUOUS
 62
     7
100
AcDbLine
 10
42.0
 20
-58.84287
 30
0.0
 11
45.0
 21
-58.84287
 31
0.0
  0
LINE
  5
6B
100
AcDbEntity
  8
0
  6
CONTINUOUS
 62
     7
100
AcDbLine
 10
42.0
 20
-63.34287
 30
0.0
 11
45.0
 21
-63.34287
 31
0.0
  0
LINE
  5
6C
100
AcDbEntity
  8
0
  6
CONTINUOUS
 62
     7
100
AcDbLine
 10
42.0
 20
-59.34287
 30
0.0
 11
45.0
 21
-59.34287
 31
0.0
  0
LINE
  5
6D
100
AcDbEntity
  8
0
  6
CONTINUOUS
 62
     7
100
AcDbLine
 10
16.999962
 20
-55.84287
 30
0.0
 11
23.73205
 21
-54.84287
 31
0.0
  0
LINE
  5
6E
100
AcDbEntity
  8
0
  6
CONTINUOUS
 62
     7
100
AcDbLine
 10
1.0
 20
-56.539155
 30
0.0
 11
1.0
 21
-57.141653
 31
0.0
  0
LINE
  5
6F
100
AcDbEntity
  8
0
  6
CONTINUOUS
 62
     7
100
AcDbLine
 10
8.186386
 20
-60.122873
 30
0.0
 11
9.459466
 21
-67.342866
 31
0.0
  0
LINE
  5
70
100
AcDbEntity
  8
0
  6
CONTINUOUS
 62
     7
100
AcDbLine
 10
0.992947
 20
-60.122869
 30
0.0
 11
2.266028
 21
-67.34287
 31
0.0
  0
LINE
  5
71
100
AcDbEntity
  8
0
  6
CONTINUOUS
 62
     7
100
AcDbLine
 10
1.0
 20
-56.539155
 30
0.0
 11
8.143593
 21
-54.84287
 31
0.0
  0
LINE
  5
72
100
AcDbEntity
  8
0
  6
CONTINUOUS
 62
     7
100
AcDbLine
 10
13.8453
 20
-56.526403
 30
0.0
 11
9.125
 21
-56.818399
 31
0.0
  0
LINE
  5
73
100
AcDbEntity
  8
0
  6
CONTINUOUS
 62
     7
100
AcDbLine
 10
1.384393
 20
-62.34287
 30
0.0
 11
10.0
 21
-62.34287
 31
0.0
  0
LINE
  5
74
100
AcDbEntity
  8
0
  6
CONTINUOUS
 62
     7
100
AcDbLine
 10
83.0
 20
-67.34287
 30
0.0
 11
91.0
 21
-67.273057
 31
0.0
  0
LINE
  5
75
100
AcDbEntity
  8
0
  6
CONTINUOUS
 62
     7
100
AcDbLine
 10
13.8453
 20
-56.526403
 30
0.0
 11
13.8453
 21
-61.571592
 31
0.0
  0
LINE
  5
76
100
AcDbEntity
  8
0
  6
CONTINUOUS
 62
     7
100
AcDbLine
 10
15.0
 20
-55.84287
 30
0.0
 11
15.0
 21
-67.34287
 31
0.0
  0
LINE
  5
77
100
AcDbEntity
  8
0
  6
CONTINUOUS
 62
     7
100
AcDbLine
 10
13.8453
 20
-56.526403
 30
0.0
 11
15.0
 21
-55.84287
 31
0.0
  0
LINE
  5
78
100
AcDbEntity
  8
0
  6
CONTINUOUS
 62
     7
100
AcDbLine
 10
15.0
 20
-67.34287
 30
0.0
 11
13.94897
 21
-62.791776
 31
0.0
  0
LINE
  5
79
100
AcDbEntity
  8
0
  6
CONTINUOUS
 62
     7
100
AcDbLine
 10
9.125
 20
-55.506769
 30
0.0
 11
9.125
 21
-60.122873
 31
0.0
  0
LINE
  5
7A
100
AcDbEntity
  8
0
  6
CONTINUOUS
 62
     7
100
AcDbLine
 10
-0.000002
 20
-57.34287
 30
0.0
 11
9.125
 21
-57.34287
 31
0.0
  0
LINE
  5
7B
100
AcDbEntity
  8
0
  6
CONTINUOUS
 62
     7
100
AcDbLine
 10
0.097078
 20
-60.122873
 30
0.0
 11
9.125
 21
-60.122873
 31
0.0
  0
LINE
  5
7C
100
AcDbEntity
  8
0
  6
CENTER
 62
     1
100
AcDbLine
 10
9.905
 20
0.066395
 30
0.0
 11
2.565
 21
0.066395
 31
0.0
  0
LINE
  5
7D
100
AcDbEntity
  8
0
  6
CENTER
 62
     1
100
AcDbLine
 10
6.235
 20
3.736395
 30
0.0
 11
6.235
 21
-3.603605
 31
0.0
  0
LINE
  5
7E
100
AcDbEntity
  8
0
  6
CENTER
 62
     1
100
AcDbLine
 10
31.0
 20
5.992163
 30
0.0
 11
31.0
 21
-4.637965
 31
0.0
  0
LINE
  5
7F
100
AcDbEntity
  8
0
  6
CENTER
 62
     1
100
AcDbLine
 10
29.0
 20
5.992163
 30
0.0
 11
29.0
 21
-4.334246
 31
0.0
  0
LINE
  5
80
100
AcDbEntity
  8
0
  6
CONTINUOUS
 62
     7
100
AcDbLine
 10
29.0
 20
-63.92613
 30
0.0
 11
31.0
 21
-63.92613
 31
0.0
  0
LINE
  5
81
100
AcDbEntity
  8
0
  6
CONTINUOUS
 62
     7
100
AcDbLine
 10
29.0
 20
-55.76946
 30
0.0
 11
31.0
 21
-55.76946
 31
0.0
  0
LINE
  5
82
100
AcDbEntity
  8
0
  6
CONTINUOUS
 62
     7
100
AcDbLine
 10
-34.655209
 20
9.0
 30
0.0
 11
-24.155209
 21
9.0
 31
0.0
  0
LINE
  5
83
100
AcDbEntity
  8
0
  6
CONTINUOUS
 62
     7
100
AcDbLine
 10
-23.155209
 20
8.0
 30
0.0
 11
-23.155209
 21
-1.0
 31
0.0
  0
LINE
  5
84
100
AcDbEntity
  8
0
  6
CONTINUOUS
 62
     7
100
AcDbLine
 10
-35.655209
 20
8.0
 30
0.0
 11
-35.655209
 21
-2.180149
 31
0.0
  0
LINE
  5
85
100
AcDbEntity
  8
0
  6
CONTINUOUS
 62
     7
100
AcDbLine
 10
-34.655209
 20
8.999999
 30
0.0
 11
-35.655209
 21
7.999999
 31
0.0
  0
LINE
  5
86
100
AcDbEntity
  8
0
  6
CONTINUOUS
 62
     7
100
AcDbLine
 10
-24.155209
 20
9.0
 30
0.0
 11
-23.15521
 21
8.0
 31
0.0
  0
LINE
  5
87
100
AcDbEntity
  8
0
  6
CONTINUOUS
 62
     7
100
AcDbLine
 10
-25.483202
 20
-4.0
 30
0.0
 11
-24.851494
 21
-4.0
 31
0.0
  0
LINE
  5
88
100
AcDbEntity
  8
0
  6
CONTINUOUS
 62
     7
100
AcDbLine
 10
-24.15521
 20
-2.000001
 30
0.0
 11
-23.15521
 21
-1.000001
 31
0.0
  0
LINE
  5
89
100
AcDbEntity
  8
0
  6
CONTINUOUS
 62
     7
100
AcDbLine
 10
-24.15521
 20
-2.0
 30
0.0
 11
-24.851496
 21
-4.0
 31
0.0
  0
LINE
  5
8A
100
AcDbEntity
  8
0
  6
CONTINUOUS
 62
     7
100
AcDbLine
 10
-28.331043
 20
9.0
 30
0.0
 11
-28.331043
 21
0.526321
 31
0.0
  0
LINE
  5
8B
100
AcDbEntity
  8
0
  6
CONTINUOUS
 62
     7
100
AcDbLine
 10
-25.716728
 20
1.040198
 30
0.0
 11
-24.15521
 21
9.0
 31
0.0
  0
LINE
  5
8C
100
AcDbEntity
  8
0
  6
CONTINUOUS
 62
     7
100
AcDbLine
 10
-30.65521
 20
-4.0
 30
0.0
 11
-28.435209
 21
-4.0
 31
0.0
  0
LINE
  5
8D
100
AcDbEntity
  8
0
  6
CONTINUOUS
 62
     7
100
AcDbLine
 10
-35.655209
 20
1.230061
 30
0.0
 11
-28.435209
 21
-0.04302
 31
0.0
  0
LINE
  5
8E
100
AcDbEntity
  8
0
  6
CONTINUOUS
 62
     7
100
AcDbLine
 10
-25.65521
 20
-4.975501
 30
0.0
 11
-23.819138
 21
5.437382
 31
0.0
  0
LINE
  5
8F
100
AcDbEntity
  8
0
  6
CONTINUOUS
 62
     7
100
AcDbLine
 10
-24.854109
 20
5.437382
 30
0.0
 11
-23.819138
 21
5.437382
 31
0.0
  0
LINE
  5
90
100
AcDbEntity
  8
0
  6
CONTINUOUS
 62
     7
100
AcDbLine
 10
-28.131025
 20
1.093501
 30
0.0
 11
-25.716564
 21
1.041037
 31
0.0
  0
LINE
  5
91
100
AcDbEntity
  8
0
  6
CONTINUOUS
 62
     7
100
AcDbLine
 10
-35.655209
 20
-2.180149
 30
0.0
 11
-30.65521
 21
-4.0
 31
0.0
  0
LINE
  5
92
100
AcDbEntity
  8
0
  6
CONTINUOUS
 62
     7
100
AcDbLine
 10
-28.435209
 20
0.230941
 30
0.0
 11
-25.65521
 21
0.230941
 31
0.0
  0
LINE
  5
93
100
AcDbEntity
  8
0
  6
CONTINUOUS
 62
     7
100
AcDbLine
 10
-25.65521
 20
0.230941
 30
0.0
 11
-25.65521
 21
-4.975501
 31
0.0
  0
LINE
  5
94
100
AcDbEntity
  8
0
  6
CONTINUOUS
 62
     7
100
AcDbLine
 10
-28.435209
 20
0.230941
 30
0.0
 11
-28.435209
 21
-4.873676
 31
0.0
  0
LINE
  5
95
100
AcDbEntity
  8
0
  6
CONTINUOUS
 62
     7
100
AcDbLine
 10
-0.000002
 20
-57.34287
 30
0.0
 11
9.125
 21
-55.506769
 31
0.0
  0
LINE
  5
96
100
AcDbEntity
  8
0
  6
CONTINUOUS
 62
     7
100
AcDbLine
 10
-25.65521
 20
0.230941
 30
0.0
 11
-23.819138
 21
5.437388
 31
0.0
  0
LINE
  5
97
100
AcDbEntity
  8
0
  6
CONTINUOUS
 62
     7
100
AcDbLine
 10
-28.435209
 20
0.230941
 30
0.0
 11
-28.131025
 21
1.093501
 31
0.0
  0
LINE
  5
98
100
AcDbEntity
  8
0
  6
CONTINUOUS
 62
     7
100
AcDbLine
 10
0.097078
 20
-60.122873
 30
0.0
 11
-0.000002
 21
-57.34287
 31
0.0
  0
LINE
  5
99
100
AcDbEntity
  8
0
  6
CENTER
 62
     1
100
AcDbLine
 10
29.0
 20
-51.805694
 30
0.0
 11
29.0
 21
-69.868555
 31
0.0
  0
LINE
  5
9A
100
AcDbEntity
  8
0
  6
CENTER
 62
     1
100
AcDbLine
 10
31.0
 20
-51.805694
 30
0.0
 11
31.0
 21
-69.868555
 31
0.0
  0
LINE
  5
9B
100
AcDbEntity
  8
0
  6
CONTINUOUS
 62
     7
100
AcDbLine
 10
0.0
 20
0.23094
 30
0.0
 11
0.0
 21
0.0
 31
0.0
  0
LINE
  5
9C
100
AcDbEntity
  8
0
  6
CONTINUOUS
 62
     7
100
AcDbLine
 10
0.0
 20
0.0
 30
0.0
 11
0.2
 21
-0.11547
 31
0.0
  0
LINE
  5
9D
100
AcDbEntity
  8
0
  6
CONTINUOUS
 62
     7
100
AcDbLine
 10
-28.435209
 20
-4.873677
 30
0.0
 11
-25.65521
 21
-4.975503
 31
0.0
  0
ARC
  5
9E
100
AcDbEntity
  8
0
  6
CONTINUOUS
 62
     7
100
AcDbCircle
 10
0.4
 20
0.23094
 30
0.0
 40
0.4
100
AcDbArc
 50
120.0
 51
240.00001
  0
ARC
  5
9F
100
AcDbEntity
  8
0
  6
CONTINUOUS
 62
     7
100
AcDbCircle
 10
8.725
 20
5.037382
 30
0.0
 40
0.4
100
AcDbArc
 50
0.000001
 51
120.0
  0
ARC
  5
A0
100
AcDbEntity
  8
0
  6
CONTINUOUS
 62
     7
100
AcDbCircle
 10
8.725
 20
-4.575501
 30
0.0
 40
0.4
100
AcDbArc
 50
240.0
 51
0.000001
  0
ARC
  5
A1
100
AcDbEntity
  8
0
  6
CONTINUOUS
 62
     7
100
AcDbCircle
 10
34.384529
 20
1.858373
 30
0.0
 40
1.88552
100
AcDbArc
 50
317.17713
 51
89.999982
  0
ARC
  5
A2
100
AcDbEntity
  8
0
  6
CONTINUOUS
 62
     7
100
AcDbCircle
 10
25.615469
 20
1.858373
 30
0.0
 40
1.88552
100
AcDbArc
 50
89.999982
 51
222.82283
  0
ARC
  5
A3
100
AcDbEntity
  8
0
  6
CONTINUOUS
 62
     7
100
AcDbCircle
 10
29.433601
 20
4.475276
 30
0.0
 40
6.5
100
AcDbArc
 50
211.99858
 51
265.00101
  0
ARC
  5
A4
100
AcDbEntity
  8
0
  6
CONTINUOUS
 62
     7
100
AcDbCircle
 10
30.566399
 20
4.475276
 30
0.0
 40
6.5
100
AcDbArc
 50
274.99899
 51
328.00129
  0
ARC
  5
A5
100
AcDbEntity
  8
0
  6
CONTINUOUS
 62
     7
100
AcDbCircle
 10
30.0
 20
12.415537
 30
0.0
 40
9.717073
100
AcDbArc
 50
243.17807
 51
296.82193
  0
ARC
  5
A6
100
AcDbEntity
  8
0
  6
CONTINUOUS
 62
     7
100
AcDbCircle
 10
7.125
 20
5.437382
 30
0.0
 40
2.0
100
AcDbArc
 50
0.0
 51
180.00001
  0
CIRCLE
  5
A7
100
AcDbEntity
  8
0
  6
CONTINUOUS
 62
     7
100
AcDbCircle
 10
12.0
 20
-62.34287
 30
0.0
 40
2.0
  0
CIRCLE
  5
A8
100
AcDbEntity
  8
0
  6
CONTINUOUS
 62
     7
100
AcDbCircle
 10
12.0
 20
-62.34287
 30
0.0
 40
1.65
  0
CIRCLE
  5
A9
100
AcDbEntity
  8
0
  6
CONTINUOUS
 62
     7
100
AcDbCircle
 10
6.235
 20
0.066395
 30
0.0
 40
1.38
  0
POLYLINE
  5
AA
100
AcDbEntity
  8
0
  6
CONTINUOUS
 62
     7
100
AcDb2dPolyline
 66
     1
 10
0.0
 20
0.0
 30
0.0
  0
VERTEX
  5
AB
100
AcDbEntity
  8
0
  6
CONTINUOUS
 62
     7
100
AcDbVertex
100
AcDb2dVertex
 10
26.161378
 20
-54.842672
 30
0.0
 42
0.038903
  0
VERTEX
  5
AC
100
AcDbEntity
  8
0
  6
CONTINUOUS
 62
     7
100
AcDbVertex
100
AcDb2dVertex
 10
25.500222
 20
-55.31543
 30
0.0
 42
0.040063
  0
VERTEX
  5
AD
100
AcDbEntity
  8
0
  6
CONTINUOUS
 62
     7
100
AcDbVertex
100
AcDb2dVertex
 10
24.921483
 20
-55.886325
 30
0.0
 42
0.041272
  0
VERTEX
  5
AE
100
AcDbEntity
  8
0
  6
CONTINUOUS
 62
     7
100
AcDbVertex
100
AcDb2dVertex
 10
24.442718
 20
-56.543466
 30
0.0
 42
0.042396
  0
VERTEX
  5
AF
100
AcDbEntity
  8
0
  6
CONTINUOUS
 62
     7
100
AcDbVertex
100
AcDb2dVertex
 10
24.080033
 20
-57.271177
 30
0.0
 42
0.043283
  0
VERTEX
  5
B0
100
AcDbEntity
  8
0
  6
CONTINUOUS
 62
     7
100
AcDbVertex
100
AcDb2dVertex
 10
23.846754
 20
-58.049976
 30
0.0
 42
0.043798
  0
VERTEX
  5
B1
100
AcDbEntity
  8
0
  6
CONTINUOUS
 62
     7
100
AcDbVertex
100
AcDb2dVertex
 10
23.751983
 20
-58.857157
 30
0.0
 42
0.043827
  0
VERTEX
  5
B2
100
AcDbEntity
  8
0
  6
CONTINUOUS
 62
     7
100
AcDbVertex
100
AcDb2dVertex
 10
23.799351
 20
-59.667594
 30
0.0
 42
0.043473
  0
VERTEX
  5
B3
100
AcDbEntity
  8
0
  6
CONTINUOUS
 62
     7
100
AcDbVertex
100
AcDb2dVertex
 10
23.986911
 20
-60.458014
 30
0.0
 42
0.042669
  0
VERTEX
  5
B4
100
AcDbEntity
  8
0
  6
CONTINUOUS
 62
     7
100
AcDbVertex
100
AcDb2dVertex
 10
24.307023
 20
-61.204212
 30
0.0
 42
0.041646
  0
VERTEX
  5
B5
100
AcDbEntity
  8
0
  6
CONTINUOUS
 62
     7
100
AcDbVertex
100
AcDb2dVertex
 10
24.748172
 20
-61.886703
 30
0.0
 42
0.040455
  0
VERTEX
  5
B6
100
AcDbEntity
  8
0
  6
CONTINUOUS
 62
     7
100
AcDbVertex
100
AcDb2dVertex
 10
25.294904
 20
-62.487942
 30
0.0
 42
0.039278
  0
VERTEX
  5
B7
100
AcDbEntity
  8
0
  6
CONTINUOUS
 62
     7
100
AcDbVertex
100
AcDb2dVertex
 10
25.930203
 20
-62.994869
 30
0.0
 42
0.038226
  0
VERTEX
  5
B8
100
AcDbEntity
  8
0
  6
CONTINUOUS
 62
     7
100
AcDbVertex
100
AcDb2dVertex
 10
26.636246
 20
-63.397805
 30
0.0
 42
0.037377
  0
VERTEX
  5
B9
100
AcDbEntity
  8
0
  6
CONTINUOUS
 62
     7
100
AcDbVertex
100
AcDb2dVertex
 10
27.395031
 20
-63.689945
 30
0.0
 42
0.036783
  0
VERTEX
  5
BA
100
AcDbEntity
  8
0
  6
CONTINUOUS
 62
     7
100
AcDbVertex
100
AcDb2dVertex
 10
28.188675
 20
-63.866864
 30
0.0
 42
0.036495
  0
VERTEX
  5
BB
100
AcDbEntity
  8
0
  6
CONTINUOUS
 62
     7
100
AcDbVertex
100
AcDb2dVertex
 10
29.0
 20
-63.92613
 30
0.0
  0
SEQEND
  5
BC
100
AcDbEntity
  8
0
 62
     7
  0
POLYLINE
  5
BD
100
AcDbEntity
  8
0
  6
CONTINUOUS
 62
     7
100
AcDb2dPolyline
 66
     1
 10
0.0
 20
0.0
 30
0.0
  0
VERTEX
  5
BE
100
AcDbEntity
  8
0
  6
CONTINUOUS
 62
     7
100
AcDbVertex
100
AcDb2dVertex
 10
31.0
 20
-63.92613
 30
0.0
 42
0.036456
  0
VERTEX
  5
BF
100
AcDbEntity
  8
0
  6
CONTINUOUS
 62
     7
100
AcDbVertex
100
AcDb2dVertex
 10
31.810477
 20
-63.866989
 30
0.0
 42
0.036776
  0
VERTEX
  5
C0
100
AcDbEntity
  8
0
  6
CONTINUOUS
 62
     7
100
AcDbVertex
100
AcDb2dVertex
 10
32.604
 20
-63.690237
 30
0.0
 42
0.037365
  0
VERTEX
  5
C1
100
AcDbEntity
  8
0
  6
CONTINUOUS
 62
     7
100
AcDbVertex
100
AcDb2dVertex
 10
33.362623
 20
-63.398341
 30
0.0
 42
0.03822
  0
VERTEX
  5
C2
100
AcDbEntity
  8
0
  6
CONTINUOUS
 62
     7
100
AcDbVertex
100
AcDb2dVertex
 10
34.068695
 20
-62.995616
 30
0.0
 42
0.039286
  0
VERTEX
  5
C3
100
AcDbEntity
  8
0
  6
CONTINUOUS
 62
     7
100
AcDbVertex
100
AcDb2dVertex
 10
34.704276
 20
-62.488709
 30
0.0
 42
0.040477
  0
VERTEX
  5
C4
100
AcDbEntity
  8
0
  6
CONTINUOUS
 62
     7
100
AcDbVertex
100
AcDb2dVertex
 10
35.251422
 20
-61.887229
 30
0.0
 42
0.041674
  0
VERTEX
  5
C5
100
AcDbEntity
  8
0
  6
CONTINUOUS
 62
     7
100
AcDbVertex
100
AcDb2dVertex
 10
35.692925
 20
-61.20431
 30
0.0
 42
0.042735
  0
VERTEX
  5
C6
100
AcDbEntity
  8
0
  6
CONTINUOUS
 62
     7
100
AcDbVertex
100
AcDb2dVertex
 10
36.013444
 20
-60.456942
 30
0.0
 42
0.043511
  0
VERTEX
  5
C7
100
AcDbEntity
  8
0
  6
CONTINUOUS
 62
     7
100
AcDbVertex
100
AcDb2dVertex
 10
36.200912
 20
-59.6658
 30
0.0
 42
0.043866
  0
VERTEX
  5
C8
100
AcDbEntity
  8
0
  6
CONTINUOUS
 62
     7
100
AcDbVertex
100
AcDb2dVertex
 10
36.247943
 20
-58.854643
 30
0.0
 42
0.043762
  0
VERTEX
  5
C9
100
AcDbEntity
  8
0
  6
CONTINUOUS
 62
     7
100
AcDbVertex
100
AcDb2dVertex
 10
36.152867
 20
-58.048149
 30
0.0
 42
0.043226
  0
VERTEX
  5
CA
100
AcDbEntity
  8
0
  6
CONTINUOUS
 62
     7
100
AcDbVertex
100
AcDb2dVertex
 10
35.919668
 20
-57.270422
 30
0.0
 42
0.042365
  0
VERTEX
  5
CB
100
AcDbEntity
  8
0
  6
CONTINUOUS
 62
     7
100
AcDbVertex
100
AcDb2dVertex
 10
35.557158
 20
-56.543262
 30
0.0
 42
0.041258
  0
VERTEX
  5
CC
100
AcDbEntity
  8
0
  6
CONTINUOUS
 62
     7
100
AcDbVertex
100
AcDb2dVertex
 10
35.078537
 20
-55.886348
 30
0.0
 42
0.040057
  0
VERTEX
  5
CD
100
AcDbEntity
  8
0
  6
CONTINUOUS
 62
     7
100
AcDbVertex
100
AcDb2dVertex
 10
34.499896
 20
-55.315529
 30
0.0
 42
0.038911
  0
VERTEX
  5
CE
100
AcDbEntity
  8
0
  6
CONTINUOUS
 62
     7
100
AcDbVertex
100
AcDb2dVertex
 10
33.83862
 20
-54.842671
 30
0.0
  0
SEQEND
  5
CF
100
AcDbEntity
  8
0
 62
     7
  0
POLYLINE
  5
D0
100
AcDbEntity
  8
0
  6
CONTINUOUS
 62
     7
100
AcDb2dPolyline
 66
     1
 10
0.0
 20
0.0
 30
0.0
  0
VERTEX
  5
D1
100
AcDbEntity
  8
0
  6
CONTINUOUS
 62
     7
100
AcDbVertex
100
AcDb2dVertex
 10
36.170675
 20
-59.848487
 30
0.0
 42
0.023795
  0
VERTEX
  5
D2
100
AcDbEntity
  8
0
  6
CONTINUOUS
 62
     7
100
AcDbVertex
100
AcDb2dVertex
 10
36.068052
 20
-59.415311
 30
0.0
 42
0.023583
  0
VERTEX
  5
D3
100
AcDbEntity
  8
0
  6
CONTINUOUS
 62
     7
100
AcDbVertex
100
AcDb2dVertex
 10
35.924911
 20
-58.993804
 30
0.0
 42
0.02335
  0
VERTEX
  5
D4
100
AcDbEntity
  8
0
  6
CONTINUOUS
 62
     7
100
AcDbVertex
100
AcDb2dVertex
 10
35.742637
 20
-58.586992
 30
0.0
 42
0.023053
  0
VERTEX
  5
D5
100
AcDbEntity
  8
0
  6
CONTINUOUS
 62
     7
100
AcDbVertex
100
AcDb2dVertex
 10
35.523311
 20
-58.198576
 30
0.0
 42
0.022732
  0
VERTEX
  5
D6
100
AcDbEntity
  8
0
  6
CONTINUOUS
 62
     7
100
AcDbVertex
100
AcDb2dVertex
 10
35.269163
 20
-57.831511
 30
0.0
 42
0.022354
  0
VERTEX
  5
D7
100
AcDbEntity
  8
0
  6
CONTINUOUS
 62
     7
100
AcDbVertex
100
AcDb2dVertex
 10
34.983238
 20
-57.489108
 30
0.0
 42
0.021992
  0
VERTEX
  5
D8
100
AcDbEntity
  8
0
  6
CONTINUOUS
 62
     7
100
AcDbVertex
100
AcDb2dVertex
 10
34.66811
 20
-57.173368
 30
0.0
 42
0.021637
  0
VERTEX
  5
D9
100
AcDbEntity
  8
0
  6
CONTINUOUS
 62
     7
100
AcDbVertex
100
AcDb2dVertex
 10
34.326658
 20
-56.886276
 30
0.0
 42
0.021301
  0
VERTEX
  5
DA
100
AcDbEntity
  8
0
  6
CONTINUOUS
 62
     7
100
AcDbVertex
100
AcDb2dVertex
 10
33.961826
 20
-56.62951
 30
0.0
 42
0.020992
  0
VERTEX
  5
DB
100
AcDbEntity
  8
0
  6
CONTINUOUS
 62
     7
100
AcDbVertex
100
AcDb2dVertex
 10
33.576587
 20
-56.404464
 30
0.0
 42
0.020716
  0
VERTEX
  5
DC
100
AcDbEntity
  8
0
  6
CONTINUOUS
 62
     7
100
AcDbVertex
100
AcDb2dVertex
 10
33.173918
 20
-56.212277
 30
0.0
 42
0.020478
  0
VERTEX
  5
DD
100
AcDbEntity
  8
0
  6
CONTINUOUS
 62
     7
100
AcDbVertex
100
AcDb2dVertex
 10
32.756781
 20
-56.053863
 30
0.0
 42
0.020283
  0
VERTEX
  5
DE
100
AcDbEntity
  8
0
  6
CONTINUOUS
 62
     7
100
AcDbVertex
100
AcDb2dVertex
 10
32.328121
 20
-55.92993
 30
0.0
 42
0.020134
  0
VERTEX
  5
DF
100
AcDbEntity
  8
0
  6
CONTINUOUS
 62
     7
100
AcDbVertex
100
AcDb2dVertex
 10
31.890855
 20
-55.841004
 30
0.0
 42
0.020032
  0
VERTEX
  5
E0
100
AcDbEntity
  8
0
  6
CONTINUOUS
 62
     7
100
AcDbVertex
100
AcDb2dVertex
 10
31.447885
 20
-55.787446
 30
0.0
 42
0.01998
  0
VERTEX
  5
E1
100
AcDbEntity
  8
0
  6
CONTINUOUS
 62
     7
100
AcDbVertex
100
AcDb2dVertex
 10
31.002078
 20
-55.769461
 30
0.0
  0
SEQEND
  5
E2
100
AcDbEntity
  8
0
 62
     7
  0
POLYLINE
  5
E3
100
AcDbEntity
  8
0
  6
CONTINUOUS
 62
     7
100
AcDb2dPolyline
 66
     1
 10
0.0
 20
0.0
 30
0.0
  0
VERTEX
  5
E4
100
AcDbEntity
  8
0
  6
CONTINUOUS
 62
     7
100
AcDbVertex
100
AcDb2dVertex
 10
29.0
 20
-55.76946
 30
0.0
 42
0.019916
  0
VERTEX
  5
E5
100
AcDbEntity
  8
0
  6
CONTINUOUS
 62
     7
100
AcDbVertex
100
AcDb2dVertex
 10
28.555614
 20
-55.787165
 30
0.0
 42
0.020009
  0
VERTEX
  5
E6
100
AcDbEntity
  8
0
  6
CONTINUOUS
 62
     7
100
AcDbVertex
100
AcDb2dVertex
 10
28.113098
 20
-55.840366
 30
0.0
 42
0.0201
  0
VERTEX
  5
E7
100
AcDbEntity
  8
0
  6
CONTINUOUS
 62
     7
100
AcDbVertex
100
AcDb2dVertex
 10
27.676475
 20
-55.928802
 30
0.0
 42
0.020274
  0
VERTEX
  5
E8
100
AcDbEntity
  8
0
  6
CONTINUOUS
 62
     7
100
AcDbVertex
100
AcDb2dVertex
 10
27.247862
 20
-56.052316
 30
0.0
 42
0.020468
  0
VERTEX
  5
E9
100
AcDbEntity
  8
0
  6
CONTINUOUS
 62
     7
100
AcDbVertex
100
AcDb2dVertex
 10
26.830742
 20
-56.210288
 30
0.0
 42
0.020705
  0
VERTEX
  5
EA
100
AcDbEntity
  8
0
  6
CONTINUOUS
 62
     7
100
AcDbVertex
100
AcDb2dVertex
 10
26.428028
 20
-56.402024
 30
0.0
 42
0.020983
  0
VERTEX
  5
EB
100
AcDbEntity
  8
0
  6
CONTINUOUS
 62
     7
100
AcDbVertex
100
AcDb2dVertex
 10
26.042665
 20
-56.626629
 30
0.0
 42
0.021294
  0
VERTEX
  5
EC
100
AcDbEntity
  8
0
  6
CONTINUOUS
 62
     7
100
AcDbVertex
100
AcDb2dVertex
 10
25.677626
 20
-56.882983
 30
0.0
 42
0.021632
  0
VERTEX
  5
ED
100
AcDbEntity
  8
0
  6
CONTINUOUS
 62
     7
100
AcDbVertex
100
AcDb2dVertex
 10
25.335886
 20
-57.169705
 30
0.0
 42
0.021989
  0
VERTEX
  5
EE
100
AcDbEntity
  8
0
  6
CONTINUOUS
 62
     7
100
AcDbVertex
100
AcDb2dVertex
 10
25.020403
 20
-57.485127
 30
0.0
 42
0.022353
  0
VERTEX
  5
EF
100
AcDbEntity
  8
0
  6
CONTINUOUS
 62
     7
100
AcDbVertex
100
AcDb2dVertex
 10
24.734073
 20
-57.827268
 30
0.0
 42
0.022712
  0
VERTEX
  5
F0
100
AcDbEntity
  8
0
  6
CONTINUOUS
 62
     7
100
AcDbVertex
100
AcDb2dVertex
 10
24.479683
 20
-58.193806
 30
0.0
 42
0.023055
  0
VERTEX
  5
F1
100
AcDbEntity
  8
0
  6
CONTINUOUS
 62
     7
100
AcDbVertex
100
AcDb2dVertex
 10
24.259852
 20
-58.582072
 30
0.0
 42
0.023367
  0
VERTEX
  5
F2
100
AcDbEntity
  8
0
  6
CONTINUOUS
 62
     7
100
AcDbVertex
100
AcDb2dVertex
 10
24.076961
 20
-58.989048
 30
0.0
 42
0.023635
  0
VERTEX
  5
F3
100
AcDbEntity
  8
0
  6
CONTINUOUS
 62
     7
100
AcDbVertex
100
AcDb2dVertex
 10
23.93308
 20
-59.411383
 30
0.0
 42
0.023846
  0
VERTEX
  5
F4
100
AcDbEntity
  8
0
  6
CONTINUOUS
 62
     7
100
AcDbVertex
100
AcDb2dVertex
 10
23.829898
 20
-59.845433
 30
0.0
  0
SEQEND
  5
F5
100
AcDbEntity
  8
0
 62
     7
  0
POLYLINE
  5
F6
100
AcDbEntity
  8
0
  6
CONTINUOUS
 62
     7
100
AcDb2dPolyline
 66
     1
 10
0.0
 20
0.0
 30
0.0
  0
VERTEX
  5
F7
100
AcDbEntity
  8
0
  6
CONTINUOUS
 62
     7
100
AcDbVertex
100
AcDb2dVertex
 10
32.175021
 20
-63.800886
 30
0.0
 42
0.040985
  0
VERTEX
  5
F8
100
AcDbEntity
  8
0
  6
CONTINUOUS
 62
     7
100
AcDbVertex
100
AcDb2dVertex
 10
32.718432
 20
-63.568059
 30
0.0
 42
0.042085
  0
VERTEX
  5
F9
100
AcDbEntity
  8
0
  6
CONTINUOUS
 62
     7
100
AcDbVertex
100
AcDb2dVertex
 10
33.215942
 20
-63.248632
 30
0.0
 42
0.043426
  0
VERTEX
  5
FA
100
AcDbEntity
  8
0
  6
CONTINUOUS
 62
     7
100
AcDbVertex
100
AcDb2dVertex
 10
33.651973
 20
-62.849182
 30
0.0
 42
0.044866
  0
VERTEX
  5
FB
100
AcDbEntity
  8
0
  6
CONTINUOUS
 62
     7
100
AcDbVertex
100
AcDb2dVertex
 10
34.011171
 20
-62.379306
 30
0.0
 42
0.046221
  0
VERTEX
  5
FC
100
AcDbEntity
  8
0
  6
CONTINUOUS
 62
     7
100
AcDbVertex
100
AcDb2dVertex
 10
34.279356
 20
-61.852126
 30
0.0
 42
0.047277
  0
VERTEX
  5
FD
100
AcDbEntity
  8
0
  6
CONTINUOUS
 62
     7
100
AcDbVertex
100
AcDb2dVertex
 10
34.444855
 20
-61.28437
 30
0.0
 42
0.047769
  0
VERTEX
  5
FE
100
AcDbEntity
  8
0
  6
CONTINUOUS
 62
     7
100
AcDbVertex
100
AcDb2dVertex
 10
34.499994
 20
-60.696702
 30
0.0
 42
0.047786
  0
VERTEX
  5
FF
100
AcDbEntity
  8
0
  6
CONTINUOUS
 62
     7
100
AcDbVertex
100
AcDb2dVertex
 10
34.442468
 20
-60.108968
 30
0.0
 42
0.04719
  0
VERTEX
  5
100
100
AcDbEntity
  8
0
  6
CONTINUOUS
 62
     7
100
AcDbVertex
100
AcDb2dVertex
 10
34.275016
 20
-59.542686
 30
0.0
 42
0.046158
  0
VERTEX
  5
101
100
AcDbEntity
  8
0
  6
CONTINUOUS
 62
     7
100
AcDbVertex
100
AcDb2dVertex
 10
34.005175
 20
-59.016907
 30
0.0
 42
0.044816
  0
VERTEX
  5
102
100
AcDbEntity
  8
0
  6
CONTINUOUS
 62
     7
100
AcDbVertex
100
AcDb2dVertex
 10
33.644594
 20
-58.548482
 30
0.0
 42
0.043389
  0
VERTEX
  5
103
100
AcDbEntity
  8
0
  6
CONTINUOUS
 62
     7
100
AcDbVertex
100
AcDb2dVertex
 10
33.207412
 20
-58.150521
 30
0.0
 42
0.04207
  0
VERTEX
  5
104
100
AcDbEntity
  8
0
  6
CONTINUOUS
 62
     7
100
AcDbVertex
100
AcDb2dVertex
 10
32.708843
 20
-57.83257
 30
0.0
 42
0.040987
  0
VERTEX
  5
105
100
AcDbEntity
  8
0
  6
CONTINUOUS
 62
     7
100
AcDbVertex
100
AcDb2dVertex
 10
32.164471
 20
-57.601287
 30
0.0
 42
0.040221
  0
VERTEX
  5
106
100
AcDbEntity
  8
0
  6
CONTINUOUS
 62
     7
100
AcDbVertex
100
AcDb2dVertex
 10
31.589831
 20
-57.460958
 30
0.0
 42
0.039837
  0
VERTEX
  5
107
100
AcDbEntity
  8
0
  6
CONTINUOUS
 62
     7
100
AcDbVertex
100
AcDb2dVertex
 10
31.0
 20
-57.413919
 30
0.0
  0
SEQEND
  5
108
100
AcDbEntity
  8
0
 62
     7
  0
POLYLINE
  5
109
100
AcDbEntity
  8
0
  6
CONTINUOUS
 62
     7
100
AcDb2dPolyline
 66
     1
 10
0.0
 20
0.0
 30
0.0
  0
VERTEX
  5
10A
100
AcDbEntity
  8
0
  6
CONTINUOUS
 62
     7
100
AcDbVertex
100
AcDb2dVertex
 10
29.0
 20
-57.413919
 30
0.0
 42
0.039748
  0
VERTEX
  5
10B
100
AcDbEntity
  8
0
  6
CONTINUOUS
 62
     7
100
AcDbVertex
100
AcDb2dVertex
 10
28.411471
 20
-57.460749
 30
0.0
 42
0.040204
  0
VERTEX
  5
10C
100
AcDbEntity
  8
0
  6
CONTINUOUS
 62
     7
100
AcDbVertex
100
AcDb2dVertex
 10
27.836996
 20
-57.600801
 30
0.0
 42
0.040965
  0
VERTEX
  5
10D
100
AcDbEntity
  8
0
  6
CONTINUOUS
 62
     7
100
AcDbVertex
100
AcDb2dVertex
 10
27.292773
 20
-57.831721
 30
0.0
 42
0.042059
  0
VERTEX
  5
10E
100
AcDbEntity
  8
0
  6
CONTINUOUS
 62
     7
100
AcDbVertex
100
AcDb2dVertex
 10
26.79412
 20
-58.149352
 30
0.0
 42
0.043396
  0
VERTEX
  5
10F
100
AcDbEntity
  8
0
  6
CONTINUOUS
 62
     7
100
AcDbVertex
100
AcDb2dVertex
 10
26.356611
 20
-58.547177
 30
0.0
 42
0.044836
  0
VERTEX
  5
110
100
AcDbEntity
  8
0
  6
CONTINUOUS
 62
     7
100
AcDbVertex
100
AcDb2dVertex
 10
25.995613
 20
-59.015667
 30
0.0
 42
0.046194
  0
VERTEX
  5
111
100
AcDbEntity
  8
0
  6
CONTINUOUS
 62
     7
100
AcDbVertex
100
AcDb2dVertex
 10
25.725347
 20
-59.541782
 30
0.0
 42
0.047258
  0
VERTEX
  5
112
100
AcDbEntity
  8
0
  6
CONTINUOUS
 62
     7
100
AcDbVertex
100
AcDb2dVertex
 10
25.557552
 20
-60.108865
 30
0.0
 42
0.047844
  0
VERTEX
  5
113
100
AcDbEntity
  8
0
  6
CONTINUOUS
 62
     7
100
AcDbVertex
100
AcDb2dVertex
 10
25.500005
 20
-60.697302
 30
0.0
 42
0.047792
  0
VERTEX
  5
114
100
AcDbEntity
  8
0
  6
CONTINUOUS
 62
     7
100
AcDbVertex
100
AcDb2dVertex
 10
25.555311
 20
-61.285239
 30
0.0
 42
0.047205
  0
VERTEX
  5
115
100
AcDbEntity
  8
0
  6
CONTINUOUS
 62
     7
100
AcDbVertex
100
AcDb2dVertex
 10
25.720641
 20
-61.852118
 30
0.0
 42
0.046181
  0
VERTEX
  5
116
100
AcDbEntity
  8
0
  6
CONTINUOUS
 62
     7
100
AcDbVertex
100
AcDb2dVertex
 10
25.988552
 20
-62.378867
 30
0.0
 42
0.044844
  0
VERTEX
  5
117
100
AcDbEntity
  8
0
  6
CONTINUOUS
 62
     7
100
AcDbVertex
100
AcDb2dVertex
 10
26.347465
 20
-62.848569
 30
0.0
 42
0.043417
  0
VERTEX
  5
118
100
AcDbEntity
  8
0
  6
CONTINUOUS
 62
     7
100
AcDbVertex
100
AcDb2dVertex
 10
26.783274
 20
-63.248029
 30
0.0
 42
0.042094
  0
VERTEX
  5
119
100
AcDbEntity
  8
0
  6
CONTINUOUS
 62
     7
100
AcDbVertex
100
AcDb2dVertex
 10
27.280775
 20
-63.567638
 30
0.0
 42
0.041005
  0
VERTEX
  5
11A
100
AcDbEntity
  8
0
  6
CONTINUOUS
 62
     7
100
AcDbVertex
100
AcDb2dVertex
 10
27.824388
 20
-63.800688
 30
0.0
  0
SEQEND
  5
11B
100
AcDbEntity
  8
0
 62
     7
  0
POLYLINE
  5
11C
100
AcDbEntity
  8
0
  6
CONTINUOUS
 62
     7
100
AcDb2dPolyline
 66
     1
 10
0.0
 20
0.0
 30
0.0
  0
VERTEX
  5
11D
100
AcDbEntity
  8
0
  6
CONTINUOUS
 62
     7
100
AcDbVertex
100
AcDb2dVertex
 10
34.440728
 20
-61.304453
 30
0.0
 42
0.023556
  0
VERTEX
  5
11E
100
AcDbEntity
  8
0
  6
CONTINUOUS
 62
     7
100
AcDbVertex
100
AcDb2dVertex
 10
34.369977
 20
-61.019045
 30
0.0
 42
0.023396
  0
VERTEX
  5
11F
100
AcDbEntity
  8
0
  6
CONTINUOUS
 62
     7
100
AcDbVertex
100
AcDb2dVertex
 10
34.272554
 20
-60.740896
 30
0.0
 42
0.023159
  0
VERTEX
  5
120
100
AcDbEntity
  8
0
  6
CONTINUOUS
 62
     7
100
AcDbVertex
100
AcDb2dVertex
 10
34.149532
 20
-60.472654
 30
0.0
 42
0.022806
  0
VERTEX
  5
121
100
AcDbEntity
  8
0
  6
CONTINUOUS
 62
     7
100
AcDbVertex
100
AcDb2dVertex
 10
34.002682
 20
-60.217317
 30
0.0
 42
0.022557
  0
VERTEX
  5
122
100
AcDbEntity
  8
0
  6
CONTINUOUS
 62
     7
100
AcDbVertex
100
AcDb2dVertex
 10
33.832639
 20
-59.975388
 30
0.0
 42
0.02217
  0
VERTEX
  5
123
100
AcDbEntity
  8
0
  6
CONTINUOUS
 62
     7
100
AcDbVertex
100
AcDb2dVertex
 10
33.641942
 20
-59.74994
 30
0.0
 42
0.021813
  0
VERTEX
  5
124
100
AcDbEntity
  8
0
  6
CONTINUOUS
 62
     7
100
AcDbVertex
100
AcDb2dVertex
 10
33.432177
 20
-59.542111
 30
0.0
 42
0.021465
  0
VERTEX
  5
125
100
AcDbEntity
  8
0
  6
CONTINUOUS
 62
     7
100
AcDbVertex
100
AcDb2dVertex
 10
33.205227
 20
-59.353183
 30
0.0
 42
0.021134
  0
VERTEX
  5
126
100
AcDbEntity
  8
0
  6
CONTINUOUS
 62
     7
100
AcDbVertex
100
AcDb2dVertex
 10
32.963013
 20
-59.184239
 30
0.0
 42
0.020831
  0
VERTEX
  5
127
100
AcDbEntity
  8
0
  6
CONTINUOUS
 62
     7
100
AcDbVertex
100
AcDb2dVertex
 10
32.707478
 20
-59.036182
 30
0.0
 42
0.02056
  0
VERTEX
  5
128
100
AcDbEntity
  8
0
  6
CONTINUOUS
 62
     7
100
AcDbVertex
100
AcDb2dVertex
 10
32.440562
 20
-58.909748
 30
0.0
 42
0.020327
  0
VERTEX
  5
129
100
AcDbEntity
  8
0
  6
CONTINUOUS
 62
     7
100
AcDbVertex
100
AcDb2dVertex
 10
32.1642
 20
-58.805527
 30
0.0
 42
0.020136
  0
VERTEX
  5
12A
100
AcDbEntity
  8
0
  6
CONTINUOUS
 62
     7
100
AcDbVertex
100
AcDb2dVertex
 10
31.880311
 20
-58.723979
 30
0.0
 42
0.019989
  0
VERTEX
  5
12B
100
AcDbEntity
  8
0
  6
CONTINUOUS
 62
     7
100
AcDbVertex
100
AcDb2dVertex
 10
31.590801
 20
-58.665444
 30
0.0
 42
0.01989
  0
VERTEX
  5
12C
100
AcDbEntity
  8
0
  6
CONTINUOUS
 62
     7
100
AcDbVertex
100
AcDb2dVertex
 10
31.297561
 20
-58.630157
 30
0.0
 42
0.019839
  0
VERTEX
  5
12D
100
AcDbEntity
  8
0
  6
CONTINUOUS
 62
     7
100
AcDbVertex
100
AcDb2dVertex
 10
31.002454
 20
-58.61825
 30
0.0
  0
SEQEND
  5
12E
100
AcDbEntity
  8
0
 62
     7
  0
POLYLINE
  5
12F
100
AcDbEntity
  8
0
  6
CONTINUOUS
 62
     7
100
AcDb2dPolyline
 66
     1
 10
0.0
 20
0.0
 30
0.0
  0
VERTEX
  5
130
100
AcDbEntity
  8
0
  6
CONTINUOUS
 62
     7
100
AcDbVertex
100
AcDb2dVertex
 10
29.0
 20
-58.618249
 30
0.0
 42
0.019782
  0
VERTEX
  5
131
100
AcDbEntity
  8
0
  6
CONTINUOUS
 62
     7
100
AcDbVertex
100
AcDb2dVertex
 10
28.705735
 20
-58.629894
 30
0.0
 42
0.019874
  0
VERTEX
  5
132
100
AcDbEntity
  8
0
  6
CONTINUOUS
 62
     7
100
AcDbVertex
100
AcDb2dVertex
 10
28.412684
 20
-58.664885
 30
0.0
 42
0.019958
  0
VERTEX
  5
133
100
AcDbEntity
  8
0
  6
CONTINUOUS
 62
     7
100
AcDbVertex
100
AcDb2dVertex
 10
28.123539
 20
-58.723041
 30
0.0
 42
0.020133
  0
VERTEX
  5
134
100
AcDbEntity
  8
0
  6
CONTINUOUS
 62
     7
100
AcDbVertex
100
AcDb2dVertex
 10
27.839561
 20
-58.804283
 30
0.0
 42
0.020323
  0
VERTEX
  5
135
100
AcDbEntity
  8
0
  6
CONTINUOUS
 62
     7
100
AcDbVertex
100
AcDb2dVertex
 10
27.56309
 20
-58.9082
 30
0.0
 42
0.020557
  0
VERTEX
  5
136
100
AcDbEntity
  8
0
  6
CONTINUOUS
 62
     7
100
AcDbVertex
100
AcDb2dVertex
 10
27.296029
 20
-59.034343
 30
0.0
 42
0.020829
  0
VERTEX
  5
137
100
AcDbEntity
  8
0
  6
CONTINUOUS
 62
     7
100
AcDbVertex
100
AcDb2dVertex
 10
27.040302
 20
-59.182131
 30
0.0
 42
0.021135
  0
VERTEX
  5
138
100
AcDbEntity
  8
0
  6
CONTINUOUS
 62
     7
100
AcDbVertex
100
AcDb2dVertex
 10
26.79785
 20
-59.35084
 30
0.0
 42
0.021467
  0
VERTEX
  5
139
100
AcDbEntity
  8
0
  6
CONTINUOUS
 62
     7
100
AcDbVertex
100
AcDb2dVertex
 10
26.570617
 20
-59.539576
 30
0.0
 42
0.021818
  0
VERTEX
  5
13A
100
AcDbEntity
  8
0
  6
CONTINUOUS
 62
     7
100
AcDbVertex
100
AcDb2dVertex
 10
26.360536
 20
-59.747263
 30
0.0
 42
0.022176
  0
VERTEX
  5
13B
100
AcDbEntity
  8
0
  6
CONTINUOUS
 62
     7
100
AcDbVertex
100
AcDb2dVertex
 10
26.169503
 20
-59.972617
 30
0.0
 42
0.022532
  0
VERTEX
  5
13C
100
AcDbEntity
  8
0
  6
CONTINUOUS
 62
     7
100
AcDbVertex
100
AcDb2dVertex
 10
25.999346
 20
-60.214139
 30
0.0
 42
0.022872
  0
VERTEX
  5
13D
100
AcDbEntity
  8
0
  6
CONTINUOUS
 62
     7
100
AcDbVertex
100
AcDb2dVertex
 10
25.851785
 20
-60.470104
 30
0.0
 42
0.023183
  0
VERTEX
  5
13E
100
AcDbEntity
  8
0
  6
CONTINUOUS
 62
     7
100
AcDbVertex
100
AcDb2dVertex
 10
25.728391
 20
-60.738557
 30
0.0
 42
0.023452
  0
VERTEX
  5
13F
100
AcDbEntity
  8
0
  6
CONTINUOUS
 62
     7
100
AcDbVertex
100
AcDb2dVertex
 10
25.630536
 20
-61.017329
 30
0.0
 42
0.023667
  0
VERTEX
  5
140
100
AcDbEntity
  8
0
  6
CONTINUOUS
 62
     7
100
AcDbVertex
100
AcDb2dVertex
 10
25.559351
 20
-61.304058
 30
0.0
  0
SEQEND
  5
141
100
AcDbEntity
  8
0
 62
     7
  0
LINE
  5
142
100
AcDbEntity
  8
0
  6
CONTINUOUS
 62
     7
100
AcDbLine
 10
89.578993
 20
-58.101042
 30
0.0
 11
91.0
 21
-56.680032
 31
0.0
  0
LINE
  5
143
100
AcDbEntity
  8
0
  6
CONTINUOUS
 62
     7
100
AcDbLine
 10
87.933017
 20
-57.501955
 30
0.0
 11
90.296049
 21
-55.138919
 31
0.0
  0
LINE
  5
144
100
AcDbEntity
  8
0
  6
CONTINUOUS
 62
     7
100
AcDbLine
 10
87.652398
 20
-55.537508
 30
0.0
 11
88.347035
 21
-54.84287
 31
0.0
  0
LINE
  5
145
100
AcDbEntity
  8
0
  6
CONTINUOUS
 62
     7
100
AcDbLine
 10
86.00642
 20
-54.938423
 30
0.0
 11
86.101973
 21
-54.84287
 31
0.0
  0
LINE
  5
146
100
AcDbEntity
  8
0
  6
CONTINUOUS
 62
     7
100
AcDbLine
 10
89.373048
 20
-67.287252
 30
0.0
 11
90.701462
 21
-65.958836
 31
0.0
  0
LINE
  5
147
100
AcDbEntity
  8
0
  6
CONTINUOUS
 62
     7
100
AcDbLine
 10
87.108221
 20
-67.307017
 30
0.0
 11
89.055486
 21
-65.359749
 31
0.0
  0
LINE
  5
148
100
AcDbEntity
  8
0
  6
CONTINUOUS
 62
     7
100
AcDbLine
 10
84.843394
 20
-67.326783
 30
0.0
 11
87.40951
 21
-64.760662
 31
0.0
  0
LINE
  5
149
100
AcDbEntity
  8
0
  6
CONTINUOUS
 62
     7
100
AcDbLine
 10
82.582245
 20
-67.34287
 30
0.0
 11
84.398176
 21
-65.526936
 31
0.0
  0
LINE
  5
14A
100
AcDbEntity
  8
0
  6
CONTINUOUS
 62
     7
100
AcDbLine
 10
84.932849
 20
-64.992262
 30
0.0
 11
85.763534
 21
-64.161575
 31
0.0
  0
LINE
  5
14B
100
AcDbEntity
  8
0
  6
CONTINUOUS
 62
     7
100
AcDbLine
 10
80.337183
 20
-67.34287
 30
0.0
 11
82.752199
 21
-64.927849
 31
0.0
  0
LINE
  5
14C
100
AcDbEntity
  8
0
  6
CONTINUOUS
 62
     7
100
AcDbLine
 10
80.0
 20
-65.434988
 30
0.0
 11
81.106223
 21
-64.328762
 31
0.0
  0
TEXT
  5
14F
100
AcDbEntity
  8
0
  6
CONTINUOUS
100
AcDbText
 10
8.312698
 20
-98.838
 30
0.0
 40
6.0
  1
PTTNR10CA
100
AcDbText
  0
INSERT
  5
164
100
AcDbEntity
  8
0
  6
CONTINUOUS
100
AcDbBlockReference
  2
テンプレ-ト
 10
-13.925248
 20
-35.740041
 30
0.0
  0
LINE
  5
166
100
AcDbEntity
  8
0
  6
CENTER
 62
     1
100
AcDbLine
 10
-25.65521
 20
-4.975503
 30
0.0
 11
-25.65521
 21
15.739389
 31
0.0
  0
LINE
  5
167
100
AcDbEntity
  8
0
  6
CENTER
 62
     1
100
AcDbLine
 10
-22.923047
 20
14.024497
 30
0.0
 11
-28.052305
 21
14.024497
 31
0.0
  0
ARC
  5
168
100
AcDbEntity
  8
0
  6
CENTER
 62
     1
100
AcDbCircle
 10
-25.65521
 20
14.024497
 30
0.0
 40
19.0
100
AcDbArc
 50
180.0
 51
270.0
  0
DIMENSION
  5
178
100
AcDbEntity
  8
寸法
 62
     1
100
AcDbDimension
  2
*D2
 10
-7.150811
 20
18.335788
 30
0.0
 11
-33.361414
 21
12.229048
 31
0.0
 70
   163
  3
寸法
100
AcDbDiametricDimension
 15
-44.159609
 25
9.713205
 35
0.0
 40
0.0
1001
ACAD
1000
DSTYLE
1002
{
1070
   288
1070
     1
1002
}
  0
DIMENSION
  5
185
100
AcDbEntity
  8
寸法
 62
     1
100
AcDbDimension
  2
*D3
 10
-5.711772
 20
0.0
 30
0.0
 11
-8.211772
 21
4.5
 31
0.0
 70
    32
  3
寸法
100
AcDbAlignedDimension
 13
1.0
 23
9.0
 33
0.0
 14
0.0
 24
0.0
 34
0.0
 50
90.0
100
AcDbRotatedDimension
  0
LINE
  5
186
100
AcDbEntity
  8
0
100
AcDbLine
 10
8.617821
 20
-4.975501
 30
0.0
 11
9.125
 21
-4.975501
 31
0.0
  0
DIMENSION
  5
1A0
100
AcDbEntity
  8
寸法
100
AcDbDimension
  2
*D5
 10
59.53857
 20
-2.0
 30
0.0
 11
57.03857
 21
3.5
 31
0.0
 70
    32
  3
寸法
100
AcDbAlignedDimension
 13
42.0
 23
9.0
 33
0.0
 14
42.0
 24
-2.0
 34
0.0
 50
90.0
100
AcDbRotatedDimension
  0
DIMENSION
  5
1AD
100
AcDbEntity
  8
寸法
100
AcDbDimension
  2
*D6
 10
42.0
 20
-9.255489
 30
0.0
 11
46.0
 21
-6.755489
 31
0.0
 70
    32
  3
寸法
100
AcDbAlignedDimension
 13
50.0
 23
3.5
 33
0.0
 14
42.0
 24
-2.0
 34
0.0
100
AcDbRotatedDimension
  0
DIMENSION
  5
1BA
100
AcDbEntity
  8
寸法
100
AcDbDimension
  2
*D7
 10
8.617821
 20
-19.99648
 30
0.0
 11
29.30891
 21
-17.49648
 31
0.0
 70
    32
  3
寸法
100
AcDbAlignedDimension
 13
50.0
 23
3.5
 33
0.0
 14
8.617821
 24
-4.975501
 34
0.0
100
AcDbRotatedDimension
1001
ACAD
1000
DSTYLE
1002
{
1070
   271
1070
     1
1002
}
  0
DIMENSION
  5
1C7
100
AcDbEntity
  8
寸法
100
AcDbDimension
  2
*D8
 10
0.0
 20
-30.249244
 30
0.0
 11
25.0
 21
-27.749244
 31
0.0
 70
    32
  3
寸法
100
AcDbAlignedDimension
 13
50.0
 23
3.5
 33
0.0
 14
0.0
 24
0.0
 34
0.0
100
AcDbRotatedDimension
  0
LINE
  5
1C8
100
AcDbEntity
  8
寸法
100
AcDbLine
 10
0.0
 20
0.0
 30
0.0
 11
0.0
 21
-1.0
 31
0.0
  0
DIMENSION
  5
1D9
100
AcDbEntity
  8
寸法
100
AcDbDimension
  2
*D9
 10
0.0
 20
-1.0
 30
0.0
 11
-4.978622
 21
-11.940737
 31
0.0
 70
   162
  3
寸法
100
AcDb2LineAngularDimension
 13
8.617821
 23
-4.975501
 33
0.0
 14
0.2
 24
-0.11547
 34
0.0
 15
0.0
 25
0.0
 35
0.0
 16
8.315791
 26
-9.910373
 36
0.0
  0
DIMENSION
  5
1F7
100
AcDbEntity
  8
寸法
100
AcDbDimension
  2
*D10
 10
31.0
 20
-50.059338
 30
0.0
 11
37.0
 21
-47.559338
 31
0.0
 70
    32
  3
寸法
100
AcDbAlignedDimension
 13
29.0
 23
-51.805694
 33
0.0
 14
31.0
 24
-51.805694
 34
0.0
100
AcDbRotatedDimension
  0
LINE
  5
1F8
100
AcDbEntity
  8
0
  6
CENTER
 62
     1
100
AcDbLine
 10
30.0
 20
-51.805694
 30
0.0
 11
30.0
 21
-69.868555
 31
0.0
  0
DIMENSION
  5
205
100
AcDbEntity
  8
寸法
100
AcDbDimension
  2
*D11
 10
50.0
 20
-39.811737
 30
0.0
 11
40.0
 21
-37.311737
 31
0.0
 70
    32
  3
寸法
100
AcDbAlignedDimension
 13
30.0
 23
-51.805694
 33
0.0
 14
50.0
 24
-61.34287
 34
0.0
100
AcDbRotatedDimension
  0
DIMENSION
  5
212
100
AcDbEntity
  8
寸法
100
AcDbDimension
  2
*D12
 10
59.847372
 20
-67.34287
 30
0.0
 11
57.347372
 21
-61.09287
 31
0.0
 70
    32
  3
寸法
100
AcDbAlignedDimension
 13
42.0
 23
-54.84287
 33
0.0
 14
42.0
 24
-67.34287
 34
0.0
 50
90.0
100
AcDbRotatedDimension
  0
DIMENSION
  5
21F
100
AcDbEntity
  8
寸法
100
AcDbDimension
  2
*D13
 10
-5.223559
 20
-67.34287
 30
0.0
 11
-7.723559
 21
-62.34287
 31
0.0
 70
    32
  3
寸法
100
AcDbAlignedDimension
 13
-0.000002
 23
-57.34287
 33
0.0
 14
2.266028
 24
-67.34287
 34
0.0
 50
90.0
100
AcDbRotatedDimension
  0
DIMENSION
  5
22E
100
AcDbEntity
  8
寸法
100
AcDbDimension
  2
*D14
 10
103.814218
 20
-67.34287
 30
0.0
 11
101.314218
 21
-64.84287
 31
0.0
 70
    32
  3
寸法
100
AcDbAlignedDimension
 13
91.0
 23
-62.34287
 33
0.0
 14
80.0
 24
-67.34287
 34
0.0
 50
90.0
100
AcDbRotatedDimension
  0
LINE
  5
22F
100
AcDbEntity
  8
寸法
100
AcDbLine
 10
91.0
 20
-62.34287
 30
0.0
 11
92.0
 21
-62.34287
 31
0.0
  0
DIMENSION
  5
242
100
AcDbEntity
  8
寸法
100
AcDbDimension
  2
*D15
 10
92.0
 20
-62.34287
 30
0.0
 11
95.956035
 21
-60.279204
 31
0.0
 70
   162
  3
寸法
100
AcDb2LineAngularDimension
 13
75.489616
 23
-56.697553
 33
0.0
 14
95.16925
 24
-63.860353
 34
0.0
 15
91.0
 25
-62.34287
 35
0.0
 16
96.22381
 26
-63.580935
 36
0.0
  0
LINE
  5
261
100
AcDbEntity
  8
寸法
  6
CONTINUOUS
 62
     1
100
AcDbLine
 10
-25.790825
 20
-65.525915
 30
0.0
 11
-31.256176
 21
-60.060564
 31
0.0
  0
TEXT
  5
262
100
AcDbEntity
  8
寸法
  6
CONTINUOUS
100
AcDbText
 10
-31.964206
 20
-51.5532
 30
0.0
 40
3.0
  1
-10°
100
AcDbText
  0
INSERT
  5
263
100
AcDbEntity
  8
寸法
  6
CONTINUOUS
 62
     1
100
AcDbBlockReference
  2
_OPEN30
 10
-24.197761
 20
-53.002149
 30
0.0
 41
2.0
 42
2.0
 43
2.0
 50
45.0
  0
LINE
  5
264
100
AcDbEntity
  8
寸法
  6
CONTINUOUS
 62
     1
100
AcDbLine
 10
-25.611975
 20
-54.416363
 30
0.0
 11
-31.256176
 21
-60.060564
 31
0.0
  0
INSERT
  5
265
100
AcDbEntity
  8
寸法
  6
CONTINUOUS
 62
     1
100
AcDbBlockReference
  2
_OPEN30
 10
-24.376611
 20
-66.940129
 30
0.0
 41
2.0
 42
2.0
 43
2.0
 50
315.0
  0
TEXT
  5
266
100
AcDbEntity
  8
寸法
  6
CONTINUOUS
100
AcDbText
 10
-26.469916
 20
-71.946131
 30
0.0
 40
3.0
  1
0°
100
AcDbText
  0
ARC
  5
278
100
AcDbEntity
  8
0
  6
CENTER
 62
     1
100
AcDbCircle
 10
29.999998
 20
-57.34287
 30
0.0
 40
30.0
100
AcDbArc
 50
180.0
 51
245.075063
  0
DIMENSION
  5
283
100
AcDbEntity
  8
寸法
100
AcDbDimension
  2
*D18
 10
46.071596
 20
-32.010998
 30
0.0
 11
18.615949
 21
-75.286279
 31
0.0
 70
   163
  3
寸法
100
AcDbDiametricDimension
 15
13.9284
 25
-82.674741
 35
0.0
 40
0.0
1001
ACAD
1000
DSTYLE
1002
{
1070
   288
1070
     1
1002
}
  0
DIMENSION
  5
2A5
100
AcDbEntity
  8
0
100
AcDbDimension
  2
*D19
 10
-14.058918
 20
9.0
 30
0.0
 11
-16.558918
 21
2.039044
 31
0.0
 70
    32
  3
寸法
100
AcDbAlignedDimension
 13
8.525
 23
-4.921911
 33
0.0
 14
1.0
 24
9.0
 34
0.0
 50
90.0
100
AcDbRotatedDimension
1001
ACAD
1000
DSTYLE
1002
{
1070
   271
1070
     1
1002
}
  0
ENDSEC
  0
SECTION
  2
OBJECTS
  0
DICTIONARY
  5
C
100
AcDbDictionary
  3
ACAD_GROUP
350
D
  3
ACAD_MLINESTYLE
350
1B
  0
DICTIONARY
  5
D
102
{ACAD_REACTORS
330
C
102
}
100
AcDbDictionary
  0
DICTIONARY
  5
1B
102
{ACAD_REACTORS
330
C
102
}
100
AcDbDictionary
  3
STANDARD
350
1C
  0
MLINESTYLE
  5
1C
102
{ACAD_REACTORS
330
1B
102
}
100
AcDbMlineStyle
  2
STANDARD
 70
     0
  3

 62
   256
 51
90.0
 52
90.0
 71
     2
 49
0.5
 62
   256
  6
BYLAYER
 49
-0.5
 62
   256
  6
BYLAYER
  0
ENDSEC
  0
EOF
