  0
SECTION
  2
HEADER
  9
$ACADVER
  1
AC1014
  9
$ACADMAINTVER
 70
     9
  9
$DWGCODEPAGE
  3
ANSI_932
  9
$INSBASE
 10
0.0
 20
0.0
 30
0.0
  9
$EXTMIN
 10
-166.4598600285407
 20
-65.61548554233268
 30
-0.00000001
  9
$EXTMAX
 10
25.46158211060804
 20
36.29788174485795
 30
0.00000001
  9
$LIMMIN
 10
-182.206109311767
 20
-91.64095510696041
  9
$LIMMAX
 10
38.17958103443015
 20
56.05788976085091
  9
$ORTHOMODE
 70
     0
  9
$REGENMODE
 70
     1
  9
$FILLMODE
 70
     1
  9
$QTEXTMODE
 70
     0
  9
$MIRRTEXT
 70
     0
  9
$DRAGMODE
 70
     2
  9
$LTSCALE
 40
1.0
  9
$OSMODE
 70
    55
  9
$ATTMODE
 70
     1
  9
$TEXTSIZE
 40
2.5
  9
$TRACEWID
 40
1.0
  9
$TEXTSTYLE
  7
STANDARD
  9
$CLAYER
  8
AM_0
  9
$CELTYPE
  6
BYLAYER
  9
$CECOLOR
 62
   256
  9
$CELTSCALE
 40
1.0
  9
$DELOBJ
 70
     1
  9
$DISPSILH
 70
     0
  9
$DIMSCALE
 40
1.0
  9
$DIMASZ
 40
2.5
  9
$DIMEXO
 40
1.0
  9
$DIMDLI
 40
12.0
  9
$DIMRND
 40
0.0
  9
$DIMDLE
 40
0.0
  9
$DIMEXE
 40
1.0
  9
$DIMTP
 40
0.1
  9
$DIMTM
 40
0.1
  9
$DIMTXT
 40
3.2
  9
$DIMCEN
 40
0.0
  9
$DIMTSZ
 40
0.0
  9
$DIMTOL
 70
     0
  9
$DIMLIM
 70
     0
  9
$DIMTIH
 70
     0
  9
$DIMTOH
 70
     0
  9
$DIMSE1
 70
     0
  9
$DIMSE2
 70
     0
  9
$DIMTAD
 70
     3
  9
$DIMZIN
 70
     8
  9
$DIMBLK
  1
OPEN30
  9
$DIMASO
 70
     1
  9
$DIMSHO
 70
     1
  9
$DIMPOST
  1

  9
$DIMAPOST
  1
"
  9
$DIMALT
 70
     0
  9
$DIMALTD
 70
     2
  9
$DIMALTF
 40
0.0393701
  9
$DIMLFAC
 40
1.0
  9
$DIMTOFL
 70
     1
  9
$DIMTVP
 40
0.0
  9
$DIMTIX
 70
     0
  9
$DIMSOXD
 70
     0
  9
$DIMSAH
 70
     0
  9
$DIMBLK1
  1

  9
$DIMBLK2
  1

  9
$DIMSTYLE
  2
AM_JIS
  9
$DIMCLRD
 70
   256
  9
$DIMCLRE
 70
   256
  9
$DIMCLRT
 70
     2
  9
$DIMTFAC
 40
0.71
  9
$DIMGAP
 40
1.5
  9
$DIMJUST
 70
     0
  9
$DIMSD1
 70
     0
  9
$DIMSD2
 70
     0
  9
$DIMTOLJ
 70
     0
  9
$DIMTZIN
 70
     0
  9
$DIMALTZ
 70
     0
  9
$DIMALTTZ
 70
     0
  9
$DIMFIT
 70
     3
  9
$DIMUPT
 70
     0
  9
$DIMUNIT
 70
     2
  9
$DIMDEC
 70
     3
  9
$DIMTDEC
 70
     3
  9
$DIMALTU
 70
     2
  9
$DIMALTTD
 70
     2
  9
$DIMTXSTY
  7
ASAMI
  9
$DIMAUNIT
 70
     0
  9
$LUNITS
 70
     2
  9
$LUPREC
 70
     2
  9
$SKETCHINC
 40
1.0
  9
$FILLETRAD
 40
2.5
  9
$AUNITS
 70
     0
  9
$AUPREC
 70
     0
  9
$MENU
  1
.
  9
$ELEVATION
 40
0.0
  9
$PELEVATION
 40
0.0
  9
$THICKNESS
 40
0.0
  9
$LIMCHECK
 70
     0
  9
$BLIPMODE
 70
     0
  9
$CHAMFERA
 40
2.5
  9
$CHAMFERB
 40
2.5
  9
$CHAMFERC
 40
20.0
  9
$CHAMFERD
 40
0.0
  9
$SKPOLY
 70
     0
  9
$TDCREATE
 40
2452800.443498622
  9
$TDUPDATE
 40
2453151.704336284
  9
$TDINDWG
 40
0.2813413310
  9
$TDUSRTIMER
 40
0.2813413310
  9
$USRTIMER
 70
     1
  9
$ANGBASE
 50
0.0
  9
$ANGDIR
 70
     0
  9
$PDMODE
 70
     0
  9
$PDSIZE
 40
0.0
  9
$PLINEWID
 40
0.0
  9
$COORDS
 70
     1
  9
$SPLFRAME
 70
     0
  9
$SPLINETYPE
 70
     6
  9
$SPLINESEGS
 70
     8
  9
$ATTDIA
 70
     1
  9
$ATTREQ
 70
     1
  9
$HANDLING
 70
 12289
  9
$HANDSEED
  5
4234
  9
$SURFTAB1
 70
     6
  9
$SURFTAB2
 70
     6
  9
$SURFTYPE
 70
     6
  9
$SURFU
 70
     6
  9
$SURFV
 70
     6
  9
$UCSNAME
  2

  9
$UCSORG
 10
0.0000000000000373
 20
-0.0000000000001254
 30
0.0
  9
$UCSXDIR
 10
1.0
 20
0.0000000000000027
 30
0.0
  9
$UCSYDIR
 10
-0.0000000000000027
 20
1.0
 30
0.0
  9
$PUCSNAME
  2

  9
$PUCSORG
 10
0.0
 20
0.0
 30
0.0
  9
$PUCSXDIR
 10
1.0
 20
0.0
 30
0.0
  9
$PUCSYDIR
 10
0.0
 20
1.0
 30
0.0
  9
$USERI1
 70
     0
  9
$USERI2
 70
     0
  9
$USERI3
 70
     0
  9
$USERI4
 70
     0
  9
$USERI5
 70
     0
  9
$USERR1
 40
0.0
  9
$USERR2
 40
0.0
  9
$USERR3
 40
0.0
  9
$USERR4
 40
0.0
  9
$USERR5
 40
0.0
  9
$WORLDVIEW
 70
     1
  9
$SHADEDGE
 70
     3
  9
$SHADEDIF
 70
    70
  9
$TILEMODE
 70
     1
  9
$MAXACTVP
 70
    64
  9
$PINSBASE
 10
0.0
 20
0.0
 30
0.0
  9
$PLIMCHECK
 70
     0
  9
$PEXTMIN
 10
1.000000000000000E+20
 20
1.000000000000000E+20
 30
1.000000000000000E+20
  9
$PEXTMAX
 10
-1.000000000000000E+20
 20
-1.000000000000000E+20
 30
-1.000000000000000E+20
  9
$PLIMMIN
 10
0.0
 20
0.0
  9
$PLIMMAX
 10
841.0
 20
594.0
  9
$UNITMODE
 70
     0
  9
$VISRETAIN
 70
     1
  9
$PLINEGEN
 70
     0
  9
$PSLTSCALE
 70
     0
  9
$TREEDEPTH
 70
  3020
  9
$PICKSTYLE
 70
     0
  9
$CMLSTYLE
  2
STANDARD
  9
$CMLJUST
 70
     0
  9
$CMLSCALE
 40
20.0
  9
$PROXYGRAPHICS
 70
     1
  9
$MEASUREMENT
 70
     1
  0
ENDSEC
  0
SECTION
  2
CLASSES
  0
CLASS
  1
ACDBDICTIONARYWDFLT
  2
AcDbDictionaryWithDefault
  3
AutoCAD 2000
 90
        0
280
     0
281
     0
  0
CLASS
  1
ACDBPLACEHOLDER
  2
AcDbPlaceHolder
  3
AutoCAD 2000
 90
        0
280
     0
281
     0
  0
CLASS
  1
LAYOUT
  2
AcDbLayout
  3
AutoCAD 2000
 90
        0
280
     0
281
     0
  0
CLASS
  1
AMGSETTINGSOBJ
  2
AmgSettingsObj
  3
"AcadM|Product Description: AutoCAD Mechanical 2000|Company: Autodesk"
 90
        0
280
     0
281
     0
  0
CLASS
  1
ACME_DOCUMENT
  2
AcMeDbDoc
  3
AcMeServices
 90
        0
280
     0
281
     0
  0
CLASS
  1
ACMESCOPE
  2
AcMeScope
  3
AcMeServices
 90
        0
280
     0
281
     0
  0
CLASS
  1
ACMECOMMANDHISTORY
  2
AcMeCommandHistory
  3
AcMeServices
 90
        0
280
     0
281
     0
  0
CLASS
  1
DICTIONARYVAR
  2
AcDbDictionaryVar
  3
AutoCAD 2000
 90
        0
280
     0
281
     0
  0
CLASS
  1
ACIMSYSVARMAN
  2
AcImSysVarManager
  3
AcMeServices
 90
        0
280
     0
281
     0
  0
CLASS
  1
ACIMREALSYSVAR
  2
AcImRealSysVar
  3
AcMeServices
 90
        0
280
     0
281
     0
  0
CLASS
  1
ACIMINTSYSVAR
  2
AcImIntSysVar
  3
AcMeServices
 90
        0
280
     0
281
     0
  0
CLASS
  1
ACMEDRAWINGMAN
  2
AcMeDrawingMan
  3
AcMeServices
 90
        0
280
     0
281
     0
  0
CLASS
  1
ACMEVIEW
  2
AcMeView
  3
AcMeServices
 90
        0
280
     0
281
     0
  0
CLASS
  1
ACDBENTITYCACHE
  2
AcMeEntityCache
  3
AcMeServices
 90
        0
280
     0
281
     0
  0
CLASS
  1
GSMANAGER
  2
AcMeGSManager
  3
AcMeServices
 90
        0
280
     0
281
     0
  0
CLASS
  1
AmdtInternalReactor
  2
AmdtInternalReactor
  3
AcMeServices
 90
        0
280
     0
281
     0
  0
CLASS
  1
ACMESTATEMGR
  2
AcMeStateMgr
  3
AcMeServices
 90
        0
280
     0
281
     0
  0
CLASS
  1
ACME_DATABASE
  2
AcMeDbDatabase
  3
AcMeServices
 90
        0
280
     0
281
     0
  0
CLASS
  1
ACRFINSADJUSTERMGR
  2
AcRfInsAdjusterMgr
  3
AcMeServices
 90
        0
280
     0
281
     0
  0
CLASS
  1
ACMDATADICTIONARY
  2
AcmDataDictionary
  3
"AcmSymBB|Product Description: AutoCAD Mechanical 2000|Company: Autodesk"
 90
        0
280
     0
281
     0
  0
CLASS
  1
ACMDATAENTRYBLOCK
  2
AcmDataEntryBlock
  3
"AcmSymBB|Product Description: AutoCAD Mechanical 2000|Company: Autodesk"
 90
        0
280
     0
281
     0
  0
CLASS
  1
AMGOBJPROPCFG
  2
AmgObjPropCfg
  3
"AmgLay|Product Description: AutoCAD Mechanical 2000|Company: Autodesk"
 90
        1
280
     0
281
     0
  0
CLASS
  1
ACAMGFILTERDAT
  2
AcAmgFilterDat
  3
"AcadM|Product Description: AutoCAD Mechanical 2000|Company: Autodesk"
 90
        0
280
     0
281
     0
  0
CLASS
  1
LAYER_INDEX
  2
AcDbLayerIndex
  3
AutoCAD 2000
 90
        0
280
     0
281
     0
  0
CLASS
  1
IDBUFFER
  2
AcDbIdBuffer
  3
AutoCAD 2000
 90
        0
280
     0
281
     0
  0
CLASS
  1
ACIMSTRSYSVAR
  2
AcImStrSysVar
  3
AcMeServices
 90
        0
280
     0
281
     0
  0
CLASS
  1
ACMSTANDARDJIS
  2
AcmStandardJIS
  3
"AcmSymBB|Product Description: AutoCAD Mechanical 2000|Company: Autodesk"
 90
        0
280
     0
281
     0
  0
CLASS
  1
ACMSURFSTANDARDJIS
  2
AcmSurfTextStdJIS
  3
"AcmSymBB|Product Description: AutoCAD Mechanical 2000|Company: Autodesk"
 90
        0
280
     0
281
     0
  0
CLASS
  1
ACMFCFSTANDARDJIS
  2
AcmFCFStdJIS
  3
"AcmSymBB|Product Description: AutoCAD Mechanical 2000|Company: Autodesk"
 90
        0
280
     0
281
     0
  0
CLASS
  1
ACMWELDSTANDARDJIS
  2
AcmWeldingStdJIS
  3
"AcmSymBB|Product Description: AutoCAD Mechanical 2000|Company: Autodesk"
 90
        0
280
     0
281
     0
  0
CLASS
  1
ACMIDSTANDARDJIS
  2
AcmIdStdJIS
  3
"AcmSymBB|Product Description: AutoCAD Mechanical 2000|Company: Autodesk"
 90
        0
280
     0
281
     0
  0
CLASS
  1
ACMDATUMSTANDARDJIS
  2
AcmDatumStdJIS
  3
"AcmSymBB|Product Description: AutoCAD Mechanical 2000|Company: Autodesk"
 90
        0
280
     0
281
     0
  0
CLASS
  1
ACMBOMSTANDARDJIS
  2
AcmBOMStdJIS
  3
"AcmSymBB|Product Description: AutoCAD Mechanical 2000|Company: Autodesk"
 90
        0
280
     0
281
     0
  0
CLASS
  1
ACMSTANDARDANSI
  2
AcmStandardANSI
  3
"AcmSymBB|Product Description: AutoCAD Mechanical 2000|Company: Autodesk"
 90
        0
280
     0
281
     0
  0
CLASS
  1
ACMSURFSTANDARDANSI
  2
AcmSurfTextStdANSI
  3
"AcmSymBB|Product Description: AutoCAD Mechanical 2000|Company: Autodesk"
 90
        0
280
     0
281
     0
  0
CLASS
  1
ACMFCFSTANDARDANSI
  2
AcmFCFStdANSI
  3
"AcmSymBB|Product Description: AutoCAD Mechanical 2000|Company: Autodesk"
 90
        0
280
     0
281
     0
  0
CLASS
  1
ACMWELDSTANDARDANSI
  2
AcmWeldingStdANSI
  3
"AcmSymBB|Product Description: AutoCAD Mechanical 2000|Company: Autodesk"
 90
        0
280
     0
281
     0
  0
CLASS
  1
ACMIDSTANDARDANSI
  2
AcmIdStdANSI
  3
"AcmSymBB|Product Description: AutoCAD Mechanical 2000|Company: Autodesk"
 90
        0
280
     0
281
     0
  0
CLASS
  1
ACMDATUMSTANDARDANSI
  2
AcmDatumStdANSI
  3
"AcmSymBB|Product Description: AutoCAD Mechanical 2000|Company: Autodesk"
 90
        0
280
     0
281
     0
  0
CLASS
  1
ACMBOMSTANDARDANSI
  2
AcmBOMStdANSI
  3
"AcmSymBB|Product Description: AutoCAD Mechanical 2000|Company: Autodesk"
 90
        0
280
     0
281
     0
  0
CLASS
  1
ACMSTANDARDBSI
  2
AcmStandardBSI
  3
"AcmSymBB|Product Description: AutoCAD Mechanical 2000|Company: Autodesk"
 90
        0
280
     0
281
     0
  0
CLASS
  1
ACMSURFSTANDARDBSI
  2
AcmSurfTextStdBSI
  3
"AcmSymBB|Product Description: AutoCAD Mechanical 2000|Company: Autodesk"
 90
        0
280
     0
281
     0
  0
CLASS
  1
ACMFCFSTANDARDBSI
  2
AcmFCFStdBSI
  3
"AcmSymBB|Product Description: AutoCAD Mechanical 2000|Company: Autodesk"
 90
        0
280
     0
281
     0
  0
CLASS
  1
ACMWELDSTANDARDBSI
  2
AcmWeldingStdBSI
  3
"AcmSymBB|Product Description: AutoCAD Mechanical 2000|Company: Autodesk"
 90
        0
280
     0
281
     0
  0
CLASS
  1
ACMIDSTANDARDBSI
  2
AcmIdStdBSI
  3
"AcmSymBB|Product Description: AutoCAD Mechanical 2000|Company: Autodesk"
 90
        0
280
     0
281
     0
  0
CLASS
  1
ACMDATUMSTANDARDBSI
  2
AcmDatumStdBSI
  3
"AcmSymBB|Product Description: AutoCAD Mechanical 2000|Company: Autodesk"
 90
        0
280
     0
281
     0
  0
CLASS
  1
ACMBOMSTANDARDBSI
  2
AcmBOMStdBSI
  3
"AcmSymBB|Product Description: AutoCAD Mechanical 2000|Company: Autodesk"
 90
        0
280
     0
281
     0
  0
CLASS
  1
LONG_TRANSACTION
  2
AcDbLongTransaction
  3
AutoCAD 2000
 90
        0
280
     0
281
     0
  0
CLASS
  1
LWPOLYLINE
  2
AcDbPolyline
  3
AutoCAD 2000
 90
        0
280
     0
281
     1
  0
CLASS
  1
HATCH
  2
AcDbHatch
  3
AutoCAD 2000
 90
        0
280
     0
281
     1
  0
CLASS
  1
XRECORD
  2
AcDbXrecord
  3
AutoCAD 2000
 90
        0
280
     0
281
     0
  0
ENDSEC
  0
SECTION
  2
TABLES
  0
TABLE
  2
VPORT
  5
8
330
0
100
AcDbSymbolTable
 70
     3
  0
VPORT
  5
4209
330
8
100
AcDbSymbolTableRecord
100
AcDbViewportTableRecord
  2
*ACTIVE
 70
     0
 10
0.0
 20
0.0
 11
1.0
 21
1.0
 12
-79.27227017779097
 22
-8.175092713208343
 13
0.0
 23
0.0
 14
2.5
 24
2.5
 15
10.0
 25
10.0
 16
0.0
 26
0.0
 36
1.0
 17
0.0
 27
0.0
 37
0.0
 40
164.7153713869646
 41
1.56570841889117
 42
50.0
 43
0.0
 44
0.0
 50
0.0
 51
0.0
 71
     0
 72
   100
 73
     1
 74
     1
 75
     0
 76
     0
 77
     0
 78
     0
  0
ENDTAB
  0
TABLE
  2
LTYPE
  5
5
330
0
100
AcDbSymbolTable
 70
    10
  0
LTYPE
  5
14
330
5
100
AcDbSymbolTableRecord
100
AcDbLinetypeTableRecord
  2
BYBLOCK
 70
     0
  3

 72
    65
 73
     0
 40
0.0
  0
LTYPE
  5
15
330
5
100
AcDbSymbolTableRecord
100
AcDbLinetypeTableRecord
  2
BYLAYER
 70
     0
  3

 72
    65
 73
     0
 40
0.0
  0
LTYPE
  5
16
330
5
100
AcDbSymbolTableRecord
100
AcDbLinetypeTableRecord
  2
CONTINUOUS
 70
     0
  3
Solid line
 72
    65
 73
     0
 40
0.0
  0
LTYPE
  5
4B
330
5
100
AcDbSymbolTableRecord
100
AcDbLinetypeTableRecord
  2
AM_ISO02W050
 70
     0
  3
__ __ __ __ __ __ __ __ __ __ __ __ __ __ __
 72
    65
 73
     2
 40
7.5
 49
6.0
 74
     0
 49
-1.5
 74
     0
  0
LTYPE
  5
4C
330
5
100
AcDbSymbolTableRecord
100
AcDbLinetypeTableRecord
  2
AM_ISO08W050
 70
     0
  3
____ . ____ . ____ . ____ . ____ . ____ . ____
 72
    65
 73
     4
 40
18.0
 49
12.0
 74
     0
 49
-1.5
 74
     0
 49
3.0
 74
     0
 49
-1.5
 74
     0
  0
LTYPE
  5
4D
330
5
100
AcDbSymbolTableRecord
100
AcDbLinetypeTableRecord
  2
AM_ISO09W050
 70
     0
  3
_____ . . _____ . . _____ . . ____ .. ____
 72
    65
 73
     6
 40
22.5
 49
12.0
 74
     0
 49
-1.5
 74
     0
 49
3.0
 74
     0
 49
-1.5
 74
     0
 49
3.0
 74
     0
 49
-1.5
 74
     0
  0
LTYPE
  5
4E
330
5
100
AcDbSymbolTableRecord
100
AcDbLinetypeTableRecord
  2
AMCONSTR
 70
     0
  3
_______________________
 72
    65
 73
     2
 40
9999.0
 49
9999.0
 74
     0
 49
0.0
 74
     0
  0
LTYPE
  5
4F
330
5
100
AcDbSymbolTableRecord
100
AcDbLinetypeTableRecord
  2
AM_ISO02W050X2
 70
     0
  3
 _ _ _ _ _ _ _ _ _ _ _ _
 72
    65
 73
     2
 40
3.75
 49
3.0
 74
     0
 49
-0.75
 74
     0
  0
LTYPE
  5
50
330
5
100
AcDbSymbolTableRecord
100
AcDbLinetypeTableRecord
  2
AM_ISO08W050X2
 70
     0
  3
__ . __ . __ . __ . __ . __
 72
    65
 73
     4
 40
9.0
 49
6.0
 74
     0
 49
-0.75
 74
     0
 49
1.5
 74
     0
 49
-0.75
 74
     0
  0
LTYPE
  5
53
330
5
100
AcDbSymbolTableRecord
100
AcDbLinetypeTableRecord
  2
AMZIGZAG
 70
     0
  3
/\/-/\/-/\/-/\/-/\/-/\/
 72
    65
 73
     2
 40
11.00009999999999
 49
0.0001
 74
     4
 75
   135
340
52
 46
0.04
 50
0.0
 44
0.0
 45
0.0
 49
-11.0
 74
     0
  0
LTYPE
  5
166
330
5
100
AcDbSymbolTableRecord
100
AcDbLinetypeTableRecord
  2
ACJISTGL
 70
     0
  3
_ _ _ _ _
 72
    65
 73
     2
 40
3.0
 49
2.0
 74
     0
 49
-1.0
 74
     0
  0
LTYPE
  5
26A
330
5
100
AcDbSymbolTableRecord
100
AcDbLinetypeTableRecord
  2
ACJISTGB
 70
     0
  3
__ . . __ . .
 72
    65
 73
     6
 40
9.0
 49
4.0
 74
     0
 49
-1.0
 74
     0
 49
1.0
 74
     0
 49
-1.0
 74
     0
 49
1.0
 74
     0
 49
-1.0
 74
     0
  0
ENDTAB
  0
TABLE
  2
LAYER
  5
2
330
0
100
AcDbSymbolTable
 70
    11
  0
LAYER
  5
10
330
2
100
AcDbSymbolTableRecord
100
AcDbLayerTableRecord
  2
0
 70
     0
 62
     7
  6
CONTINUOUS
  0
LAYER
  5
3F9
330
2
100
AcDbSymbolTableRecord
100
AcDbLayerTableRecord
  2
AM_0
 70
     0
 62
     7
  6
CONTINUOUS
  0
LAYER
  5
BA4
330
2
100
AcDbSymbolTableRecord
100
AcDbLayerTableRecord
  2
PV0001_1
 70
     0
 62
     7
  6
CONTINUOUS
  0
LAYER
  5
C6C
330
2
100
AcDbSymbolTableRecord
100
AcDbLayerTableRecord
  2
AM_CL
 70
     0
 62
     1
  6
AMCONSTR
  0
LAYER
  5
C7C
330
2
100
AcDbSymbolTableRecord
100
AcDbLayerTableRecord
  2
AM_7
 70
     0
 62
     4
  6
AM_ISO08W050
  0
LAYER
  5
C97
330
2
100
AcDbSymbolTableRecord
100
AcDbLayerTableRecord
  2
AM_11
 70
     0
 62
     3
  6
AM_ISO09W050
  0
LAYER
  5
CC5
330
2
100
AcDbSymbolTableRecord
100
AcDbLayerTableRecord
  2
AM_5
 70
     0
 62
     3
  6
CONTINUOUS
  0
LAYER
  5
CC7
330
2
100
AcDbSymbolTableRecord
100
AcDbLayerTableRecord
  2
DEFPOINTS
 70
     0
 62
     7
  6
CONTINUOUS
  0
LAYER
  5
19BC
330
2
100
AcDbSymbolTableRecord
100
AcDbLayerTableRecord
  2
AM_6
 70
     0
 62
     2
  6
CONTINUOUS
  0
LAYER
  5
1F8E
330
2
100
AcDbSymbolTableRecord
100
AcDbLayerTableRecord
  2
AM_4
 70
     0
 62
     3
  6
CONTINUOUS
  0
LAYER
  5
3588
330
2
100
AcDbSymbolTableRecord
100
AcDbLayerTableRecord
  2
AM_3
 70
     0
 62
     6
  6
ACJISTGL
  0
ENDTAB
  0
TABLE
  2
STYLE
  5
3
330
0
100
AcDbSymbolTable
 70
     5
  0
STYLE
  5
11
330
3
100
AcDbSymbolTableRecord
100
AcDbTextStyleTableRecord
  2
STANDARD
 70
     0
 40
0.0
 41
1.0
 50
0.0
 71
     0
 42
2.5
  3
simplex.shx
  4
EXTFONT.SHX
  0
STYLE
  5
52
330
3
100
AcDbSymbolTableRecord
100
AcDbTextStyleTableRecord
  2

 70
     1
 40
0.0
 41
1.0
 50
0.0
 71
     0
 42
2.5
  3
ltypeshp.shx
  4

  0
STYLE
  5
6B
330
3
100
AcDbSymbolTableRecord
100
AcDbTextStyleTableRecord
  2
ASAMI
 70
     0
 40
0.0
 41
1.0
 50
0.0
 71
     0
 42
2.5
  3
simplex.shx
  4
EXTFONT.SHX
  0
STYLE
  5
262
330
3
100
AcDbSymbolTableRecord
100
AcDbTextStyleTableRecord
  2
ACJISTS
 70
     0
 40
1.0
 41
1.0
 50
0.0
 71
     0
 42
2.5
  3
simplex.shx
  4
bigfont.shx
  0
STYLE
  5
269
330
3
100
AcDbSymbolTableRecord
100
AcDbTextStyleTableRecord
  2
ACJISGDT
 70
     0
 40
0.0
 41
1.0
 50
0.0
 71
     0
 42
2.5
  3
amgdtans.shx
  4

  0
ENDTAB
  0
TABLE
  2
VIEW
  5
6
330
0
100
AcDbSymbolTable
 70
     0
  0
ENDTAB
  0
TABLE
  2
UCS
  5
7
330
0
100
AcDbSymbolTable
 70
     0
  0
ENDTAB
  0
TABLE
  2
APPID
  5
9
330
0
100
AcDbSymbolTable
 70
    14
  0
APPID
  5
12
330
9
100
AcDbSymbolTableRecord
100
AcDbRegAppTableRecord
  2
ACAD
 70
     0
  0
APPID
  5
30
330
9
100
AcDbSymbolTableRecord
100
AcDbRegAppTableRecord
  2
MCAD_NO_VIS
 70
     0
  0
APPID
  5
31
330
9
100
AcDbSymbolTableRecord
100
AcDbRegAppTableRecord
  2
ACAD_TEMP_GRAPHIC
 70
     0
  0
APPID
  5
2C2
330
9
100
AcDbSymbolTableRecord
100
AcDbRegAppTableRecord
  2
GENIUS_GENDTOL_13
 70
     0
  0
APPID
  5
339
330
9
100
AcDbSymbolTableRecord
100
AcDbRegAppTableRecord
  2
GENIUS_GENODEF_13
 70
     0
  0
APPID
  5
33A
330
9
100
AcDbSymbolTableRecord
100
AcDbRegAppTableRecord
  2
GENIUS_GENOBJ-N-RSBK_13
 70
     0
  0
APPID
  5
33B
330
9
100
AcDbSymbolTableRecord
100
AcDbRegAppTableRecord
  2
GENIUS_GENOBJ-N-LIB_13
 70
     0
  0
APPID
  5
33C
330
9
100
AcDbSymbolTableRecord
100
AcDbRegAppTableRecord
  2
GENIUS_GENSCALE_13
 70
     0
  0
APPID
  5
378
330
9
100
AcDbSymbolTableRecord
100
AcDbRegAppTableRecord
  2
GENIUS_GENDIMSH_14
 70
     0
  0
APPID
  5
C82
330
9
100
AcDbSymbolTableRecord
100
AcDbRegAppTableRecord
  2
GENIUS_GENOBJ-N-CRS_13
 70
     0
  0
APPID
  5
C83
330
9
100
AcDbSymbolTableRecord
100
AcDbRegAppTableRecord
  2
GENIUS_GENOENT_13
 70
     0
  0
APPID
  5
C84
330
9
100
AcDbSymbolTableRecord
100
AcDbRegAppTableRecord
  2
GENIUS_GENOREF_13
 70
     0
  0
APPID
  5
C85
330
9
100
AcDbSymbolTableRecord
100
AcDbRegAppTableRecord
  2
GENIUS_GENOLIS_13
 70
     0
  0
APPID
  5
CA0
330
9
100
AcDbSymbolTableRecord
100
AcDbRegAppTableRecord
  2
GENIUS_GENOBJ-N-CEN_13
 70
     0
  0
ENDTAB
  0
TABLE
  2
DIMSTYLE
  5
A
330
0
100
AcDbSymbolTable
 70
    10
  0
DIMSTYLE
105
58
330
A
100
AcDbSymbolTableRecord
100
AcDbDimStyleTableRecord
  2
AM_JIS
 70
     0
  3

  4
"
  5
OPEN30
  6

  7

 40
1.0
 41
2.5
 42
1.0
 43
12.0
 44
1.0
 45
0.0
 46
0.0
 47
0.1
 48
0.1
140
3.2
141
0.0
142
0.0
143
0.0393701
144
1.0
145
0.0
146
0.71
147
1.5
 71
     0
 72
     0
 73
     0
 74
     0
 75
     0
 76
     0
 77
     3
 78
     8
170
     0
171
     2
172
     1
173
     0
174
     0
175
     0
176
   256
177
   256
178
     2
270
     2
271
     3
272
     3
273
     2
274
     2
340
6B
275
     0
280
     0
281
     0
282
     0
283
     0
284
     0
285
     0
286
     0
287
     3
288
     0
  0
DIMSTYLE
105
5F
330
A
100
AcDbSymbolTableRecord
100
AcDbDimStyleTableRecord
  2
AM_JIS$3
 70
     0
  3

  4
"
  5
OPEN30
  6

  7

 40
1.0
 41
2.5
 42
1.0
 43
10.0
 44
1.0
 45
0.0
 46
0.0
 47
0.1
 48
0.1
140
3.2
141
0.0
142
0.0
143
0.0393701
144
1.0
145
0.0
146
0.71
147
1.5
 71
     0
 72
     0
 73
     0
 74
     1
 75
     0
 76
     0
 77
     3
 78
     8
170
     0
171
     2
172
     0
173
     0
174
     0
175
     0
176
   256
177
   256
178
     2
270
     2
271
     2
272
     3
273
     2
274
     2
340
6B
275
     0
280
     0
281
     0
282
     0
283
     0
284
     0
285
     0
286
     0
287
     0
288
     1
  0
DIMSTYLE
105
60
330
A
100
AcDbSymbolTableRecord
100
AcDbDimStyleTableRecord
  2
AM_JIS$4
 70
     0
  3

  4
"
  5
OPEN30
  6

  7

 40
1.0
 41
2.5
 42
1.0
 43
10.0
 44
1.0
 45
0.0
 46
0.0
 47
0.1
 48
0.1
140
3.2
141
0.0
142
0.0
143
0.0393701
144
1.0
145
0.0
146
0.71
147
1.5
 71
     0
 72
     0
 73
     0
 74
     1
 75
     0
 76
     0
 77
     3
 78
     8
170
     0
171
     2
172
     0
173
     0
174
     0
175
     0
176
   256
177
   256
178
     2
270
     2
271
     2
272
     3
273
     2
274
     2
340
6B
275
     0
280
     0
281
     0
282
     0
283
     0
284
     0
285
     0
286
     0
287
     0
288
     1
  0
DIMSTYLE
105
61
330
A
100
AcDbSymbolTableRecord
100
AcDbDimStyleTableRecord
  2
AM_JIS$6
 70
     0
  3

  4
"
  5
OPEN30
  6

  7

 40
1.0
 41
2.5
 42
1.0
 43
10.0
 44
1.0
 45
0.0
 46
0.0
 47
0.1
 48
0.1
140
3.2
141
0.0
142
0.0
143
0.0393701
144
1.0
145
0.0
146
0.71
147
1.5
 71
     0
 72
     0
 73
     0
 74
     0
 75
     0
 76
     0
 77
     0
 78
     8
170
     0
171
     2
172
     1
173
     0
174
     0
175
     0
176
   256
177
   256
178
     2
270
     2
271
     2
272
     2
273
     2
274
     2
340
6B
275
     0
280
     0
281
     0
282
     0
283
     0
284
     0
285
     0
286
     0
287
     3
288
     0
  0
DIMSTYLE
105
62
330
A
100
AcDbSymbolTableRecord
100
AcDbDimStyleTableRecord
  2
AM_JIS$7
 70
     0
  3

  4
"
  5
OPEN30
  6

  7

 40
1.0
 41
2.5
 42
1.0
 43
10.0
 44
1.0
 45
0.0
 46
0.0
 47
0.1
 48
0.1
140
3.2
141
0.0
142
0.0
143
0.0393701
144
1.0
145
0.0
146
0.71
147
1.5
 71
     0
 72
     0
 73
     0
 74
     0
 75
     0
 76
     0
 77
     3
 78
     8
170
     0
171
     2
172
     1
173
     0
174
     0
175
     0
176
   256
177
   256
178
     2
270
     2
271
     2
272
     3
273
     2
274
     2
340
6B
275
     0
280
     0
281
     0
282
     0
283
     0
284
     0
285
     0
286
     0
287
     3
288
     0
  0
DIMSTYLE
105
63
330
A
100
AcDbSymbolTableRecord
100
AcDbDimStyleTableRecord
  2
AM_JIS$SF
 70
     0
  3

  4
"
  5
OPEN30
  6

  7

 40
1.0
 41
2.5
 42
1.0
 43
10.0
 44
1.0
 45
0.0
 46
0.0
 47
0.1
 48
0.1
140
3.2
141
0.0
142
0.0
143
0.0393701
144
1.0
145
0.0
146
0.71
147
1.5
 71
     0
 72
     0
 73
     0
 74
     0
 75
     1
 76
     1
 77
     3
 78
     8
170
     0
171
     2
172
     1
173
     0
174
     0
175
     0
176
   256
177
   256
178
     2
270
     2
271
     2
272
     2
273
     2
274
     2
340
6B
275
     0
280
     0
281
     0
282
     0
283
     0
284
     0
285
     0
286
     0
287
     3
288
     0
  0
DIMSTYLE
105
68
330
A
100
AcDbSymbolTableRecord
100
AcDbDimStyleTableRecord
  2
AM_JIS$SH
 70
     0
  3

  4
"
  5

  6
GENAXEH
  7
OPEN30
 40
1.0
 41
2.5
 42
1.0
 43
10.0
 44
1.0
 45
0.0
 46
0.0
 47
0.1
 48
0.1
140
3.2
141
0.0
142
0.0
143
0.0393701
144
2.0
145
0.0
146
0.71
147
1.5
 71
     0
 72
     0
 73
     0
 74
     0
 75
     1
 76
     1
 77
     3
 78
     8
170
     0
171
     2
172
     1
173
     1
174
     0
175
     0
176
   256
177
   256
178
     2
270
     2
271
     2
272
     2
273
     2
274
     2
340
6B
275
     0
280
     0
281
     0
282
     0
283
     0
284
     0
285
     0
286
     0
287
     3
288
     0
  0
DIMSTYLE
105
B34
102
{ACAD_REACTORS
330
36BA
102
}
330
A
100
AcDbSymbolTableRecord
100
AcDbDimStyleTableRecord
  2
AM_JIS$2
 70
     0
  3

  4
"
  5
OPEN30
  6

  7

 40
1.0
 41
2.5
 42
1.0
 43
12.0
 44
1.0
 45
0.0
 46
0.0
 47
0.1
 48
0.1
140
3.2
141
0.0
142
0.0
143
0.0393701
144
1.0
145
0.0
146
0.71
147
1.5
 71
     0
 72
     0
 73
     0
 74
     0
 75
     0
 76
     0
 77
     3
 78
     8
170
     0
171
     2
172
     1
173
     0
174
     0
175
     0
176
   256
177
   256
178
     2
270
     2
271
     3
272
     3
273
     2
274
     2
340
6B
275
     0
280
     0
281
     0
282
     0
283
     0
284
     0
285
     0
286
     0
287
     3
288
     0
  0
DIMSTYLE
105
BA5
102
{ACAD_REACTORS
330
3866
330
3990
330
3B0D
330
3BB8
330
3C40
330
3CCB
330
3D56
330
3DFD
330
40B1
102
}
330
A
100
AcDbSymbolTableRecord
100
AcDbDimStyleTableRecord
  2
AM_JIS$0
 70
     0
  3

  4
"
  5
OPEN30
  6

  7

 40
1.0
 41
2.5
 42
0.8
 43
10.0
 44
1.0
 45
0.0
 46
0.0
 47
0.1
 48
0.1000000001
140
3.799999999999999
141
0.0
142
0.0
143
0.0393701
144
1.0
145
0.0
146
0.71
147
1.5
 71
     0
 72
     0
 73
     0
 74
     0
 75
     0
 76
     0
 77
     3
 78
     9
170
     0
171
     2
172
     1
173
     0
174
     0
175
     0
176
     3
177
     3
178
     2
270
     2
271
     2
272
     2
273
     2
274
     2
340
11
275
     1
280
     0
281
     0
282
     0
283
     0
284
     8
285
     0
286
     0
287
     0
288
     0
  0
DIMSTYLE
105
BA6
330
A
100
AcDbSymbolTableRecord
100
AcDbDimStyleTableRecord
  2
AM_JISORG-1P0$2
 70
     0
  3

  4
"
  5
OPEN30
  6

  7

 40
1.0
 41
2.5
 42
0.0
 43
10.0
 44
1.0
 45
0.0
 46
0.0
 47
0.1
 48
0.1000000001
140
3.799999999999999
141
0.0
142
0.0
143
0.0393701
144
-0.999999980146674
145
0.0
146
0.71
147
1.5
 71
     0
 72
     0
 73
     0
 74
     0
 75
     0
 76
     0
 77
     3
 78
     1
170
     0
171
     2
172
     1
173
     0
174
     0
175
     0
176
     3
177
     3
178
     2
270
     2
271
     2
272
     2
273
     2
274
     2
340
11
275
     1
280
     0
281
     0
282
     0
283
     0
284
     8
285
     0
286
     0
287
     0
288
     0
  0
ENDTAB
  0
TABLE
  2
BLOCK_RECORD
  5
1
330
0
100
AcDbSymbolTable
 70
    19
  0
BLOCK_RECORD
  5
1F
102
{ACAD_XDICTIONARY
360
74
102
}
330
1
100
AcDbSymbolTableRecord
100
AcDbBlockTableRecord
  2
*MODEL_SPACE
  0
BLOCK_RECORD
  5
101
102
{ACAD_XDICTIONARY
360
4232
102
}
330
1
100
AcDbSymbolTableRecord
100
AcDbBlockTableRecord
  2
*PAPER_SPACE
  0
BLOCK_RECORD
  5
59
330
1
100
AcDbSymbolTableRecord
100
AcDbBlockTableRecord
  2
_OPEN30
  0
BLOCK_RECORD
  5
64
330
1
100
AcDbSymbolTableRecord
100
AcDbBlockTableRecord
  2
GENAXEH
  0
BLOCK_RECORD
  5
C31
330
1
100
AcDbSymbolTableRecord
100
AcDbBlockTableRecord
  2
A$C36D02A34
  0
BLOCK_RECORD
  5
2453
330
1
100
AcDbSymbolTableRecord
100
AcDbBlockTableRecord
  2
*D6
  0
BLOCK_RECORD
  5
245F
330
1
100
AcDbSymbolTableRecord
100
AcDbBlockTableRecord
  2
A$C4FFC6CC0
  0
BLOCK_RECORD
  5
36BB
330
1
100
AcDbSymbolTableRecord
100
AcDbBlockTableRecord
  2
*D8
  0
BLOCK_RECORD
  5
3867
330
1
100
AcDbSymbolTableRecord
100
AcDbBlockTableRecord
  2
*D9
  0
BLOCK_RECORD
  5
3991
330
1
100
AcDbSymbolTableRecord
100
AcDbBlockTableRecord
  2
*D10
  0
BLOCK_RECORD
  5
3B0E
330
1
100
AcDbSymbolTableRecord
100
AcDbBlockTableRecord
  2
*D11
  0
BLOCK_RECORD
  5
3BB9
330
1
100
AcDbSymbolTableRecord
100
AcDbBlockTableRecord
  2
*D12
  0
BLOCK_RECORD
  5
3C41
330
1
100
AcDbSymbolTableRecord
100
AcDbBlockTableRecord
  2
*D13
  0
BLOCK_RECORD
  5
3CCC
330
1
100
AcDbSymbolTableRecord
100
AcDbBlockTableRecord
  2
*D14
  0
BLOCK_RECORD
  5
3D57
330
1
100
AcDbSymbolTableRecord
100
AcDbBlockTableRecord
  2
*D15
  0
BLOCK_RECORD
  5
3DFE
330
1
100
AcDbSymbolTableRecord
100
AcDbBlockTableRecord
  2
*D16
  0
BLOCK_RECORD
  5
40B2
330
1
100
AcDbSymbolTableRecord
100
AcDbBlockTableRecord
  2
*D17
  0
ENDTAB
  0
ENDSEC
  0
SECTION
  2
BLOCKS
  0
BLOCK
  5
20
330
1F
100
AcDbEntity
  8
0
100
AcDbBlockBegin
  2
*MODEL_SPACE
 70
     0
 10
0.0
 20
0.0
 30
0.0
  3
*MODEL_SPACE
  1

  0
ENDBLK
  5
21
330
1F
100
AcDbEntity
  8
0
100
AcDbBlockEnd
  0
BLOCK
  5
103
330
101
100
AcDbEntity
 67
     1
  8
0
100
AcDbBlockBegin
  2
*PAPER_SPACE
 70
     0
 10
0.0
 20
0.0
 30
0.0
  3
*PAPER_SPACE
  1

  0
ENDBLK
  5
104
330
101
100
AcDbEntity
 67
     1
  8
0
100
AcDbBlockEnd
  0
BLOCK
  5
5D
330
59
100
AcDbEntity
  8
0
100
AcDbBlockBegin
  2
_OPEN30
 70
     0
 10
0.0
 20
0.0
 30
0.0
  3
_OPEN30
  1

  0
LINE
  5
5A
330
59
100
AcDbEntity
  8
0
 62
     0
100
AcDbLine
 10
-1.0
 20
0.26794919
 30
0.0
 11
0.0
 21
0.0
 31
0.0
  0
LINE
  5
5B
330
59
100
AcDbEntity
  8
0
 62
     0
100
AcDbLine
 10
0.0
 20
0.0
 30
0.0
 11
-1.0
 21
-0.26794919
 31
0.0
  0
LINE
  5
5C
330
59
100
AcDbEntity
  8
0
 62
     0
100
AcDbLine
 10
0.0
 20
0.0
 30
0.0
 11
-1.0
 21
0.0
 31
0.0
  0
ENDBLK
  5
5E
330
59
100
AcDbEntity
  8
0
100
AcDbBlockEnd
  0
BLOCK
  5
66
330
64
100
AcDbEntity
  8
0
100
AcDbBlockBegin
  2
GENAXEH
 70
     0
 10
0.0
 20
0.0
 30
0.0
  3
GENAXEH
  1

  0
LINE
  5
65
330
64
100
AcDbEntity
  8
0
100
AcDbLine
 10
-1.0
 20
0.0
 30
0.0
 11
1.0
 21
0.0
 31
0.0
  0
ENDBLK
  5
67
330
64
100
AcDbEntity
  8
0
100
AcDbBlockEnd
  0
BLOCK
  5
C4B
330
C31
100
AcDbEntity
  8
0
100
AcDbBlockBegin
  2
A$C36D02A34
 70
     0
 10
0.0
 20
0.0
 30
0.0
  3
A$C36D02A34
  1

  0
ARC
  5
C32
330
C31
100
AcDbEntity
  8
PV0001_1
  6
CONTINUOUS
 48
0.5
100
AcDbCircle
 10
18.06811523436999
 20
-11.83651161193799
 30
0.0
 40
21.600000381469
100
AcDbArc
 50
123.2290435713209
 51
126.6341524197568
  0
ARC
  5
C33
330
C31
100
AcDbEntity
  8
PV0001_1
  6
CONTINUOUS
 48
0.5
100
AcDbCircle
 10
18.06811523436999
 20
-11.83651161193799
 30
0.0
 40
21.600000381469
100
AcDbArc
 50
135.0736707620117
 51
146.7709980930592
  0
ARC
  5
C34
330
C31
100
AcDbEntity
  8
PV0001_1
  6
CONTINUOUS
 48
0.5
100
AcDbCircle
 10
-18.0680770874
 20
11.8365631103514
 30
0.0
 40
21.600000381469
100
AcDbArc
 50
315.0734847530392
 51
326.770781348241
  0
ARC
  5
C35
330
C31
100
AcDbEntity
  8
PV0001_1
  6
CONTINUOUS
 48
0.5
100
AcDbCircle
 10
-18.0680770874
 20
11.8365631103514
 30
0.0
 40
21.600000381469
100
AcDbArc
 50
303.2288882981993
 51
306.633986901359
  0
ARC
  5
C36
330
C31
100
AcDbEntity
  8
PV0001_1
  6
CONTINUOUS
 48
0.5
100
AcDbCircle
 10
-0.6269836425800009
 20
-2.044216156005997
 30
0.0
 40
2.0
100
AcDbArc
 50
337.4067997351092
 51
43.42231293132884
  0
ARC
  5
C37
330
C31
100
AcDbEntity
  8
PV0001_1
  6
CONTINUOUS
 48
0.5
100
AcDbCircle
 10
0.626953125
 20
2.044223785401001
 30
0.0
 40
2.0
100
AcDbArc
 50
157.4068184044407
 51
223.4222769591536
  0
CIRCLE
  5
C38
330
C31
100
AcDbEntity
  8
PV0001_1
  6
CONTINUOUS
 48
0.5
100
AcDbCircle
 10
3.856727600100001
 20
4.596265792847002
 30
0.0
 40
1.6000000238419
  0
CIRCLE
  5
C39
330
C31
100
AcDbEntity
  8
PV0001_1
  6
CONTINUOUS
 48
0.5
100
AcDbCircle
 10
-3.856727600100001
 20
-4.596265792845997
 30
0.0
 40
1.6000000238419
  0
ARC
  5
C3A
330
C31
100
AcDbEntity
  8
PV0001_1
  6
CONTINUOUS
 48
0.5
100
AcDbCircle
 10
-5.58123779297
 20
5.092639923096001
 30
0.0
 40
5.019082546234099
100
AcDbArc
 50
240.2658959250867
 51
321.5156269706421
  0
ARC
  5
C3B
330
C31
100
AcDbEntity
  8
PV0001_1
  6
CONTINUOUS
 48
0.5
100
AcDbCircle
 10
5.486755371089998
 20
-4.601703643798998
 30
0.0
 40
4.651036739349399
100
AcDbArc
 50
56.25271400417071
 51
145.528859890601
  0
ARC
  5
C3C
330
C31
100
AcDbEntity
  8
PV0001_1
  6
CONTINUOUS
 48
0.5
100
AcDbCircle
 10
-2.11590576172
 20
-3.453323364257997
 30
0.0
 40
4.050000190734899
100
AcDbArc
 50
43.42230610113921
 51
58.50391703385149
  0
ARC
  5
C3D
330
C31
100
AcDbEntity
  8
PV0001_1
  6
CONTINUOUS
 48
0.5
100
AcDbCircle
 10
2.115875244139999
 20
3.453330993653001
 30
0.0
 40
4.050000190734899
100
AcDbArc
 50
223.4222942619974
 51
238.5038164022482
  0
ARC
  5
C3E
330
C31
100
AcDbEntity
  8
PV0001_1
  6
CONTINUOUS
 48
0.5
100
AcDbCircle
 10
-6.70369720459
 20
5.094657897949002
 30
0.0
 40
5.940000057220499
100
AcDbArc
 50
328.2536768887549
 51
31.74641873389623
  0
ARC
  5
C3F
330
C31
100
AcDbEntity
  8
PV0001_1
  6
CONTINUOUS
 48
0.5
100
AcDbCircle
 10
6.703674316410001
 20
-5.094650268553998
 30
0.0
 40
5.940000057220499
100
AcDbArc
 50
148.2533403882529
 51
211.7466423089037
  0
ARC
  5
C40
330
C31
100
AcDbEntity
  8
PV0001_1
  6
CONTINUOUS
 48
0.5
100
AcDbCircle
 10
0.0
 20
0.0
 30
0.0
 40
8.812800407409699
100
AcDbArc
 50
175.2198288164333
 51
272.8622597568298
  0
ARC
  5
C41
330
C31
100
AcDbEntity
  8
PV0001_1
  6
CONTINUOUS
 48
0.5
100
AcDbCircle
 10
0.0
 20
0.0
 30
0.0
 40
9.1800003051758
100
AcDbArc
 50
272.7511362215027
 51
280.3697477877874
  0
ARC
  5
C42
330
C31
100
AcDbEntity
  8
PV0001_1
  6
CONTINUOUS
 48
0.5
100
AcDbCircle
 10
0.0
 20
0.0
 30
0.0
 40
8.812800407409699
100
AcDbArc
 50
355.2198199654955
 51
92.86229572901076
  0
ARC
  5
C43
330
C31
100
AcDbEntity
  8
PV0001_1
  6
CONTINUOUS
 48
0.5
100
AcDbCircle
 10
0.0
 20
0.0
 30
0.0
 40
9.1800003051758
100
AcDbArc
 50
92.75115489083434
 51
100.3697664571193
  0
CIRCLE
  5
C44
330
C31
100
AcDbEntity
  8
PV0001_1
  6
CONTINUOUS
100
AcDbCircle
 10
0.0
 20
0.0
 30
0.0
 40
9.1800003051758
  0
LINE
  5
C45
330
C31
100
AcDbEntity
  8
PV0001_1
  6
CONTINUOUS
 48
0.5
100
AcDbLine
 10
-1.652404785160001
 20
9.030059814453
 30
0.0
 11
-1.652404785160001
 21
8.220062255860002
 31
0.0
  0
LINE
  5
C46
330
C31
100
AcDbEntity
  8
PV0001_1
  6
CONTINUOUS
 48
0.5
100
AcDbLine
 10
1.652404785160001
 20
-8.220058441161999
 30
0.0
 11
1.652404785160001
 21
-9.030055999755997
 31
0.0
  0
LINE
  5
C47
330
C31
100
AcDbEntity
  8
PV0001_1
  6
CONTINUOUS
 48
0.5
100
AcDbLine
 10
-8.78217315674
 20
0.7343807220460015
 30
0.0
 11
-8.070594787600001
 21
0.7343997955320028
 31
0.0
  0
LINE
  5
C48
330
C31
100
AcDbEntity
  8
PV0001_1
  6
CONTINUOUS
 48
0.5
100
AcDbLine
 10
8.07057952881
 20
-0.7343864440919994
 30
0.0
 11
8.78215789795
 21
-0.7343654632569994
 31
0.0
  0
LINE
  5
C49
330
C31
100
AcDbEntity
  8
PV0001_1
  6
CONTINUOUS
 48
0.5
100
AcDbLine
 10
0.4406127929700006
 20
-9.169414520263
 30
0.0
 11
0.4406127929700006
 21
-8.812801361083998
 31
0.0
  0
LINE
  5
C4A
330
C31
100
AcDbEntity
  8
PV0001_1
  6
CONTINUOUS
 48
0.5
100
AcDbLine
 10
-0.4406127929700006
 20
9.169418334961001
 30
0.0
 11
-0.4406127929700006
 21
8.812805175781001
 31
0.0
  0
ENDBLK
  5
C4C
330
C31
100
AcDbEntity
  8
0
100
AcDbBlockEnd
  0
BLOCK
  5
245D
330
2453
100
AcDbEntity
  8
0
100
AcDbBlockBegin
  2
*D6
 70
     1
 10
0.0
 20
0.0
 30
0.0
  3
*D6
  1

  0
LINE
  5
2454
330
2453
100
AcDbEntity
  8
AM_5
 62
     3
100
AcDbLine
 10
-137.574381722344
 20
-5.00000294019065
 30
0.0
 11
-152.8199008769066
 21
-5.000002940190694
 31
0.0
  0
LINE
  5
2455
330
2453
100
AcDbEntity
  8
AM_5
 62
     3
100
AcDbLine
 10
-137.5743817223442
 20
5.00002461040103
 30
0.0
 11
-152.8199008769066
 21
5.000024610400987
 31
0.0
  0
LINE
  5
2456
330
2453
100
AcDbEntity
  8
AM_5
 62
     3
100
AcDbLine
 10
-151.8199008769066
 20
-2.500002940190691
 30
0.0
 11
-151.8199008769066
 21
2.50002461040099
 31
0.0
  0
INSERT
  5
2457
330
2453
100
AcDbEntity
  8
AM_5
 62
     3
100
AcDbBlockReference
  2
_OPEN30
 10
-151.8199008769066
 20
-5.00000294019069
 30
0.0
 41
2.5
 42
2.5
 43
2.5
 50
270.0000000000001
  0
INSERT
  5
2458
330
2453
100
AcDbEntity
  8
AM_5
 62
     3
100
AcDbBlockReference
  2
_OPEN30
 10
-151.8199008769066
 20
5.00002461040099
 30
0.0
 41
2.5
 42
2.5
 43
2.5
 50
90.00000000000015
  0
MTEXT
  5
2459
330
2453
100
AcDbEntity
  8
AM_5
 62
     2
100
AcDbMText
 10
-155.2199008769066
 20
0.000010835105146
 30
0.0
 40
3.799999999999999
 41
0.0
 71
     5
 72
     1
  1
%%c10
 11
-0.0000000000000028
 21
1.0
 31
0.0
1001
ACAD
1000
MTEXTBEGIN
1070
    73
1070
     1
1070
    44
1040
1.0
1070
    74
1070
     0
1000
MTEXTEND
  0
POINT
  5
245A
330
2453
100
AcDbEntity
  8
DEFPOINTS
 62
     0
100
AcDbPoint
 10
-137.5743817223441
 20
-5.000002940190223
 30
0.0
  0
POINT
  5
245B
330
2453
100
AcDbEntity
  8
DEFPOINTS
 62
     0
100
AcDbPoint
 10
-137.5743817223441
 20
5.000024610401458
 30
0.0
  0
POINT
  5
245C
330
2453
100
AcDbEntity
  8
DEFPOINTS
 62
     0
100
AcDbPoint
 10
-151.8199008769066
 20
5.000024610401462
 30
0.0
  0
ENDBLK
  5
245E
330
2453
100
AcDbEntity
  8
0
100
AcDbBlockEnd
  0
BLOCK
  5
246B
330
245F
100
AcDbEntity
  8
0
100
AcDbBlockBegin
  2
A$C4FFC6CC0
 70
     0
 10
0.0
 20
0.0
 30
0.0
  3
A$C4FFC6CC0
  1

  0
DIMENSION
  5
2460
330
245F
100
AcDbEntity
  8
AM_5
100
AcDbDimension
  2
*D6
 10
-70.00000100000002
 20
5.000008477104842
 30
0.0
 11
-70.00000100000002
 21
-0.0000052981910228
 31
0.0
 12
81.81989987690661
 22
-0.0000161332966199
 32
0.0
 70
   128
  1
%%c<>
 51
359.9999999999998
  3
AM_JIS$0
100
AcDbAlignedDimension
 13
-55.75448184543748
 23
-5.000019073486843
 33
0.0
 14
-55.75448184543756
 24
5.000008477104838
 34
0.0
 50
270.0
100
AcDbRotatedDimension
1001
ACAD
1000
DSTYLE
1002
{
1070
   271
1070
     0
1002
}
1001
GENIUS_GENDTOL_13
1000

1000
h7
1000

1040
0.0
  0
LINE
  5
2461
330
245F
100
AcDbEntity
  8
AM_0
 48
0.5
100
AcDbLine
 10
-56.0
 20
-4.754495620727796
 30
0.0
 11
-56.00000000000003
 21
4.754485024345811
 31
0.0
  0
LINE
  5
2462
330
245F
100
AcDbEntity
  8
AM_0
 48
0.5
100
AcDbLine
 10
-55.75448184543751
 20
-5.000019073486843
 30
0.0
 11
-55.75448184543754
 21
5.000008477104838
 31
0.0
  0
LINE
  5
2463
330
245F
100
AcDbEntity
  8
AM_0
100
AcDbLine
 10
-0.0000000000000142
 20
4.999995231627903
 30
0.0
 11
-55.75448184543754
 21
4.999995231627746
 31
0.0
  0
LINE
  5
2464
330
245F
100
AcDbEntity
  8
AM_0
 48
0.5
100
AcDbLine
 10
-55.99996821086117
 20
4.754439989725671
 30
0.0
 11
-55.75443945990975
 21
4.999963442484006
 31
0.0
  0
LINE
  5
2465
330
245F
100
AcDbEntity
  8
AM_0
100
AcDbLine
 10
-55.75448184543751
 20
-5.000008477105588
 30
0.0
 11
0.0000000000000142
 21
-5.00000847710543
 31
0.0
  0
LINE
  5
2466
330
245F
100
AcDbEntity
  8
AM_0
 48
0.5
100
AcDbLine
 10
-55.99996821086114
 20
-4.754474427965309
 30
0.0
 11
-55.75443945990972
 21
-4.999997880724334
 31
0.0
  0
LINE
  5
2467
330
245F
100
AcDbEntity
  8
AM_0
100
AcDbLine
 10
0.7794201296714505
 20
4.549985867772141
 30
0.0
 11
0.7794201296714789
 21
-4.550003370497427
 31
0.0
  0
LINE
  5
2468
330
245F
100
AcDbEntity
  8
AM_0
 48
0.5
100
AcDbLine
 10
0.0000000000000142
 20
-5.00000847710543
 30
0.0
 11
-0.0000000000000142
 21
5.000008477104995
 31
0.0
  0
LINE
  5
2469
330
245F
100
AcDbEntity
  8
AM_0
 48
0.5
100
AcDbLine
 10
0.7794201296714647
 20
-4.550003370497435
 30
0.0
 11
-0.0000105963812445
 21
-5.00000847710543
 31
0.0
  0
LINE
  5
246A
330
245F
100
AcDbEntity
  8
AM_0
 48
0.5
100
AcDbLine
 10
0.7794201296714647
 20
4.549985867772141
 30
0.0
 11
-0.0000000000000142
 21
4.999984635246652
 31
0.0
  0
ENDBLK
  5
246C
330
245F
100
AcDbEntity
  8
0
100
AcDbBlockEnd
  0
BLOCK
  5
36C9
330
36BB
100
AcDbEntity
  8
0
100
AcDbBlockBegin
  2
*D8
 70
     1
 10
0.0
 20
0.0
 30
0.0
  3
*D8
  1

  0
LINE
  5
3778
330
36BB
100
AcDbEntity
  8
AM_5
100
AcDbLine
 10
0.3420201408161502
 20
-0.9396926216994629
 30
0.0
 11
9.05039403968759
 21
-24.86575346782887
 31
0.0
  0
LINE
  5
3779
330
36BB
100
AcDbEntity
  8
AM_5
100
AcDbLine
 10
0.3420201408161393
 20
0.939692621699157
 30
0.0
 11
9.050394039687303
 21
24.86575346782866
 31
0.0
  0
ARC
  5
377A
330
36BB
100
AcDbEntity
  8
AM_5
100
AcDbCircle
 10
0.0000000000000263
 20
-0.000000000000155
 30
0.0
 40
25.46158211060797
100
AcDbArc
 50
295.6279710168337
 51
64.37202898316695
  0
INSERT
  5
377B
330
36BB
100
AcDbEntity
  8
AM_5
100
AcDbBlockReference
  2
_OPEN30
 10
8.708373898871467
 20
-23.92606084612956
 30
0.0
 41
2.5
 42
2.5
 43
2.5
 50
202.8139854319097
  0
INSERT
  5
377C
330
36BB
100
AcDbEntity
  8
AM_5
100
AcDbBlockReference
  2
_OPEN30
 10
8.708373898871188
 20
23.92606084612935
 30
0.0
 41
2.5
 42
2.5
 43
2.5
 50
157.1860145680908
  0
MTEXT
  5
377D
330
36BB
100
AcDbEntity
  8
AM_5
 62
     2
100
AcDbMText
 10
22.361582110608
 20
-0.0000000000000054
 30
0.0
 40
3.2
 41
0.0
 71
     5
 72
     1
  1
140°
  7
ASAMI
 11
-0.0000000000000028
 21
1.0
 31
0.0
1001
ACAD
1000
MTEXTBEGIN
1070
    73
1070
     1
1070
    44
1040
1.0
1070
    74
1070
     0
1000
MTEXTEND
  0
POINT
  5
377E
330
36BB
100
AcDbEntity
  8
DEFPOINTS
 62
     0
100
AcDbPoint
 10
23.3792347916374
 20
-10.08481750616873
 30
0.0
  0
POINT
  5
377F
330
36BB
100
AcDbEntity
  8
DEFPOINTS
 62
     0
100
AcDbPoint
 10
0.0
 20
-0.0000000000002274
 30
0.0
  0
POINT
  5
3780
330
36BB
100
AcDbEntity
  8
DEFPOINTS
 62
     0
100
AcDbPoint
 10
0.0
 20
-0.0000000000000827
 30
0.0
  0
POINT
  5
3781
330
36BB
100
AcDbEntity
  8
DEFPOINTS
 62
     0
100
AcDbPoint
 10
-2.547791618692619
 20
6.999999999999763
 30
0.0
  0
POINT
  5
3782
330
36BB
100
AcDbEntity
  8
DEFPOINTS
 62
     0
100
AcDbPoint
 10
-2.547791618692583
 20
-7.000000000000091
 30
0.0
  0
ENDBLK
  5
36CA
330
36BB
100
AcDbEntity
  8
0
100
AcDbBlockEnd
  0
BLOCK
  5
3871
330
3867
100
AcDbEntity
  8
0
100
AcDbBlockBegin
  2
*D9
 70
     1
 10
0.0
 20
0.0
 30
0.0
  3
*D9
  1

  0
LINE
  5
4137
330
3867
100
AcDbEntity
  8
AM_5
 62
     3
100
AcDbLine
 10
-147.9598600285408
 20
7.999945983885356
 30
0.0
 11
-162.1598600285408
 21
7.999945983885316
 31
0.0
  0
LINE
  5
4138
330
3867
100
AcDbEntity
  8
AM_5
 62
     3
100
AcDbLine
 10
-147.9598600285407
 20
-8.000005493165422
 30
0.0
 11
-162.1598600285407
 21
-8.000005493165463
 31
0.0
  0
LINE
  5
4139
330
3867
100
AcDbEntity
  8
AM_5
 62
     3
100
AcDbLine
 10
-161.1598600285408
 20
5.499945983885319
 30
0.0
 11
-161.1598600285407
 21
-5.500005493165462
 31
0.0
  0
INSERT
  5
413A
330
3867
100
AcDbEntity
  8
AM_5
 62
     3
100
AcDbBlockReference
  2
_OPEN30
 10
-161.1598600285408
 20
7.999945983885319
 30
0.0
 41
2.5
 42
2.5
 43
2.5
 50
90.00000000000017
  0
INSERT
  5
413B
330
3867
100
AcDbEntity
  8
AM_5
 62
     3
100
AcDbBlockReference
  2
_OPEN30
 10
-161.1598600285407
 20
-8.000005493165462
 30
0.0
 41
2.5
 42
2.5
 43
2.5
 50
270.0000000000001
  0
MTEXT
  5
413C
330
3867
100
AcDbEntity
  8
AM_5
 62
     2
100
AcDbMText
 10
-164.5598600285407
 20
-0.0000297546400745
 30
0.0
 40
3.799999999999999
 41
0.0
 71
     5
 72
     1
  1
%%C16
 11
-0.0000000000000028
 21
1.0
 31
0.0
1001
ACAD
1000
MTEXTBEGIN
1070
    73
1070
     1
1070
    44
1040
1.0
1070
    74
1070
     0
1000
MTEXTEND
  0
POINT
  5
413D
330
3867
100
AcDbEntity
  8
DEFPOINTS
 62
     0
100
AcDbPoint
 10
-147.1598600285408
 20
7.999945983885816
 30
0.0
  0
POINT
  5
413E
330
3867
100
AcDbEntity
  8
DEFPOINTS
 62
     0
100
AcDbPoint
 10
-147.1598600285407
 20
-8.000005493164964
 30
0.0
  0
POINT
  5
413F
330
3867
100
AcDbEntity
  8
DEFPOINTS
 62
     0
100
AcDbPoint
 10
-161.1598600285407
 20
-8.000005493164961
 30
0.0
  0
ENDBLK
  5
3872
330
3867
100
AcDbEntity
  8
0
100
AcDbBlockEnd
  0
BLOCK
  5
399B
330
3991
100
AcDbEntity
  8
0
100
AcDbBlockBegin
  2
*D10
 70
     1
 10
0.0
 20
0.0
 30
0.0
  3
*D10
  1

  0
LINE
  5
412E
330
3991
100
AcDbEntity
  8
AM_5
 62
     3
100
AcDbLine
 10
-2.584188641816873
 20
7.799999999999828
 30
0.0
 11
-2.584188641816913
 21
22.12982160606341
 31
0.0
  0
LINE
  5
412F
330
3991
100
AcDbEntity
  8
AM_5
 62
     3
100
AcDbLine
 10
-80.58418864181684
 20
7.799999999999553
 30
0.0
 11
-80.58418864181687
 21
22.12982160606319
 31
0.0
  0
LINE
  5
4130
330
3991
100
AcDbEntity
  8
AM_5
 62
     3
100
AcDbLine
 10
-5.08418864181691
 20
21.1298216060634
 30
0.0
 11
-78.08418864181686
 21
21.12982160606319
 31
0.0
  0
INSERT
  5
4131
330
3991
100
AcDbEntity
  8
AM_5
 62
     3
100
AcDbBlockReference
  2
_OPEN30
 10
-2.58418864181691
 20
21.12982160606341
 30
0.0
 41
2.5
 42
2.5
 43
2.5
 50
0.0000000000001527
  0
INSERT
  5
4132
330
3991
100
AcDbEntity
  8
AM_5
 62
     3
100
AcDbBlockReference
  2
_OPEN30
 10
-80.58418864181687
 20
21.12982160606319
 30
0.0
 41
2.5
 42
2.5
 43
2.5
 50
180.0000000000001
  0
MTEXT
  5
4133
330
3991
100
AcDbEntity
  8
AM_5
 62
     2
100
AcDbMText
 10
-41.58418864181689
 20
24.5298216060633
 30
0.0
 40
3.799999999999999
 41
0.0
 71
     5
 72
     1
  1
78
1001
ACAD
1000
MTEXTBEGIN
1070
    73
1070
     1
1070
    44
1040
1.0
1070
    74
1070
     0
1000
MTEXTEND
  0
POINT
  5
4134
330
3991
100
AcDbEntity
  8
DEFPOINTS
 62
     0
100
AcDbPoint
 10
-2.58418864181685
 20
6.999999999999835
 30
0.0
  0
POINT
  5
4135
330
3991
100
AcDbEntity
  8
DEFPOINTS
 62
     0
100
AcDbPoint
 10
-80.5841886418168
 20
6.999999999999787
 30
0.0
  0
POINT
  5
4136
330
3991
100
AcDbEntity
  8
DEFPOINTS
 62
     0
100
AcDbPoint
 10
-80.5841886418168
 20
21.12982160606342
 30
0.0
  0
ENDBLK
  5
399C
330
3991
100
AcDbEntity
  8
0
100
AcDbBlockEnd
  0
BLOCK
  5
3B18
330
3B0E
100
AcDbEntity
  8
0
100
AcDbBlockBegin
  2
*D11
 70
     1
 10
0.0
 20
0.0
 30
0.0
  3
*D11
  1

  0
LINE
  5
4125
330
3B0E
100
AcDbEntity
  8
AM_5
 62
     3
100
AcDbLine
 10
-2.584188641816892
 20
11.10518360585826
 30
0.0
 11
-2.584188641816952
 21
31.99788174485804
 31
0.0
  0
LINE
  5
4126
330
3B0E
100
AcDbEntity
  8
AM_5
 62
     3
100
AcDbLine
 10
-82.58418864181686
 20
7.799999999999545
 30
0.0
 11
-82.58418864181694
 21
31.99788174485781
 31
0.0
  0
LINE
  5
4127
330
3B0E
100
AcDbEntity
  8
AM_5
 62
     3
100
AcDbLine
 10
-5.084188641816949
 20
30.99788174485803
 30
0.0
 11
-80.08418864181692
 21
30.99788174485782
 31
0.0
  0
INSERT
  5
4128
330
3B0E
100
AcDbEntity
  8
AM_5
 62
     3
100
AcDbBlockReference
  2
_OPEN30
 10
-2.584188641816949
 20
30.99788174485804
 30
0.0
 41
2.5
 42
2.5
 43
2.5
 50
0.0000000000001527
  0
INSERT
  5
4129
330
3B0E
100
AcDbEntity
  8
AM_5
 62
     3
100
AcDbBlockReference
  2
_OPEN30
 10
-82.58418864181692
 20
30.99788174485781
 30
0.0
 41
2.5
 42
2.5
 43
2.5
 50
180.0000000000001
  0
MTEXT
  5
412A
330
3B0E
100
AcDbEntity
  8
AM_5
 62
     2
100
AcDbMText
 10
-42.58418864181694
 20
34.39788174485793
 30
0.0
 40
3.799999999999999
 41
0.0
 71
     5
 72
     1
  1
80
1001
ACAD
1000
MTEXTBEGIN
1070
    73
1070
     1
1070
    44
1040
1.0
1070
    74
1070
     0
1000
MTEXTEND
  0
POINT
  5
412B
330
3B0E
100
AcDbEntity
  8
DEFPOINTS
 62
     0
100
AcDbPoint
 10
-2.58418864181686
 20
10.30518360585826
 30
0.0
  0
POINT
  5
412C
330
3B0E
100
AcDbEntity
  8
DEFPOINTS
 62
     0
100
AcDbPoint
 10
-82.58418864181683
 20
6.999999999999786
 30
0.0
  0
POINT
  5
412D
330
3B0E
100
AcDbEntity
  8
DEFPOINTS
 62
     0
100
AcDbPoint
 10
-82.58418864181683
 20
30.99788174485805
 30
0.0
  0
ENDBLK
  5
3B19
330
3B0E
100
AcDbEntity
  8
0
100
AcDbBlockEnd
  0
BLOCK
  5
3BC3
330
3BB9
100
AcDbEntity
  8
0
100
AcDbBlockBegin
  2
*D12
 70
     1
 10
0.0
 20
0.0
 30
0.0
  3
*D12
  1

  0
LINE
  5
4166
330
3BB9
100
AcDbEntity
  8
AM_5
 62
     3
100
AcDbLine
 10
-2.584197681554189
 20
-7.800000000000171
 30
0.0
 11
-2.584197681554118
 21
-32.86909391057141
 31
0.0
  0
LINE
  5
4167
330
3BB9
100
AcDbEntity
  8
AM_5
 62
     3
100
AcDbLine
 10
-99.58418864181675
 20
-8.800005493165153
 30
0.0
 11
-99.58418864181668
 21
-32.8690939105717
 31
0.0
  0
LINE
  5
4168
330
3BB9
100
AcDbEntity
  8
AM_5
 62
     3
100
AcDbLine
 10
-5.084197681554121
 20
-31.86909391057142
 30
0.0
 11
-97.08418864181668
 21
-31.86909391057169
 31
0.0
  0
INSERT
  5
4169
330
3BB9
100
AcDbEntity
  8
AM_5
 62
     3
100
AcDbBlockReference
  2
_OPEN30
 10
-2.58419768155412
 20
-31.86909391057141
 30
0.0
 41
2.5
 42
2.5
 43
2.5
 50
0.0000000000001527
  0
INSERT
  5
416A
330
3BB9
100
AcDbEntity
  8
AM_5
 62
     3
100
AcDbBlockReference
  2
_OPEN30
 10
-99.58418864181668
 20
-31.8690939105717
 30
0.0
 41
2.5
 42
2.5
 43
2.5
 50
180.0000000000001
  0
MTEXT
  5
416B
330
3BB9
100
AcDbEntity
  8
AM_5
 62
     2
100
AcDbMText
 10
-51.08419316168541
 20
-28.46909391057156
 30
0.0
 40
3.799999999999999
 41
0.0
 71
     5
 72
     1
  1
97
1001
ACAD
1000
MTEXTBEGIN
1070
    73
1070
     1
1070
    44
1040
1.0
1070
    74
1070
     0
1000
MTEXTEND
  0
POINT
  5
416C
330
3BB9
100
AcDbEntity
  8
DEFPOINTS
 62
     0
100
AcDbPoint
 10
-2.584197681554212
 20
-7.000000000000164
 30
0.0
  0
POINT
  5
416D
330
3BB9
100
AcDbEntity
  8
DEFPOINTS
 62
     0
100
AcDbPoint
 10
-99.58418864181679
 20
-8.000005493164863
 30
0.0
  0
POINT
  5
416E
330
3BB9
100
AcDbEntity
  8
DEFPOINTS
 62
     0
100
AcDbPoint
 10
-99.58418864181679
 20
-31.8690939105714
 30
0.0
  0
ENDBLK
  5
3BC4
330
3BB9
100
AcDbEntity
  8
0
100
AcDbBlockEnd
  0
BLOCK
  5
3C4B
330
3C41
100
AcDbEntity
  8
0
100
AcDbBlockBegin
  2
*D13
 70
     1
 10
0.0
 20
0.0
 30
0.0
  3
*D13
  1

  0
LINE
  5
4149
330
3C41
100
AcDbEntity
  8
AM_5
 62
     3
100
AcDbLine
 10
-99.58418864181679
 20
-8.800005493165146
 30
0.0
 11
-99.58418864181671
 21
-32.86909391057193
 31
0.0
  0
LINE
  5
414A
330
3C41
100
AcDbEntity
  8
AM_5
 62
     3
100
AcDbLine
 10
-147.5841886418167
 20
-8.375759277344499
 30
0.0
 11
-147.5841886418167
 21
-32.86909391057207
 31
0.0
  0
LINE
  5
414B
330
3C41
100
AcDbEntity
  8
AM_5
 62
     3
100
AcDbLine
 10
-102.0841886418167
 20
-31.86909391057194
 30
0.0
 11
-145.0841886418166
 21
-31.86909391057206
 31
0.0
  0
INSERT
  5
414C
330
3C41
100
AcDbEntity
  8
AM_5
 62
     3
100
AcDbBlockReference
  2
_OPEN30
 10
-99.58418864181671
 20
-31.86909391057193
 30
0.0
 41
2.5
 42
2.5
 43
2.5
 50
0.0000000000001527
  0
INSERT
  5
414D
330
3C41
100
AcDbEntity
  8
AM_5
 62
     3
100
AcDbBlockReference
  2
_OPEN30
 10
-147.5841886418167
 20
-31.86909391057207
 30
0.0
 41
2.5
 42
2.5
 43
2.5
 50
180.0000000000001
  0
MTEXT
  5
414E
330
3C41
100
AcDbEntity
  8
AM_5
 62
     2
100
AcDbMText
 10
-123.5841886418167
 20
-28.469093910572
 30
0.0
 40
3.799999999999999
 41
0.0
 71
     5
 72
     1
  1
48
1001
ACAD
1000
MTEXTBEGIN
1070
    73
1070
     1
1070
    44
1040
1.0
1070
    74
1070
     0
1000
MTEXTEND
  0
POINT
  5
414F
330
3C41
100
AcDbEntity
  8
DEFPOINTS
 62
     0
100
AcDbPoint
 10
-99.5841886418168
 20
-8.000005493164856
 30
0.0
  0
POINT
  5
4150
330
3C41
100
AcDbEntity
  8
DEFPOINTS
 62
     0
100
AcDbPoint
 10
-147.5841886418167
 20
-7.575759277344069
 30
0.0
  0
POINT
  5
4151
330
3C41
100
AcDbEntity
  8
DEFPOINTS
 62
     0
100
AcDbPoint
 10
-147.5841886418167
 20
-31.86909391057164
 30
0.0
  0
ENDBLK
  5
3C4C
330
3C41
100
AcDbEntity
  8
0
100
AcDbBlockEnd
  0
BLOCK
  5
3CD6
330
3CCC
100
AcDbEntity
  8
0
100
AcDbBlockBegin
  2
*D14
 70
     1
 10
0.0
 20
0.0
 30
0.0
  3
*D14
  1

  0
LINE
  5
4140
330
3CCC
100
AcDbEntity
  8
AM_5
 62
     3
100
AcDbLine
 10
-2.584188641816791
 20
-7.800000000000097
 30
0.0
 11
-2.584188641816688
 21
-44.11548554233241
 31
0.0
  0
LINE
  5
4141
330
3CCC
100
AcDbEntity
  8
AM_5
 62
     3
100
AcDbLine
 10
-147.5841886418167
 20
-8.375759277344499
 30
0.0
 11
-147.5841886418166
 21
-44.11548554233283
 31
0.0
  0
LINE
  5
4142
330
3CCC
100
AcDbEntity
  8
AM_5
 62
     3
100
AcDbLine
 10
-5.084188641816691
 20
-43.11548554233242
 30
0.0
 11
-145.0841886418166
 21
-43.11548554233282
 31
0.0
  0
INSERT
  5
4143
330
3CCC
100
AcDbEntity
  8
AM_5
 62
     3
100
AcDbBlockReference
  2
_OPEN30
 10
-2.584188641816691
 20
-43.11548554233241
 30
0.0
 41
2.5
 42
2.5
 43
2.5
 50
0.0000000000001527
  0
INSERT
  5
4144
330
3CCC
100
AcDbEntity
  8
AM_5
 62
     3
100
AcDbBlockReference
  2
_OPEN30
 10
-147.5841886418166
 20
-43.11548554233283
 30
0.0
 41
2.5
 42
2.5
 43
2.5
 50
180.0000000000001
  0
MTEXT
  5
4145
330
3CCC
100
AcDbEntity
  8
AM_5
 62
     2
100
AcDbMText
 10
-75.08418864181668
 20
-39.71548554233263
 30
0.0
 40
3.799999999999999
 41
0.0
 71
     5
 72
     1
  1
145
1001
ACAD
1000
MTEXTBEGIN
1070
    73
1070
     1
1070
    44
1040
1.0
1070
    74
1070
     0
1000
MTEXTEND
  0
POINT
  5
4146
330
3CCC
100
AcDbEntity
  8
DEFPOINTS
 62
     0
100
AcDbPoint
 10
-2.584188641816814
 20
-7.00000000000009
 30
0.0
  0
POINT
  5
4147
330
3CCC
100
AcDbEntity
  8
DEFPOINTS
 62
     0
100
AcDbPoint
 10
-147.5841886418167
 20
-7.575759277344069
 30
0.0
  0
POINT
  5
4148
330
3CCC
100
AcDbEntity
  8
DEFPOINTS
 62
     0
100
AcDbPoint
 10
-147.5841886418167
 20
-43.1154855423324
 30
0.0
  0
ENDBLK
  5
3CD7
330
3CCC
100
AcDbEntity
  8
0
100
AcDbBlockEnd
  0
BLOCK
  5
3D63
330
3D57
100
AcDbEntity
  8
0
100
AcDbBlockBegin
  2
*D15
 70
     1
 10
0.0
 20
0.0
 30
0.0
  3
*D15
  1

  0
LINE
  5
4152
330
3D57
100
AcDbEntity
  8
AM_5
 62
     3
100
AcDbLine
 10
-147.5841886418168
 20
-0.8000000000009251
 30
0.0
 11
-147.5841886418167
 21
-21.80121657883325
 31
0.0
  0
LINE
  5
4153
330
3D57
100
AcDbEntity
  8
AM_5
 62
     3
100
AcDbLine
 10
-141.5841886418168
 20
-0.8000000000008927
 30
0.0
 11
-141.5841886418167
 21
-21.80121657883324
 31
0.0
  0
LINE
  5
4154
330
3D57
100
AcDbEntity
  8
AM_5
 62
     3
100
AcDbLine
 10
-150.0841886418167
 20
-20.80121657883326
 30
0.0
 11
-152.5841886418167
 21
-20.80121657883327
 31
0.0
  0
LINE
  5
4155
330
3D57
100
AcDbEntity
  8
AM_5
 62
     3
100
AcDbLine
 10
-139.0841886418167
 20
-20.80121657883323
 30
0.0
 11
-136.5841886418167
 21
-20.80121657883322
 31
0.0
  0
LINE
  5
4156
330
3D57
100
AcDbEntity
  8
AM_5
 62
     3
100
AcDbLine
 10
-147.5841886418167
 20
-20.80121657883325
 30
0.0
 11
-141.5841886418167
 21
-20.80121657883323
 31
0.0
  0
INSERT
  5
4157
330
3D57
100
AcDbEntity
  8
AM_5
 62
     3
100
AcDbBlockReference
  2
_OPEN30
 10
-147.5841886418167
 20
-20.80121657883325
 30
0.0
 41
2.5
 42
2.5
 43
2.5
 50
0.0000000000001527
  0
INSERT
  5
4158
330
3D57
100
AcDbEntity
  8
AM_5
 62
     3
100
AcDbBlockReference
  2
_OPEN30
 10
-141.5841886418167
 20
-20.80121657883323
 30
0.0
 41
2.5
 42
2.5
 43
2.5
 50
180.0000000000001
  0
MTEXT
  5
4159
330
3D57
100
AcDbEntity
  8
AM_5
 62
     2
100
AcDbMText
 10
-144.5841886418167
 20
-17.40121657883324
 30
0.0
 40
3.799999999999999
 41
0.0
 71
     5
 72
     1
  1
6
1001
ACAD
1000
MTEXTBEGIN
1070
    73
1070
     1
1070
    44
1040
1.0
1070
    74
1070
     0
1000
MTEXTEND
  0
POINT
  5
415A
330
3D57
100
AcDbEntity
  8
DEFPOINTS
 62
     0
100
AcDbPoint
 10
-147.5841886418168
 20
-0.0000000000004957
 30
0.0
  0
POINT
  5
415B
330
3D57
100
AcDbEntity
  8
DEFPOINTS
 62
     0
100
AcDbPoint
 10
-141.5841886418168
 20
-0.0000000000004809
 30
0.0
  0
POINT
  5
415C
330
3D57
100
AcDbEntity
  8
DEFPOINTS
 62
     0
100
AcDbPoint
 10
-141.5841886418168
 20
-20.80121657883282
 30
0.0
  0
ENDBLK
  5
3D64
330
3D57
100
AcDbEntity
  8
0
100
AcDbBlockEnd
  0
BLOCK
  5
3E08
330
3DFE
100
AcDbEntity
  8
0
100
AcDbBlockBegin
  2
*D16
 70
     1
 10
0.0
 20
0.0
 30
0.0
  3
*D16
  1

  0
LINE
  5
415D
330
3DFE
100
AcDbEntity
  8
AM_5
 62
     3
100
AcDbLine
 10
-141.5841886418168
 20
-0.8000000000009189
 30
0.0
 11
-141.5841886418167
 21
-21.80121657883295
 31
0.0
  0
LINE
  5
415E
330
3DFE
100
AcDbEntity
  8
AM_5
 62
     3
100
AcDbLine
 10
-106.5841886418168
 20
-0.8000000000007394
 30
0.0
 11
-106.5841886418167
 21
-21.80121657883284
 31
0.0
  0
LINE
  5
415F
330
3DFE
100
AcDbEntity
  8
AM_5
 62
     3
100
AcDbLine
 10
-139.0841886418167
 20
-20.80121657883294
 30
0.0
 11
-109.0841886418167
 21
-20.80121657883285
 31
0.0
  0
INSERT
  5
4160
330
3DFE
100
AcDbEntity
  8
AM_5
 62
     3
100
AcDbBlockReference
  2
_OPEN30
 10
-141.5841886418167
 20
-20.80121657883295
 30
0.0
 41
2.5
 42
2.5
 43
2.5
 50
180.0000000000001
  0
INSERT
  5
4161
330
3DFE
100
AcDbEntity
  8
AM_5
 62
     3
100
AcDbBlockReference
  2
_OPEN30
 10
-106.5841886418167
 20
-20.80121657883285
 30
0.0
 41
2.5
 42
2.5
 43
2.5
 50
0.0000000000001527
  0
MTEXT
  5
4162
330
3DFE
100
AcDbEntity
  8
AM_5
 62
     2
100
AcDbMText
 10
-124.0841886418167
 20
-17.4012165788329
 30
0.0
 40
3.799999999999999
 41
0.0
 71
     5
 72
     1
  1
35
1001
ACAD
1000
MTEXTBEGIN
1070
    73
1070
     1
1070
    44
1040
1.0
1070
    74
1070
     0
1000
MTEXTEND
  0
POINT
  5
4163
330
3DFE
100
AcDbEntity
  8
DEFPOINTS
 62
     0
100
AcDbPoint
 10
-141.5841886418168
 20
-0.000000000000507
 30
0.0
  0
POINT
  5
4164
330
3DFE
100
AcDbEntity
  8
DEFPOINTS
 62
     0
100
AcDbPoint
 10
-106.5841886418168
 20
-0.0000000000004294
 30
0.0
  0
POINT
  5
4165
330
3DFE
100
AcDbEntity
  8
DEFPOINTS
 62
     0
100
AcDbPoint
 10
-106.5841886418168
 20
-20.80121657883254
 30
0.0
  0
ENDBLK
  5
3E09
330
3DFE
100
AcDbEntity
  8
0
100
AcDbBlockEnd
  0
BLOCK
  5
40BE
330
40B2
100
AcDbEntity
  8
0
100
AcDbBlockBegin
  2
*D17
 70
     1
 10
0.0
 20
0.0
 30
0.0
  3
*D17
  1

  0
LINE
  5
4112
330
40B2
100
AcDbEntity
  8
AM_5
 62
     3
100
AcDbLine
 10
-1.784188641816833
 20
7.099999999999835
 30
0.0
 11
15.49572145358843
 21
7.099999999999884
 31
0.0
  0
LINE
  5
4113
330
40B2
100
AcDbEntity
  8
AM_5
 62
     3
100
AcDbLine
 10
-1.784188641816771
 20
-7.100000000000164
 30
0.0
 11
15.49572145358848
 21
-7.100000000000115
 31
0.0
  0
LINE
  5
4114
330
40B2
100
AcDbEntity
  8
AM_5
 62
     3
100
AcDbLine
 10
14.49572145358844
 20
4.599999999999881
 30
0.0
 11
14.49572145358847
 21
-4.600000000000118
 31
0.0
  0
INSERT
  5
4115
330
40B2
100
AcDbEntity
  8
AM_5
 62
     3
100
AcDbBlockReference
  2
_OPEN30
 10
14.49572145358843
 20
7.099999999999881
 30
0.0
 41
2.5
 42
2.5
 43
2.5
 50
90.00000000000017
  0
INSERT
  5
4116
330
40B2
100
AcDbEntity
  8
AM_5
 62
     3
100
AcDbBlockReference
  2
_OPEN30
 10
14.49572145358848
 20
-7.100000000000118
 30
0.0
 41
2.5
 42
2.5
 43
2.5
 50
270.0000000000001
  0
MTEXT
  5
4117
330
40B2
100
AcDbEntity
  8
AM_5
 62
     2
100
AcDbMText
 10
11.09572145358845
 20
-0.0000000000001285
 30
0.0
 40
3.799999999999999
 41
0.0
 71
     5
 72
     1
  1
%%C14.2
 11
-0.0000000000000028
 21
1.0
 31
0.0
1001
ACAD
1000
MTEXTBEGIN
1070
    73
1070
     1
1070
    44
1040
1.0
1070
    74
1070
     0
1000
MTEXTEND
  0
POINT
  5
4118
330
40B2
100
AcDbEntity
  8
DEFPOINTS
 62
     0
100
AcDbPoint
 10
-2.584188641816811
 20
7.099999999999841
 30
0.0
  0
POINT
  5
4119
330
40B2
100
AcDbEntity
  8
DEFPOINTS
 62
     0
100
AcDbPoint
 10
-2.584188641816793
 20
-7.100000000000158
 30
0.0
  0
POINT
  5
411A
330
40B2
100
AcDbEntity
  8
DEFPOINTS
 62
     0
100
AcDbPoint
 10
14.49572145358845
 20
-7.100000000000163
 30
0.0
  0
ENDBLK
  5
40BF
330
40B2
100
AcDbEntity
  8
0
100
AcDbBlockEnd
  0
ENDSEC
  0
SECTION
  2
ENTITIES
  0
TEXT
  5
19BD
330
1F
100
AcDbEntity
  8
AM_6
100
AcDbText
 10
-95.40493447583523
 20
-65.61548554233268
 30
0.0
 40
5.0
  1
KDS142LAK
 50
0.0000000000001527
 72
     4
 11
-75.04779161869238
 21
-63.11548554233262
 31
0.0
100
AcDbText
  0
LINE
  5
35D1
330
1F
100
AcDbEntity
  8
AM_7
100
AcDbLine
 10
4.745369175493294
 20
-0.0000000000001137
 30
0.0
 11
-151.5045573464758
 21
-0.0000000000004985
 31
0.0
  0
LINE
  5
35EA
330
1F
100
AcDbEntity
  8
PV0001_1
  6
CONTINUOUS
100
AcDbLine
 10
-147.1599332707327
 20
-8.000005493164964
 30
0.0
 11
-99.58418864181679
 21
-8.000005493164854
 31
0.0
  0
LINE
  5
35EB
330
1F
100
AcDbEntity
  8
PV0001_1
  6
CONTINUOUS
100
AcDbLine
 10
-99.58418864181684
 20
8.000000915526261
 30
0.0
 11
-147.1599332707328
 21
8.00000091552615
 31
0.0
  0
LINE
  5
35F4
330
1F
100
AcDbEntity
  8
PV0001_1
  6
CONTINUOUS
 48
0.5
100
AcDbLine
 10
-82.58418864181681
 20
7.100000000000007
 30
0.0
 11
-99.58418864181679
 21
8.00000091552625
 31
0.0
  0
LINE
  5
35F5
330
1F
100
AcDbEntity
  8
PV0001_1
  6
CONTINUOUS
 48
0.5
100
AcDbLine
 10
-82.58418864181678
 20
-7.100000000000145
 30
0.0
 11
-99.58418864181675
 21
-8.000005493164863
 31
0.0
  0
LINE
  5
35F9
330
1F
100
AcDbEntity
  8
PV0001_1
  6
CONTINUOUS
 48
0.5
100
AcDbLine
 10
-147.1599332707327
 20
-0.0000000000006111
 30
0.0
 11
-147.1599332707328
 21
8.000023803710618
 31
0.0
  0
LINE
  5
35FA
330
1F
100
AcDbEntity
  8
PV0001_1
  6
CONTINUOUS
 48
0.5
100
AcDbLine
 10
-147.5841886418168
 20
-0.0000000000006111
 30
0.0
 11
-147.5841886418168
 21
7.575759277343139
 31
0.0
  0
LINE
  5
35FB
330
1F
100
AcDbEntity
  8
PV0001_1
  6
CONTINUOUS
 48
0.5
100
AcDbLine
 10
-147.5841337101847
 20
7.575681457519503
 30
0.0
 11
-147.1598600285408
 21
7.999945983885816
 31
0.0
  0
LINE
  5
35FD
330
1F
100
AcDbEntity
  8
PV0001_1
  6
CONTINUOUS
 48
0.5
100
AcDbLine
 10
-147.5841337101847
 20
-7.575722656250611
 30
0.0
 11
-147.1598600285407
 21
-7.999987182618089
 31
0.0
  0
LINE
  5
3601
330
1F
100
AcDbEntity
  8
PV0001_1
  6
CONTINUOUS
 48
0.5
100
AcDbLine
 10
-147.5841886418168
 20
-0.0000000000006111
 30
0.0
 11
-147.5841886418167
 21
-7.57575927734407
 31
0.0
  0
LINE
  5
3602
330
1F
100
AcDbEntity
  8
PV0001_1
  6
CONTINUOUS
 48
0.5
100
AcDbLine
 10
-147.1599332707327
 20
-0.0000000000006111
 30
0.0
 11
-147.1599332707327
 21
-8.000023803711838
 31
0.0
  0
DIMENSION
  5
36BA
330
1F
100
AcDbEntity
  8
AM_5
100
AcDbDimension
  2
*D8
 10
-2.547791618692583
 20
-7.000000000000091
 30
0.0
 11
22.361582110608
 21
-0.000000000000074
 31
0.0
 70
    34
  1
<>
 51
359.9999999999998
  3
AM_JIS$2
100
AcDb2LineAngularDimension
 13
0.0
 23
-0.0000000000000827
 33
0.0
 14
-2.547791618692619
 24
6.999999999999763
 34
0.0
 15
0.0
 25
-0.0000000000002274
 35
0.0
 16
23.3792347916374
 26
-10.08481750616873
 36
0.0
1001
ACAD
1000
DSTYLE
1002
{
1070
   179
1070
     3
1002
}
1001
GENIUS_GENDTOL_13
1000

1000
h7
1000

1040
0.0
  0
DIMENSION
  5
3866
330
1F
100
AcDbEntity
  8
AM_5
100
AcDbDimension
  2
*D9
 10
-161.1598600285407
 20
-8.000005493164961
 30
0.0
 11
-164.5598600285407
 21
-0.0000297546395957
 31
0.0
 70
    32
  1
%%C<>
 51
359.9999999999998
  3
AM_JIS$0
100
AcDbAlignedDimension
 13
-147.1598600285408
 23
7.999945983885816
 33
0.0
 14
-147.1598600285407
 24
-8.000005493164964
 34
0.0
 50
270.0000000000002
100
AcDbRotatedDimension
1001
ACAD
1000
DSTYLE
1002
{
1070
   271
1070
     3
1002
}
1001
GENIUS_GENDTOL_13
1000

1000
h7
1000

1040
0.0
  0
LINE
  5
390B
330
1F
100
AcDbEntity
  8
AM_0
100
AcDbLine
 10
-109.9661259564339
 20
3.381937314616702
 30
0.0
 11
-138.2022513271997
 21
3.381937314616625
 31
0.0
  0
LINE
  5
3910
330
1F
100
AcDbEntity
  8
AM_0
100
AcDbLine
 10
-109.9661259564338
 20
-3.381937314617517
 30
0.0
 11
-138.2022513271997
 21
-3.381937314617592
 31
0.0
  0
ARC
  5
3928
330
1F
100
AcDbEntity
  8
AM_0
100
AcDbCircle
 10
-138.2022513271997
 20
-0.0000000000004938
 30
0.0
 40
3.381937314617109
100
AcDbArc
 50
90.00000000000024
 51
270.0000000000002
  0
ARC
  5
3929
330
1F
100
AcDbEntity
  8
AM_0
100
AcDbCircle
 10
-109.9661259564338
 20
-0.0000000000004343
 30
0.0
 40
3.381937314617109
100
AcDbArc
 50
270.0000000000002
 51
90.00000000000024
  0
LINE
  5
395A
330
1F
100
AcDbEntity
  8
PV0001_1
  6
CONTINUOUS
100
AcDbLine
 10
-99.58418864181679
 20
-8.000005493164854
 30
0.0
 11
-99.58418864181684
 21
8.000000915526261
 31
0.0
  0
DIMENSION
  5
3990
330
1F
100
AcDbEntity
  8
AM_5
100
AcDbDimension
  2
*D10
 10
-80.5841886418168
 20
21.12982160606342
 30
0.0
 11
-41.58418864181682
 21
24.52982160606342
 31
0.0
 70
    32
  1
<>
 51
359.9999999999998
  3
AM_JIS$0
100
AcDbAlignedDimension
 13
-2.58418864181685
 23
6.999999999999835
 33
0.0
 14
-80.5841886418168
 24
6.999999999999787
 34
0.0
 50
180.0000000000001
100
AcDbRotatedDimension
1001
ACAD
1000
DSTYLE
1002
{
1070
   271
1070
     3
1002
}
1001
GENIUS_GENDTOL_13
1000

1000
h7
1000

1040
0.0
  0
DIMENSION
  5
3B0D
330
1F
100
AcDbEntity
  8
AM_5
100
AcDbDimension
  2
*D11
 10
-82.58418864181683
 20
30.99788174485805
 30
0.0
 11
-42.58418864181685
 21
34.39788174485805
 31
0.0
 70
    32
  1
<>
 51
359.9999999999998
  3
AM_JIS$0
100
AcDbAlignedDimension
 13
-2.58418864181686
 23
10.30518360585826
 33
0.0
 14
-82.58418864181683
 24
6.999999999999786
 34
0.0
 50
180.0000000000001
100
AcDbRotatedDimension
1001
ACAD
1000
DSTYLE
1002
{
1070
   271
1070
     3
1002
}
1001
GENIUS_GENDTOL_13
1000

1000
h7
1000

1040
0.0
  0
DIMENSION
  5
3BB8
330
1F
100
AcDbEntity
  8
AM_5
100
AcDbDimension
  2
*D12
 10
-99.58418864181679
 20
-31.8690939105714
 30
0.0
 11
-51.0841931616855
 21
-28.4690939105714
 31
0.0
 70
    32
  1
<>
 51
359.9999999999998
  3
AM_JIS$0
100
AcDbAlignedDimension
 13
-2.584197681554212
 23
-7.000000000000164
 33
0.0
 14
-99.58418864181679
 24
-8.000005493164863
 34
0.0
 50
0.0000000000001641
100
AcDbRotatedDimension
1001
ACAD
1000
DSTYLE
1002
{
1070
   271
1070
     3
1002
}
1001
GENIUS_GENDTOL_13
1000

1000
h7
1000

1040
0.0
  0
DIMENSION
  5
3C40
330
1F
100
AcDbEntity
  8
AM_5
100
AcDbDimension
  2
*D13
 10
-147.5841886418167
 20
-31.86909391057164
 30
0.0
 11
-123.5841886418167
 21
-28.46909391057164
 31
0.0
 70
    32
  1
<>
 51
359.9999999999998
  3
AM_JIS$0
100
AcDbAlignedDimension
 13
-99.5841886418168
 23
-8.000005493164856
 33
0.0
 14
-147.5841886418167
 24
-7.575759277344069
 34
0.0
 50
0.0000000000002659
100
AcDbRotatedDimension
1001
ACAD
1000
DSTYLE
1002
{
1070
   271
1070
     3
1002
}
1001
GENIUS_GENDTOL_13
1000

1000
h7
1000

1040
0.0
  0
DIMENSION
  5
3CCB
330
1F
100
AcDbEntity
  8
AM_5
100
AcDbDimension
  2
*D14
 10
-147.5841886418167
 20
-43.1154855423324
 30
0.0
 11
-75.08418864181679
 21
-39.7154855423324
 31
0.0
 70
    32
  1
<>
 51
359.9999999999998
  3
AM_JIS$0
100
AcDbAlignedDimension
 13
-2.584188641816814
 23
-7.00000000000009
 33
0.0
 14
-147.5841886418167
 24
-7.575759277344069
 34
0.0
 50
0.0000000000002659
100
AcDbRotatedDimension
1001
ACAD
1000
DSTYLE
1002
{
1070
   271
1070
     3
1002
}
1001
GENIUS_GENDTOL_13
1000

1000
h7
1000

1040
0.0
  0
DIMENSION
  5
3D56
330
1F
100
AcDbEntity
  8
AM_5
100
AcDbDimension
  2
*D15
 10
-141.5841886418168
 20
-20.80121657883282
 30
0.0
 11
-144.5841886418168
 21
-20.80121657883282
 31
0.0
 70
   160
  1
<>
 51
359.9999999999998
  3
AM_JIS$0
100
AcDbAlignedDimension
 13
-147.5841886418168
 23
-0.0000000000004957
 33
0.0
 14
-141.5841886418168
 24
-0.0000000000004809
 34
0.0
 50
0.0000000000002659
100
AcDbRotatedDimension
1001
ACAD
1000
DSTYLE
1002
{
1070
   271
1070
     3
1002
}
1001
GENIUS_GENDTOL_13
1000

1000
h7
1000

1040
0.0
  0
DIMENSION
  5
3DFD
330
1F
100
AcDbEntity
  8
AM_5
100
AcDbDimension
  2
*D16
 10
-106.5841886418168
 20
-20.80121657883254
 30
0.0
 11
-124.0841886418168
 21
-17.40121657883254
 31
0.0
 70
    32
  1
<>
 51
359.9999999999998
  3
AM_JIS$0
100
AcDbAlignedDimension
 13
-141.5841886418168
 23
-0.000000000000507
 33
0.0
 14
-106.5841886418168
 24
-0.0000000000004294
 34
0.0
 50
0.0000000000002659
100
AcDbRotatedDimension
1001
ACAD
1000
DSTYLE
1002
{
1070
   271
1070
     3
1002
}
1001
GENIUS_GENDTOL_13
1000

1000
h7
1000

1040
0.0
  0
SPLINE
  5
3F49
330
1F
100
AcDbEntity
  8
AM_0
100
AcDbSpline
210
0.0
220
0.0
230
1.0
 70
     8
 71
     3
 72
    12
 73
     8
 74
     6
 42
0.0000000001
 43
0.0000000001
 44
0.0000000001
 40
0.0
 40
0.0
 40
0.0
 40
0.0
 40
3.403907951485666
 40
4.912305885294769
 40
6.072201537808931
 40
8.209003152869918
 40
10.4177079524256
 40
10.4177079524256
 40
10.4177079524256
 40
10.4177079524256
 10
-92.06525313395161
 20
6.90066294589712
 30
0.0
 10
-93.22131128988702
 20
6.976998537035992
 30
0.0
 10
-94.88966171653881
 20
7.087161261455514
 30
0.0
 10
-96.77570041296114
 20
6.198938470053579
 30
0.0
 10
-97.82111991056652
 20
4.879173955614489
 30
0.0
 10
-97.34521080182489
 20
2.709662114026334
 30
0.0
 10
-95.99510899074472
 20
2.056028447249467
 30
0.0
 10
-95.30888831460185
 20
1.723803919377357
 30
0.0
 11
-92.06525313395161
 21
6.90066294589712
 31
0.0
 11
-95.46496763714916
 21
6.731752795415786
 31
0.0
 11
-96.80461265933766
 21
6.038488386084736
 31
0.0
 11
-97.48451581625388
 21
5.09875990299156
 31
0.0
 11
-97.11580698628612
 21
2.994009338000296
 31
0.0
 11
-95.30888831460185
 21
1.723803919377357
 31
0.0
  0
LINE
  5
4080
330
1F
100
AcDbEntity
  8
PV0001_1
  6
CONTINUOUS
 48
0.5
100
AcDbLine
 10
0.0000000000000071
 20
-0.0000000000000525
 30
0.0
 11
-2.584188641816811
 21
7.099999999999841
 31
0.0
  0
LINE
  5
4081
330
1F
100
AcDbEntity
  8
PV0001_1
  6
CONTINUOUS
 48
0.5
100
AcDbLine
 10
0.0000000000000071
 20
-0.0000000000001982
 30
0.0
 11
-2.584188641816793
 21
-7.100000000000158
 31
0.0
  0
DIMENSION
  5
40B1
330
1F
100
AcDbEntity
  8
AM_5
100
AcDbDimension
  2
*D17
 10
14.49572145358845
 20
-7.100000000000163
 30
0.0
 11
14.49572145358845
 21
-0.0000000000001612
 31
0.0
 70
   160
  1
%%C<>
 51
359.9999999999998
  3
AM_JIS$0
100
AcDbAlignedDimension
 13
-2.584188641816811
 23
7.099999999999841
 33
0.0
 14
-2.584188641816793
 24
-7.100000000000158
 34
0.0
 50
89.99999999999991
100
AcDbRotatedDimension
1001
GENIUS_GENDTOL_13
1000

1000
h7
1000

1040
0.0
1001
ACAD
1000
DSTYLE
1002
{
1070
   271
1070
     3
1002
}
  0
SPLINE
  5
40C0
330
1F
100
AcDbEntity
  8
PV0001_1
  6
CONTINUOUS
100
AcDbSpline
210
0.0
220
0.0
230
1.0
 70
     8
 71
     3
 72
    31
 73
    27
 74
     0
 42
0.0000000001
 43
0.0000000001
 40
0.0
 40
0.0
 40
0.0
 40
0.0
 40
1.010743684496582
 40
2.022833576467832
 40
3.037578957496688
 40
4.056212745003489
 40
5.079857003664532
 40
6.109500240690281
 40
7.145961322679372
 40
8.189895241603872
 40
9.241717795325891
 40
10.30168407291828
 40
11.36983447792315
 40
12.44600489715814
 40
13.52984294512926
 40
14.62081576220742
 40
15.7182257034828
 40
16.82123173843959
 40
17.92886860250316
 40
19.0400688939571
 40
20.15368796660465
 40
21.26852814259644
 40
22.38336992938901
 40
23.49698739941135
 40
24.6081876908653
 40
24.75415722335978
 40
24.75415722335978
 40
24.75415722335978
 40
24.75415722335978
 10
-70.43912306711419
 20
-7.100000000000004
 30
0.0
 10
-70.79772473998094
 20
-7.095775672008031
 30
0.0
 10
-71.51540570655919
 20
-7.087321389650149
 30
0.0
 10
-72.59166597864319
 20
-7.019170382722315
 30
0.0
 10
-73.66788030923419
 20
-6.910828084736273
 30
0.0
 10
-74.74402803272406
 20
-6.758982233541405
 30
0.0
 10
-75.82009841085258
 20
-6.565690631548277
 30
0.0
 10
-76.89607021515715
 20
-6.331812815708528
 30
0.0
 10
-77.97194704471571
 20
-6.058924270350658
 30
0.0
 10
-79.04771935867509
 20
-5.748696034359366
 30
0.0
 10
-80.12337982906521
 20
-5.403032890283728
 30
0.0
 10
-81.19893381745887
 20
-5.024104529947605
 30
0.0
 10
-82.27438420440421
 20
-4.614230020893711
 30
0.0
 10
-83.34974442679229
 20
-4.175960936056617
 30
0.0
 10
-84.42501940802287
 20
-3.711990532864009
 30
0.0
 10
-85.50021911883883
 20
-3.225180162680218
 30
0.0
 10
-86.57535548335065
 20
-2.71853305672968
 30
0.0
 10
-87.650437937529
 20
-2.195164855001282
 30
0.0
 10
-88.72547691517153
 20
-1.658294475531512
 30
0.0
 10
-89.8004839196523
 20
-1.111226291722085
 30
0.0
 10
-90.87546837980591
 20
-0.5573234539421881
 30
0.0
 10
-91.95044547607807
 20
-0.0000014486579419
 30
0.0
 10
-93.02541774660255
 20
0.5573305887697324
 30
0.0
 10
-94.10040580986978
 20
1.11122480081741
 30
0.0
 10
-94.865190356769
 20
1.500423265835434
 30
0.0
 10
-95.27147775308382
 20
1.704992255186399
 30
0.0
 10
-95.31866204086592
 20
1.728719130649578
 30
0.0
  0
SPLINE
  5
40C1
330
1F
100
AcDbEntity
  8
PV0001_1
  6
CONTINUOUS
100
AcDbSpline
210
0.0
220
0.0
230
1.0
 70
     8
 71
     3
 72
    44
 73
    40
 74
     0
 42
0.0000000001
 43
0.0000000001
 40
0.0
 40
0.0
 40
0.0
 40
0.0
 40
1.010743684496582
 40
2.022833576467832
 40
3.037578957496688
 40
4.056212745003489
 40
5.079857003664532
 40
6.109500240690281
 40
7.145961322679372
 40
8.189895241603872
 40
9.241717795325891
 40
10.30168407291828
 40
11.36983447792315
 40
12.44600489715814
 40
13.52984294512926
 40
14.62081576220742
 40
15.7182257034828
 40
16.82123173843959
 40
17.92886860250316
 40
19.0400688939571
 40
20.15368796660465
 40
21.26852814259644
 40
22.38336992938901
 40
23.49698739941135
 40
24.6081876908653
 40
25.71582455492886
 40
26.81883757994213
 40
27.91624752121713
 40
29.00722033829659
 40
30.09105838626677
 40
31.16722880550176
 40
32.23537921050758
 40
33.29534548809967
 40
34.347168041821
 40
35.39108718934584
 40
36.42754827133493
 40
37.45720575381954
 40
38.48085062012849
 40
39.47486609502677
 40
39.47486609502677
 40
39.47486609502677
 40
39.47486609502677
 10
-52.29534618805857
 20
-7.100000000000008
 30
0.0
 10
-52.65394786092532
 20
-7.095775672008034
 30
0.0
 10
-53.37162882750355
 20
-7.087321389650153
 30
0.0
 10
-54.44788909958757
 20
-7.01917038272232
 30
0.0
 10
-55.52410343017855
 20
-6.910828084736277
 30
0.0
 10
-56.60025115366843
 20
-6.758982233541408
 30
0.0
 10
-57.67632153179695
 20
-6.565690631548281
 30
0.0
 10
-58.75229333610151
 20
-6.331812815708532
 30
0.0
 10
-59.82817016566008
 20
-6.058924270350662
 30
0.0
 10
-60.90394247961945
 20
-5.74869603435937
 30
0.0
 10
-61.97960295000958
 20
-5.403032890283731
 30
0.0
 10
-63.05515693840324
 20
-5.024104529947608
 30
0.0
 10
-64.13060732534856
 20
-4.614230020893716
 30
0.0
 10
-65.20596754773663
 20
-4.175960936056621
 30
0.0
 10
-66.28124252896722
 20
-3.711990532864013
 30
0.0
 10
-67.35644223978318
 20
-3.225180162680222
 30
0.0
 10
-68.43157860429499
 20
-2.718533056729684
 30
0.0
 10
-69.50666105847336
 20
-2.195164855001286
 30
0.0
 10
-70.5817000361159
 20
-1.658294475531515
 30
0.0
 10
-71.65670704059667
 20
-1.111226291722089
 30
0.0
 10
-72.73169150075029
 20
-0.5573234539421917
 30
0.0
 10
-73.80666859702242
 20
-0.0000014486579457
 30
0.0
 10
-74.8816408675469
 20
0.5573305887697286
 30
0.0
 10
-75.95662893081416
 20
1.111224800817407
 30
0.0
 10
-77.03163460818434
 20
1.658294640570947
 30
0.0
 10
-78.10667550260951
 20
2.19516706527757
 30
0.0
 10
-79.1817624167455
 20
2.718530800489559
 30
0.0
 10
-80.25690047810659
 20
3.225180475845943
 30
0.0
 10
-81.33210034414565
 20
3.711990451276668
 30
0.0
 10
-82.40737528625036
 20
4.175960952040494
 30
0.0
 10
-83.482735511392
 20
4.61423003751921
 30
0.0
 10
-84.5581859257299
 20
5.024104448565728
 30
0.0
 10
-85.63373980311467
 20
5.403033195822378
 30
0.0
 10
-86.70939565071126
 20
5.748693287696966
 30
0.0
 10
-87.7851613122614
 20
6.058925586904048
 30
0.0
 10
-88.8610377427255
 20
6.33181961970757
 30
0.0
 10
-89.93701722982937
 20
6.56567072345422
 30
0.0
 10
-91.00446757079934
 20
6.757472646480437
 30
0.0
 10
-91.71469182685319
 20
6.857897519368705
 30
0.0
 10
-92.06525313395164
 20
6.900662945897121
 30
0.0
  0
LINE
  5
40C2
330
1F
100
AcDbEntity
  8
PV0001_1
  6
CONTINUOUS
 48
0.5
100
AcDbLine
 10
-2.297705946928766
 20
6.153334236144346
 30
0.0
 11
-10.0671166356746
 21
6.153334236144353
 31
0.0
  0
LINE
  5
40C3
330
1F
100
AcDbEntity
  8
PV0001_1
  6
CONTINUOUS
 48
0.5
100
AcDbLine
 10
-10.05383378743629
 20
7.099999999999847
 30
0.0
 11
-2.584188641816811
 21
7.099999999999841
 31
0.0
  0
LINE
  5
40C4
330
1F
100
AcDbEntity
  8
PV0001_1
  6
CONTINUOUS
 48
0.5
100
AcDbLine
 10
-7.652932126765249
 20
1.90324955152761
 30
0.0
 11
-5.791760502527039
 21
0.8006516608233626
 31
0.0
  0
LINE
  5
40C6
330
1F
100
AcDbEntity
  8
AM_0
100
AcDbLine
 10
-1.979847191573241
 20
-1.757004945934163
 30
0.0
 11
-3.716624167919949
 21
-2.575018526527161
 31
0.0
  0
LINE
  5
40C7
330
1F
100
AcDbEntity
  8
PV0001_1
  6
CONTINUOUS
 48
0.5
100
AcDbLine
 10
-10.9841886418168
 20
-7.100000000000149
 30
0.0
 11
-2.584188641816793
 21
-7.100000000000158
 31
0.0
  0
LINE
  5
40C8
330
1F
100
AcDbEntity
  8
PV0001_1
  6
CONTINUOUS
 48
0.5
100
AcDbLine
 10
-10.98418864181679
 20
-6.131818181818347
 30
0.0
 11
-3.135567804689221
 21
-6.131818181818338
 31
0.0
  0
LINE
  5
40C9
330
1F
100
AcDbEntity
  8
PV0001_1
  6
CONTINUOUS
 48
0.5
100
AcDbLine
 10
-1.979847191573241
 20
-1.757004945934163
 30
0.0
 11
-3.135567804689221
 21
-6.131818181818338
 31
0.0
  0
LINE
  5
40CC
330
1F
100
AcDbEntity
  8
PV0001_1
  6
CONTINUOUS
 48
0.5
100
AcDbLine
 10
-5.791760502527039
 20
0.8006516608233626
 30
0.0
 11
-3.135567804689221
 21
-6.131818181818338
 31
0.0
  0
ELLIPSE
  5
40CD
330
1F
100
AcDbEntity
  8
AM_0
100
AcDbEllipse
 10
-3.861821850078513
 20
2.597981388230891
 30
0.0
 11
3.085479099285322
 21
0.0155562951411526
 31
0.0
210
0.0
220
0.0
230
1.0
 40
0.7447721386586017
 41
4.032879313964787
 42
6.129016593457084
  0
LINE
  5
40CE
330
1F
100
AcDbEntity
  8
AM_0
100
AcDbLine
 10
-2.574497680751173
 20
0.5317383514520672
 30
0.0
 11
-1.979847191573241
 21
-1.757004945934163
 31
0.0
  0
LINE
  5
40D4
330
1F
100
AcDbEntity
  8
AM_11
 48
0.5
100
AcDbLine
 10
-68.1744021306355
 20
7.099999999999852
 30
0.0
 11
-7.007974787217342
 21
7.099999999999845
 31
0.0
  0
LINE
  5
40D5
330
1F
100
AcDbEntity
  8
AM_11
 48
0.5
100
AcDbLine
 10
-7.959099792618083
 20
-7.100000000000163
 30
0.0
 11
-70.40272604399152
 21
-7.10000000000013
 31
0.0
  0
SPLINE
  5
40D6
330
1F
100
AcDbEntity
  8
PV0001_1
  6
CONTINUOUS
100
AcDbSpline
210
0.0
220
0.0
230
1.0
 70
     8
 71
     3
 72
    16
 73
    12
 74
     0
 42
0.0000000001
 43
0.0000000001
 40
2.625839846755727
 40
2.625839846755727
 40
2.625839846755727
 40
2.625839846755727
 40
3.082371838836284
 40
4.126290986361125
 40
5.162752068350215
 40
6.192395305374981
 40
7.216039564037012
 40
8.234688489606833
 40
9.249433870634691
 40
10.26152376260694
 40
11.27226744710342
 40
11.27226744710342
 40
11.27226744710342
 40
11.27226744710352
 10
-61.36662800031701
 20
-5.59847714291152
 30
0.0
 10
-61.52234803133151
 20
-5.648034532406455
 30
0.0
 10
-62.03506950913919
 20
-5.807368078949456
 30
0.0
 10
-62.90625920065097
 20
-6.059026352162778
 30
0.0
 10
-63.98217108028813
 20
-6.331788737317018
 30
0.0
 10
-65.05813225783206
 20
-6.565687215617777
 30
0.0
 10
-66.13421065941799
 20
-6.759020398238535
 30
0.0
 10
-67.21036340417277
 20
-6.910685017953764
 30
0.0
 10
-68.28658315881199
 20
-7.019698237280294
 30
0.0
 10
-69.36284340806799
 20
-7.085358325465403
 30
0.0
 10
-70.08052438602013
 20
-7.100000040626646
 30
0.0
 10
-70.43912605415582
 20
-7.099999999999835
 30
0.0
  0
LINE
  5
40D7
330
1F
100
AcDbEntity
  8
PV0001_1
  6
CONTINUOUS
100
AcDbLine
 10
-82.58418864181681
 20
4.245498236008038
 30
0.0
 11
-82.58418864181681
 21
7.100000000000007
 31
0.0
  0
LINE
  5
40D8
330
1F
100
AcDbEntity
  8
PV0001_1
  6
CONTINUOUS
100
AcDbLine
 10
-82.58418864181678
 20
-7.100000000000145
 30
0.0
 11
-82.58418864181681
 21
-4.480337055012836
 31
0.0
  0
LINE
  5
40D9
330
1F
100
AcDbEntity
  8
AM_11
 48
0.5
100
AcDbLine
 10
-80.58418864181678
 20
-6.882110116865594
 30
0.0
 11
-80.5841886418168
 21
7.099999999999854
 31
0.0
  0
LINE
  5
40DA
330
1F
100
AcDbEntity
  8
PV0001_1
  6
CONTINUOUS
 48
0.5
100
AcDbLine
 10
-82.54779161869258
 20
7.100000000000004
 30
0.0
 11
-68.17440213062273
 21
7.100000000000005
 31
0.0
  0
LINE
  5
40DB
330
1F
100
AcDbEntity
  8
AM_0
100
AcDbLine
 10
-82.58418864181678
 20
-7.100000000000145
 30
0.0
 11
-70.43912306711803
 21
-7.100000000000145
 31
0.0
  0
SPLINE
  5
41D4
330
1F
100
AcDbEntity
  8
PV0001_1
  6
CONTINUOUS
100
AcDbSpline
210
0.0
220
0.0
230
1.0
 70
     8
 71
     3
 72
    47
 73
    43
 74
     0
 42
0.0000000001
 43
0.0000000001
 40
0.0
 40
0.0
 40
0.0
 40
0.0
 40
1.010743684496582
 40
2.022833576467832
 40
3.037578957496688
 40
4.056212745003489
 40
5.079857003664532
 40
6.109500240690281
 40
7.145961322679372
 40
8.189895241603872
 40
9.241717795325891
 40
10.30168407291828
 40
11.36983447792315
 40
12.44600489715814
 40
13.52984294512926
 40
14.62081576220742
 40
15.7182257034828
 40
16.82123173843959
 40
17.92886860250316
 40
19.0400688939571
 40
20.15368796660465
 40
21.26852814259644
 40
22.38336992938901
 40
23.49698739941135
 40
24.6081876908653
 40
25.71582455492886
 40
26.81883757994213
 40
27.91624752121713
 40
29.00722033829659
 40
30.09105838626677
 40
31.16722880550176
 40
32.23537921050758
 40
33.29534548809967
 40
34.347168041821
 40
35.39108718934584
 40
36.42754827133493
 40
37.45720575381954
 40
38.48085062012849
 40
39.49948440763516
 40
40.51422944315121
 40
41.52631975251916
 40
42.53706336679711
 40
42.53706336679711
 40
42.53706336679711
 40
42.53706336679711
 10
-27.60920887522577
 20
-7.100000000000211
 30
0.0
 10
-27.95597097515983
 20
-7.095775672008236
 30
0.0
 10
-28.64995702676941
 20
-7.087321389650352
 30
0.0
 10
-29.69068354943164
 20
-7.019170382722516
 30
0.0
 10
-30.73136564740261
 20
-6.910828084736471
 30
0.0
 10
-31.77198333736884
 20
-6.7589822335416
 30
0.0
 10
-32.81252623560387
 20
-6.565690631548468
 30
0.0
 10
-33.85297381452284
 20
-6.331812815708717
 30
0.0
 10
-34.89332955437674
 20
-6.058924270350845
 30
0.0
 10
-35.9335842293127
 20
-5.74869603435955
 30
0.0
 10
-36.97373075330048
 20
-5.403032890283907
 30
0.0
 10
-38.01377431089547
 20
-5.024104529947782
 30
0.0
 10
-39.0537176875418
 20
-4.614230020893886
 30
0.0
 10
-40.09357387649891
 20
-4.17596093605679
 30
0.0
 10
-41.13334763861582
 20
-3.711990532864178
 30
0.0
 10
-42.17304861544197
 20
-3.225180162680385
 30
0.0
 10
-43.21268833740202
 20
-2.718533056729843
 30
0.0
 10
-44.25227592892922
 20
-2.195164855001443
 30
0.0
 10
-45.29182147933948
 20
-1.658294475531669
 30
0.0
 10
-46.33133611221208
 20
-1.11122629172224
 30
0.0
 10
-47.3708289450798
 20
-0.5573234539423399
 30
0.0
 10
-48.41031465719157
 20
-0.0000014486580908
 30
0.0
 10
-49.44979570288228
 20
0.5573305887695864
 30
0.0
 10
-50.48929201990342
 20
1.111224800817267
 30
0.0
 10
-51.52880536948126
 20
1.658294640570811
 30
0.0
 10
-52.56835277338976
 20
2.195167065277436
 30
0.0
 10
-53.60794467762487
 20
2.718530800489428
 30
0.0
 10
-54.64758604041112
 20
3.225180475845815
 30
0.0
 10
-55.68728716733555
 20
3.711990451276542
 30
0.0
 10
-56.72706089161835
 20
4.175960952040372
 30
0.0
 10
-57.76691708323813
 20
4.61423003751909
 30
0.0
 10
-58.80686048637263
 20
5.02410444856561
 30
0.0
 10
-59.84690393662382
 20
5.403033195822263
 30
0.0
 10
-60.88704599044394
 20
5.748693287696855
 30
0.0
 10
-61.92729423260623
 20
6.05892558690394
 30
0.0
 10
-62.96764958654215
 20
6.331819619707465
 30
0.0
 10
-64.00810459460554
 20
6.565670723454117
 30
0.0
 10
-65.04865093050026
 20
6.759022153283744
 30
0.0
 10
-66.08926892895216
 20
6.910688010821527
 30
0.0
 10
-67.12995175002068
 20
7.019688232116019
 30
0.0
 10
-68.17067739013404
 20
7.085368922828429
 30
0.0
 10
-68.8646637360436
 20
7.09999999999986
 30
0.0
 10
-69.21142589916978
 20
7.099999999999914
 30
0.0
  0
SPLINE
  5
41D5
330
1F
100
AcDbEntity
  8
PV0001_1
  6
CONTINUOUS
100
AcDbSpline
210
0.0
220
0.0
230
1.0
 70
     8
 71
     3
 72
    25
 73
    21
 74
     0
 42
0.0000000001
 43
0.0000000001
 40
24.56499986022253
 40
24.56499986022253
 40
24.56499986022253
 40
24.56499986022253
 40
24.6081876908653
 40
25.71582455492886
 40
26.81883757994213
 40
27.91624752121713
 40
29.00722033829659
 40
30.09105838626677
 40
31.16722880550176
 40
32.23537921050758
 40
33.29534548809967
 40
34.347168041821
 40
35.39108718934584
 40
36.42754827133493
 40
37.45720575381954
 40
38.48085062012849
 40
39.49948440763516
 40
40.51422944315121
 40
41.52631975251916
 40
42.53706336680078
 40
42.53706336680078
 40
42.53706336680078
 40
42.53706336680078
 10
-7.652932126765249
 20
1.90324955152761
 30
0.0
 10
-7.66652830055595
 20
1.910085116325192
 30
0.0
 10
-8.028846494135825
 20
2.092175582990488
 30
0.0
 10
-8.739561373010175
 20
2.445798221933876
 30
0.0
 10
-9.78689993171266
 20
2.953482050848413
 30
0.0
 10
-10.83403679931851
 20
3.444452963688649
 30
0.0
 10
-11.88093531464562
 20
3.915585518404201
 30
0.0
 10
-12.92756323510105
 20
4.363880086083836
 30
0.0
 10
-13.97388742626913
 20
4.786474900903992
 30
0.0
 10
-15.01987216310549
 20
5.180676936488642
 30
0.0
 10
-16.06549194881045
 20
5.543935298608549
 30
0.0
 10
-17.11071043492225
 20
5.873927279617328
 30
0.0
 10
-18.15550276234166
 20
6.168493872018153
 30
0.0
 10
-19.19984114777743
 20
6.425724803883361
 30
0.0
 10
-20.24369252030712
 20
6.64391571706627
 30
0.0
 10
-21.28702666564831
 20
6.821610156276818
 30
0.0
 10
-22.32980610153715
 20
6.957622652511495
 30
0.0
 10
-23.3720092624465
 20
7.050973355239984
 30
0.0
 10
-24.41360432192837
 20
7.101008774569124
 30
0.0
 10
-25.10773216527716
 20
7.105210419229775
 30
0.0
 10
-25.45445518053325
 20
7.099999999999793
 30
0.0
  0
SPLINE
  5
41D6
330
1F
100
AcDbEntity
  8
PV0001_1
  6
CONTINUOUS
 48
0.5
100
AcDbSpline
210
0.0
220
0.0
230
1.0
 70
     8
 71
     3
 72
    15
 73
    11
 74
     0
 42
0.0000000001
 43
0.0000000001
 40
0.0
 40
0.0
 40
0.0
 40
0.0
 40
1.010743614677189
 40
2.022833924044153
 40
3.037578959561199
 40
4.056212747067873
 40
5.079857613375832
 40
6.109500119648989
 40
7.14596120163808
 40
7.561214720484597
 40
7.561214720484597
 40
7.561214720484597
 40
7.561214720484597
 10
-10.06446592681671
 20
7.099999999999744
 30
0.0
 10
-10.41122808985734
 20
7.09577871626385
 30
0.0
 10
-11.10521443494798
 20
7.087330524437527
 30
0.0
 10
-12.14594008084591
 20
7.019160868638659
 30
0.0
 10
-13.18662288067311
 20
6.910830037844989
 30
0.0
 10
-14.22724095888662
 20
6.758983888644354
 30
0.0
 10
-15.26778192202675
 20
6.565681803361286
 30
0.0
 10
-16.30823306091413
 20
6.331819999642986
 30
0.0
 10
-17.13827877094098
 20
6.114072707461053
 30
0.0
 10
-17.62147576756336
 20
5.975272801431086
 30
0.0
 10
-17.75948834571765
 20
5.934659856781832
 30
0.0
  0
SPLINE
  5
41D7
330
1F
100
AcDbEntity
  8
PV0001_1
  6
CONTINUOUS
 48
0.5
100
AcDbSpline
210
0.0
220
0.0
230
1.0
 70
     8
 71
     3
 72
    15
 73
    11
 74
     0
 42
0.0000000001
 43
0.0000000001
 40
0.0
 40
0.0
 40
0.0
 40
0.0
 40
1.010743614677189
 40
2.022833924044153
 40
3.037578959561199
 40
4.056212747067873
 40
5.079857613375832
 40
6.109500119648989
 40
7.14596120163808
 40
7.561184154167792
 40
7.561184154167792
 40
7.561184154167792
 40
7.561184154167792
 10
-10.06446592681671
 20
7.099999999999744
 30
0.0
 10
-10.41120881213868
 20
7.099957335039899
 30
0.0
 10
-11.10522339580825
 20
7.08538875631321
 30
0.0
 10
-12.1459376632354
 20
7.019682876172778
 30
0.0
 10
-13.18662356379948
 20
6.910689542651376
 30
0.0
 10
-14.22724065455196
 20
6.759021404835747
 30
0.0
 10
-15.26778245572745
 20
6.565673128968951
 30
0.0
 10
-16.3082312161589
 20
6.331816839220995
 30
0.0
 10
-17.13827368663986
 20
6.114091999341501
 30
0.0
 10
-17.62145113194171
 20
5.975264528835239
 30
0.0
 10
-17.75945185303314
 20
5.934649116517763
 30
0.0
  0
LINE
  5
41D8
330
1F
100
AcDbEntity
  8
PV0001_1
  6
CONTINUOUS
 48
0.5
100
AcDbLine
 10
-51.66667509921475
 20
7.099999999999718
 30
0.0
 11
-25.45445518053293
 21
7.09999999999965
 31
0.0
  0
LINE
  5
41D9
330
1F
100
AcDbEntity
  8
AM_0
100
AcDbLine
 10
-10.9841886418168
 20
-7.08466603034321
 30
0.0
 11
-10.98418864181678
 21
3.232390994104458
 31
0.0
  0
SPLINE
  5
41DA
330
1F
100
AcDbEntity
  8
PV0001_1
  6
CONTINUOUS
100
AcDbSpline
210
0.0
220
0.0
230
1.0
 70
     8
 71
     3
 72
    17
 73
    13
 74
     0
 42
0.0000000001
 43
0.0000000001
 40
1.580019955310467
 40
1.580019955310467
 40
1.580019955310467
 40
1.580019955310467
 40
2.030549285115227
 40
3.082371838836284
 40
4.126290986361125
 40
5.162752068350215
 40
6.192395305374981
 40
7.216039564037012
 40
8.234688489606833
 40
9.249433870634691
 40
10.26152376260694
 40
11.27226744710342
 40
11.27226744710342
 40
11.27226744710342
 40
11.27226744710352
 10
-19.86600503808029
 20
-5.240009070791749
 30
0.0
 10
-20.01325046973227
 20
-5.293976811146929
 30
0.0
 10
-20.50509968034826
 20
-5.470863288582534
 30
0.0
 10
-21.34480825636963
 20
-5.748316057548605
 30
0.0
 10
-22.38491154962794
 20
-6.059026352163154
 30
0.0
 10
-23.425301182349
 20
-6.331788737317392
 30
0.0
 10
-24.46573848535989
 20
-6.565687215618146
 30
0.0
 10
-25.50628914215029
 20
-6.759020398238902
 30
0.0
 10
-26.5469116875996
 20
-6.91068501795413
 30
0.0
 10
-27.58759903053876
 20
-7.019698237280658
 30
0.0
 10
-28.62832553112663
 20
-7.085358325465762
 30
0.0
 10
-29.3223115937346
 20
-7.100000040627003
 30
0.0
 10
-29.6690736890938
 20
-7.100000000000191
 30
0.0
  0
LINE
  5
41DB
330
1F
100
AcDbEntity
  8
PV0001_1
  6
CONTINUOUS
 48
0.5
100
AcDbLine
 10
-53.82143664544093
 20
-7.100000000000274
 30
0.0
 11
-29.66907368909394
 21
-7.100000000000338
 31
0.0
  0
LINE
  5
41DC
330
1F
100
AcDbEntity
  8
AM_0
100
AcDbLine
 10
-10.11410595823333
 20
2.845546619454136
 30
0.0
 11
-10.05443499568018
 21
7.099999999999744
 31
0.0
  0
SPLINE
  5
41DD
330
1F
100
AcDbEntity
  8
PV0001_1
  6
CONTINUOUS
100
AcDbSpline
210
0.0
220
0.0
230
1.0
 70
     8
 71
     3
 72
    55
 73
    51
 74
     0
 42
0.0000000001
 43
0.0000000001
 40
0.0
 40
0.0
 40
0.0
 40
0.0
 40
1.010743684496582
 40
2.022833576467832
 40
3.037578957496688
 40
4.056212745003489
 40
5.079857003664532
 40
6.109500240690281
 40
7.145961322679372
 40
8.189895241603872
 40
9.241717795325891
 40
10.30168407291828
 40
11.36983447792315
 40
12.44600489715814
 40
13.52984294512926
 40
14.62081576220742
 40
15.7182257034828
 40
16.82123173843959
 40
17.92886860250316
 40
19.0400688939571
 40
20.15368796660465
 40
21.26852814259644
 40
22.38336992938901
 40
23.49698739941135
 40
24.6081876908653
 40
25.71582455492886
 40
26.81883757994213
 40
27.91624752121713
 40
29.00722033829659
 40
30.09105838626677
 40
31.16722880550176
 40
32.23537921050758
 40
33.29534548809967
 40
34.347168041821
 40
35.39108718934584
 40
36.42754827133493
 40
37.45720575381954
 40
38.48085062012849
 40
39.49948440763516
 40
40.51422944315121
 40
41.52631975251916
 40
42.53706336719636
 40
43.54780698187354
 40
44.55989729124051
 40
45.57464232675757
 40
46.59327611426424
 40
47.6169209805722
 40
48.64656348684535
 40
49.68302456883444
 40
50.58557219878025
 40
50.58557219878025
 40
50.58557219878025
 40
50.58557219878025
 10
-10.06446592681675
 20
-7.100000000000263
 30
0.0
 10
-10.41122802675082
 20
-7.095775672008289
 30
0.0
 10
-11.1052140783604
 20
-7.087321389650405
 30
0.0
 10
-12.14594060102261
 20
-7.019170382722569
 30
0.0
 10
-13.18662269899358
 20
-6.910828084736523
 30
0.0
 10
-14.22724038895981
 20
-6.758982233541652
 30
0.0
 10
-15.26778328719484
 20
-6.565690631548521
 30
0.0
 10
-16.3082308661138
 20
-6.33181281570877
 30
0.0
 10
-17.34858660596772
 20
-6.058924270350896
 30
0.0
 10
-18.38884128090367
 20
-5.748696034359602
 30
0.0
 10
-19.42898780489144
 20
-5.40303289028396
 30
0.0
 10
-20.46903136248643
 20
-5.024104529947835
 30
0.0
 10
-21.50897473913276
 20
-4.614230020893938
 30
0.0
 10
-22.54883092808987
 20
-4.175960936056841
 30
0.0
 10
-23.5886046902068
 20
-3.71199053286423
 30
0.0
 10
-24.62830566703294
 20
-3.225180162680437
 30
0.0
 10
-25.667945388993
 20
-2.718533056729895
 30
0.0
 10
-26.70753298052019
 20
-2.195164855001495
 30
0.0
 10
-27.74707853093045
 20
-1.658294475531721
 30
0.0
 10
-28.78659316380306
 20
-1.111226291722292
 30
0.0
 10
-29.82608599667078
 20
-0.5573234539423917
 30
0.0
 10
-30.86557170878254
 20
-0.0000014486581429
 30
0.0
 10
-31.90505275447324
 20
0.5573305887695343
 30
0.0
 10
-32.94454907149438
 20
1.111224800817215
 30
0.0
 10
-33.98406242107224
 20
1.658294640570759
 30
0.0
 10
-35.02360982498073
 20
2.195167065277384
 30
0.0
 10
-36.06320172921584
 20
2.718530800489376
 30
0.0
 10
-37.10284309200209
 20
3.225180475845763
 30
0.0
 10
-38.14254421892652
 20
3.71199045127649
 30
0.0
 10
-39.18231794320932
 20
4.175960952040319
 30
0.0
 10
-40.22217413482909
 20
4.614230037519039
 30
0.0
 10
-41.2621175379636
 20
5.024104448565559
 30
0.0
 10
-42.30216098821479
 20
5.403033195822211
 30
0.0
 10
-43.34230304203491
 20
5.748693287696801
 30
0.0
 10
-44.38255128419721
 20
6.058925586903887
 30
0.0
 10
-45.42290663813311
 20
6.331819619707413
 30
0.0
 10
-46.46336164619651
 20
6.565670723454066
 30
0.0
 10
-47.50390798209124
 20
6.759022153283691
 30
0.0
 10
-48.54452598054312
 20
6.910688010821473
 30
0.0
 10
-49.58520880161165
 20
7.019688232115967
 30
0.0
 10
-50.62593444186179
 20
7.085368922837011
 30
0.0
 10
-51.66668295142669
 20
7.107310668295351
 30
0.0
 10
-52.70743145946034
 20
7.08536892280267
 30
0.0
 10
-53.74815710431338
 20
7.019688232253926
 30
0.0
 10
-54.78883990843545
 20
6.910688010301376
 30
0.0
 10
-55.82945797042366
 20
6.75902215523826
 30
0.0
 10
-56.8699989945995
 20
6.565671658723691
 30
0.0
 10
-57.91044990366619
 20
6.331822010708497
 30
0.0
 10
-58.90350255740904
 20
6.071313248290673
 30
0.0
 10
-59.54780642836241
 20
5.880800727569751
 30
0.0
 10
-60.37558293645628
 20
5.577288453226835
 30
0.0
  0
VIEWPORT
  5
110
330
101
100
AcDbEntity
 67
     1
  8
0
100
AcDbViewport
 10
420.5
 20
297.0
 30
0.0
 40
948.9782706766916
 41
628.452
 68
     1
 69
     1
1001
ACAD
1000
MVIEW
1002
{
1070
    16
1010
0.0
1020
0.0
1030
0.0
1010
0.0
1020
0.0
1030
1.0
1040
0.0
1040
628.452
1040
420.5
1040
297.0
1040
50.0
1040
0.0
1040
0.0
1070
     0
1070
   100
1070
     1
1070
     1
1070
     0
1070
     0
1070
     0
1070
     0
1040
0.0
1040
0.0
1040
0.0
1040
10.0
1040
10.0
1040
10.0
1040
10.0
1070
     0
1002
{
1002
}
1002
}
  0
ENDSEC
  0
SECTION
  2
OBJECTS
  0
DICTIONARY
  5
C
330
0
100
AcDbDictionary
  3
ACAD_GROUP
350
D
  3
ACAD_LAYOUT
350
1A
  3
ACAD_MLINESTYLE
350
17
  3
ACAD_PLOTSETTINGS
350
19
  3
ACAD_PLOTSTYLENAME
350
E
  3
ACDBVARIABLEDICTIONARY
350
34
  3
ACMDICTIONARY
350
43
  3
AMG
350
2B
  3
AMGSNAPSETTINGS
350
6E
  3
DWGPROPS
350
41FA
  3
ACDBHEADERROUNDTRIPXREC
350
420A
  0
DICTIONARY
  5
74
330
1F
100
AcDbDictionary
280
     1
  3
ACAD_INDEX
360
41FC
  3
ACAD_LAYOUTSELFREF
360
422D
  0
DICTIONARY
  5
4232
330
101
100
AcDbDictionary
280
     1
  3
ACAD_LAYOUTSELFREF
360
4233
  0
DICTIONARY
  5
D
102
{ACAD_REACTORS
330
C
102
}
330
C
100
AcDbDictionary
  0
DICTIONARY
  5
1A
102
{ACAD_REACTORS
330
C
102
}
330
C
100
AcDbDictionary
  0
DICTIONARY
  5
17
102
{ACAD_REACTORS
330
C
102
}
330
C
100
AcDbDictionary
  3
STANDARD
350
18
  0
DICTIONARY
  5
19
102
{ACAD_REACTORS
330
C
102
}
330
C
100
AcDbDictionary
  0
ACDBDICTIONARYWDFLT
  5
E
102
{ACAD_REACTORS
330
C
102
}
330
C
100
AcDbDictionary
281
     1
  3
Normal
350
F
100
AcDbDictionaryWithDefault
340
F
  0
DICTIONARY
  5
34
102
{ACAD_REACTORS
330
C
102
}
330
C
100
AcDbDictionary
  3
INDEXCTL
350
35
  3
SORTENTS
350
B5E
  0
DICTIONARY
  5
43
102
{ACAD_REACTORS
330
C
102
}
330
C
100
AcDbDictionary
  3
ACMSTDDICTIONARY
350
260
  0
DICTIONARY
  5
2B
102
{ACAD_REACTORS
330
C
102
}
330
C
100
AcDbDictionary
  3
ACMGSETTINGS
350
2C
  0
DICTIONARY
  5
6E
102
{ACAD_REACTORS
330
C
102
}
330
C
100
AcDbDictionary
  0
XRECORD
  5
41FA
102
{ACAD_REACTORS
330
C
102
}
330
C
100
AcDbXrecord
  1
DWGPROPS COOKIE
  2

  3

  4

  6

  7

  8

  9

300
AmdtFileType=82
301
=
302
=
303
=
304
=
305
=
306
=
307
=
308
=
309
=
 40
0.2811729629629629
 41
2452800.443498622
 42
2453002.22979052
  1

 90
        1
  0
DICTIONARY
  5
420A
102
{ACAD_REACTORS
330
C
102
}
330
C
100
AcDbDictionary
  3
TSTACKALIGN
350
420B
  3
TSTACKSIZE
350
420C
  3
HYPERLINKBASE
350
420D
  3
STYLESHEET
350
420E
  3
LAYOUTDICT
350
420F
  3
PLOTSETDICT
350
4210
  3
PLOTSTYLNAMDICT
350
4211
  3
LWETCUNION
350
4212
  3
INSUNITS
350
4213
  3
CEPSNTYPE
350
4214
  3
FINGERPRINTGUID
350
4215
  3
VERSIONGUID
350
4216
  3
PSVPSCALE
350
4217
  3
DIMSTYLEDATA
350
4218
  3
PUCSORTHOREF
350
4219
  3
PUCSORTHOVIEW
350
421A
  3
PUCSBASE
350
421B
  3
PUCSORGTOP
350
421C
  3
PUCSORGBOTTOM
350
421D
  3
PUCSORGLEFT
350
421E
  3
PUCSORGRIGHT
350
421F
  3
PUCSORGFRONT
350
4220
  3
PUCSORGBACK
350
4221
  3
UCSORTHOREF
350
4222
  3
UCSORTHOVIEW
350
4223
  3
UCSBASE
350
4224
  3
UCSORGTOP
350
4225
  3
UCSORGBOTTOM
350
4226
  3
UCSORGLEFT
350
4227
  3
UCSORGRIGHT
350
4228
  3
UCSORGFRONT
350
4229
  3
UCSORGBACK
350
422A
  0
DICTIONARY
  5
41FC
102
{ACAD_REACTORS
330
74
102
}
330
74
100
AcDbDictionary
  3
*A1
350
41FD
  0
XRECORD
  5
422D
102
{ACAD_REACTORS
330
74
102
}
330
74
100
AcDbXrecord
340
1F
  0
XRECORD
  5
4233
102
{ACAD_REACTORS
330
4232
102
}
330
4232
100
AcDbXrecord
340
101
  0
MLINESTYLE
  5
18
102
{ACAD_REACTORS
330
17
102
}
330
17
100
AcDbMlineStyle
  2
STANDARD
 70
     0
  3

 62
   256
 51
90.0
 52
90.0
 71
     2
 49
0.5
 62
   256
  6
BYLAYER
 49
-0.5
 62
   256
  6
BYLAYER
  0
ACDBPLACEHOLDER
  5
F
102
{ACAD_REACTORS
330
E
102
}
330
E
100
AcDbPlaceHolder
280
     0
  0
DICTIONARYVAR
  5
35
102
{ACAD_REACTORS
330
34
102
}
330
34
100
DictionaryVariables
280
     0
  1
1
  0
DICTIONARYVAR
  5
B5E
102
{ACAD_REACTORS
330
34
102
}
330
34
100
DictionaryVariables
280
     0
  1
96
  0
DICTIONARY
  5
260
102
{ACAD_REACTORS
330
43
102
}
330
43
100
AcDbDictionary
  0
DICTIONARY
  5
2C
102
{ACAD_REACTORS
330
2B
102
}
330
2B
100
AcDbDictionary
  3
DWGSETTINGS
350
2D
  0
XRECORD
  5
420B
102
{ACAD_REACTORS
330
420A
102
}
330
420A
100
AcDbXrecord
 90
        1
  0
XRECORD
  5
420C
102
{ACAD_REACTORS
330
420A
102
}
330
420A
100
AcDbXrecord
 90
       70
  0
XRECORD
  5
420D
102
{ACAD_REACTORS
330
420A
102
}
330
420A
100
AcDbXrecord
  1

  0
XRECORD
  5
420E
102
{ACAD_REACTORS
330
420A
102
}
330
420A
100
AcDbXrecord
  1
ASAMI.ctb
  0
XRECORD
  5
420F
102
{ACAD_REACTORS
330
420A
102
}
330
420A
100
AcDbXrecord
340
1A
  0
XRECORD
  5
4210
102
{ACAD_REACTORS
330
420A
102
}
330
420A
100
AcDbXrecord
340
19
  0
XRECORD
  5
4211
102
{ACAD_REACTORS
330
420A
102
}
330
420A
100
AcDbXrecord
340
E
  0
XRECORD
  5
4212
102
{ACAD_REACTORS
330
420A
102
}
330
420A
100
AcDbXrecord
 90
    10781
  0
XRECORD
  5
4213
102
{ACAD_REACTORS
330
420A
102
}
330
420A
100
AcDbXrecord
 90
        4
  0
XRECORD
  5
4214
102
{ACAD_REACTORS
330
420A
102
}
330
420A
100
AcDbXrecord
 90
        0
  0
XRECORD
  5
4215
102
{ACAD_REACTORS
330
420A
102
}
330
420A
100
AcDbXrecord
  1
{AFB28963-8C59-40AE-9337-C84526B81ACE}
  0
XRECORD
  5
4216
102
{ACAD_REACTORS
330
420A
102
}
330
420A
100
AcDbXrecord
  1
{AE0775CF-14EA-45B6-BEA5-138BE67E0E8F}
  0
XRECORD
  5
4217
102
{ACAD_REACTORS
330
420A
102
}
330
420A
100
AcDbXrecord
 40
0.0
  0
XRECORD
  5
4218
102
{ACAD_REACTORS
330
420A
102
}
330
420A
100
AcDbXrecord
1000
DSTYLE
1002
{
1070
    79
 70
     2
1070
   341
340
59
1070
   342
340
59
1070
   371
 70
    -1
1070
   372
 70
    -1
1002
}
  0
XRECORD
  5
4219
102
{ACAD_REACTORS
330
420A
102
}
330
420A
100
AcDbXrecord
340
0
  0
XRECORD
  5
421A
102
{ACAD_REACTORS
330
420A
102
}
330
420A
100
AcDbXrecord
 70
     0
  0
XRECORD
  5
421B
102
{ACAD_REACTORS
330
420A
102
}
330
420A
100
AcDbXrecord
340
0
  0
XRECORD
  5
421C
102
{ACAD_REACTORS
330
420A
102
}
330
420A
100
AcDbXrecord
 10
0.0
 20
0.0
 30
0.0
  0
XRECORD
  5
421D
102
{ACAD_REACTORS
330
420A
102
}
330
420A
100
AcDbXrecord
 10
0.0
 20
0.0
 30
0.0
  0
XRECORD
  5
421E
102
{ACAD_REACTORS
330
420A
102
}
330
420A
100
AcDbXrecord
 10
0.0
 20
0.0
 30
0.0
  0
XRECORD
  5
421F
102
{ACAD_REACTORS
330
420A
102
}
330
420A
100
AcDbXrecord
 10
0.0
 20
0.0
 30
0.0
  0
XRECORD
  5
4220
102
{ACAD_REACTORS
330
420A
102
}
330
420A
100
AcDbXrecord
 10
0.0
 20
0.0
 30
0.0
  0
XRECORD
  5
4221
102
{ACAD_REACTORS
330
420A
102
}
330
420A
100
AcDbXrecord
 10
0.0
 20
0.0
 30
0.0
  0
XRECORD
  5
4222
102
{ACAD_REACTORS
330
420A
102
}
330
420A
100
AcDbXrecord
340
0
  0
XRECORD
  5
4223
102
{ACAD_REACTORS
330
420A
102
}
330
420A
100
AcDbXrecord
 70
     0
  0
XRECORD
  5
4224
102
{ACAD_REACTORS
330
420A
102
}
330
420A
100
AcDbXrecord
340
0
  0
XRECORD
  5
4225
102
{ACAD_REACTORS
330
420A
102
}
330
420A
100
AcDbXrecord
 10
0.0
 20
0.0
 30
0.0
  0
XRECORD
  5
4226
102
{ACAD_REACTORS
330
420A
102
}
330
420A
100
AcDbXrecord
 10
0.0
 20
0.0
 30
0.0
  0
XRECORD
  5
4227
102
{ACAD_REACTORS
330
420A
102
}
330
420A
100
AcDbXrecord
 10
0.0
 20
0.0
 30
0.0
  0
XRECORD
  5
4228
102
{ACAD_REACTORS
330
420A
102
}
330
420A
100
AcDbXrecord
 10
0.0
 20
0.0
 30
0.0
  0
XRECORD
  5
4229
102
{ACAD_REACTORS
330
420A
102
}
330
420A
100
AcDbXrecord
 10
0.0
 20
0.0
 30
0.0
  0
XRECORD
  5
422A
102
{ACAD_REACTORS
330
420A
102
}
330
420A
100
AcDbXrecord
 10
0.0
 20
0.0
 30
0.0
  0
LAYER_INDEX
  5
41FD
102
{ACAD_REACTORS
330
41FC
102
}
330
41FC
100
AcDbIndex
 40
2453151.704336284
100
AcDbLayerIndex
  8
0
360
41FE
 90
        0
  8
AM_0
360
41FF
 90
       11
  8
PV0001_1
360
4200
 90
       34
  8
AM_CL
360
4201
 90
        0
  8
AM_7
360
4202
 90
        1
  8
AM_11
360
4203
 90
        3
  8
AM_5
360
4204
 90
       10
  8
Defpoints
360
4205
 90
        0
  8
AM_6
360
4206
 90
        1
  8
AM_4
360
4207
 90
        0
  8
AM_3
360
4208
 90
        0
  0
XRECORD
  5
2D
102
{ACAD_REACTORS
330
2C
102
}
330
2C
100
AcDbXrecord
  1
VERSION
140
15.0
  1
PRODUCT
  2
AutoCAD Mechanical 2000
  0
IDBUFFER
  5
41FE
330
0
100
AcDbIdBuffer
  0
IDBUFFER
  5
41FF
330
0
100
AcDbIdBuffer
330
390B
330
3910
330
3928
330
3929
330
3F49
330
40C6
330
40CD
330
40CE
330
40DB
330
41D9
330
41DC
  0
IDBUFFER
  5
4200
330
0
100
AcDbIdBuffer
330
40C3
330
40C4
330
40C7
330
40C8
330
40C9
330
40CC
330
40D6
330
40D7
330
40D8
330
40DA
330
41D4
330
41D5
330
41D6
330
41D7
330
41D8
330
41DA
330
41DB
330
41DD
330
35EA
330
35EB
330
35F4
330
35F5
330
35F9
330
35FA
330
35FB
330
35FD
330
3601
330
3602
330
395A
330
4080
330
4081
330
40C0
330
40C1
330
40C2
  0
IDBUFFER
  5
4201
330
0
100
AcDbIdBuffer
  0
IDBUFFER
  5
4202
330
0
100
AcDbIdBuffer
330
35D1
  0
IDBUFFER
  5
4203
330
0
100
AcDbIdBuffer
330
40D4
330
40D5
330
40D9
  0
IDBUFFER
  5
4204
330
0
100
AcDbIdBuffer
330
36BA
330
3866
330
3990
330
3B0D
330
3BB8
330
3C40
330
3CCB
330
3D56
330
3DFD
330
40B1
  0
IDBUFFER
  5
4205
330
0
100
AcDbIdBuffer
  0
IDBUFFER
  5
4206
330
0
100
AcDbIdBuffer
330
19BD
  0
IDBUFFER
  5
4207
330
0
100
AcDbIdBuffer
  0
IDBUFFER
  5
4208
330
0
100
AcDbIdBuffer
  0
ENDSEC
  0
EOF
