  0
SECTION
  2
HEADER
  9
$ACADVER
  1
AC1014
  9
$ACADMAINTVER
 70
     9
  9
$DWGCODEPAGE
  3
ANSI_932
  9
$INSBASE
 10
0.0
 20
0.0
 30
0.0
  9
$EXTMIN
 10
-589.2017441852486
 20
-65.61548554233263
 30
-0.00000001
  9
$EXTMAX
 10
25.46158211060804
 20
36.29788174485799
 30
0.00000001
  9
$LIMMIN
 10
-165.845194203809
 20
-87.68836088010232
  9
$LIMMAX
 10
45.82647274931173
 20
57.27134525773249
  9
$ORTHOMODE
 70
     0
  9
$REGENMODE
 70
     1
  9
$FILLMODE
 70
     1
  9
$QTEXTMODE
 70
     0
  9
$MIRRTEXT
 70
     0
  9
$DRAGMODE
 70
     2
  9
$LTSCALE
 40
1.0
  9
$OSMODE
 70
    55
  9
$ATTMODE
 70
     1
  9
$TEXTSIZE
 40
2.5
  9
$TRACEWID
 40
1.0
  9
$TEXTSTYLE
  7
STANDARD
  9
$CLAYER
  8
AM_0
  9
$CELTYPE
  6
BYLAYER
  9
$CECOLOR
 62
   256
  9
$CELTSCALE
 40
1.0
  9
$DELOBJ
 70
     1
  9
$DISPSILH
 70
     0
  9
$DIMSCALE
 40
1.0
  9
$DIMASZ
 40
2.5
  9
$DIMEXO
 40
1.0
  9
$DIMDLI
 40
12.0
  9
$DIMRND
 40
0.0
  9
$DIMDLE
 40
0.0
  9
$DIMEXE
 40
1.0
  9
$DIMTP
 40
0.1
  9
$DIMTM
 40
0.1
  9
$DIMTXT
 40
3.2
  9
$DIMCEN
 40
0.0
  9
$DIMTSZ
 40
0.0
  9
$DIMTOL
 70
     0
  9
$DIMLIM
 70
     0
  9
$DIMTIH
 70
     0
  9
$DIMTOH
 70
     0
  9
$DIMSE1
 70
     0
  9
$DIMSE2
 70
     0
  9
$DIMTAD
 70
     3
  9
$DIMZIN
 70
     8
  9
$DIMBLK
  1
OPEN30
  9
$DIMASO
 70
     1
  9
$DIMSHO
 70
     1
  9
$DIMPOST
  1

  9
$DIMAPOST
  1
"
  9
$DIMALT
 70
     0
  9
$DIMALTD
 70
     2
  9
$DIMALTF
 40
0.0393701
  9
$DIMLFAC
 40
1.0
  9
$DIMTOFL
 70
     1
  9
$DIMTVP
 40
0.0
  9
$DIMTIX
 70
     0
  9
$DIMSOXD
 70
     0
  9
$DIMSAH
 70
     0
  9
$DIMBLK1
  1

  9
$DIMBLK2
  1

  9
$DIMSTYLE
  2
AM_JIS
  9
$DIMCLRD
 70
   256
  9
$DIMCLRE
 70
   256
  9
$DIMCLRT
 70
     2
  9
$DIMTFAC
 40
0.71
  9
$DIMGAP
 40
1.5
  9
$DIMJUST
 70
     0
  9
$DIMSD1
 70
     0
  9
$DIMSD2
 70
     0
  9
$DIMTOLJ
 70
     0
  9
$DIMTZIN
 70
     0
  9
$DIMALTZ
 70
     0
  9
$DIMALTTZ
 70
     0
  9
$DIMFIT
 70
     3
  9
$DIMUPT
 70
     0
  9
$DIMUNIT
 70
     2
  9
$DIMDEC
 70
     3
  9
$DIMTDEC
 70
     3
  9
$DIMALTU
 70
     2
  9
$DIMALTTD
 70
     2
  9
$DIMTXSTY
  7
ASAMI
  9
$DIMAUNIT
 70
     0
  9
$LUNITS
 70
     2
  9
$LUPREC
 70
     2
  9
$SKETCHINC
 40
1.0
  9
$FILLETRAD
 40
2.5
  9
$AUNITS
 70
     0
  9
$AUPREC
 70
     0
  9
$MENU
  1
.
  9
$ELEVATION
 40
0.0
  9
$PELEVATION
 40
0.0
  9
$THICKNESS
 40
0.0
  9
$LIMCHECK
 70
     0
  9
$BLIPMODE
 70
     0
  9
$CHAMFERA
 40
2.5
  9
$CHAMFERB
 40
2.5
  9
$CHAMFERC
 40
20.0
  9
$CHAMFERD
 40
0.0
  9
$SKPOLY
 70
     0
  9
$TDCREATE
 40
2452800.443498622
  9
$TDUPDATE
 40
2453151.695530220
  9
$TDINDWG
 40
0.3896219444
  9
$TDUSRTIMER
 40
0.3896219444
  9
$USRTIMER
 70
     1
  9
$ANGBASE
 50
0.0
  9
$ANGDIR
 70
     0
  9
$PDMODE
 70
     0
  9
$PDSIZE
 40
0.0
  9
$PLINEWID
 40
0.0
  9
$COORDS
 70
     1
  9
$SPLFRAME
 70
     0
  9
$SPLINETYPE
 70
     6
  9
$SPLINESEGS
 70
     8
  9
$ATTDIA
 70
     1
  9
$ATTREQ
 70
     1
  9
$HANDLING
 70
 12289
  9
$HANDSEED
  5
4044
  9
$SURFTAB1
 70
     6
  9
$SURFTAB2
 70
     6
  9
$SURFTYPE
 70
     6
  9
$SURFU
 70
     6
  9
$SURFV
 70
     6
  9
$UCSNAME
  2

  9
$UCSORG
 10
0.0000000000000382
 20
-0.0000000000001254
 30
0.0
  9
$UCSXDIR
 10
1.0
 20
0.0000000000000027
 30
0.0
  9
$UCSYDIR
 10
-0.0000000000000027
 20
1.0
 30
0.0
  9
$PUCSNAME
  2

  9
$PUCSORG
 10
0.0
 20
0.0
 30
0.0
  9
$PUCSXDIR
 10
1.0
 20
0.0
 30
0.0
  9
$PUCSYDIR
 10
0.0
 20
1.0
 30
0.0
  9
$USERI1
 70
     0
  9
$USERI2
 70
     0
  9
$USERI3
 70
     0
  9
$USERI4
 70
     0
  9
$USERI5
 70
     0
  9
$USERR1
 40
0.0
  9
$USERR2
 40
0.0
  9
$USERR3
 40
0.0
  9
$USERR4
 40
0.0
  9
$USERR5
 40
0.0
  9
$WORLDVIEW
 70
     1
  9
$SHADEDGE
 70
     3
  9
$SHADEDIF
 70
    70
  9
$TILEMODE
 70
     1
  9
$MAXACTVP
 70
    64
  9
$PINSBASE
 10
0.0
 20
0.0
 30
0.0
  9
$PLIMCHECK
 70
     0
  9
$PEXTMIN
 10
1.000000000000000E+20
 20
1.000000000000000E+20
 30
1.000000000000000E+20
  9
$PEXTMAX
 10
-1.000000000000000E+20
 20
-1.000000000000000E+20
 30
-1.000000000000000E+20
  9
$PLIMMIN
 10
0.0
 20
0.0
  9
$PLIMMAX
 10
841.0
 20
594.0
  9
$UNITMODE
 70
     0
  9
$VISRETAIN
 70
     1
  9
$PLINEGEN
 70
     0
  9
$PSLTSCALE
 70
     0
  9
$TREEDEPTH
 70
  3020
  9
$PICKSTYLE
 70
     0
  9
$CMLSTYLE
  2
STANDARD
  9
$CMLJUST
 70
     0
  9
$CMLSCALE
 40
20.0
  9
$PROXYGRAPHICS
 70
     1
  9
$MEASUREMENT
 70
     1
  0
ENDSEC
  0
SECTION
  2
CLASSES
  0
CLASS
  1
ACDBDICTIONARYWDFLT
  2
AcDbDictionaryWithDefault
  3
AutoCAD 2000
 90
        0
280
     0
281
     0
  0
CLASS
  1
ACDBPLACEHOLDER
  2
AcDbPlaceHolder
  3
AutoCAD 2000
 90
        0
280
     0
281
     0
  0
CLASS
  1
LAYOUT
  2
AcDbLayout
  3
AutoCAD 2000
 90
        0
280
     0
281
     0
  0
CLASS
  1
AMGSETTINGSOBJ
  2
AmgSettingsObj
  3
"AcadM|Product Description: AutoCAD Mechanical 2000|Company: Autodesk"
 90
        0
280
     0
281
     0
  0
CLASS
  1
ACME_DOCUMENT
  2
AcMeDbDoc
  3
AcMeServices
 90
        0
280
     0
281
     0
  0
CLASS
  1
ACMESCOPE
  2
AcMeScope
  3
AcMeServices
 90
        0
280
     0
281
     0
  0
CLASS
  1
ACMECOMMANDHISTORY
  2
AcMeCommandHistory
  3
AcMeServices
 90
        0
280
     0
281
     0
  0
CLASS
  1
DICTIONARYVAR
  2
AcDbDictionaryVar
  3
AutoCAD 2000
 90
        0
280
     0
281
     0
  0
CLASS
  1
ACIMSYSVARMAN
  2
AcImSysVarManager
  3
AcMeServices
 90
        0
280
     0
281
     0
  0
CLASS
  1
ACIMREALSYSVAR
  2
AcImRealSysVar
  3
AcMeServices
 90
        0
280
     0
281
     0
  0
CLASS
  1
ACIMINTSYSVAR
  2
AcImIntSysVar
  3
AcMeServices
 90
        0
280
     0
281
     0
  0
CLASS
  1
ACMEDRAWINGMAN
  2
AcMeDrawingMan
  3
AcMeServices
 90
        0
280
     0
281
     0
  0
CLASS
  1
ACMEVIEW
  2
AcMeView
  3
AcMeServices
 90
        0
280
     0
281
     0
  0
CLASS
  1
ACDBENTITYCACHE
  2
AcMeEntityCache
  3
AcMeServices
 90
        0
280
     0
281
     0
  0
CLASS
  1
GSMANAGER
  2
AcMeGSManager
  3
AcMeServices
 90
        0
280
     0
281
     0
  0
CLASS
  1
AmdtInternalReactor
  2
AmdtInternalReactor
  3
AcMeServices
 90
        0
280
     0
281
     0
  0
CLASS
  1
ACMESTATEMGR
  2
AcMeStateMgr
  3
AcMeServices
 90
        0
280
     0
281
     0
  0
CLASS
  1
ACME_DATABASE
  2
AcMeDbDatabase
  3
AcMeServices
 90
        0
280
     0
281
     0
  0
CLASS
  1
ACRFINSADJUSTERMGR
  2
AcRfInsAdjusterMgr
  3
AcMeServices
 90
        0
280
     0
281
     0
  0
CLASS
  1
ACMDATADICTIONARY
  2
AcmDataDictionary
  3
"AcmSymBB|Product Description: AutoCAD Mechanical 2000|Company: Autodesk"
 90
        0
280
     0
281
     0
  0
CLASS
  1
ACMDATAENTRYBLOCK
  2
AcmDataEntryBlock
  3
"AcmSymBB|Product Description: AutoCAD Mechanical 2000|Company: Autodesk"
 90
        0
280
     0
281
     0
  0
CLASS
  1
AMGOBJPROPCFG
  2
AmgObjPropCfg
  3
"AmgLay|Product Description: AutoCAD Mechanical 2000|Company: Autodesk"
 90
        1
280
     0
281
     0
  0
CLASS
  1
ACAMGFILTERDAT
  2
AcAmgFilterDat
  3
"AcadM|Product Description: AutoCAD Mechanical 2000|Company: Autodesk"
 90
        0
280
     0
281
     0
  0
CLASS
  1
LAYER_INDEX
  2
AcDbLayerIndex
  3
AutoCAD 2000
 90
        0
280
     0
281
     0
  0
CLASS
  1
IDBUFFER
  2
AcDbIdBuffer
  3
AutoCAD 2000
 90
        0
280
     0
281
     0
  0
CLASS
  1
ACIMSTRSYSVAR
  2
AcImStrSysVar
  3
AcMeServices
 90
        0
280
     0
281
     0
  0
CLASS
  1
ACMSTANDARDJIS
  2
AcmStandardJIS
  3
"AcmSymBB|Product Description: AutoCAD Mechanical 2000|Company: Autodesk"
 90
        0
280
     0
281
     0
  0
CLASS
  1
ACMSURFSTANDARDJIS
  2
AcmSurfTextStdJIS
  3
"AcmSymBB|Product Description: AutoCAD Mechanical 2000|Company: Autodesk"
 90
        0
280
     0
281
     0
  0
CLASS
  1
ACMFCFSTANDARDJIS
  2
AcmFCFStdJIS
  3
"AcmSymBB|Product Description: AutoCAD Mechanical 2000|Company: Autodesk"
 90
        0
280
     0
281
     0
  0
CLASS
  1
ACMWELDSTANDARDJIS
  2
AcmWeldingStdJIS
  3
"AcmSymBB|Product Description: AutoCAD Mechanical 2000|Company: Autodesk"
 90
        0
280
     0
281
     0
  0
CLASS
  1
ACMIDSTANDARDJIS
  2
AcmIdStdJIS
  3
"AcmSymBB|Product Description: AutoCAD Mechanical 2000|Company: Autodesk"
 90
        0
280
     0
281
     0
  0
CLASS
  1
ACMDATUMSTANDARDJIS
  2
AcmDatumStdJIS
  3
"AcmSymBB|Product Description: AutoCAD Mechanical 2000|Company: Autodesk"
 90
        0
280
     0
281
     0
  0
CLASS
  1
ACMBOMSTANDARDJIS
  2
AcmBOMStdJIS
  3
"AcmSymBB|Product Description: AutoCAD Mechanical 2000|Company: Autodesk"
 90
        0
280
     0
281
     0
  0
CLASS
  1
ACMSTANDARDANSI
  2
AcmStandardANSI
  3
"AcmSymBB|Product Description: AutoCAD Mechanical 2000|Company: Autodesk"
 90
        0
280
     0
281
     0
  0
CLASS
  1
ACMSURFSTANDARDANSI
  2
AcmSurfTextStdANSI
  3
"AcmSymBB|Product Description: AutoCAD Mechanical 2000|Company: Autodesk"
 90
        0
280
     0
281
     0
  0
CLASS
  1
ACMFCFSTANDARDANSI
  2
AcmFCFStdANSI
  3
"AcmSymBB|Product Description: AutoCAD Mechanical 2000|Company: Autodesk"
 90
        0
280
     0
281
     0
  0
CLASS
  1
ACMWELDSTANDARDANSI
  2
AcmWeldingStdANSI
  3
"AcmSymBB|Product Description: AutoCAD Mechanical 2000|Company: Autodesk"
 90
        0
280
     0
281
     0
  0
CLASS
  1
ACMIDSTANDARDANSI
  2
AcmIdStdANSI
  3
"AcmSymBB|Product Description: AutoCAD Mechanical 2000|Company: Autodesk"
 90
        0
280
     0
281
     0
  0
CLASS
  1
ACMDATUMSTANDARDANSI
  2
AcmDatumStdANSI
  3
"AcmSymBB|Product Description: AutoCAD Mechanical 2000|Company: Autodesk"
 90
        0
280
     0
281
     0
  0
CLASS
  1
ACMBOMSTANDARDANSI
  2
AcmBOMStdANSI
  3
"AcmSymBB|Product Description: AutoCAD Mechanical 2000|Company: Autodesk"
 90
        0
280
     0
281
     0
  0
CLASS
  1
ACMSTANDARDBSI
  2
AcmStandardBSI
  3
"AcmSymBB|Product Description: AutoCAD Mechanical 2000|Company: Autodesk"
 90
        0
280
     0
281
     0
  0
CLASS
  1
ACMSURFSTANDARDBSI
  2
AcmSurfTextStdBSI
  3
"AcmSymBB|Product Description: AutoCAD Mechanical 2000|Company: Autodesk"
 90
        0
280
     0
281
     0
  0
CLASS
  1
ACMFCFSTANDARDBSI
  2
AcmFCFStdBSI
  3
"AcmSymBB|Product Description: AutoCAD Mechanical 2000|Company: Autodesk"
 90
        0
280
     0
281
     0
  0
CLASS
  1
ACMWELDSTANDARDBSI
  2
AcmWeldingStdBSI
  3
"AcmSymBB|Product Description: AutoCAD Mechanical 2000|Company: Autodesk"
 90
        0
280
     0
281
     0
  0
CLASS
  1
ACMIDSTANDARDBSI
  2
AcmIdStdBSI
  3
"AcmSymBB|Product Description: AutoCAD Mechanical 2000|Company: Autodesk"
 90
        0
280
     0
281
     0
  0
CLASS
  1
ACMDATUMSTANDARDBSI
  2
AcmDatumStdBSI
  3
"AcmSymBB|Product Description: AutoCAD Mechanical 2000|Company: Autodesk"
 90
        0
280
     0
281
     0
  0
CLASS
  1
ACMBOMSTANDARDBSI
  2
AcmBOMStdBSI
  3
"AcmSymBB|Product Description: AutoCAD Mechanical 2000|Company: Autodesk"
 90
        0
280
     0
281
     0
  0
CLASS
  1
LONG_TRANSACTION
  2
AcDbLongTransaction
  3
AutoCAD 2000
 90
        0
280
     0
281
     0
  0
CLASS
  1
LWPOLYLINE
  2
AcDbPolyline
  3
AutoCAD 2000
 90
        0
280
     0
281
     1
  0
CLASS
  1
HATCH
  2
AcDbHatch
  3
AutoCAD 2000
 90
        0
280
     0
281
     1
  0
CLASS
  1
XRECORD
  2
AcDbXrecord
  3
AutoCAD 2000
 90
        0
280
     0
281
     0
  0
ENDSEC
  0
SECTION
  2
TABLES
  0
TABLE
  2
VPORT
  5
8
330
0
100
AcDbSymbolTable
 70
     3
  0
VPORT
  5
4019
330
8
100
AcDbSymbolTableRecord
100
AcDbViewportTableRecord
  2
*ACTIVE
 70
     0
 10
0.0
 20
0.0
 11
1.0
 21
1.0
 12
-60.17650205006525
 22
-16.98615805231473
 13
0.0
 23
0.0
 14
2.5
 24
2.5
 15
10.0
 25
10.0
 16
0.0
 26
0.0
 36
1.0
 17
0.0
 27
0.0
 37
0.0
 40
157.9523479995867
 41
1.56570841889117
 42
50.0
 43
0.0
 44
0.0
 50
0.0
 51
0.0
 71
     0
 72
   100
 73
     1
 74
     1
 75
     0
 76
     0
 77
     0
 78
     0
  0
ENDTAB
  0
TABLE
  2
LTYPE
  5
5
330
0
100
AcDbSymbolTable
 70
    10
  0
LTYPE
  5
14
330
5
100
AcDbSymbolTableRecord
100
AcDbLinetypeTableRecord
  2
BYBLOCK
 70
     0
  3

 72
    65
 73
     0
 40
0.0
  0
LTYPE
  5
15
330
5
100
AcDbSymbolTableRecord
100
AcDbLinetypeTableRecord
  2
BYLAYER
 70
     0
  3

 72
    65
 73
     0
 40
0.0
  0
LTYPE
  5
16
330
5
100
AcDbSymbolTableRecord
100
AcDbLinetypeTableRecord
  2
CONTINUOUS
 70
     0
  3
Solid line
 72
    65
 73
     0
 40
0.0
  0
LTYPE
  5
4B
330
5
100
AcDbSymbolTableRecord
100
AcDbLinetypeTableRecord
  2
AM_ISO02W050
 70
     0
  3
__ __ __ __ __ __ __ __ __ __ __ __ __ __ __
 72
    65
 73
     2
 40
7.5
 49
6.0
 74
     0
 49
-1.5
 74
     0
  0
LTYPE
  5
4C
330
5
100
AcDbSymbolTableRecord
100
AcDbLinetypeTableRecord
  2
AM_ISO08W050
 70
     0
  3
____ . ____ . ____ . ____ . ____ . ____ . ____
 72
    65
 73
     4
 40
18.0
 49
12.0
 74
     0
 49
-1.5
 74
     0
 49
3.0
 74
     0
 49
-1.5
 74
     0
  0
LTYPE
  5
4D
330
5
100
AcDbSymbolTableRecord
100
AcDbLinetypeTableRecord
  2
AM_ISO09W050
 70
     0
  3
_____ . . _____ . . _____ . . ____ .. ____
 72
    65
 73
     6
 40
22.5
 49
12.0
 74
     0
 49
-1.5
 74
     0
 49
3.0
 74
     0
 49
-1.5
 74
     0
 49
3.0
 74
     0
 49
-1.5
 74
     0
  0
LTYPE
  5
4E
330
5
100
AcDbSymbolTableRecord
100
AcDbLinetypeTableRecord
  2
AMCONSTR
 70
     0
  3
_______________________
 72
    65
 73
     2
 40
9999.0
 49
9999.0
 74
     0
 49
0.0
 74
     0
  0
LTYPE
  5
4F
330
5
100
AcDbSymbolTableRecord
100
AcDbLinetypeTableRecord
  2
AM_ISO02W050X2
 70
     0
  3
 _ _ _ _ _ _ _ _ _ _ _ _
 72
    65
 73
     2
 40
3.75
 49
3.0
 74
     0
 49
-0.75
 74
     0
  0
LTYPE
  5
50
330
5
100
AcDbSymbolTableRecord
100
AcDbLinetypeTableRecord
  2
AM_ISO08W050X2
 70
     0
  3
__ . __ . __ . __ . __ . __
 72
    65
 73
     4
 40
9.0
 49
6.0
 74
     0
 49
-0.75
 74
     0
 49
1.5
 74
     0
 49
-0.75
 74
     0
  0
LTYPE
  5
53
330
5
100
AcDbSymbolTableRecord
100
AcDbLinetypeTableRecord
  2
AMZIGZAG
 70
     0
  3
/\/-/\/-/\/-/\/-/\/-/\/
 72
    65
 73
     2
 40
11.00009999999999
 49
0.0001
 74
     4
 75
   135
340
52
 46
0.04
 50
0.0
 44
0.0
 45
0.0
 49
-11.0
 74
     0
  0
LTYPE
  5
166
330
5
100
AcDbSymbolTableRecord
100
AcDbLinetypeTableRecord
  2
ACJISTGL
 70
     0
  3
_ _ _ _ _
 72
    65
 73
     2
 40
3.0
 49
2.0
 74
     0
 49
-1.0
 74
     0
  0
LTYPE
  5
26A
330
5
100
AcDbSymbolTableRecord
100
AcDbLinetypeTableRecord
  2
ACJISTGB
 70
     0
  3
__ . . __ . .
 72
    65
 73
     6
 40
9.0
 49
4.0
 74
     0
 49
-1.0
 74
     0
 49
1.0
 74
     0
 49
-1.0
 74
     0
 49
1.0
 74
     0
 49
-1.0
 74
     0
  0
ENDTAB
  0
TABLE
  2
LAYER
  5
2
330
0
100
AcDbSymbolTable
 70
    11
  0
LAYER
  5
10
330
2
100
AcDbSymbolTableRecord
100
AcDbLayerTableRecord
  2
0
 70
     0
 62
     7
  6
CONTINUOUS
  0
LAYER
  5
3F9
330
2
100
AcDbSymbolTableRecord
100
AcDbLayerTableRecord
  2
AM_0
 70
     0
 62
     7
  6
CONTINUOUS
  0
LAYER
  5
BA4
330
2
100
AcDbSymbolTableRecord
100
AcDbLayerTableRecord
  2
PV0001_1
 70
     0
 62
     7
  6
CONTINUOUS
  0
LAYER
  5
C6C
330
2
100
AcDbSymbolTableRecord
100
AcDbLayerTableRecord
  2
AM_CL
 70
     0
 62
     1
  6
AMCONSTR
  0
LAYER
  5
C7C
330
2
100
AcDbSymbolTableRecord
100
AcDbLayerTableRecord
  2
AM_7
 70
     0
 62
     4
  6
AM_ISO08W050
  0
LAYER
  5
C97
330
2
100
AcDbSymbolTableRecord
100
AcDbLayerTableRecord
  2
AM_11
 70
     0
 62
     3
  6
AM_ISO09W050
  0
LAYER
  5
CC5
330
2
100
AcDbSymbolTableRecord
100
AcDbLayerTableRecord
  2
AM_5
 70
     0
 62
     3
  6
CONTINUOUS
  0
LAYER
  5
CC7
330
2
100
AcDbSymbolTableRecord
100
AcDbLayerTableRecord
  2
DEFPOINTS
 70
     0
 62
     7
  6
CONTINUOUS
  0
LAYER
  5
19BC
330
2
100
AcDbSymbolTableRecord
100
AcDbLayerTableRecord
  2
AM_6
 70
     0
 62
     2
  6
CONTINUOUS
  0
LAYER
  5
1F8E
330
2
100
AcDbSymbolTableRecord
100
AcDbLayerTableRecord
  2
AM_4
 70
     0
 62
     3
  6
CONTINUOUS
  0
LAYER
  5
3588
330
2
100
AcDbSymbolTableRecord
100
AcDbLayerTableRecord
  2
AM_3
 70
     0
 62
     6
  6
ACJISTGL
  0
ENDTAB
  0
TABLE
  2
STYLE
  5
3
330
0
100
AcDbSymbolTable
 70
     5
  0
STYLE
  5
11
330
3
100
AcDbSymbolTableRecord
100
AcDbTextStyleTableRecord
  2
STANDARD
 70
     0
 40
0.0
 41
1.0
 50
0.0
 71
     0
 42
2.5
  3
simplex.shx
  4
EXTFONT.SHX
  0
STYLE
  5
52
330
3
100
AcDbSymbolTableRecord
100
AcDbTextStyleTableRecord
  2

 70
     1
 40
0.0
 41
1.0
 50
0.0
 71
     0
 42
2.5
  3
ltypeshp.shx
  4

  0
STYLE
  5
6B
330
3
100
AcDbSymbolTableRecord
100
AcDbTextStyleTableRecord
  2
ASAMI
 70
     0
 40
0.0
 41
1.0
 50
0.0
 71
     0
 42
2.5
  3
simplex.shx
  4
EXTFONT.SHX
  0
STYLE
  5
262
330
3
100
AcDbSymbolTableRecord
100
AcDbTextStyleTableRecord
  2
ACJISTS
 70
     0
 40
1.0
 41
1.0
 50
0.0
 71
     0
 42
2.5
  3
simplex.shx
  4
bigfont.shx
  0
STYLE
  5
269
330
3
100
AcDbSymbolTableRecord
100
AcDbTextStyleTableRecord
  2
ACJISGDT
 70
     0
 40
0.0
 41
1.0
 50
0.0
 71
     0
 42
2.5
  3
amgdtans.shx
  4

  0
ENDTAB
  0
TABLE
  2
VIEW
  5
6
330
0
100
AcDbSymbolTable
 70
     0
  0
ENDTAB
  0
TABLE
  2
UCS
  5
7
330
0
100
AcDbSymbolTable
 70
     0
  0
ENDTAB
  0
TABLE
  2
APPID
  5
9
330
0
100
AcDbSymbolTable
 70
    14
  0
APPID
  5
12
330
9
100
AcDbSymbolTableRecord
100
AcDbRegAppTableRecord
  2
ACAD
 70
     0
  0
APPID
  5
30
330
9
100
AcDbSymbolTableRecord
100
AcDbRegAppTableRecord
  2
MCAD_NO_VIS
 70
     0
  0
APPID
  5
31
330
9
100
AcDbSymbolTableRecord
100
AcDbRegAppTableRecord
  2
ACAD_TEMP_GRAPHIC
 70
     0
  0
APPID
  5
2C2
330
9
100
AcDbSymbolTableRecord
100
AcDbRegAppTableRecord
  2
GENIUS_GENDTOL_13
 70
     0
  0
APPID
  5
339
330
9
100
AcDbSymbolTableRecord
100
AcDbRegAppTableRecord
  2
GENIUS_GENODEF_13
 70
     0
  0
APPID
  5
33A
330
9
100
AcDbSymbolTableRecord
100
AcDbRegAppTableRecord
  2
GENIUS_GENOBJ-N-RSBK_13
 70
     0
  0
APPID
  5
33B
330
9
100
AcDbSymbolTableRecord
100
AcDbRegAppTableRecord
  2
GENIUS_GENOBJ-N-LIB_13
 70
     0
  0
APPID
  5
33C
330
9
100
AcDbSymbolTableRecord
100
AcDbRegAppTableRecord
  2
GENIUS_GENSCALE_13
 70
     0
  0
APPID
  5
378
330
9
100
AcDbSymbolTableRecord
100
AcDbRegAppTableRecord
  2
GENIUS_GENDIMSH_14
 70
     0
  0
APPID
  5
C82
330
9
100
AcDbSymbolTableRecord
100
AcDbRegAppTableRecord
  2
GENIUS_GENOBJ-N-CRS_13
 70
     0
  0
APPID
  5
C83
330
9
100
AcDbSymbolTableRecord
100
AcDbRegAppTableRecord
  2
GENIUS_GENOENT_13
 70
     0
  0
APPID
  5
C84
330
9
100
AcDbSymbolTableRecord
100
AcDbRegAppTableRecord
  2
GENIUS_GENOREF_13
 70
     0
  0
APPID
  5
C85
330
9
100
AcDbSymbolTableRecord
100
AcDbRegAppTableRecord
  2
GENIUS_GENOLIS_13
 70
     0
  0
APPID
  5
CA0
330
9
100
AcDbSymbolTableRecord
100
AcDbRegAppTableRecord
  2
GENIUS_GENOBJ-N-CEN_13
 70
     0
  0
ENDTAB
  0
TABLE
  2
DIMSTYLE
  5
A
330
0
100
AcDbSymbolTable
 70
    10
  0
DIMSTYLE
105
58
330
A
100
AcDbSymbolTableRecord
100
AcDbDimStyleTableRecord
  2
AM_JIS
 70
     0
  3

  4
"
  5
OPEN30
  6

  7

 40
1.0
 41
2.5
 42
1.0
 43
12.0
 44
1.0
 45
0.0
 46
0.0
 47
0.1
 48
0.1
140
3.2
141
0.0
142
0.0
143
0.0393701
144
1.0
145
0.0
146
0.71
147
1.5
 71
     0
 72
     0
 73
     0
 74
     0
 75
     0
 76
     0
 77
     3
 78
     8
170
     0
171
     2
172
     1
173
     0
174
     0
175
     0
176
   256
177
   256
178
     2
270
     2
271
     3
272
     3
273
     2
274
     2
340
6B
275
     0
280
     0
281
     0
282
     0
283
     0
284
     0
285
     0
286
     0
287
     3
288
     0
  0
DIMSTYLE
105
5F
330
A
100
AcDbSymbolTableRecord
100
AcDbDimStyleTableRecord
  2
AM_JIS$3
 70
     0
  3

  4
"
  5
OPEN30
  6

  7

 40
1.0
 41
2.5
 42
1.0
 43
10.0
 44
1.0
 45
0.0
 46
0.0
 47
0.1
 48
0.1
140
3.2
141
0.0
142
0.0
143
0.0393701
144
1.0
145
0.0
146
0.71
147
1.5
 71
     0
 72
     0
 73
     0
 74
     1
 75
     0
 76
     0
 77
     3
 78
     8
170
     0
171
     2
172
     0
173
     0
174
     0
175
     0
176
   256
177
   256
178
     2
270
     2
271
     2
272
     3
273
     2
274
     2
340
6B
275
     0
280
     0
281
     0
282
     0
283
     0
284
     0
285
     0
286
     0
287
     0
288
     1
  0
DIMSTYLE
105
60
330
A
100
AcDbSymbolTableRecord
100
AcDbDimStyleTableRecord
  2
AM_JIS$4
 70
     0
  3

  4
"
  5
OPEN30
  6

  7

 40
1.0
 41
2.5
 42
1.0
 43
10.0
 44
1.0
 45
0.0
 46
0.0
 47
0.1
 48
0.1
140
3.2
141
0.0
142
0.0
143
0.0393701
144
1.0
145
0.0
146
0.71
147
1.5
 71
     0
 72
     0
 73
     0
 74
     1
 75
     0
 76
     0
 77
     3
 78
     8
170
     0
171
     2
172
     0
173
     0
174
     0
175
     0
176
   256
177
   256
178
     2
270
     2
271
     2
272
     3
273
     2
274
     2
340
6B
275
     0
280
     0
281
     0
282
     0
283
     0
284
     0
285
     0
286
     0
287
     0
288
     1
  0
DIMSTYLE
105
61
330
A
100
AcDbSymbolTableRecord
100
AcDbDimStyleTableRecord
  2
AM_JIS$6
 70
     0
  3

  4
"
  5
OPEN30
  6

  7

 40
1.0
 41
2.5
 42
1.0
 43
10.0
 44
1.0
 45
0.0
 46
0.0
 47
0.1
 48
0.1
140
3.2
141
0.0
142
0.0
143
0.0393701
144
1.0
145
0.0
146
0.71
147
1.5
 71
     0
 72
     0
 73
     0
 74
     0
 75
     0
 76
     0
 77
     0
 78
     8
170
     0
171
     2
172
     1
173
     0
174
     0
175
     0
176
   256
177
   256
178
     2
270
     2
271
     2
272
     2
273
     2
274
     2
340
6B
275
     0
280
     0
281
     0
282
     0
283
     0
284
     0
285
     0
286
     0
287
     3
288
     0
  0
DIMSTYLE
105
62
330
A
100
AcDbSymbolTableRecord
100
AcDbDimStyleTableRecord
  2
AM_JIS$7
 70
     0
  3

  4
"
  5
OPEN30
  6

  7

 40
1.0
 41
2.5
 42
1.0
 43
10.0
 44
1.0
 45
0.0
 46
0.0
 47
0.1
 48
0.1
140
3.2
141
0.0
142
0.0
143
0.0393701
144
1.0
145
0.0
146
0.71
147
1.5
 71
     0
 72
     0
 73
     0
 74
     0
 75
     0
 76
     0
 77
     3
 78
     8
170
     0
171
     2
172
     1
173
     0
174
     0
175
     0
176
   256
177
   256
178
     2
270
     2
271
     2
272
     3
273
     2
274
     2
340
6B
275
     0
280
     0
281
     0
282
     0
283
     0
284
     0
285
     0
286
     0
287
     3
288
     0
  0
DIMSTYLE
105
63
330
A
100
AcDbSymbolTableRecord
100
AcDbDimStyleTableRecord
  2
AM_JIS$SF
 70
     0
  3

  4
"
  5
OPEN30
  6

  7

 40
1.0
 41
2.5
 42
1.0
 43
10.0
 44
1.0
 45
0.0
 46
0.0
 47
0.1
 48
0.1
140
3.2
141
0.0
142
0.0
143
0.0393701
144
1.0
145
0.0
146
0.71
147
1.5
 71
     0
 72
     0
 73
     0
 74
     0
 75
     1
 76
     1
 77
     3
 78
     8
170
     0
171
     2
172
     1
173
     0
174
     0
175
     0
176
   256
177
   256
178
     2
270
     2
271
     2
272
     2
273
     2
274
     2
340
6B
275
     0
280
     0
281
     0
282
     0
283
     0
284
     0
285
     0
286
     0
287
     3
288
     0
  0
DIMSTYLE
105
68
330
A
100
AcDbSymbolTableRecord
100
AcDbDimStyleTableRecord
  2
AM_JIS$SH
 70
     0
  3

  4
"
  5

  6
GENAXEH
  7
OPEN30
 40
1.0
 41
2.5
 42
1.0
 43
10.0
 44
1.0
 45
0.0
 46
0.0
 47
0.1
 48
0.1
140
3.2
141
0.0
142
0.0
143
0.0393701
144
2.0
145
0.0
146
0.71
147
1.5
 71
     0
 72
     0
 73
     0
 74
     0
 75
     1
 76
     1
 77
     3
 78
     8
170
     0
171
     2
172
     1
173
     1
174
     0
175
     0
176
   256
177
   256
178
     2
270
     2
271
     2
272
     2
273
     2
274
     2
340
6B
275
     0
280
     0
281
     0
282
     0
283
     0
284
     0
285
     0
286
     0
287
     3
288
     0
  0
DIMSTYLE
105
B34
102
{ACAD_REACTORS
330
36BA
102
}
330
A
100
AcDbSymbolTableRecord
100
AcDbDimStyleTableRecord
  2
AM_JIS$2
 70
     0
  3

  4
"
  5
OPEN30
  6

  7

 40
1.0
 41
2.5
 42
1.0
 43
12.0
 44
1.0
 45
0.0
 46
0.0
 47
0.1
 48
0.1
140
3.2
141
0.0
142
0.0
143
0.0393701
144
1.0
145
0.0
146
0.71
147
1.5
 71
     0
 72
     0
 73
     0
 74
     0
 75
     0
 76
     0
 77
     3
 78
     8
170
     0
171
     2
172
     1
173
     0
174
     0
175
     0
176
   256
177
   256
178
     2
270
     2
271
     3
272
     3
273
     2
274
     2
340
6B
275
     0
280
     0
281
     0
282
     0
283
     0
284
     0
285
     0
286
     0
287
     3
288
     0
  0
DIMSTYLE
105
BA5
102
{ACAD_REACTORS
330
3866
330
3990
330
3B0D
330
3BB8
330
3C40
330
3CCB
330
3D56
330
3DFD
330
3EE5
102
}
330
A
100
AcDbSymbolTableRecord
100
AcDbDimStyleTableRecord
  2
AM_JIS$0
 70
     0
  3

  4
"
  5
OPEN30
  6

  7

 40
1.0
 41
2.5
 42
0.8
 43
10.0
 44
1.0
 45
0.0
 46
0.0
 47
0.1
 48
0.1000000001
140
3.799999999999999
141
0.0
142
0.0
143
0.0393701
144
1.0
145
0.0
146
0.71
147
1.5
 71
     0
 72
     0
 73
     0
 74
     0
 75
     0
 76
     0
 77
     3
 78
     9
170
     0
171
     2
172
     1
173
     0
174
     0
175
     0
176
     3
177
     3
178
     2
270
     2
271
     2
272
     2
273
     2
274
     2
340
11
275
     1
280
     0
281
     0
282
     0
283
     0
284
     8
285
     0
286
     0
287
     0
288
     0
  0
DIMSTYLE
105
BA6
330
A
100
AcDbSymbolTableRecord
100
AcDbDimStyleTableRecord
  2
AM_JISORG-1P0$2
 70
     0
  3

  4
"
  5
OPEN30
  6

  7

 40
1.0
 41
2.5
 42
0.0
 43
10.0
 44
1.0
 45
0.0
 46
0.0
 47
0.1
 48
0.1000000001
140
3.799999999999999
141
0.0
142
0.0
143
0.0393701
144
-0.999999980146674
145
0.0
146
0.71
147
1.5
 71
     0
 72
     0
 73
     0
 74
     0
 75
     0
 76
     0
 77
     3
 78
     1
170
     0
171
     2
172
     1
173
     0
174
     0
175
     0
176
     3
177
     3
178
     2
270
     2
271
     2
272
     2
273
     2
274
     2
340
11
275
     1
280
     0
281
     0
282
     0
283
     0
284
     8
285
     0
286
     0
287
     0
288
     0
  0
ENDTAB
  0
TABLE
  2
BLOCK_RECORD
  5
1
330
0
100
AcDbSymbolTable
 70
    19
  0
BLOCK_RECORD
  5
1F
102
{ACAD_XDICTIONARY
360
74
102
}
330
1
100
AcDbSymbolTableRecord
100
AcDbBlockTableRecord
  2
*MODEL_SPACE
  0
BLOCK_RECORD
  5
101
102
{ACAD_XDICTIONARY
360
4042
102
}
330
1
100
AcDbSymbolTableRecord
100
AcDbBlockTableRecord
  2
*PAPER_SPACE
  0
BLOCK_RECORD
  5
59
330
1
100
AcDbSymbolTableRecord
100
AcDbBlockTableRecord
  2
_OPEN30
  0
BLOCK_RECORD
  5
64
330
1
100
AcDbSymbolTableRecord
100
AcDbBlockTableRecord
  2
GENAXEH
  0
BLOCK_RECORD
  5
C31
330
1
100
AcDbSymbolTableRecord
100
AcDbBlockTableRecord
  2
A$C36D02A34
  0
BLOCK_RECORD
  5
2453
330
1
100
AcDbSymbolTableRecord
100
AcDbBlockTableRecord
  2
*D6
  0
BLOCK_RECORD
  5
245F
330
1
100
AcDbSymbolTableRecord
100
AcDbBlockTableRecord
  2
A$C4FFC6CC0
  0
BLOCK_RECORD
  5
36BB
330
1
100
AcDbSymbolTableRecord
100
AcDbBlockTableRecord
  2
*D8
  0
BLOCK_RECORD
  5
3867
330
1
100
AcDbSymbolTableRecord
100
AcDbBlockTableRecord
  2
*D9
  0
BLOCK_RECORD
  5
3991
330
1
100
AcDbSymbolTableRecord
100
AcDbBlockTableRecord
  2
*D10
  0
BLOCK_RECORD
  5
3B0E
330
1
100
AcDbSymbolTableRecord
100
AcDbBlockTableRecord
  2
*D11
  0
BLOCK_RECORD
  5
3BB9
330
1
100
AcDbSymbolTableRecord
100
AcDbBlockTableRecord
  2
*D12
  0
BLOCK_RECORD
  5
3C41
330
1
100
AcDbSymbolTableRecord
100
AcDbBlockTableRecord
  2
*D13
  0
BLOCK_RECORD
  5
3CCC
330
1
100
AcDbSymbolTableRecord
100
AcDbBlockTableRecord
  2
*D14
  0
BLOCK_RECORD
  5
3D57
330
1
100
AcDbSymbolTableRecord
100
AcDbBlockTableRecord
  2
*D15
  0
BLOCK_RECORD
  5
3DFE
330
1
100
AcDbSymbolTableRecord
100
AcDbBlockTableRecord
  2
*D16
  0
BLOCK_RECORD
  5
3EE6
330
1
100
AcDbSymbolTableRecord
100
AcDbBlockTableRecord
  2
*D17
  0
ENDTAB
  0
ENDSEC
  0
SECTION
  2
BLOCKS
  0
BLOCK
  5
20
330
1F
100
AcDbEntity
  8
0
100
AcDbBlockBegin
  2
*MODEL_SPACE
 70
     0
 10
0.0
 20
0.0
 30
0.0
  3
*MODEL_SPACE
  1

  0
ENDBLK
  5
21
330
1F
100
AcDbEntity
  8
0
100
AcDbBlockEnd
  0
BLOCK
  5
103
330
101
100
AcDbEntity
 67
     1
  8
0
100
AcDbBlockBegin
  2
*PAPER_SPACE
 70
     0
 10
0.0
 20
0.0
 30
0.0
  3
*PAPER_SPACE
  1

  0
ENDBLK
  5
104
330
101
100
AcDbEntity
 67
     1
  8
0
100
AcDbBlockEnd
  0
BLOCK
  5
5D
330
59
100
AcDbEntity
  8
0
100
AcDbBlockBegin
  2
_OPEN30
 70
     0
 10
0.0
 20
0.0
 30
0.0
  3
_OPEN30
  1

  0
LINE
  5
5A
330
59
100
AcDbEntity
  8
0
 62
     0
100
AcDbLine
 10
-1.0
 20
0.26794919
 30
0.0
 11
0.0
 21
0.0
 31
0.0
  0
LINE
  5
5B
330
59
100
AcDbEntity
  8
0
 62
     0
100
AcDbLine
 10
0.0
 20
0.0
 30
0.0
 11
-1.0
 21
-0.26794919
 31
0.0
  0
LINE
  5
5C
330
59
100
AcDbEntity
  8
0
 62
     0
100
AcDbLine
 10
0.0
 20
0.0
 30
0.0
 11
-1.0
 21
0.0
 31
0.0
  0
ENDBLK
  5
5E
330
59
100
AcDbEntity
  8
0
100
AcDbBlockEnd
  0
BLOCK
  5
66
330
64
100
AcDbEntity
  8
0
100
AcDbBlockBegin
  2
GENAXEH
 70
     0
 10
0.0
 20
0.0
 30
0.0
  3
GENAXEH
  1

  0
LINE
  5
65
330
64
100
AcDbEntity
  8
0
100
AcDbLine
 10
-1.0
 20
0.0
 30
0.0
 11
1.0
 21
0.0
 31
0.0
  0
ENDBLK
  5
67
330
64
100
AcDbEntity
  8
0
100
AcDbBlockEnd
  0
BLOCK
  5
C4B
330
C31
100
AcDbEntity
  8
0
100
AcDbBlockBegin
  2
A$C36D02A34
 70
     0
 10
0.0
 20
0.0
 30
0.0
  3
A$C36D02A34
  1

  0
ARC
  5
C32
330
C31
100
AcDbEntity
  8
PV0001_1
  6
CONTINUOUS
 48
0.5
100
AcDbCircle
 10
18.06811523436999
 20
-11.83651161193799
 30
0.0
 40
21.600000381469
100
AcDbArc
 50
123.2290435713209
 51
126.6341524197568
  0
ARC
  5
C33
330
C31
100
AcDbEntity
  8
PV0001_1
  6
CONTINUOUS
 48
0.5
100
AcDbCircle
 10
18.06811523436999
 20
-11.83651161193799
 30
0.0
 40
21.600000381469
100
AcDbArc
 50
135.0736707620117
 51
146.7709980930592
  0
ARC
  5
C34
330
C31
100
AcDbEntity
  8
PV0001_1
  6
CONTINUOUS
 48
0.5
100
AcDbCircle
 10
-18.0680770874
 20
11.8365631103514
 30
0.0
 40
21.600000381469
100
AcDbArc
 50
315.0734847530392
 51
326.770781348241
  0
ARC
  5
C35
330
C31
100
AcDbEntity
  8
PV0001_1
  6
CONTINUOUS
 48
0.5
100
AcDbCircle
 10
-18.0680770874
 20
11.8365631103514
 30
0.0
 40
21.600000381469
100
AcDbArc
 50
303.2288882981993
 51
306.633986901359
  0
ARC
  5
C36
330
C31
100
AcDbEntity
  8
PV0001_1
  6
CONTINUOUS
 48
0.5
100
AcDbCircle
 10
-0.6269836425800009
 20
-2.044216156005997
 30
0.0
 40
2.0
100
AcDbArc
 50
337.4067997351092
 51
43.42231293132884
  0
ARC
  5
C37
330
C31
100
AcDbEntity
  8
PV0001_1
  6
CONTINUOUS
 48
0.5
100
AcDbCircle
 10
0.626953125
 20
2.044223785401001
 30
0.0
 40
2.0
100
AcDbArc
 50
157.4068184044407
 51
223.4222769591536
  0
CIRCLE
  5
C38
330
C31
100
AcDbEntity
  8
PV0001_1
  6
CONTINUOUS
 48
0.5
100
AcDbCircle
 10
3.856727600100001
 20
4.596265792847002
 30
0.0
 40
1.6000000238419
  0
CIRCLE
  5
C39
330
C31
100
AcDbEntity
  8
PV0001_1
  6
CONTINUOUS
 48
0.5
100
AcDbCircle
 10
-3.856727600100001
 20
-4.596265792845997
 30
0.0
 40
1.6000000238419
  0
ARC
  5
C3A
330
C31
100
AcDbEntity
  8
PV0001_1
  6
CONTINUOUS
 48
0.5
100
AcDbCircle
 10
-5.58123779297
 20
5.092639923096001
 30
0.0
 40
5.019082546234099
100
AcDbArc
 50
240.2658959250867
 51
321.5156269706421
  0
ARC
  5
C3B
330
C31
100
AcDbEntity
  8
PV0001_1
  6
CONTINUOUS
 48
0.5
100
AcDbCircle
 10
5.486755371089998
 20
-4.601703643798998
 30
0.0
 40
4.651036739349399
100
AcDbArc
 50
56.25271400417071
 51
145.528859890601
  0
ARC
  5
C3C
330
C31
100
AcDbEntity
  8
PV0001_1
  6
CONTINUOUS
 48
0.5
100
AcDbCircle
 10
-2.11590576172
 20
-3.453323364257997
 30
0.0
 40
4.050000190734899
100
AcDbArc
 50
43.42230610113921
 51
58.50391703385149
  0
ARC
  5
C3D
330
C31
100
AcDbEntity
  8
PV0001_1
  6
CONTINUOUS
 48
0.5
100
AcDbCircle
 10
2.115875244139999
 20
3.453330993653001
 30
0.0
 40
4.050000190734899
100
AcDbArc
 50
223.4222942619974
 51
238.5038164022482
  0
ARC
  5
C3E
330
C31
100
AcDbEntity
  8
PV0001_1
  6
CONTINUOUS
 48
0.5
100
AcDbCircle
 10
-6.70369720459
 20
5.094657897949002
 30
0.0
 40
5.940000057220499
100
AcDbArc
 50
328.2536768887549
 51
31.74641873389623
  0
ARC
  5
C3F
330
C31
100
AcDbEntity
  8
PV0001_1
  6
CONTINUOUS
 48
0.5
100
AcDbCircle
 10
6.703674316410001
 20
-5.094650268553998
 30
0.0
 40
5.940000057220499
100
AcDbArc
 50
148.2533403882529
 51
211.7466423089037
  0
ARC
  5
C40
330
C31
100
AcDbEntity
  8
PV0001_1
  6
CONTINUOUS
 48
0.5
100
AcDbCircle
 10
0.0
 20
0.0
 30
0.0
 40
8.812800407409699
100
AcDbArc
 50
175.2198288164333
 51
272.8622597568298
  0
ARC
  5
C41
330
C31
100
AcDbEntity
  8
PV0001_1
  6
CONTINUOUS
 48
0.5
100
AcDbCircle
 10
0.0
 20
0.0
 30
0.0
 40
9.1800003051758
100
AcDbArc
 50
272.7511362215027
 51
280.3697477877874
  0
ARC
  5
C42
330
C31
100
AcDbEntity
  8
PV0001_1
  6
CONTINUOUS
 48
0.5
100
AcDbCircle
 10
0.0
 20
0.0
 30
0.0
 40
8.812800407409699
100
AcDbArc
 50
355.2198199654955
 51
92.86229572901076
  0
ARC
  5
C43
330
C31
100
AcDbEntity
  8
PV0001_1
  6
CONTINUOUS
 48
0.5
100
AcDbCircle
 10
0.0
 20
0.0
 30
0.0
 40
9.1800003051758
100
AcDbArc
 50
92.75115489083434
 51
100.3697664571193
  0
CIRCLE
  5
C44
330
C31
100
AcDbEntity
  8
PV0001_1
  6
CONTINUOUS
100
AcDbCircle
 10
0.0
 20
0.0
 30
0.0
 40
9.1800003051758
  0
LINE
  5
C45
330
C31
100
AcDbEntity
  8
PV0001_1
  6
CONTINUOUS
 48
0.5
100
AcDbLine
 10
-1.652404785160001
 20
9.030059814453
 30
0.0
 11
-1.652404785160001
 21
8.220062255860002
 31
0.0
  0
LINE
  5
C46
330
C31
100
AcDbEntity
  8
PV0001_1
  6
CONTINUOUS
 48
0.5
100
AcDbLine
 10
1.652404785160001
 20
-8.220058441161999
 30
0.0
 11
1.652404785160001
 21
-9.030055999755997
 31
0.0
  0
LINE
  5
C47
330
C31
100
AcDbEntity
  8
PV0001_1
  6
CONTINUOUS
 48
0.5
100
AcDbLine
 10
-8.78217315674
 20
0.7343807220460015
 30
0.0
 11
-8.070594787600001
 21
0.7343997955320028
 31
0.0
  0
LINE
  5
C48
330
C31
100
AcDbEntity
  8
PV0001_1
  6
CONTINUOUS
 48
0.5
100
AcDbLine
 10
8.07057952881
 20
-0.7343864440919994
 30
0.0
 11
8.78215789795
 21
-0.7343654632569994
 31
0.0
  0
LINE
  5
C49
330
C31
100
AcDbEntity
  8
PV0001_1
  6
CONTINUOUS
 48
0.5
100
AcDbLine
 10
0.4406127929700006
 20
-9.169414520263
 30
0.0
 11
0.4406127929700006
 21
-8.812801361083998
 31
0.0
  0
LINE
  5
C4A
330
C31
100
AcDbEntity
  8
PV0001_1
  6
CONTINUOUS
 48
0.5
100
AcDbLine
 10
-0.4406127929700006
 20
9.169418334961001
 30
0.0
 11
-0.4406127929700006
 21
8.812805175781001
 31
0.0
  0
ENDBLK
  5
C4C
330
C31
100
AcDbEntity
  8
0
100
AcDbBlockEnd
  0
BLOCK
  5
245D
330
2453
100
AcDbEntity
  8
0
100
AcDbBlockBegin
  2
*D6
 70
     1
 10
0.0
 20
0.0
 30
0.0
  3
*D6
  1

  0
LINE
  5
2454
330
2453
100
AcDbEntity
  8
AM_5
 62
     3
100
AcDbLine
 10
-137.574381722344
 20
-5.00000294019065
 30
0.0
 11
-152.8199008769066
 21
-5.000002940190694
 31
0.0
  0
LINE
  5
2455
330
2453
100
AcDbEntity
  8
AM_5
 62
     3
100
AcDbLine
 10
-137.5743817223442
 20
5.00002461040103
 30
0.0
 11
-152.8199008769066
 21
5.000024610400987
 31
0.0
  0
LINE
  5
2456
330
2453
100
AcDbEntity
  8
AM_5
 62
     3
100
AcDbLine
 10
-151.8199008769066
 20
-2.500002940190691
 30
0.0
 11
-151.8199008769066
 21
2.50002461040099
 31
0.0
  0
INSERT
  5
2457
330
2453
100
AcDbEntity
  8
AM_5
 62
     3
100
AcDbBlockReference
  2
_OPEN30
 10
-151.8199008769066
 20
-5.00000294019069
 30
0.0
 41
2.5
 42
2.5
 43
2.5
 50
270.0000000000001
  0
INSERT
  5
2458
330
2453
100
AcDbEntity
  8
AM_5
 62
     3
100
AcDbBlockReference
  2
_OPEN30
 10
-151.8199008769066
 20
5.00002461040099
 30
0.0
 41
2.5
 42
2.5
 43
2.5
 50
90.00000000000015
  0
MTEXT
  5
2459
330
2453
100
AcDbEntity
  8
AM_5
 62
     2
100
AcDbMText
 10
-155.2199008769066
 20
0.000010835105146
 30
0.0
 40
3.799999999999999
 41
0.0
 71
     5
 72
     1
  1
%%c10
 11
-0.0000000000000028
 21
1.0
 31
0.0
1001
ACAD
1000
MTEXTBEGIN
1070
    73
1070
     1
1070
    44
1040
1.0
1070
    74
1070
     0
1000
MTEXTEND
  0
POINT
  5
245A
330
2453
100
AcDbEntity
  8
DEFPOINTS
 62
     0
100
AcDbPoint
 10
-137.5743817223441
 20
-5.000002940190223
 30
0.0
  0
POINT
  5
245B
330
2453
100
AcDbEntity
  8
DEFPOINTS
 62
     0
100
AcDbPoint
 10
-137.5743817223441
 20
5.000024610401458
 30
0.0
  0
POINT
  5
245C
330
2453
100
AcDbEntity
  8
DEFPOINTS
 62
     0
100
AcDbPoint
 10
-151.8199008769066
 20
5.000024610401462
 30
0.0
  0
ENDBLK
  5
245E
330
2453
100
AcDbEntity
  8
0
100
AcDbBlockEnd
  0
BLOCK
  5
246B
330
245F
100
AcDbEntity
  8
0
100
AcDbBlockBegin
  2
A$C4FFC6CC0
 70
     0
 10
0.0
 20
0.0
 30
0.0
  3
A$C4FFC6CC0
  1

  0
DIMENSION
  5
2460
330
245F
100
AcDbEntity
  8
AM_5
100
AcDbDimension
  2
*D6
 10
-70.00000100000002
 20
5.000008477104842
 30
0.0
 11
-70.00000100000002
 21
-0.0000052981910228
 31
0.0
 12
81.81989987690661
 22
-0.0000161332966199
 32
0.0
 70
   128
  1
%%c<>
 51
359.9999999999998
  3
AM_JIS$0
100
AcDbAlignedDimension
 13
-55.75448184543748
 23
-5.000019073486843
 33
0.0
 14
-55.75448184543756
 24
5.000008477104838
 34
0.0
 50
270.0
100
AcDbRotatedDimension
1001
ACAD
1000
DSTYLE
1002
{
1070
   271
1070
     0
1002
}
1001
GENIUS_GENDTOL_13
1000

1000
h7
1000

1040
0.0
  0
LINE
  5
2461
330
245F
100
AcDbEntity
  8
AM_0
 48
0.5
100
AcDbLine
 10
-56.0
 20
-4.754495620727796
 30
0.0
 11
-56.00000000000003
 21
4.754485024345811
 31
0.0
  0
LINE
  5
2462
330
245F
100
AcDbEntity
  8
AM_0
 48
0.5
100
AcDbLine
 10
-55.75448184543751
 20
-5.000019073486843
 30
0.0
 11
-55.75448184543754
 21
5.000008477104838
 31
0.0
  0
LINE
  5
2463
330
245F
100
AcDbEntity
  8
AM_0
100
AcDbLine
 10
-0.0000000000000142
 20
4.999995231627903
 30
0.0
 11
-55.75448184543754
 21
4.999995231627746
 31
0.0
  0
LINE
  5
2464
330
245F
100
AcDbEntity
  8
AM_0
 48
0.5
100
AcDbLine
 10
-55.99996821086117
 20
4.754439989725671
 30
0.0
 11
-55.75443945990975
 21
4.999963442484006
 31
0.0
  0
LINE
  5
2465
330
245F
100
AcDbEntity
  8
AM_0
100
AcDbLine
 10
-55.75448184543751
 20
-5.000008477105588
 30
0.0
 11
0.0000000000000142
 21
-5.00000847710543
 31
0.0
  0
LINE
  5
2466
330
245F
100
AcDbEntity
  8
AM_0
 48
0.5
100
AcDbLine
 10
-55.99996821086114
 20
-4.754474427965309
 30
0.0
 11
-55.75443945990972
 21
-4.999997880724334
 31
0.0
  0
LINE
  5
2467
330
245F
100
AcDbEntity
  8
AM_0
100
AcDbLine
 10
0.7794201296714505
 20
4.549985867772141
 30
0.0
 11
0.7794201296714789
 21
-4.550003370497427
 31
0.0
  0
LINE
  5
2468
330
245F
100
AcDbEntity
  8
AM_0
 48
0.5
100
AcDbLine
 10
0.0000000000000142
 20
-5.00000847710543
 30
0.0
 11
-0.0000000000000142
 21
5.000008477104995
 31
0.0
  0
LINE
  5
2469
330
245F
100
AcDbEntity
  8
AM_0
 48
0.5
100
AcDbLine
 10
0.7794201296714647
 20
-4.550003370497435
 30
0.0
 11
-0.0000105963812445
 21
-5.00000847710543
 31
0.0
  0
LINE
  5
246A
330
245F
100
AcDbEntity
  8
AM_0
 48
0.5
100
AcDbLine
 10
0.7794201296714647
 20
4.549985867772141
 30
0.0
 11
-0.0000000000000142
 21
4.999984635246652
 31
0.0
  0
ENDBLK
  5
246C
330
245F
100
AcDbEntity
  8
0
100
AcDbBlockEnd
  0
BLOCK
  5
36C9
330
36BB
100
AcDbEntity
  8
0
100
AcDbBlockBegin
  2
*D8
 70
     1
 10
0.0
 20
0.0
 30
0.0
  3
*D8
  1

  0
LINE
  5
3778
330
36BB
100
AcDbEntity
  8
AM_5
100
AcDbLine
 10
0.3420201408161502
 20
-0.9396926216994629
 30
0.0
 11
9.05039403968759
 21
-24.86575346782887
 31
0.0
  0
LINE
  5
3779
330
36BB
100
AcDbEntity
  8
AM_5
100
AcDbLine
 10
0.3420201408161393
 20
0.939692621699157
 30
0.0
 11
9.050394039687303
 21
24.86575346782866
 31
0.0
  0
ARC
  5
377A
330
36BB
100
AcDbEntity
  8
AM_5
100
AcDbCircle
 10
0.0000000000000263
 20
-0.000000000000155
 30
0.0
 40
25.46158211060797
100
AcDbArc
 50
295.6279710168337
 51
64.37202898316695
  0
INSERT
  5
377B
330
36BB
100
AcDbEntity
  8
AM_5
100
AcDbBlockReference
  2
_OPEN30
 10
8.708373898871467
 20
-23.92606084612956
 30
0.0
 41
2.5
 42
2.5
 43
2.5
 50
202.8139854319097
  0
INSERT
  5
377C
330
36BB
100
AcDbEntity
  8
AM_5
100
AcDbBlockReference
  2
_OPEN30
 10
8.708373898871188
 20
23.92606084612935
 30
0.0
 41
2.5
 42
2.5
 43
2.5
 50
157.1860145680908
  0
MTEXT
  5
377D
330
36BB
100
AcDbEntity
  8
AM_5
 62
     2
100
AcDbMText
 10
22.361582110608
 20
-0.0000000000000054
 30
0.0
 40
3.2
 41
0.0
 71
     5
 72
     1
  1
140°
  7
ASAMI
 11
-0.0000000000000028
 21
1.0
 31
0.0
1001
ACAD
1000
MTEXTBEGIN
1070
    73
1070
     1
1070
    44
1040
1.0
1070
    74
1070
     0
1000
MTEXTEND
  0
POINT
  5
377E
330
36BB
100
AcDbEntity
  8
DEFPOINTS
 62
     0
100
AcDbPoint
 10
23.3792347916374
 20
-10.08481750616873
 30
0.0
  0
POINT
  5
377F
330
36BB
100
AcDbEntity
  8
DEFPOINTS
 62
     0
100
AcDbPoint
 10
0.0
 20
-0.0000000000002274
 30
0.0
  0
POINT
  5
3780
330
36BB
100
AcDbEntity
  8
DEFPOINTS
 62
     0
100
AcDbPoint
 10
0.0
 20
-0.0000000000000827
 30
0.0
  0
POINT
  5
3781
330
36BB
100
AcDbEntity
  8
DEFPOINTS
 62
     0
100
AcDbPoint
 10
-2.547791618692619
 20
6.999999999999763
 30
0.0
  0
POINT
  5
3782
330
36BB
100
AcDbEntity
  8
DEFPOINTS
 62
     0
100
AcDbPoint
 10
-2.547791618692583
 20
-7.000000000000091
 30
0.0
  0
ENDBLK
  5
36CA
330
36BB
100
AcDbEntity
  8
0
100
AcDbBlockEnd
  0
BLOCK
  5
3871
330
3867
100
AcDbEntity
  8
0
100
AcDbBlockBegin
  2
*D9
 70
     1
 10
0.0
 20
0.0
 30
0.0
  3
*D9
  1

  0
LINE
  5
3F3F
330
3867
100
AcDbEntity
  8
AM_5
 62
     3
100
AcDbLine
 10
-117.9598108220139
 20
7.999945983885531
 30
0.0
 11
-132.1598108220139
 21
7.99994598388549
 31
0.0
  0
LINE
  5
3F40
330
3867
100
AcDbEntity
  8
AM_5
 62
     3
100
AcDbLine
 10
-117.9598108220138
 20
-8.000005493165252
 30
0.0
 11
-132.1598108220138
 21
-8.000005493165291
 31
0.0
  0
LINE
  5
3F41
330
3867
100
AcDbEntity
  8
AM_5
 62
     3
100
AcDbLine
 10
-131.1598108220139
 20
5.499945983885494
 30
0.0
 11
-131.1598108220138
 21
-5.500005493165289
 31
0.0
  0
INSERT
  5
3F42
330
3867
100
AcDbEntity
  8
AM_5
 62
     3
100
AcDbBlockReference
  2
_OPEN30
 10
-131.1598108220139
 20
7.999945983885494
 30
0.0
 41
2.5
 42
2.5
 43
2.5
 50
90.00000000000017
  0
INSERT
  5
3F43
330
3867
100
AcDbEntity
  8
AM_5
 62
     3
100
AcDbBlockReference
  2
_OPEN30
 10
-131.1598108220138
 20
-8.000005493165289
 30
0.0
 41
2.5
 42
2.5
 43
2.5
 50
270.0000000000001
  0
MTEXT
  5
3F44
330
3867
100
AcDbEntity
  8
AM_5
 62
     2
100
AcDbMText
 10
-134.5598108220139
 20
-0.0000297546399024
 30
0.0
 40
3.799999999999999
 41
0.0
 71
     5
 72
     1
  1
%%C16
 11
-0.0000000000000028
 21
1.0
 31
0.0
1001
ACAD
1000
MTEXTBEGIN
1070
    73
1070
     1
1070
    44
1040
1.0
1070
    74
1070
     0
1000
MTEXTEND
  0
POINT
  5
3F45
330
3867
100
AcDbEntity
  8
DEFPOINTS
 62
     0
100
AcDbPoint
 10
-117.1598108220139
 20
7.999945983885897
 30
0.0
  0
POINT
  5
3F46
330
3867
100
AcDbEntity
  8
DEFPOINTS
 62
     0
100
AcDbPoint
 10
-117.1598108220138
 20
-8.000005493164884
 30
0.0
  0
POINT
  5
3F47
330
3867
100
AcDbEntity
  8
DEFPOINTS
 62
     0
100
AcDbPoint
 10
-131.1598108220139
 20
-8.000005493164882
 30
0.0
  0
ENDBLK
  5
3872
330
3867
100
AcDbEntity
  8
0
100
AcDbBlockEnd
  0
BLOCK
  5
399B
330
3991
100
AcDbEntity
  8
0
100
AcDbBlockBegin
  2
*D10
 70
     1
 10
0.0
 20
0.0
 30
0.0
  3
*D10
  1

  0
LINE
  5
3F36
330
3991
100
AcDbEntity
  8
AM_5
 62
     3
100
AcDbLine
 10
-2.584139435289994
 20
7.799999999999828
 30
0.0
 11
-2.584139435290035
 21
22.12982160606341
 31
0.0
  0
LINE
  5
3F37
330
3991
100
AcDbEntity
  8
AM_5
 62
     3
100
AcDbLine
 10
-50.58413943528998
 20
7.799999999999569
 30
0.0
 11
-50.58413943529003
 21
22.12982160606328
 31
0.0
  0
LINE
  5
3F38
330
3991
100
AcDbEntity
  8
AM_5
 62
     3
100
AcDbLine
 10
-5.084139435290032
 20
21.1298216060634
 30
0.0
 11
-48.08413943529003
 21
21.12982160606328
 31
0.0
  0
INSERT
  5
3F39
330
3991
100
AcDbEntity
  8
AM_5
 62
     3
100
AcDbBlockReference
  2
_OPEN30
 10
-2.584139435290032
 20
21.12982160606341
 30
0.0
 41
2.5
 42
2.5
 43
2.5
 50
0.0000000000001527
  0
INSERT
  5
3F3A
330
3991
100
AcDbEntity
  8
AM_5
 62
     3
100
AcDbBlockReference
  2
_OPEN30
 10
-50.58413943529003
 20
21.12982160606327
 30
0.0
 41
2.5
 42
2.5
 43
2.5
 50
180.0000000000001
  0
MTEXT
  5
3F3B
330
3991
100
AcDbEntity
  8
AM_5
 62
     2
100
AcDbMText
 10
-26.58413943529003
 20
24.52982160606334
 30
0.0
 40
3.799999999999999
 41
0.0
 71
     5
 72
     1
  1
48
1001
ACAD
1000
MTEXTBEGIN
1070
    73
1070
     1
1070
    44
1040
1.0
1070
    74
1070
     0
1000
MTEXTEND
  0
POINT
  5
3F3C
330
3991
100
AcDbEntity
  8
DEFPOINTS
 62
     0
100
AcDbPoint
 10
-2.584139435289972
 20
6.999999999999835
 30
0.0
  0
POINT
  5
3F3D
330
3991
100
AcDbEntity
  8
DEFPOINTS
 62
     0
100
AcDbPoint
 10
-50.58413943528996
 20
6.999999999999717
 30
0.0
  0
POINT
  5
3F3E
330
3991
100
AcDbEntity
  8
DEFPOINTS
 62
     0
100
AcDbPoint
 10
-50.58413943528996
 20
21.12982160606342
 30
0.0
  0
ENDBLK
  5
399C
330
3991
100
AcDbEntity
  8
0
100
AcDbBlockEnd
  0
BLOCK
  5
3B18
330
3B0E
100
AcDbEntity
  8
0
100
AcDbBlockBegin
  2
*D11
 70
     1
 10
0.0
 20
0.0
 30
0.0
  3
*D11
  1

  0
LINE
  5
3F2D
330
3B0E
100
AcDbEntity
  8
AM_5
 62
     3
100
AcDbLine
 10
-2.584139435290014
 20
11.10518360585826
 30
0.0
 11
-2.584139435290073
 21
31.99788174485804
 31
0.0
  0
LINE
  5
3F2E
330
3B0E
100
AcDbEntity
  8
AM_5
 62
     3
100
AcDbLine
 10
-53.58413943528997
 20
4.409050395528637
 30
0.0
 11
-53.58413943529005
 21
31.99788174485789
 31
0.0
  0
LINE
  5
3F2F
330
3B0E
100
AcDbEntity
  8
AM_5
 62
     3
100
AcDbLine
 10
-5.084139435290071
 20
30.99788174485803
 30
0.0
 11
-51.08413943529005
 21
30.9978817448579
 31
0.0
  0
INSERT
  5
3F30
330
3B0E
100
AcDbEntity
  8
AM_5
 62
     3
100
AcDbBlockReference
  2
_OPEN30
 10
-2.58413943529007
 20
30.99788174485804
 30
0.0
 41
2.5
 42
2.5
 43
2.5
 50
0.0000000000001527
  0
INSERT
  5
3F31
330
3B0E
100
AcDbEntity
  8
AM_5
 62
     3
100
AcDbBlockReference
  2
_OPEN30
 10
-53.58413943529005
 20
30.99788174485789
 30
0.0
 41
2.5
 42
2.5
 43
2.5
 50
180.0000000000001
  0
MTEXT
  5
3F32
330
3B0E
100
AcDbEntity
  8
AM_5
 62
     2
100
AcDbMText
 10
-28.08413943529007
 20
34.39788174485797
 30
0.0
 40
3.799999999999999
 41
0.0
 71
     5
 72
     1
  1
51
1001
ACAD
1000
MTEXTBEGIN
1070
    73
1070
     1
1070
    44
1040
1.0
1070
    74
1070
     0
1000
MTEXTEND
  0
POINT
  5
3F33
330
3B0E
100
AcDbEntity
  8
DEFPOINTS
 62
     0
100
AcDbPoint
 10
-2.584139435289981
 20
10.30518360585826
 30
0.0
  0
POINT
  5
3F34
330
3B0E
100
AcDbEntity
  8
DEFPOINTS
 62
     0
100
AcDbPoint
 10
-53.58413943528996
 20
3.609050395528793
 30
0.0
  0
POINT
  5
3F35
330
3B0E
100
AcDbEntity
  8
DEFPOINTS
 62
     0
100
AcDbPoint
 10
-53.58413943528996
 20
30.99788174485805
 30
0.0
  0
ENDBLK
  5
3B19
330
3B0E
100
AcDbEntity
  8
0
100
AcDbBlockEnd
  0
BLOCK
  5
3BC3
330
3BB9
100
AcDbEntity
  8
0
100
AcDbBlockBegin
  2
*D12
 70
     1
 10
0.0
 20
0.0
 30
0.0
  3
*D12
  1

  0
LINE
  5
3F6E
330
3BB9
100
AcDbEntity
  8
AM_5
 62
     3
100
AcDbLine
 10
-2.584148475027311
 20
-7.800000000000171
 30
0.0
 11
-2.58414847502724
 21
-32.86909391057141
 31
0.0
  0
LINE
  5
3F6F
330
3BB9
100
AcDbEntity
  8
AM_5
 62
     3
100
AcDbLine
 10
-69.58413943528992
 20
-8.800005493164977
 30
0.0
 11
-69.58413943528985
 21
-32.8690939105716
 31
0.0
  0
LINE
  5
3F70
330
3BB9
100
AcDbEntity
  8
AM_5
 62
     3
100
AcDbLine
 10
-5.084148475027243
 20
-31.86909391057142
 30
0.0
 11
-67.08413943528985
 21
-31.8690939105716
 31
0.0
  0
INSERT
  5
3F71
330
3BB9
100
AcDbEntity
  8
AM_5
 62
     3
100
AcDbBlockReference
  2
_OPEN30
 10
-2.584148475027242
 20
-31.86909391057141
 30
0.0
 41
2.5
 42
2.5
 43
2.5
 50
0.0000000000001527
  0
INSERT
  5
3F72
330
3BB9
100
AcDbEntity
  8
AM_5
 62
     3
100
AcDbBlockReference
  2
_OPEN30
 10
-69.58413943528985
 20
-31.86909391057161
 30
0.0
 41
2.5
 42
2.5
 43
2.5
 50
180.0000000000001
  0
MTEXT
  5
3F73
330
3BB9
100
AcDbEntity
  8
AM_5
 62
     2
100
AcDbMText
 10
-36.08414395515856
 20
-28.46909391057151
 30
0.0
 40
3.799999999999999
 41
0.0
 71
     5
 72
     1
  1
67
1001
ACAD
1000
MTEXTBEGIN
1070
    73
1070
     1
1070
    44
1040
1.0
1070
    74
1070
     0
1000
MTEXTEND
  0
POINT
  5
3F74
330
3BB9
100
AcDbEntity
  8
DEFPOINTS
 62
     0
100
AcDbPoint
 10
-2.584148475027333
 20
-7.000000000000164
 30
0.0
  0
POINT
  5
3F75
330
3BB9
100
AcDbEntity
  8
DEFPOINTS
 62
     0
100
AcDbPoint
 10
-69.58413943528995
 20
-8.000005493164774
 30
0.0
  0
POINT
  5
3F76
330
3BB9
100
AcDbEntity
  8
DEFPOINTS
 62
     0
100
AcDbPoint
 10
-69.58413943528995
 20
-31.8690939105714
 30
0.0
  0
ENDBLK
  5
3BC4
330
3BB9
100
AcDbEntity
  8
0
100
AcDbBlockEnd
  0
BLOCK
  5
3C4B
330
3C41
100
AcDbEntity
  8
0
100
AcDbBlockBegin
  2
*D13
 70
     1
 10
0.0
 20
0.0
 30
0.0
  3
*D13
  1

  0
LINE
  5
3F51
330
3C41
100
AcDbEntity
  8
AM_5
 62
     3
100
AcDbLine
 10
-69.58413943528992
 20
-8.800005493164979
 30
0.0
 11
-69.58413943528985
 21
-32.86909391057176
 31
0.0
  0
LINE
  5
3F52
330
3C41
100
AcDbEntity
  8
AM_5
 62
     3
100
AcDbLine
 10
-117.5841394352898
 20
-8.375759277344331
 30
0.0
 11
-117.5841394352898
 21
-32.8690939105719
 31
0.0
  0
LINE
  5
3F53
330
3C41
100
AcDbEntity
  8
AM_5
 62
     3
100
AcDbLine
 10
-72.08413943528985
 20
-31.86909391057177
 30
0.0
 11
-115.0841394352898
 21
-31.86909391057189
 31
0.0
  0
INSERT
  5
3F54
330
3C41
100
AcDbEntity
  8
AM_5
 62
     3
100
AcDbBlockReference
  2
_OPEN30
 10
-69.58413943528985
 20
-31.86909391057176
 30
0.0
 41
2.5
 42
2.5
 43
2.5
 50
0.0000000000001527
  0
INSERT
  5
3F55
330
3C41
100
AcDbEntity
  8
AM_5
 62
     3
100
AcDbBlockReference
  2
_OPEN30
 10
-117.5841394352898
 20
-31.8690939105719
 30
0.0
 41
2.5
 42
2.5
 43
2.5
 50
180.0000000000001
  0
MTEXT
  5
3F56
330
3C41
100
AcDbEntity
  8
AM_5
 62
     2
100
AcDbMText
 10
-93.58413943528985
 20
-28.46909391057183
 30
0.0
 40
3.799999999999999
 41
0.0
 71
     5
 72
     1
  1
48
1001
ACAD
1000
MTEXTBEGIN
1070
    73
1070
     1
1070
    44
1040
1.0
1070
    74
1070
     0
1000
MTEXTEND
  0
POINT
  5
3F57
330
3C41
100
AcDbEntity
  8
DEFPOINTS
 62
     0
100
AcDbPoint
 10
-69.58413943528995
 20
-8.000005493164776
 30
0.0
  0
POINT
  5
3F58
330
3C41
100
AcDbEntity
  8
DEFPOINTS
 62
     0
100
AcDbPoint
 10
-117.5841394352899
 20
-7.575759277343988
 30
0.0
  0
POINT
  5
3F59
330
3C41
100
AcDbEntity
  8
DEFPOINTS
 62
     0
100
AcDbPoint
 10
-117.5841394352899
 20
-31.86909391057156
 30
0.0
  0
ENDBLK
  5
3C4C
330
3C41
100
AcDbEntity
  8
0
100
AcDbBlockEnd
  0
BLOCK
  5
3CD6
330
3CCC
100
AcDbEntity
  8
0
100
AcDbBlockBegin
  2
*D14
 70
     1
 10
0.0
 20
0.0
 30
0.0
  3
*D14
  1

  0
LINE
  5
3F5A
330
3CCC
100
AcDbEntity
  8
AM_5
 62
     3
100
AcDbLine
 10
-2.584139435289913
 20
-7.800000000000097
 30
0.0
 11
-2.584139435289809
 21
-44.11548554233241
 31
0.0
  0
LINE
  5
3F5B
330
3CCC
100
AcDbEntity
  8
AM_5
 62
     3
100
AcDbLine
 10
-117.5841394352898
 20
-8.375759277344331
 30
0.0
 11
-117.5841394352898
 21
-44.11548554233275
 31
0.0
  0
LINE
  5
3F5C
330
3CCC
100
AcDbEntity
  8
AM_5
 62
     3
100
AcDbLine
 10
-5.084139435289812
 20
-43.11548554233242
 30
0.0
 11
-115.0841394352898
 21
-43.11548554233274
 31
0.0
  0
INSERT
  5
3F5D
330
3CCC
100
AcDbEntity
  8
AM_5
 62
     3
100
AcDbBlockReference
  2
_OPEN30
 10
-2.584139435289813
 20
-43.11548554233241
 30
0.0
 41
2.5
 42
2.5
 43
2.5
 50
0.0000000000001527
  0
INSERT
  5
3F5E
330
3CCC
100
AcDbEntity
  8
AM_5
 62
     3
100
AcDbBlockReference
  2
_OPEN30
 10
-117.5841394352898
 20
-43.11548554233275
 30
0.0
 41
2.5
 42
2.5
 43
2.5
 50
180.0000000000001
  0
MTEXT
  5
3F5F
330
3CCC
100
AcDbEntity
  8
AM_5
 62
     2
100
AcDbMText
 10
-60.08413943528982
 20
-39.71548554233258
 30
0.0
 40
3.799999999999999
 41
0.0
 71
     5
 72
     1
  1
115
1001
ACAD
1000
MTEXTBEGIN
1070
    73
1070
     1
1070
    44
1040
1.0
1070
    74
1070
     0
1000
MTEXTEND
  0
POINT
  5
3F60
330
3CCC
100
AcDbEntity
  8
DEFPOINTS
 62
     0
100
AcDbPoint
 10
-2.584139435289936
 20
-7.00000000000009
 30
0.0
  0
POINT
  5
3F61
330
3CCC
100
AcDbEntity
  8
DEFPOINTS
 62
     0
100
AcDbPoint
 10
-117.5841394352899
 20
-7.575759277343988
 30
0.0
  0
POINT
  5
3F62
330
3CCC
100
AcDbEntity
  8
DEFPOINTS
 62
     0
100
AcDbPoint
 10
-117.5841394352899
 20
-43.1154855423324
 30
0.0
  0
ENDBLK
  5
3CD7
330
3CCC
100
AcDbEntity
  8
0
100
AcDbBlockEnd
  0
BLOCK
  5
3D63
330
3D57
100
AcDbEntity
  8
0
100
AcDbBlockBegin
  2
*D15
 70
     1
 10
0.0
 20
0.0
 30
0.0
  3
*D15
  1

  0
LINE
  5
3F63
330
3D57
100
AcDbEntity
  8
AM_5
 62
     3
100
AcDbLine
 10
-117.5841394352899
 20
-0.800000000000757
 30
0.0
 11
-117.5841394352898
 21
-21.80121657883308
 31
0.0
  0
LINE
  5
3F64
330
3D57
100
AcDbEntity
  8
AM_5
 62
     3
100
AcDbLine
 10
-111.5841394352899
 20
-0.8000000000007247
 30
0.0
 11
-111.5841394352899
 21
-21.80121657883306
 31
0.0
  0
LINE
  5
3F65
330
3D57
100
AcDbEntity
  8
AM_5
 62
     3
100
AcDbLine
 10
-120.0841394352899
 20
-20.80121657883309
 30
0.0
 11
-122.5841394352898
 21
-20.8012165788331
 31
0.0
  0
LINE
  5
3F66
330
3D57
100
AcDbEntity
  8
AM_5
 62
     3
100
AcDbLine
 10
-109.0841394352898
 20
-20.80121657883306
 30
0.0
 11
-106.5841394352899
 21
-20.80121657883305
 31
0.0
  0
LINE
  5
3F67
330
3D57
100
AcDbEntity
  8
AM_5
 62
     3
100
AcDbLine
 10
-117.5841394352898
 20
-20.80121657883308
 30
0.0
 11
-111.5841394352899
 21
-20.80121657883306
 31
0.0
  0
INSERT
  5
3F68
330
3D57
100
AcDbEntity
  8
AM_5
 62
     3
100
AcDbBlockReference
  2
_OPEN30
 10
-117.5841394352898
 20
-20.80121657883308
 30
0.0
 41
2.5
 42
2.5
 43
2.5
 50
0.0000000000001527
  0
INSERT
  5
3F69
330
3D57
100
AcDbEntity
  8
AM_5
 62
     3
100
AcDbBlockReference
  2
_OPEN30
 10
-111.5841394352899
 20
-20.80121657883306
 30
0.0
 41
2.5
 42
2.5
 43
2.5
 50
180.0000000000001
  0
MTEXT
  5
3F6A
330
3D57
100
AcDbEntity
  8
AM_5
 62
     2
100
AcDbMText
 10
-114.5841394352899
 20
-17.40121657883308
 30
0.0
 40
3.799999999999999
 41
0.0
 71
     5
 72
     1
  1
6
1001
ACAD
1000
MTEXTBEGIN
1070
    73
1070
     1
1070
    44
1040
1.0
1070
    74
1070
     0
1000
MTEXTEND
  0
POINT
  5
3F6B
330
3D57
100
AcDbEntity
  8
DEFPOINTS
 62
     0
100
AcDbPoint
 10
-117.5841394352899
 20
-0.0000000000004149
 30
0.0
  0
POINT
  5
3F6C
330
3D57
100
AcDbEntity
  8
DEFPOINTS
 62
     0
100
AcDbPoint
 10
-111.5841394352899
 20
-0.0000000000004001
 30
0.0
  0
POINT
  5
3F6D
330
3D57
100
AcDbEntity
  8
DEFPOINTS
 62
     0
100
AcDbPoint
 10
-111.5841394352899
 20
-20.80121657883274
 30
0.0
  0
ENDBLK
  5
3D64
330
3D57
100
AcDbEntity
  8
0
100
AcDbBlockEnd
  0
BLOCK
  5
3E08
330
3DFE
100
AcDbEntity
  8
0
100
AcDbBlockBegin
  2
*D16
 70
     1
 10
0.0
 20
0.0
 30
0.0
  3
*D16
  1

  0
LINE
  5
3F48
330
3DFE
100
AcDbEntity
  8
AM_5
 62
     3
100
AcDbLine
 10
-111.5841394352899
 20
-0.8000000000007508
 30
0.0
 11
-111.5841394352899
 21
-21.80121657883278
 31
0.0
  0
LINE
  5
3F49
330
3DFE
100
AcDbEntity
  8
AM_5
 62
     3
100
AcDbLine
 10
-76.58413943528995
 20
-0.8000000000005714
 30
0.0
 11
-76.5841394352899
 21
-21.80121657883268
 31
0.0
  0
LINE
  5
3F4A
330
3DFE
100
AcDbEntity
  8
AM_5
 62
     3
100
AcDbLine
 10
-109.0841394352898
 20
-20.80121657883277
 30
0.0
 11
-79.0841394352899
 21
-20.80121657883269
 31
0.0
  0
INSERT
  5
3F4B
330
3DFE
100
AcDbEntity
  8
AM_5
 62
     3
100
AcDbBlockReference
  2
_OPEN30
 10
-111.5841394352899
 20
-20.80121657883278
 30
0.0
 41
2.5
 42
2.5
 43
2.5
 50
180.0000000000001
  0
INSERT
  5
3F4C
330
3DFE
100
AcDbEntity
  8
AM_5
 62
     3
100
AcDbBlockReference
  2
_OPEN30
 10
-76.5841394352899
 20
-20.80121657883268
 30
0.0
 41
2.5
 42
2.5
 43
2.5
 50
0.0000000000001527
  0
MTEXT
  5
3F4D
330
3DFE
100
AcDbEntity
  8
AM_5
 62
     2
100
AcDbMText
 10
-94.08413943528989
 20
-17.40121657883273
 30
0.0
 40
3.799999999999999
 41
0.0
 71
     5
 72
     1
  1
35
1001
ACAD
1000
MTEXTBEGIN
1070
    73
1070
     1
1070
    44
1040
1.0
1070
    74
1070
     0
1000
MTEXTEND
  0
POINT
  5
3F4E
330
3DFE
100
AcDbEntity
  8
DEFPOINTS
 62
     0
100
AcDbPoint
 10
-111.5841394352899
 20
-0.0000000000004262
 30
0.0
  0
POINT
  5
3F4F
330
3DFE
100
AcDbEntity
  8
DEFPOINTS
 62
     0
100
AcDbPoint
 10
-76.58413943528995
 20
-0.0000000000003486
 30
0.0
  0
POINT
  5
3F50
330
3DFE
100
AcDbEntity
  8
DEFPOINTS
 62
     0
100
AcDbPoint
 10
-76.58413943528995
 20
-20.80121657883246
 30
0.0
  0
ENDBLK
  5
3E09
330
3DFE
100
AcDbEntity
  8
0
100
AcDbBlockEnd
  0
BLOCK
  5
3EF2
330
3EE6
100
AcDbEntity
  8
0
100
AcDbBlockBegin
  2
*D17
 70
     1
 10
0.0
 20
0.0
 30
0.0
  3
*D17
  1

  0
LINE
  5
3F1A
330
3EE6
100
AcDbEntity
  8
AM_5
 62
     3
100
AcDbLine
 10
-1.747791618692623
 20
7.099999999999835
 30
0.0
 11
15.49572145358844
 21
7.099999999999884
 31
0.0
  0
LINE
  5
3F1B
330
3EE6
100
AcDbEntity
  8
AM_5
 62
     3
100
AcDbLine
 10
-1.747800658429978
 20
-7.100000000000163
 30
0.0
 11
15.49572145358848
 21
-7.100000000000115
 31
0.0
  0
LINE
  5
3F1C
330
3EE6
100
AcDbEntity
  8
AM_5
 62
     3
100
AcDbLine
 10
14.49572145358844
 20
4.599999999999881
 30
0.0
 11
14.49572145358847
 21
-4.600000000000117
 31
0.0
  0
INSERT
  5
3F1D
330
3EE6
100
AcDbEntity
  8
AM_5
 62
     3
100
AcDbBlockReference
  2
_OPEN30
 10
14.49572145358844
 20
7.099999999999881
 30
0.0
 41
2.5
 42
2.5
 43
2.5
 50
90.00000000000017
  0
INSERT
  5
3F1E
330
3EE6
100
AcDbEntity
  8
AM_5
 62
     3
100
AcDbBlockReference
  2
_OPEN30
 10
14.49572145358848
 20
-7.100000000000117
 30
0.0
 41
2.5
 42
2.5
 43
2.5
 50
270.0000000000001
  0
MTEXT
  5
3F1F
330
3EE6
100
AcDbEntity
  8
AM_5
 62
     2
100
AcDbMText
 10
11.09572145358846
 20
-0.0000000000001281
 30
0.0
 40
3.799999999999999
 41
0.0
 71
     5
 72
     1
  1
%%C14.2
 11
-0.0000000000000028
 21
1.0
 31
0.0
1001
ACAD
1000
MTEXTBEGIN
1070
    73
1070
     1
1070
    44
1040
1.0
1070
    74
1070
     0
1000
MTEXTEND
  0
POINT
  5
3F20
330
3EE6
100
AcDbEntity
  8
DEFPOINTS
 62
     0
100
AcDbPoint
 10
-2.547791618692601
 20
7.099999999999841
 30
0.0
  0
POINT
  5
3F21
330
3EE6
100
AcDbEntity
  8
DEFPOINTS
 62
     0
100
AcDbPoint
 10
-2.54780065843
 20
-7.100000000000157
 30
0.0
  0
POINT
  5
3F22
330
3EE6
100
AcDbEntity
  8
DEFPOINTS
 62
     0
100
AcDbPoint
 10
14.49572145358846
 20
-7.100000000000163
 30
0.0
  0
ENDBLK
  5
3EF3
330
3EE6
100
AcDbEntity
  8
0
100
AcDbBlockEnd
  0
ENDSEC
  0
SECTION
  2
ENTITIES
  0
TEXT
  5
19BD
330
1F
100
AcDbEntity
  8
AM_6
100
AcDbText
 10
-81.23826780916859
 20
-65.61548554233263
 30
0.0
 40
5.0
  1
KDS142MAK
 50
0.0000000000001527
 72
     4
 11
-60.0477916186924
 21
-63.11548554233258
 31
0.0
100
AcDbText
  0
LINE
  5
35CA
330
1F
100
AcDbEntity
  8
PV0001_1
  6
CONTINUOUS
 48
0.5
100
AcDbLine
 10
-589.2017441852486
 20
-57.69694534177202
 30
0.0
 11
-567.9171279738763
 21
-62.69376548307545
 31
0.0
  0
LINE
  5
35D1
330
1F
100
AcDbEntity
  8
AM_7
100
AcDbLine
 10
4.745369175493294
 20
-0.0000000000001137
 30
0.0
 11
-124.2739909062365
 21
-0.0000000000004315
 31
0.0
  0
LINE
  5
35EA
330
1F
100
AcDbEntity
  8
PV0001_1
  6
CONTINUOUS
100
AcDbLine
 10
-117.1598840642059
 20
-8.000005493164884
 30
0.0
 11
-69.58413943528994
 21
-8.000005493164774
 31
0.0
  0
LINE
  5
35EB
330
1F
100
AcDbEntity
  8
PV0001_1
  6
CONTINUOUS
100
AcDbLine
 10
-69.58413943528999
 20
8.000000915526342
 30
0.0
 11
-117.1598840642059
 21
8.000000915526232
 31
0.0
  0
SPLINE
  5
35EE
330
1F
100
AcDbEntity
  8
PV0001_1
  6
CONTINUOUS
100
AcDbSpline
210
0.0
220
0.0
230
1.0
 70
     8
 71
     3
 72
    16
 73
    12
 74
     0
 42
0.0000000001
 43
0.0000000001
 40
2.658315166120147
 40
2.658315166120147
 40
2.658315166120147
 40
2.658315166120147
 40
3.082371838836284
 40
4.126290986361125
 40
5.162752068350215
 40
6.192395305374981
 40
7.216039564037012
 40
8.234688489606833
 40
9.249433870634691
 40
10.26152376260694
 40
11.27226744710342
 40
11.27226744710342
 40
11.27226744710342
 40
11.27226744710352
 10
-55.00352437393139
 20
-5.879040651423
 30
0.0
 10
-56.282656556251
 20
-6.314410231093494
 30
0.0
 10
-56.7843346645685
 20
-6.467880629672592
 30
0.0
 10
-57.64437215175173
 20
-6.712818285603704
 30
0.0
 10
-58.72028403138892
 20
-6.98173894702338
 30
0.0
 10
-59.79624520893282
 20
-7.212343080559342
 30
0.0
 10
-60.87232361051875
 20
-7.40295326060798
 30
0.0
 10
-61.94847635527359
 20
-7.552481758918773
 30
0.0
 10
-63.02469610991276
 20
-7.659959580790003
 30
0.0
 10
-64.10095635916866
 20
-7.724694879000676
 30
0.0
 10
-64.81863733712089
 20
-7.73913037282163
 30
0.0
 10
-65.3738119806865
 20
-7.739130332767101
 30
0.0
  0
SPLINE
  5
35EF
330
1F
100
AcDbEntity
  8
PV0001_1
  6
CONTINUOUS
100
AcDbSpline
210
0.0
220
0.0
230
1.0
 70
     8
 71
     3
 72
    23
 73
    19
 74
     0
 42
0.0000000001
 43
0.0000000001
 40
16.03460024169435
 40
16.03460024169435
 40
16.03460024169435
 40
16.03460024169435
 40
16.35212704903564
 40
17.38177054169784
 40
18.41822485651776
 40
19.46214173629503
 40
20.51396345435107
 40
21.57393551351153
 40
22.64208202342361
 40
23.7182574881101
 40
24.80209208578934
 40
25.89306333925047
 40
26.99048218457928
 40
28.09348763352352
 40
29.20111863782268
 40
30.31232390128032
 40
31.42594612798585
 40
32.5407912310448
 40
32.5407912310486
 40
32.5407912310486
 40
32.5407912310486
 10
-68.56589585812404
 20
7.93642392243011
 30
0.0
 10
-63.99143725236442
 20
6.98349965092522
 30
0.0
 10
-63.52453158497495
 20
6.874102330744549
 30
0.0
 10
-62.69899091195161
 20
6.672475021216723
 30
0.0
 10
-61.62991357924681
 20
6.372657416923357
 30
0.0
 10
-60.56182925585465
 20
6.036012221837005
 30
0.0
 10
-59.49467482782059
 20
5.664487766640021
 30
0.0
 10
-58.42841241994287
 20
5.260155308487132
 30
0.0
 10
-57.36298040480977
 20
4.825326182221679
 30
0.0
 10
-56.29830458978522
 20
4.362530984287853
 30
0.0
 10
-55.23432447616563
 20
3.874390496909151
 30
0.0
 10
-54.1709547608071
 20
3.363745095841619
 30
0.0
 10
-53.10810926948552
 20
2.833562872780593
 30
0.0
 10
-52.04571718783718
 20
2.286892153241092
 30
0.0
 10
-50.98368962680698
 20
1.726911752594748
 30
0.0
 10
-49.92192822015046
 20
1.15689154554676
 30
0.0
 10
-48.86034651051716
 20
0.5801346448420299
 30
0.0
 10
-48.1528154644128
 20
0.1934506796606525
 30
0.0
 10
-47.79885699327986
 20
-0.00000000000156
 30
0.0
  0
SPLINE
  5
35F0
330
1F
100
AcDbEntity
  8
PV0001_1
  6
CONTINUOUS
 48
0.5
100
AcDbSpline
210
0.0
220
0.0
230
1.0
 70
     8
 71
     3
 72
    23
 73
    19
 74
     0
 42
0.0000000001
 43
0.0000000001
 40
0.0
 40
0.0
 40
0.0
 40
0.0
 40
1.010743684496582
 40
2.022833576468826
 40
3.037578957496683
 40
4.056212745003485
 40
5.079857003665509
 40
6.109500240690275
 40
7.145961322679365
 40
8.189880470204213
 40
9.241703023925269
 40
10.30166930151765
 40
11.3698269246763
 40
12.44598301520777
 40
13.52983529054051
 40
14.62080810761866
 40
15.71821804889404
 40
16.41798914862032
 40
16.41798914862032
 40
16.41798914862032
 40
16.41798914862032
 10
-47.14607588201251
 20
-7.000000000000128
 30
0.0
 10
-47.50467755492237
 20
-6.995835169766952
 30
0.0
 10
-48.22235852158727
 20
-6.987499962171664
 30
0.0
 10
-49.29861879302253
 20
-6.920308825851669
 30
0.0
 10
-50.37483312608898
 20
-6.813492486138674
 30
0.0
 10
-51.45098084027388
 20
-6.663785269759234
 30
0.0
 10
-52.52705125339299
 20
-6.473216231895447
 30
0.0
 10
-53.60302292594943
 20
-6.242631915557366
 30
0.0
 10
-54.67889514214713
 20
-5.973590237853087
 30
0.0
 10
-55.75466056456128
 20
-5.667725222432586
 30
0.0
 10
-56.83031664997827
 20
-5.326934710612714
 30
0.0
 10
-57.90587225108782
 20
-4.953339810884731
 30
0.0
 10
-58.98132291113885
 20
-4.549247351331938
 30
0.0
 10
-60.05668081529011
 20
-4.117136135305537
 30
0.0
 10
-61.13196034181807
 20
-3.659713721897043
 30
0.0
 10
-62.20716381399755
 20
-3.179754953345193
 30
0.0
 10
-63.15058215303516
 20
-2.741438118122261
 30
0.0
 10
-63.73519640437258
 20
-2.462504308401991
 30
0.0
 10
-63.96250108786963
 20
-2.353078097693085
 30
0.0
  0
LINE
  5
35F4
330
1F
100
AcDbEntity
  8
PV0001_1
  6
CONTINUOUS
 48
0.5
100
AcDbLine
 10
-68.56589585812404
 20
7.93642392243011
 30
0.0
 11
-69.58413943528999
 21
8.000000915526339
 31
0.0
  0
LINE
  5
35F5
330
1F
100
AcDbEntity
  8
PV0001_1
  6
CONTINUOUS
 48
0.5
100
AcDbLine
 10
-65.41015979728388
 20
-7.739130332767102
 30
0.0
 11
-69.58413943528995
 21
-8.000005493164774
 31
0.0
  0
ELLIPSE
  5
35F6
330
1F
100
AcDbEntity
  8
PV0001_1
  6
CONTINUOUS
 48
0.5
100
AcDbEllipse
 10
-64.68404846333651
 20
-5.482184638125461
 30
0.0
 11
-0.0000000000000407
 21
-3.227521137664633
 31
0.0
210
0.0
220
0.0
230
1.0
 40
0.9122664521421908
 41
2.570418316894206
 42
4.477843851699087
  0
ELLIPSE
  5
35F7
330
1F
100
AcDbEntity
  8
PV0001_1
  6
CONTINUOUS
 48
0.5
100
AcDbEllipse
 10
-65.42000721203526
 20
-4.666666666667018
 30
0.0
 11
0.3285135929586483
 21
3.080859028700857
 31
0.0
210
0.0
220
0.0
230
1.0
 40
0.6836579658972548
 41
1.664752651947947
 42
3.317988714729532
  0
LINE
  5
35F9
330
1F
100
AcDbEntity
  8
PV0001_1
  6
CONTINUOUS
 48
0.5
100
AcDbLine
 10
-117.1598840642059
 20
-0.0000000000005302
 30
0.0
 11
-117.1598840642059
 21
8.000023803710696
 31
0.0
  0
LINE
  5
35FA
330
1F
100
AcDbEntity
  8
PV0001_1
  6
CONTINUOUS
 48
0.5
100
AcDbLine
 10
-117.5841394352899
 20
-0.0000000000005302
 30
0.0
 11
-117.5841394352899
 21
7.575759277343219
 31
0.0
  0
LINE
  5
35FB
330
1F
100
AcDbEntity
  8
PV0001_1
  6
CONTINUOUS
 48
0.5
100
AcDbLine
 10
-117.5840845036579
 20
7.575681457519583
 30
0.0
 11
-117.1598108220139
 21
7.999945983885896
 31
0.0
  0
LINE
  5
35FD
330
1F
100
AcDbEntity
  8
PV0001_1
  6
CONTINUOUS
 48
0.5
100
AcDbLine
 10
-117.5840845036578
 20
-7.57572265625053
 30
0.0
 11
-117.1598108220139
 21
-7.999987182618008
 31
0.0
  0
LINE
  5
3601
330
1F
100
AcDbEntity
  8
PV0001_1
  6
CONTINUOUS
 48
0.5
100
AcDbLine
 10
-117.5841394352899
 20
-0.0000000000005302
 30
0.0
 11
-117.5841394352899
 21
-7.575759277343989
 31
0.0
  0
LINE
  5
3602
330
1F
100
AcDbEntity
  8
PV0001_1
  6
CONTINUOUS
 48
0.5
100
AcDbLine
 10
-117.1598840642059
 20
-0.0000000000005302
 30
0.0
 11
-117.1598840642059
 21
-8.000023803711759
 31
0.0
  0
DIMENSION
  5
36BA
330
1F
100
AcDbEntity
  8
AM_5
100
AcDbDimension
  2
*D8
 10
-2.547791618692583
 20
-7.000000000000091
 30
0.0
 11
22.361582110608
 21
-0.000000000000074
 31
0.0
 70
    34
  1
<>
 51
359.9999999999998
  3
AM_JIS$2
100
AcDb2LineAngularDimension
 13
0.0
 23
-0.0000000000000827
 33
0.0
 14
-2.547791618692619
 24
6.999999999999763
 34
0.0
 15
0.0
 25
-0.0000000000002274
 35
0.0
 16
23.3792347916374
 26
-10.08481750616873
 36
0.0
1001
ACAD
1000
DSTYLE
1002
{
1070
   179
1070
     3
1002
}
1001
GENIUS_GENDTOL_13
1000

1000
h7
1000

1040
0.0
  0
DIMENSION
  5
3866
330
1F
100
AcDbEntity
  8
AM_5
100
AcDbDimension
  2
*D9
 10
-131.1598108220139
 20
-8.000005493164882
 30
0.0
 11
-134.5598108220139
 21
-0.0000297546395109
 31
0.0
 70
    32
  1
%%C<>
 51
359.9999999999998
  3
AM_JIS$0
100
AcDbAlignedDimension
 13
-117.1598108220139
 23
7.999945983885897
 33
0.0
 14
-117.1598108220138
 24
-8.000005493164884
 34
0.0
 50
270.0000000000002
100
AcDbRotatedDimension
1001
ACAD
1000
DSTYLE
1002
{
1070
   271
1070
     3
1002
}
1001
GENIUS_GENDTOL_13
1000

1000
h7
1000

1040
0.0
  0
LINE
  5
390B
330
1F
100
AcDbEntity
  8
AM_0
100
AcDbLine
 10
-79.9660767499071
 20
3.381937314616782
 30
0.0
 11
-108.2022021206728
 21
3.381937314616707
 31
0.0
  0
LINE
  5
3910
330
1F
100
AcDbEntity
  8
AM_0
100
AcDbLine
 10
-79.96607674990705
 20
-3.381937314617435
 30
0.0
 11
-108.2022021206728
 21
-3.381937314617512
 31
0.0
  0
ARC
  5
3928
330
1F
100
AcDbEntity
  8
AM_0
100
AcDbCircle
 10
-108.2022021206728
 20
-0.000000000000413
 30
0.0
 40
3.381937314617109
100
AcDbArc
 50
90.00000000000024
 51
270.0000000000002
  0
ARC
  5
3929
330
1F
100
AcDbEntity
  8
AM_0
100
AcDbCircle
 10
-79.96607674990706
 20
-0.0000000000003535
 30
0.0
 40
3.381937314617109
100
AcDbArc
 50
270.0000000000002
 51
90.00000000000024
  0
LINE
  5
395A
330
1F
100
AcDbEntity
  8
PV0001_1
  6
CONTINUOUS
100
AcDbLine
 10
-69.58413943528994
 20
-8.000005493164774
 30
0.0
 11
-69.58413943528999
 21
8.000000915526339
 31
0.0
  0
DIMENSION
  5
3990
330
1F
100
AcDbEntity
  8
AM_5
100
AcDbDimension
  2
*D10
 10
-50.58413943528996
 20
21.12982160606342
 30
0.0
 11
-26.58413943528996
 21
24.52982160606342
 31
0.0
 70
    32
  1
<>
 51
359.9999999999998
  3
AM_JIS$0
100
AcDbAlignedDimension
 13
-2.584139435289972
 23
6.999999999999835
 33
0.0
 14
-50.58413943528996
 24
6.999999999999717
 34
0.0
 50
180.0000000000001
100
AcDbRotatedDimension
1001
ACAD
1000
DSTYLE
1002
{
1070
   271
1070
     3
1002
}
1001
GENIUS_GENDTOL_13
1000

1000
h7
1000

1040
0.0
  0
DIMENSION
  5
3B0D
330
1F
100
AcDbEntity
  8
AM_5
100
AcDbDimension
  2
*D11
 10
-53.58413943528996
 20
30.99788174485805
 30
0.0
 11
-28.08413943528996
 21
34.39788174485805
 31
0.0
 70
    32
  1
<>
 51
359.9999999999998
  3
AM_JIS$0
100
AcDbAlignedDimension
 13
-2.584139435289981
 23
10.30518360585826
 33
0.0
 14
-53.58413943528996
 24
3.609050395528793
 34
0.0
 50
180.0000000000001
100
AcDbRotatedDimension
1001
ACAD
1000
DSTYLE
1002
{
1070
   271
1070
     3
1002
}
1001
GENIUS_GENDTOL_13
1000

1000
h7
1000

1040
0.0
  0
DIMENSION
  5
3BB8
330
1F
100
AcDbEntity
  8
AM_5
100
AcDbDimension
  2
*D12
 10
-69.58413943528995
 20
-31.8690939105714
 30
0.0
 11
-36.08414395515864
 21
-28.4690939105714
 31
0.0
 70
    32
  1
<>
 51
359.9999999999998
  3
AM_JIS$0
100
AcDbAlignedDimension
 13
-2.584148475027333
 23
-7.000000000000164
 33
0.0
 14
-69.58413943528995
 24
-8.000005493164774
 34
0.0
 50
0.0000000000001641
100
AcDbRotatedDimension
1001
ACAD
1000
DSTYLE
1002
{
1070
   271
1070
     3
1002
}
1001
GENIUS_GENDTOL_13
1000

1000
h7
1000

1040
0.0
  0
DIMENSION
  5
3C40
330
1F
100
AcDbEntity
  8
AM_5
100
AcDbDimension
  2
*D13
 10
-117.5841394352899
 20
-31.86909391057156
 30
0.0
 11
-93.58413943528994
 21
-28.46909391057156
 31
0.0
 70
    32
  1
<>
 51
359.9999999999998
  3
AM_JIS$0
100
AcDbAlignedDimension
 13
-69.58413943528995
 23
-8.000005493164776
 33
0.0
 14
-117.5841394352899
 24
-7.575759277343988
 34
0.0
 50
0.0000000000002659
100
AcDbRotatedDimension
1001
ACAD
1000
DSTYLE
1002
{
1070
   271
1070
     3
1002
}
1001
GENIUS_GENDTOL_13
1000

1000
h7
1000

1040
0.0
  0
DIMENSION
  5
3CCB
330
1F
100
AcDbEntity
  8
AM_5
100
AcDbDimension
  2
*D14
 10
-117.5841394352899
 20
-43.1154855423324
 30
0.0
 11
-60.08413943528993
 21
-39.7154855423324
 31
0.0
 70
    32
  1
<>
 51
359.9999999999998
  3
AM_JIS$0
100
AcDbAlignedDimension
 13
-2.584139435289936
 23
-7.00000000000009
 33
0.0
 14
-117.5841394352899
 24
-7.575759277343988
 34
0.0
 50
0.0000000000002659
100
AcDbRotatedDimension
1001
ACAD
1000
DSTYLE
1002
{
1070
   271
1070
     3
1002
}
1001
GENIUS_GENDTOL_13
1000

1000
h7
1000

1040
0.0
  0
DIMENSION
  5
3D56
330
1F
100
AcDbEntity
  8
AM_5
100
AcDbDimension
  2
*D15
 10
-111.5841394352899
 20
-20.80121657883274
 30
0.0
 11
-114.5841394352899
 21
-20.80121657883274
 31
0.0
 70
   160
  1
<>
 51
359.9999999999998
  3
AM_JIS$0
100
AcDbAlignedDimension
 13
-117.5841394352899
 23
-0.0000000000004149
 33
0.0
 14
-111.5841394352899
 24
-0.0000000000004001
 34
0.0
 50
0.0000000000002659
100
AcDbRotatedDimension
1001
ACAD
1000
DSTYLE
1002
{
1070
   271
1070
     3
1002
}
1001
GENIUS_GENDTOL_13
1000

1000
h7
1000

1040
0.0
  0
DIMENSION
  5
3DFD
330
1F
100
AcDbEntity
  8
AM_5
100
AcDbDimension
  2
*D16
 10
-76.58413943528995
 20
-20.80121657883246
 30
0.0
 11
-94.08413943528996
 21
-17.40121657883246
 31
0.0
 70
    32
  1
<>
 51
359.9999999999998
  3
AM_JIS$0
100
AcDbAlignedDimension
 13
-111.5841394352899
 23
-0.0000000000004262
 33
0.0
 14
-76.58413943528995
 24
-0.0000000000003486
 34
0.0
 50
0.0000000000002659
100
AcDbRotatedDimension
1001
ACAD
1000
DSTYLE
1002
{
1070
   271
1070
     3
1002
}
1001
GENIUS_GENDTOL_13
1000

1000
h7
1000

1040
0.0
  0
LINE
  5
3EB9
330
1F
100
AcDbEntity
  8
PV0001_1
  6
CONTINUOUS
 48
0.5
100
AcDbLine
 10
0.0000000000000071
 20
-0.0000000000001977
 30
0.0
 11
-2.584130395552498
 21
-7.099839969702909
 31
0.0
  0
LINE
  5
3EBA
330
1F
100
AcDbEntity
  8
PV0001_1
  6
CONTINUOUS
 48
0.5
100
AcDbLine
 10
0.0000000000000071
 20
-0.000000000000053
 30
0.0
 11
-2.579930998972375
 21
7.088302222327447
 31
0.0
  0
DIMENSION
  5
3EE5
330
1F
100
AcDbEntity
  8
AM_5
100
AcDbDimension
  2
*D17
 10
14.49572145358846
 20
-7.100000000000163
 30
0.0
 11
14.49572145358846
 21
-0.0000000000001608
 31
0.0
 70
   160
  1
%%C<>
 51
359.9999999999998
  3
AM_JIS$0
100
AcDbAlignedDimension
 13
-2.547791618692601
 23
7.099999999999841
 33
0.0
 14
-2.54780065843
 24
-7.100000000000157
 34
0.0
 50
89.99999999999991
100
AcDbRotatedDimension
1001
GENIUS_GENDTOL_13
1000

1000
h7
1000

1040
0.0
1001
ACAD
1000
DSTYLE
1002
{
1070
   271
1070
     3
1002
}
  0
LINE
  5
3EF4
330
1F
100
AcDbEntity
  8
PV0001_1
  6
CONTINUOUS
 48
0.5
100
AcDbLine
 10
-10.09888803479815
 20
7.099999999999847
 30
0.0
 11
-2.579930998972375
 21
7.099999999999841
 31
0.0
  0
LINE
  5
3EF5
330
1F
100
AcDbEntity
  8
PV0001_1
  6
CONTINUOUS
 48
0.5
100
AcDbLine
 10
-2.297705946928766
 20
6.153334236144346
 30
0.0
 11
-10.11135441878781
 21
6.153334236144353
 31
0.0
  0
LINE
  5
3EF7
330
1F
100
AcDbEntity
  8
AM_0
100
AcDbLine
 10
-2.574497680751173
 20
0.5317383514520672
 30
0.0
 11
-1.979847191573241
 21
-1.757004945934163
 31
0.0
  0
LINE
  5
3EF8
330
1F
100
AcDbEntity
  8
AM_0
100
AcDbLine
 10
-1.979847191573241
 20
-1.757004945934163
 30
0.0
 11
-4.314501734241124
 21
-2.856615977117142
 31
0.0
  0
ELLIPSE
  5
3EFA
330
1F
100
AcDbEntity
  8
AM_0
100
AcDbEllipse
 10
-3.620940330598386
 20
2.464737829777391
 30
0.0
 11
2.837968393814669
 21
0.36105411035975
 31
0.0
210
0.0
220
0.0
230
1.0
 40
0.7457420127873231
 41
3.827279726835101
 42
6.018930586251387
  0
LINE
  5
3EFB
330
1F
100
AcDbEntity
  8
PV0001_1
  6
CONTINUOUS
 48
0.5
100
AcDbLine
 10
-7.711646835974615
 20
1.991885864445605
 30
0.0
 11
-5.646990477366255
 21
0.8451776177806637
 31
0.0
  0
LINE
  5
3EFE
330
1F
100
AcDbEntity
  8
PV0001_1
  6
CONTINUOUS
 48
0.5
100
AcDbLine
 10
-11.0127423121721
 20
-7.10000000000015
 30
0.0
 11
-2.583690715920727
 21
-7.100000000000157
 31
0.0
  0
LINE
  5
3EFF
330
1F
100
AcDbEntity
  8
PV0001_1
  6
CONTINUOUS
 48
0.5
100
AcDbLine
 10
-10.98413943528991
 20
-6.131818181818347
 30
0.0
 11
-3.135567804689221
 21
-6.131818181818338
 31
0.0
  0
LINE
  5
3F00
330
1F
100
AcDbEntity
  8
PV0001_1
  6
CONTINUOUS
 48
0.5
100
AcDbLine
 10
-5.646990477366216
 20
0.8451776177805641
 30
0.0
 11
-3.135567804689221
 21
-6.131818181818338
 31
0.0
  0
LINE
  5
3F01
330
1F
100
AcDbEntity
  8
PV0001_1
  6
CONTINUOUS
 48
0.5
100
AcDbLine
 10
-1.979847191573241
 20
-1.757004945934163
 30
0.0
 11
-3.135567804689221
 21
-6.131818181818338
 31
0.0
  0
LINE
  5
3F09
330
1F
100
AcDbEntity
  8
AM_11
 48
0.5
100
AcDbLine
 10
-50.58413943528996
 20
-6.882110116865598
 30
0.0
 11
-50.58413943528995
 21
7.099999999999851
 31
0.0
  0
LINE
  5
3F0A
330
1F
100
AcDbEntity
  8
PV0001_1
  6
CONTINUOUS
100
AcDbLine
 10
-53.58413943528995
 20
-6.338264462666552
 30
0.0
 11
-53.58413943528995
 21
3.187003130023695
 31
0.0
  0
LINE
  5
3FE1
330
1F
100
AcDbEntity
  8
PV0001_1
  6
CONTINUOUS
 48
0.5
100
AcDbLine
 10
-51.52562698982857
 20
6.999999999999801
 30
0.0
 11
-25.23555824421487
 21
6.99999999999973
 31
0.0
  0
SPLINE
  5
3FE2
330
1F
100
AcDbEntity
  8
PV0001_1
  6
CONTINUOUS
100
AcDbSpline
210
0.0
220
0.0
230
1.0
 70
     8
 71
     3
 72
    25
 73
    21
 74
     0
 42
0.0000000001
 43
0.0000000001
 40
24.56499986022253
 40
24.56499986022253
 40
24.56499986022253
 40
24.56499986022253
 40
24.6081876908653
 40
25.71582455492886
 40
26.81883757994213
 40
27.91624752121713
 40
29.00722033829659
 40
30.09105838626677
 40
31.16722880550176
 40
32.23537921050758
 40
33.29534548809967
 40
34.347168041821
 40
35.39108718934584
 40
36.42754827133493
 40
37.45720575381954
 40
38.48085062012849
 40
39.49948440763516
 40
40.51422944315121
 40
41.52631975251916
 40
42.53706336680078
 40
42.53706336680078
 40
42.53706336680078
 40
42.53706336680078
 10
-7.711646835974615
 20
1.991885864445605
 30
0.0
 10
-7.725048527252753
 20
1.998653660558847
 30
0.0
 10
-8.082183669797856
 20
2.17893819197295
 30
0.0
 10
-8.782711724540456
 20
2.529018419717568
 30
0.0
 10
-9.814963635453944
 20
3.031482266813354
 30
0.0
 10
-10.84692405699552
 20
3.517234525295093
 30
0.0
 10
-11.87853951694716
 20
3.983149996101414
 30
0.0
 10
-12.90976158805061
 20
4.426229268889258
 30
0.0
 10
-13.93850696921204
 20
4.743631501682136
 30
0.0
 10
-14.9687950539272
 20
5.132622491018057
 30
0.0
 10
-15.99855178254
 20
5.49067222249161
 30
0.0
 10
-17.02772846902811
 20
5.815458214322063
 30
0.0
 10
-18.05628863351523
 20
6.104821624548075
 30
0.0
 10
-19.08419430977458
 20
6.356852356500469
 30
0.0
 10
-20.11140348330392
 20
6.569846249601781
 30
0.0
 10
-21.13787833053034
 20
6.74234702711274
 30
0.0
 10
-22.16357539620728
 20
6.87316942948092
 30
0.0
 10
-23.18846801674074
 20
6.961333732459372
 30
0.0
 10
-24.2125212640899
 20
7.006186617153514
 30
0.0
 10
-24.89479649519519
 20
7.00693514163972
 30
0.0
 10
-25.23555824421521
 20
6.999999999999715
 30
0.0
  0
SPLINE
  5
3FE3
330
1F
100
AcDbEntity
  8
PV0001_1
  6
CONTINUOUS
100
AcDbSpline
210
0.0
220
0.0
230
1.0
 70
     8
 71
     3
 72
    55
 73
    51
 74
     0
 42
0.0000000001
 43
0.0000000001
 40
0.8937596859602537
 40
0.8937596859602537
 40
0.8937596859602537
 40
0.8937596859602537
 40
1.010743684496582
 40
2.022833576467832
 40
3.037578957496688
 40
4.056212745003489
 40
5.079857003664532
 40
6.109500240690281
 40
7.145961322679372
 40
8.189895241603872
 40
9.241717795325891
 40
10.30168407291828
 40
11.36983447792315
 40
12.44600489715814
 40
13.52984294512926
 40
14.62081576220742
 40
15.7182257034828
 40
16.82123173843959
 40
17.92886860250316
 40
19.0400688939571
 40
20.15368796660465
 40
21.26852814259644
 40
22.38336992938901
 40
23.49698739941135
 40
24.6081876908653
 40
25.71582455492886
 40
26.81883757994213
 40
27.91624752121713
 40
29.00722033829659
 40
30.09105838626677
 40
31.16722880550176
 40
32.23537921050758
 40
33.29534548809967
 40
34.347168041821
 40
35.39108718934584
 40
36.42754827133493
 40
37.45720575381954
 40
38.48085062012849
 40
39.49948440763516
 40
40.51422944315121
 40
41.52631975251916
 40
42.53706336719636
 40
43.54780698187354
 40
44.55989729124051
 40
45.57464232675757
 40
46.59327611426424
 40
47.6169209805722
 40
48.64656348684535
 40
49.68302456883444
 40
50.58557219878025
 40
50.58557219878025
 40
50.58557219878025
 40
50.58557219878025
 10
-11.0127423121721
 20
-6.982418804040134
 30
0.0
 10
-11.05216978984508
 20
-6.98109545719581
 30
0.0
 10
-11.43267899001614
 20
-6.967269031044494
 30
0.0
 10
-12.15462758638353
 20
-6.919170382722637
 30
0.0
 10
-13.17751336969727
 20
-6.81082808473659
 30
0.0
 10
-14.20033584642342
 20
-6.65898223354172
 30
0.0
 10
-15.22308481040376
 20
-6.465690631548589
 30
0.0
 10
-16.24574008508793
 20
-6.231812815708838
 30
0.0
 10
-17.2683050912125
 20
-6.058924270350816
 30
0.0
 10
-18.29077076069241
 20
-5.748696034359522
 30
0.0
 10
-19.31313012867298
 20
-5.40303289028388
 30
0.0
 10
-20.33538829105047
 20
-5.024104529947755
 30
0.0
 10
-21.35754798563617
 20
-4.614230020893858
 30
0.0
 10
-22.37962198349666
 20
-4.175960936056761
 30
0.0
 10
-23.40161496406748
 20
-3.711990532864149
 30
0.0
 10
-24.42353640402151
 20
-3.225180162680356
 30
0.0
 10
-25.44539763660596
 20
-2.718533056729815
 30
0.0
 10
-26.46720763022055
 20
-2.195164855001415
 30
0.0
 10
-27.48897630164759
 20
-1.658294475531641
 30
0.0
 10
-28.51071458424623
 20
-1.111226291722212
 30
0.0
 10
-29.53243143963367
 20
-0.5573234539423117
 30
0.0
 10
-30.55414129603454
 20
-0.000001448658063
 30
0.0
 10
-31.57584656581308
 20
0.5573305887696142
 30
0.0
 10
-32.59756684577274
 20
1.111224800817295
 30
0.0
 10
-33.61930386702175
 20
1.658294640570839
 30
0.0
 10
-34.64107436025106
 20
2.195167065277464
 30
0.0
 10
-35.66288859282357
 20
2.718530800489456
 30
0.0
 10
-36.68475143817505
 20
3.225180475845843
 30
0.0
 10
-37.70667302566059
 20
3.71199045127657
 30
0.0
 10
-38.72866596904427
 20
4.175960952040399
 30
0.0
 10
-39.7507399695219
 20
4.518312101485603
 30
0.0
 10
-40.77289969014282
 20
4.928186512532123
 30
0.0
 10
-41.79515774701215
 20
5.307115259788775
 30
0.0
 10
-42.81751272126774
 20
5.652775351663366
 30
0.0
 10
-43.83997206797844
 20
5.963007650870451
 30
0.0
 10
-44.86253669478443
 20
6.235901683673978
 30
0.0
 10
-45.88519927157003
 20
6.46975278742063
 30
0.0
 10
-46.90795161442394
 20
6.663104217250255
 30
0.0
 10
-47.93077439436044
 20
6.814770074788038
 30
0.0
 10
-48.95366088840631
 20
6.923770296082532
 30
0.0
 10
-49.97658946939903
 20
6.989450986803575
 30
0.0
 10
-50.99954052862692
 20
7.011392732261915
 30
0.0
 10
-52.02249158634973
 20
6.989450986769234
 30
0.0
 10
-53.04542017186662
 20
6.923770296220491
 30
0.0
 10
-54.06830664925583
 20
6.81477007426794
 30
0.0
 10
-55.09112949164218
 20
6.663104219204824
 30
0.0
 10
-56.11387661361089
 20
6.469753722690255
 30
0.0
 10
-57.13653516149518
 20
6.235904074675061
 30
0.0
 10
-58.11260599386177
 20
5.975395312257237
 30
0.0
 10
-58.74589186571176
 20
5.784882791536316
 30
0.0
 10
-59.30870953235396
 20
5.590833857820167
 30
0.0
  0
LINE
  5
3FE4
330
1F
100
AcDbEntity
  8
AM_0
100
AcDbLine
 10
-10.15279630880635
 20
3.189546787918049
 30
0.0
 11
-10.09888803479815
 21
7.099999999999824
 31
0.0
  0
SPLINE
  5
3FE5
330
1F
100
AcDbEntity
  8
PV0001_1
  6
CONTINUOUS
 48
0.5
100
AcDbSpline
210
0.0
220
0.0
230
1.0
 70
     8
 71
     3
 72
    15
 73
    11
 74
     0
 42
0.0000000001
 43
0.0000000001
 40
0.0
 40
0.0
 40
0.0
 40
0.0
 40
1.010743614677189
 40
2.022833924044153
 40
3.037578959561199
 40
4.056212747067873
 40
5.079857613375832
 40
6.109500119648989
 40
7.14596120163808
 40
7.390893701882127
 40
7.390893701882127
 40
7.390893701882127
 40
7.390893701882127
 10
-10.10874743073949
 20
6.999999999999678
 30
0.0
 10
-10.44956079588966
 20
6.999957335039833
 30
0.0
 10
-11.13170729618222
 20
6.985388756313144
 30
0.0
 10
-12.15462469883432
 20
6.919682876172712
 30
0.0
 10
-13.17751421971444
 20
6.81068954265131
 30
0.0
 10
-14.20033610747378
 20
6.659021404835681
 30
0.0
 10
-15.22308399315497
 20
6.465673128968885
 30
0.0
 10
-16.24574042914703
 20
6.231816839220929
 30
0.0
 10
-17.00559797313749
 20
6.029034192900961
 30
0.0
 10
-17.42505035611887
 20
5.907677423045032
 30
0.0
 10
-17.50515811933046
 20
5.88416084005535
 30
0.0
  0
LINE
  5
3FE6
330
1F
100
AcDbEntity
  8
AM_11
 48
0.5
100
AcDbLine
 10
-25.23555824421491
 20
6.999999999999722
 30
0.0
 11
-10.10874743073949
 21
6.999999999999678
 31
0.0
  0
LINE
  5
3FE7
330
1F
100
AcDbEntity
  8
AM_0
100
AcDbLine
 10
-11.0127423121721
 20
-7.08466603034313
 30
0.0
 11
-11.01274231217207
 21
3.590168972078472
 31
0.0
  0
SPLINE
  5
3FE8
330
1F
100
AcDbEntity
  8
PV0001_1
  6
CONTINUOUS
100
AcDbSpline
210
0.0
220
0.0
230
1.0
 70
     8
 71
     3
 72
    11
 73
     7
 74
     0
 42
0.0000000001
 43
0.0000000001
 40
11.27226913003534
 40
11.27226913003534
 40
11.27226913003534
 40
11.2722691300354
 40
12.28301561507924
 40
13.29510212255852
 40
14.30984805882082
 40
15.18258238371378
 40
15.18258238371378
 40
15.18258238371378
 40
15.18258238371378
 10
-29.2281271687988
 20
-6.991603484447044
 30
0.0
 10
-29.56766340348524
 20
-6.95685402120059
 30
0.0
 10
-30.27754100860166
 20
-6.94859523137438
 30
0.0
 10
-31.30550367088901
 20
-6.822279399293045
 30
0.0
 10
-32.37265843938076
 20
-6.608724927994222
 30
0.0
 10
-32.99510895340418
 20
-6.452908150179922
 30
0.0
 10
-33.28195187452832
 20
-6.37593896575423
 30
0.0
  0
LINE
  5
3FE9
330
1F
100
AcDbEntity
  8
PV0001_1
  6
CONTINUOUS
 48
0.5
100
AcDbLine
 10
-47.14607588201251
 20
-7.000000000000211
 30
0.0
 11
-29.37810414070275
 21
-7.000000000000258
 31
0.0
  0
SPLINE
  5
3FEA
330
1F
100
AcDbEntity
  8
PV0001_1
  6
CONTINUOUS
100
AcDbSpline
210
0.0
220
0.0
230
1.0
 70
     8
 71
     3
 72
    22
 73
    18
 74
     0
 42
0.0000000001
 43
0.0000000001
 40
17.17441611292
 40
17.17441611292
 40
17.17441611292
 40
17.17441611292
 40
17.38177636558528
 40
18.41823744757437
 40
19.46215659509824
 40
20.51397914882054
 40
21.57394542641293
 40
22.64209583141747
 40
23.71826625065247
 40
24.80210429862395
 40
25.8930771157021
 40
26.99048705697709
 40
28.09349309193389
 40
29.20112995599786
 40
30.31233024745139
 40
31.42594771747373
 40
32.5407895042663
 40
32.54078950426994
 40
32.54078950426994
 40
32.54078950426994
 10
-33.28239923683401
 20
-6.375851387308364
 30
0.0
 10
-33.35089604952274
 20
-6.359415583689108
 30
0.0
 10
-33.76149703330355
 20
-6.259303307365566
 30
0.0
 10
-34.51369489831661
 20
-6.058565163433717
 30
0.0
 10
-35.53615409882149
 20
-5.748331972926731
 30
0.0
 10
-36.55850911288016
 20
-5.402672123065388
 30
0.0
 10
-37.58076715826165
 20
-5.023743308339637
 30
0.0
 10
-38.60292688463414
 20
-4.613868922637873
 30
0.0
 10
-39.62500087359861
 20
-4.175599803662796
 30
0.0
 10
-40.64699385764497
 20
-3.71162941240582
 30
0.0
 10
-41.6689152926385
 20
-3.224819028847258
 30
0.0
 10
-42.69077654169769
 20
-2.718171964703187
 30
0.0
 10
-43.71258647396159
 20
-2.194803608091981
 30
0.0
 10
-44.73435537559928
 20
-1.657933809582685
 30
0.0
 10
-45.75609230370267
 20
-1.110863710734284
 30
0.0
 10
-46.77781239441581
 20
-0.5569690297519489
 30
0.0
 10
-47.45882542061247
 20
-0.1854836165013226
 30
0.0
 10
-47.79951901289208
 20
0.0003611246754925
 30
0.0
  0
SPLINE
  5
3FEB
330
1F
100
AcDbEntity
  8
PV0001_1
  6
CONTINUOUS
100
AcDbSpline
210
0.0
220
0.0
230
1.0
 70
     8
 71
     3
 72
    17
 73
    13
 74
     0
 42
0.0000000001
 43
0.0000000001
 40
1.580019955310467
 40
1.580019955310467
 40
1.580019955310467
 40
1.580019955310467
 40
2.030549285115227
 40
3.082371838836284
 40
4.126290986361125
 40
5.162752068350215
 40
6.192395305374981
 40
7.216039564037012
 40
8.234688489606833
 40
9.249433870634691
 40
10.26152376260694
 40
11.27226744710342
 40
11.27226744710342
 40
11.27226744710342
 40
11.27226744710352
 10
-19.74267409388918
 20
-5.240009070791669
 30
0.0
 10
-19.8874015365812
 20
-5.293976811146849
 30
0.0
 10
-20.37083981812184
 20
-5.470863288582454
 30
0.0
 10
-21.19618885238843
 20
-5.748316057548525
 30
0.0
 10
-22.21850572891205
 20
-6.059026352163074
 30
0.0
 10
-23.24110404831454
 20
-6.331788737317312
 30
0.0
 10
-24.2637492228151
 20
-6.565687215618067
 30
0.0
 10
-25.28650581267466
 20
-6.759020398238822
 30
0.0
 10
-26.17020750853472
 20
-6.897894629194532
 30
0.0
 10
-27.18708056074929
 20
-6.95620615612575
 30
0.0
 10
-28.20517645515602
 20
-6.976961809912615
 30
0.0
 10
-28.88729492211496
 20
-6.991603525073856
 30
0.0
 10
-29.22812716879873
 20
-6.991603484447044
 30
0.0
  0
LINE
  5
3FEC
330
1F
100
AcDbEntity
  8
AM_11
 48
0.5
100
AcDbLine
 10
-40.18881847569775
 20
-7.00000000000023
 30
0.0
 11
-11.0127423121721
 21
-7.000000000000327
 31
0.0
  0
VIEWPORT
  5
110
330
101
100
AcDbEntity
 67
     1
  8
0
100
AcDbViewport
 10
420.5
 20
297.0
 30
0.0
 40
948.9782706766916
 41
628.452
 68
     1
 69
     1
1001
ACAD
1000
MVIEW
1002
{
1070
    16
1010
0.0
1020
0.0
1030
0.0
1010
0.0
1020
0.0
1030
1.0
1040
0.0
1040
628.452
1040
420.5
1040
297.0
1040
50.0
1040
0.0
1040
0.0
1070
     0
1070
   100
1070
     1
1070
     1
1070
     0
1070
     0
1070
     0
1070
     0
1040
0.0
1040
0.0
1040
0.0
1040
10.0
1040
10.0
1040
10.0
1040
10.0
1070
     0
1002
{
1002
}
1002
}
  0
ENDSEC
  0
SECTION
  2
OBJECTS
  0
DICTIONARY
  5
C
330
0
100
AcDbDictionary
  3
ACAD_GROUP
350
D
  3
ACAD_LAYOUT
350
1A
  3
ACAD_MLINESTYLE
350
17
  3
ACAD_PLOTSETTINGS
350
19
  3
ACAD_PLOTSTYLENAME
350
E
  3
ACDBVARIABLEDICTIONARY
350
34
  3
ACMDICTIONARY
350
43
  3
AMG
350
2B
  3
AMGSNAPSETTINGS
350
6E
  3
DWGPROPS
350
400A
  3
ACDBHEADERROUNDTRIPXREC
350
401A
  0
DICTIONARY
  5
74
330
1F
100
AcDbDictionary
280
     1
  3
ACAD_INDEX
360
400C
  3
ACAD_LAYOUTSELFREF
360
403D
  0
DICTIONARY
  5
4042
330
101
100
AcDbDictionary
280
     1
  3
ACAD_LAYOUTSELFREF
360
4043
  0
DICTIONARY
  5
D
102
{ACAD_REACTORS
330
C
102
}
330
C
100
AcDbDictionary
  0
DICTIONARY
  5
1A
102
{ACAD_REACTORS
330
C
102
}
330
C
100
AcDbDictionary
  0
DICTIONARY
  5
17
102
{ACAD_REACTORS
330
C
102
}
330
C
100
AcDbDictionary
  3
STANDARD
350
18
  0
DICTIONARY
  5
19
102
{ACAD_REACTORS
330
C
102
}
330
C
100
AcDbDictionary
  0
ACDBDICTIONARYWDFLT
  5
E
102
{ACAD_REACTORS
330
C
102
}
330
C
100
AcDbDictionary
281
     1
  3
Normal
350
F
100
AcDbDictionaryWithDefault
340
F
  0
DICTIONARY
  5
34
102
{ACAD_REACTORS
330
C
102
}
330
C
100
AcDbDictionary
  3
INDEXCTL
350
35
  3
SORTENTS
350
B5E
  0
DICTIONARY
  5
43
102
{ACAD_REACTORS
330
C
102
}
330
C
100
AcDbDictionary
  3
ACMSTDDICTIONARY
350
260
  0
DICTIONARY
  5
2B
102
{ACAD_REACTORS
330
C
102
}
330
C
100
AcDbDictionary
  3
ACMGSETTINGS
350
2C
  0
DICTIONARY
  5
6E
102
{ACAD_REACTORS
330
C
102
}
330
C
100
AcDbDictionary
  0
XRECORD
  5
400A
102
{ACAD_REACTORS
330
C
102
}
330
C
100
AcDbXrecord
  1
DWGPROPS COOKIE
  2

  3

  4

  6

  7

  8

  9

300
AmdtFileType=82
301
=
302
=
303
=
304
=
305
=
306
=
307
=
308
=
309
=
 40
0.3894568287037037
 41
2452800.443498622
 42
2453002.677235498
  1

 90
        1
  0
DICTIONARY
  5
401A
102
{ACAD_REACTORS
330
C
102
}
330
C
100
AcDbDictionary
  3
TSTACKALIGN
350
401B
  3
TSTACKSIZE
350
401C
  3
HYPERLINKBASE
350
401D
  3
STYLESHEET
350
401E
  3
LAYOUTDICT
350
401F
  3
PLOTSETDICT
350
4020
  3
PLOTSTYLNAMDICT
350
4021
  3
LWETCUNION
350
4022
  3
INSUNITS
350
4023
  3
CEPSNTYPE
350
4024
  3
FINGERPRINTGUID
350
4025
  3
VERSIONGUID
350
4026
  3
PSVPSCALE
350
4027
  3
DIMSTYLEDATA
350
4028
  3
PUCSORTHOREF
350
4029
  3
PUCSORTHOVIEW
350
402A
  3
PUCSBASE
350
402B
  3
PUCSORGTOP
350
402C
  3
PUCSORGBOTTOM
350
402D
  3
PUCSORGLEFT
350
402E
  3
PUCSORGRIGHT
350
402F
  3
PUCSORGFRONT
350
4030
  3
PUCSORGBACK
350
4031
  3
UCSORTHOREF
350
4032
  3
UCSORTHOVIEW
350
4033
  3
UCSBASE
350
4034
  3
UCSORGTOP
350
4035
  3
UCSORGBOTTOM
350
4036
  3
UCSORGLEFT
350
4037
  3
UCSORGRIGHT
350
4038
  3
UCSORGFRONT
350
4039
  3
UCSORGBACK
350
403A
  0
DICTIONARY
  5
400C
102
{ACAD_REACTORS
330
74
102
}
330
74
100
AcDbDictionary
  3
*A1
350
400D
  0
XRECORD
  5
403D
102
{ACAD_REACTORS
330
74
102
}
330
74
100
AcDbXrecord
340
1F
  0
XRECORD
  5
4043
102
{ACAD_REACTORS
330
4042
102
}
330
4042
100
AcDbXrecord
340
101
  0
MLINESTYLE
  5
18
102
{ACAD_REACTORS
330
17
102
}
330
17
100
AcDbMlineStyle
  2
STANDARD
 70
     0
  3

 62
   256
 51
90.0
 52
90.0
 71
     2
 49
0.5
 62
   256
  6
BYLAYER
 49
-0.5
 62
   256
  6
BYLAYER
  0
ACDBPLACEHOLDER
  5
F
102
{ACAD_REACTORS
330
E
102
}
330
E
100
AcDbPlaceHolder
280
     0
  0
DICTIONARYVAR
  5
35
102
{ACAD_REACTORS
330
34
102
}
330
34
100
DictionaryVariables
280
     0
  1
1
  0
DICTIONARYVAR
  5
B5E
102
{ACAD_REACTORS
330
34
102
}
330
34
100
DictionaryVariables
280
     0
  1
96
  0
DICTIONARY
  5
260
102
{ACAD_REACTORS
330
43
102
}
330
43
100
AcDbDictionary
  0
DICTIONARY
  5
2C
102
{ACAD_REACTORS
330
2B
102
}
330
2B
100
AcDbDictionary
  3
DWGSETTINGS
350
2D
  0
XRECORD
  5
401B
102
{ACAD_REACTORS
330
401A
102
}
330
401A
100
AcDbXrecord
 90
        1
  0
XRECORD
  5
401C
102
{ACAD_REACTORS
330
401A
102
}
330
401A
100
AcDbXrecord
 90
       70
  0
XRECORD
  5
401D
102
{ACAD_REACTORS
330
401A
102
}
330
401A
100
AcDbXrecord
  1

  0
XRECORD
  5
401E
102
{ACAD_REACTORS
330
401A
102
}
330
401A
100
AcDbXrecord
  1
ASAMI.ctb
  0
XRECORD
  5
401F
102
{ACAD_REACTORS
330
401A
102
}
330
401A
100
AcDbXrecord
340
1A
  0
XRECORD
  5
4020
102
{ACAD_REACTORS
330
401A
102
}
330
401A
100
AcDbXrecord
340
19
  0
XRECORD
  5
4021
102
{ACAD_REACTORS
330
401A
102
}
330
401A
100
AcDbXrecord
340
E
  0
XRECORD
  5
4022
102
{ACAD_REACTORS
330
401A
102
}
330
401A
100
AcDbXrecord
 90
    10781
  0
XRECORD
  5
4023
102
{ACAD_REACTORS
330
401A
102
}
330
401A
100
AcDbXrecord
 90
        4
  0
XRECORD
  5
4024
102
{ACAD_REACTORS
330
401A
102
}
330
401A
100
AcDbXrecord
 90
        0
  0
XRECORD
  5
4025
102
{ACAD_REACTORS
330
401A
102
}
330
401A
100
AcDbXrecord
  1
{AFB28963-8C59-40AE-9337-C84526B81ACE}
  0
XRECORD
  5
4026
102
{ACAD_REACTORS
330
401A
102
}
330
401A
100
AcDbXrecord
  1
{55839F1B-752C-4400-9480-85819CD9859A}
  0
XRECORD
  5
4027
102
{ACAD_REACTORS
330
401A
102
}
330
401A
100
AcDbXrecord
 40
0.0
  0
XRECORD
  5
4028
102
{ACAD_REACTORS
330
401A
102
}
330
401A
100
AcDbXrecord
1000
DSTYLE
1002
{
1070
    79
 70
     2
1070
   341
340
59
1070
   342
340
59
1070
   371
 70
    -1
1070
   372
 70
    -1
1002
}
  0
XRECORD
  5
4029
102
{ACAD_REACTORS
330
401A
102
}
330
401A
100
AcDbXrecord
340
0
  0
XRECORD
  5
402A
102
{ACAD_REACTORS
330
401A
102
}
330
401A
100
AcDbXrecord
 70
     0
  0
XRECORD
  5
402B
102
{ACAD_REACTORS
330
401A
102
}
330
401A
100
AcDbXrecord
340
0
  0
XRECORD
  5
402C
102
{ACAD_REACTORS
330
401A
102
}
330
401A
100
AcDbXrecord
 10
0.0
 20
0.0
 30
0.0
  0
XRECORD
  5
402D
102
{ACAD_REACTORS
330
401A
102
}
330
401A
100
AcDbXrecord
 10
0.0
 20
0.0
 30
0.0
  0
XRECORD
  5
402E
102
{ACAD_REACTORS
330
401A
102
}
330
401A
100
AcDbXrecord
 10
0.0
 20
0.0
 30
0.0
  0
XRECORD
  5
402F
102
{ACAD_REACTORS
330
401A
102
}
330
401A
100
AcDbXrecord
 10
0.0
 20
0.0
 30
0.0
  0
XRECORD
  5
4030
102
{ACAD_REACTORS
330
401A
102
}
330
401A
100
AcDbXrecord
 10
0.0
 20
0.0
 30
0.0
  0
XRECORD
  5
4031
102
{ACAD_REACTORS
330
401A
102
}
330
401A
100
AcDbXrecord
 10
0.0
 20
0.0
 30
0.0
  0
XRECORD
  5
4032
102
{ACAD_REACTORS
330
401A
102
}
330
401A
100
AcDbXrecord
340
0
  0
XRECORD
  5
4033
102
{ACAD_REACTORS
330
401A
102
}
330
401A
100
AcDbXrecord
 70
     0
  0
XRECORD
  5
4034
102
{ACAD_REACTORS
330
401A
102
}
330
401A
100
AcDbXrecord
340
0
  0
XRECORD
  5
4035
102
{ACAD_REACTORS
330
401A
102
}
330
401A
100
AcDbXrecord
 10
0.0
 20
0.0
 30
0.0
  0
XRECORD
  5
4036
102
{ACAD_REACTORS
330
401A
102
}
330
401A
100
AcDbXrecord
 10
0.0
 20
0.0
 30
0.0
  0
XRECORD
  5
4037
102
{ACAD_REACTORS
330
401A
102
}
330
401A
100
AcDbXrecord
 10
0.0
 20
0.0
 30
0.0
  0
XRECORD
  5
4038
102
{ACAD_REACTORS
330
401A
102
}
330
401A
100
AcDbXrecord
 10
0.0
 20
0.0
 30
0.0
  0
XRECORD
  5
4039
102
{ACAD_REACTORS
330
401A
102
}
330
401A
100
AcDbXrecord
 10
0.0
 20
0.0
 30
0.0
  0
XRECORD
  5
403A
102
{ACAD_REACTORS
330
401A
102
}
330
401A
100
AcDbXrecord
 10
0.0
 20
0.0
 30
0.0
  0
LAYER_INDEX
  5
400D
102
{ACAD_REACTORS
330
400C
102
}
330
400C
100
AcDbIndex
 40
2453151.69553022
100
AcDbLayerIndex
  8
0
360
400E
 90
        0
  8
AM_0
360
400F
 90
        9
  8
PV0001_1
360
4010
 90
       35
  8
AM_CL
360
4011
 90
        0
  8
AM_7
360
4012
 90
        1
  8
AM_11
360
4013
 90
        3
  8
AM_5
360
4014
 90
       10
  8
Defpoints
360
4015
 90
        0
  8
AM_6
360
4016
 90
        1
  8
AM_4
360
4017
 90
        0
  8
AM_3
360
4018
 90
        0
  0
XRECORD
  5
2D
102
{ACAD_REACTORS
330
2C
102
}
330
2C
100
AcDbXrecord
  1
VERSION
140
15.0
  1
PRODUCT
  2
AutoCAD Mechanical 2000
  0
IDBUFFER
  5
400E
330
0
100
AcDbIdBuffer
  0
IDBUFFER
  5
400F
330
0
100
AcDbIdBuffer
330
390B
330
3910
330
3928
330
3929
330
3EF7
330
3EF8
330
3EFA
330
3FE4
330
3FE7
  0
IDBUFFER
  5
4010
330
0
100
AcDbIdBuffer
330
395A
330
3EB9
330
3EBA
330
3EF4
330
3EF5
330
3EFB
330
3EFE
330
3EFF
330
3F00
330
3F01
330
3F0A
330
3FE1
330
3FE2
330
3FE3
330
3FE5
330
3FE8
330
3FE9
330
3FEA
330
3FEB
330
35CA
330
35EA
330
35EB
330
35EE
330
35EF
330
35F0
330
35F4
330
35F5
330
35F6
330
35F7
330
35F9
330
35FA
330
35FB
330
35FD
330
3601
330
3602
  0
IDBUFFER
  5
4011
330
0
100
AcDbIdBuffer
  0
IDBUFFER
  5
4012
330
0
100
AcDbIdBuffer
330
35D1
  0
IDBUFFER
  5
4013
330
0
100
AcDbIdBuffer
330
3F09
330
3FE6
330
3FEC
  0
IDBUFFER
  5
4014
330
0
100
AcDbIdBuffer
330
36BA
330
3866
330
3990
330
3B0D
330
3BB8
330
3C40
330
3CCB
330
3D56
330
3DFD
330
3EE5
  0
IDBUFFER
  5
4015
330
0
100
AcDbIdBuffer
  0
IDBUFFER
  5
4016
330
0
100
AcDbIdBuffer
330
19BD
  0
IDBUFFER
  5
4017
330
0
100
AcDbIdBuffer
  0
IDBUFFER
  5
4018
330
0
100
AcDbIdBuffer
  0
ENDSEC
  0
EOF
