  0
SECTION
  2
HEADER
  9
$ACADVER
  1
AC1014
  9
$ACADMAINTVER
 70
     9
  9
$DWGCODEPAGE
  3
ANSI_932
  9
$INSBASE
 10
0.0
 20
0.0
 30
0.0
  9
$EXTMIN
 10
-166.5144555632269
 20
-65.61548554233268
 30
-0.00000001
  9
$EXTMAX
 10
25.36655500788989
 20
36.29788174485795
 30
0.00000001
  9
$LIMMIN
 10
-182.206109311767
 20
-91.64095510696041
  9
$LIMMAX
 10
38.17958103443015
 20
56.05788976085091
  9
$ORTHOMODE
 70
     0
  9
$REGENMODE
 70
     1
  9
$FILLMODE
 70
     1
  9
$QTEXTMODE
 70
     0
  9
$MIRRTEXT
 70
     0
  9
$DRAGMODE
 70
     2
  9
$LTSCALE
 40
1.0
  9
$OSMODE
 70
    55
  9
$ATTMODE
 70
     1
  9
$TEXTSIZE
 40
2.5
  9
$TRACEWID
 40
1.0
  9
$TEXTSTYLE
  7
STANDARD
  9
$CLAYER
  8
AM_0
  9
$CELTYPE
  6
BYLAYER
  9
$CECOLOR
 62
   256
  9
$CELTSCALE
 40
1.0
  9
$DELOBJ
 70
     1
  9
$DISPSILH
 70
     0
  9
$DIMSCALE
 40
1.0
  9
$DIMASZ
 40
2.5
  9
$DIMEXO
 40
1.0
  9
$DIMDLI
 40
12.0
  9
$DIMRND
 40
0.0
  9
$DIMDLE
 40
0.0
  9
$DIMEXE
 40
1.0
  9
$DIMTP
 40
0.1
  9
$DIMTM
 40
0.1
  9
$DIMTXT
 40
3.2
  9
$DIMCEN
 40
0.0
  9
$DIMTSZ
 40
0.0
  9
$DIMTOL
 70
     0
  9
$DIMLIM
 70
     0
  9
$DIMTIH
 70
     0
  9
$DIMTOH
 70
     0
  9
$DIMSE1
 70
     0
  9
$DIMSE2
 70
     0
  9
$DIMTAD
 70
     3
  9
$DIMZIN
 70
     8
  9
$DIMBLK
  1
OPEN30
  9
$DIMASO
 70
     1
  9
$DIMSHO
 70
     1
  9
$DIMPOST
  1

  9
$DIMAPOST
  1
"
  9
$DIMALT
 70
     0
  9
$DIMALTD
 70
     2
  9
$DIMALTF
 40
0.0393701
  9
$DIMLFAC
 40
1.0
  9
$DIMTOFL
 70
     1
  9
$DIMTVP
 40
0.0
  9
$DIMTIX
 70
     0
  9
$DIMSOXD
 70
     0
  9
$DIMSAH
 70
     0
  9
$DIMBLK1
  1

  9
$DIMBLK2
  1

  9
$DIMSTYLE
  2
AM_JIS
  9
$DIMCLRD
 70
   256
  9
$DIMCLRE
 70
   256
  9
$DIMCLRT
 70
     2
  9
$DIMTFAC
 40
0.71
  9
$DIMGAP
 40
1.5
  9
$DIMJUST
 70
     0
  9
$DIMSD1
 70
     0
  9
$DIMSD2
 70
     0
  9
$DIMTOLJ
 70
     0
  9
$DIMTZIN
 70
     0
  9
$DIMALTZ
 70
     0
  9
$DIMALTTZ
 70
     0
  9
$DIMFIT
 70
     3
  9
$DIMUPT
 70
     0
  9
$DIMUNIT
 70
     2
  9
$DIMDEC
 70
     3
  9
$DIMTDEC
 70
     3
  9
$DIMALTU
 70
     2
  9
$DIMALTTD
 70
     2
  9
$DIMTXSTY
  7
ASAMI
  9
$DIMAUNIT
 70
     0
  9
$LUNITS
 70
     2
  9
$LUPREC
 70
     2
  9
$SKETCHINC
 40
1.0
  9
$FILLETRAD
 40
2.5
  9
$AUNITS
 70
     0
  9
$AUPREC
 70
     0
  9
$MENU
  1
.
  9
$ELEVATION
 40
0.0
  9
$PELEVATION
 40
0.0
  9
$THICKNESS
 40
0.0
  9
$LIMCHECK
 70
     0
  9
$BLIPMODE
 70
     0
  9
$CHAMFERA
 40
2.5
  9
$CHAMFERB
 40
2.5
  9
$CHAMFERC
 40
20.0
  9
$CHAMFERD
 40
0.0
  9
$SKPOLY
 70
     0
  9
$TDCREATE
 40
2452800.443498622
  9
$TDUPDATE
 40
2453151.704544977
  9
$TDINDWG
 40
0.2881614815
  9
$TDUSRTIMER
 40
0.2881614815
  9
$USRTIMER
 70
     1
  9
$ANGBASE
 50
0.0
  9
$ANGDIR
 70
     0
  9
$PDMODE
 70
     0
  9
$PDSIZE
 40
0.0
  9
$PLINEWID
 40
0.0
  9
$COORDS
 70
     1
  9
$SPLFRAME
 70
     0
  9
$SPLINETYPE
 70
     6
  9
$SPLINESEGS
 70
     8
  9
$ATTDIA
 70
     1
  9
$ATTREQ
 70
     1
  9
$HANDLING
 70
 12289
  9
$HANDSEED
  5
4320
  9
$SURFTAB1
 70
     6
  9
$SURFTAB2
 70
     6
  9
$SURFTYPE
 70
     6
  9
$SURFU
 70
     6
  9
$SURFV
 70
     6
  9
$UCSNAME
  2

  9
$UCSORG
 10
0.0
 20
-0.0000000000002274
 30
0.0
  9
$UCSXDIR
 10
1.0
 20
0.0000000000000027
 30
0.0
  9
$UCSYDIR
 10
-0.0000000000000027
 20
1.0
 30
0.0
  9
$PUCSNAME
  2

  9
$PUCSORG
 10
0.0
 20
0.0
 30
0.0
  9
$PUCSXDIR
 10
1.0
 20
0.0
 30
0.0
  9
$PUCSYDIR
 10
0.0
 20
1.0
 30
0.0
  9
$USERI1
 70
     0
  9
$USERI2
 70
     0
  9
$USERI3
 70
     0
  9
$USERI4
 70
     0
  9
$USERI5
 70
     0
  9
$USERR1
 40
0.0
  9
$USERR2
 40
0.0
  9
$USERR3
 40
0.0
  9
$USERR4
 40
0.0
  9
$USERR5
 40
0.0
  9
$WORLDVIEW
 70
     1
  9
$SHADEDGE
 70
     3
  9
$SHADEDIF
 70
    70
  9
$TILEMODE
 70
     1
  9
$MAXACTVP
 70
    64
  9
$PINSBASE
 10
0.0
 20
0.0
 30
0.0
  9
$PLIMCHECK
 70
     0
  9
$PEXTMIN
 10
1.000000000000000E+20
 20
1.000000000000000E+20
 30
1.000000000000000E+20
  9
$PEXTMAX
 10
-1.000000000000000E+20
 20
-1.000000000000000E+20
 30
-1.000000000000000E+20
  9
$PLIMMIN
 10
0.0
 20
0.0
  9
$PLIMMAX
 10
841.0
 20
594.0
  9
$UNITMODE
 70
     0
  9
$VISRETAIN
 70
     1
  9
$PLINEGEN
 70
     0
  9
$PSLTSCALE
 70
     0
  9
$TREEDEPTH
 70
  3020
  9
$PICKSTYLE
 70
     0
  9
$CMLSTYLE
  2
STANDARD
  9
$CMLJUST
 70
     0
  9
$CMLSCALE
 40
20.0
  9
$PROXYGRAPHICS
 70
     1
  9
$MEASUREMENT
 70
     1
  0
ENDSEC
  0
SECTION
  2
CLASSES
  0
CLASS
  1
ACDBDICTIONARYWDFLT
  2
AcDbDictionaryWithDefault
  3
AutoCAD 2000
 90
        0
280
     0
281
     0
  0
CLASS
  1
ACDBPLACEHOLDER
  2
AcDbPlaceHolder
  3
AutoCAD 2000
 90
        0
280
     0
281
     0
  0
CLASS
  1
LAYOUT
  2
AcDbLayout
  3
AutoCAD 2000
 90
        0
280
     0
281
     0
  0
CLASS
  1
AMGSETTINGSOBJ
  2
AmgSettingsObj
  3
"AcadM|Product Description: AutoCAD Mechanical 2000|Company: Autodesk"
 90
        0
280
     0
281
     0
  0
CLASS
  1
ACME_DOCUMENT
  2
AcMeDbDoc
  3
AcMeServices
 90
        0
280
     0
281
     0
  0
CLASS
  1
ACMESCOPE
  2
AcMeScope
  3
AcMeServices
 90
        0
280
     0
281
     0
  0
CLASS
  1
ACMECOMMANDHISTORY
  2
AcMeCommandHistory
  3
AcMeServices
 90
        0
280
     0
281
     0
  0
CLASS
  1
DICTIONARYVAR
  2
AcDbDictionaryVar
  3
AutoCAD 2000
 90
        0
280
     0
281
     0
  0
CLASS
  1
ACIMSYSVARMAN
  2
AcImSysVarManager
  3
AcMeServices
 90
        0
280
     0
281
     0
  0
CLASS
  1
ACIMREALSYSVAR
  2
AcImRealSysVar
  3
AcMeServices
 90
        0
280
     0
281
     0
  0
CLASS
  1
ACIMINTSYSVAR
  2
AcImIntSysVar
  3
AcMeServices
 90
        0
280
     0
281
     0
  0
CLASS
  1
ACMEDRAWINGMAN
  2
AcMeDrawingMan
  3
AcMeServices
 90
        0
280
     0
281
     0
  0
CLASS
  1
ACMEVIEW
  2
AcMeView
  3
AcMeServices
 90
        0
280
     0
281
     0
  0
CLASS
  1
ACDBENTITYCACHE
  2
AcMeEntityCache
  3
AcMeServices
 90
        0
280
     0
281
     0
  0
CLASS
  1
GSMANAGER
  2
AcMeGSManager
  3
AcMeServices
 90
        0
280
     0
281
     0
  0
CLASS
  1
AmdtInternalReactor
  2
AmdtInternalReactor
  3
AcMeServices
 90
        0
280
     0
281
     0
  0
CLASS
  1
ACMESTATEMGR
  2
AcMeStateMgr
  3
AcMeServices
 90
        0
280
     0
281
     0
  0
CLASS
  1
ACME_DATABASE
  2
AcMeDbDatabase
  3
AcMeServices
 90
        0
280
     0
281
     0
  0
CLASS
  1
ACRFINSADJUSTERMGR
  2
AcRfInsAdjusterMgr
  3
AcMeServices
 90
        0
280
     0
281
     0
  0
CLASS
  1
ACMDATADICTIONARY
  2
AcmDataDictionary
  3
"AcmSymBB|Product Description: AutoCAD Mechanical 2000|Company: Autodesk"
 90
        0
280
     0
281
     0
  0
CLASS
  1
ACMDATAENTRYBLOCK
  2
AcmDataEntryBlock
  3
"AcmSymBB|Product Description: AutoCAD Mechanical 2000|Company: Autodesk"
 90
        0
280
     0
281
     0
  0
CLASS
  1
AMGOBJPROPCFG
  2
AmgObjPropCfg
  3
"AmgLay|Product Description: AutoCAD Mechanical 2000|Company: Autodesk"
 90
        1
280
     0
281
     0
  0
CLASS
  1
ACAMGFILTERDAT
  2
AcAmgFilterDat
  3
"AcadM|Product Description: AutoCAD Mechanical 2000|Company: Autodesk"
 90
        0
280
     0
281
     0
  0
CLASS
  1
LAYER_INDEX
  2
AcDbLayerIndex
  3
AutoCAD 2000
 90
        0
280
     0
281
     0
  0
CLASS
  1
IDBUFFER
  2
AcDbIdBuffer
  3
AutoCAD 2000
 90
        0
280
     0
281
     0
  0
CLASS
  1
ACIMSTRSYSVAR
  2
AcImStrSysVar
  3
AcMeServices
 90
        0
280
     0
281
     0
  0
CLASS
  1
ACMSTANDARDJIS
  2
AcmStandardJIS
  3
"AcmSymBB|Product Description: AutoCAD Mechanical 2000|Company: Autodesk"
 90
        0
280
     0
281
     0
  0
CLASS
  1
ACMSURFSTANDARDJIS
  2
AcmSurfTextStdJIS
  3
"AcmSymBB|Product Description: AutoCAD Mechanical 2000|Company: Autodesk"
 90
        0
280
     0
281
     0
  0
CLASS
  1
ACMFCFSTANDARDJIS
  2
AcmFCFStdJIS
  3
"AcmSymBB|Product Description: AutoCAD Mechanical 2000|Company: Autodesk"
 90
        0
280
     0
281
     0
  0
CLASS
  1
ACMWELDSTANDARDJIS
  2
AcmWeldingStdJIS
  3
"AcmSymBB|Product Description: AutoCAD Mechanical 2000|Company: Autodesk"
 90
        0
280
     0
281
     0
  0
CLASS
  1
ACMIDSTANDARDJIS
  2
AcmIdStdJIS
  3
"AcmSymBB|Product Description: AutoCAD Mechanical 2000|Company: Autodesk"
 90
        0
280
     0
281
     0
  0
CLASS
  1
ACMDATUMSTANDARDJIS
  2
AcmDatumStdJIS
  3
"AcmSymBB|Product Description: AutoCAD Mechanical 2000|Company: Autodesk"
 90
        0
280
     0
281
     0
  0
CLASS
  1
ACMBOMSTANDARDJIS
  2
AcmBOMStdJIS
  3
"AcmSymBB|Product Description: AutoCAD Mechanical 2000|Company: Autodesk"
 90
        0
280
     0
281
     0
  0
CLASS
  1
ACMSTANDARDANSI
  2
AcmStandardANSI
  3
"AcmSymBB|Product Description: AutoCAD Mechanical 2000|Company: Autodesk"
 90
        0
280
     0
281
     0
  0
CLASS
  1
ACMSURFSTANDARDANSI
  2
AcmSurfTextStdANSI
  3
"AcmSymBB|Product Description: AutoCAD Mechanical 2000|Company: Autodesk"
 90
        0
280
     0
281
     0
  0
CLASS
  1
ACMFCFSTANDARDANSI
  2
AcmFCFStdANSI
  3
"AcmSymBB|Product Description: AutoCAD Mechanical 2000|Company: Autodesk"
 90
        0
280
     0
281
     0
  0
CLASS
  1
ACMWELDSTANDARDANSI
  2
AcmWeldingStdANSI
  3
"AcmSymBB|Product Description: AutoCAD Mechanical 2000|Company: Autodesk"
 90
        0
280
     0
281
     0
  0
CLASS
  1
ACMIDSTANDARDANSI
  2
AcmIdStdANSI
  3
"AcmSymBB|Product Description: AutoCAD Mechanical 2000|Company: Autodesk"
 90
        0
280
     0
281
     0
  0
CLASS
  1
ACMDATUMSTANDARDANSI
  2
AcmDatumStdANSI
  3
"AcmSymBB|Product Description: AutoCAD Mechanical 2000|Company: Autodesk"
 90
        0
280
     0
281
     0
  0
CLASS
  1
ACMBOMSTANDARDANSI
  2
AcmBOMStdANSI
  3
"AcmSymBB|Product Description: AutoCAD Mechanical 2000|Company: Autodesk"
 90
        0
280
     0
281
     0
  0
CLASS
  1
ACMSTANDARDBSI
  2
AcmStandardBSI
  3
"AcmSymBB|Product Description: AutoCAD Mechanical 2000|Company: Autodesk"
 90
        0
280
     0
281
     0
  0
CLASS
  1
ACMSURFSTANDARDBSI
  2
AcmSurfTextStdBSI
  3
"AcmSymBB|Product Description: AutoCAD Mechanical 2000|Company: Autodesk"
 90
        0
280
     0
281
     0
  0
CLASS
  1
ACMFCFSTANDARDBSI
  2
AcmFCFStdBSI
  3
"AcmSymBB|Product Description: AutoCAD Mechanical 2000|Company: Autodesk"
 90
        0
280
     0
281
     0
  0
CLASS
  1
ACMWELDSTANDARDBSI
  2
AcmWeldingStdBSI
  3
"AcmSymBB|Product Description: AutoCAD Mechanical 2000|Company: Autodesk"
 90
        0
280
     0
281
     0
  0
CLASS
  1
ACMIDSTANDARDBSI
  2
AcmIdStdBSI
  3
"AcmSymBB|Product Description: AutoCAD Mechanical 2000|Company: Autodesk"
 90
        0
280
     0
281
     0
  0
CLASS
  1
ACMDATUMSTANDARDBSI
  2
AcmDatumStdBSI
  3
"AcmSymBB|Product Description: AutoCAD Mechanical 2000|Company: Autodesk"
 90
        0
280
     0
281
     0
  0
CLASS
  1
ACMBOMSTANDARDBSI
  2
AcmBOMStdBSI
  3
"AcmSymBB|Product Description: AutoCAD Mechanical 2000|Company: Autodesk"
 90
        0
280
     0
281
     0
  0
CLASS
  1
LONG_TRANSACTION
  2
AcDbLongTransaction
  3
AutoCAD 2000
 90
        0
280
     0
281
     0
  0
CLASS
  1
LWPOLYLINE
  2
AcDbPolyline
  3
AutoCAD 2000
 90
        0
280
     0
281
     1
  0
CLASS
  1
HATCH
  2
AcDbHatch
  3
AutoCAD 2000
 90
        0
280
     0
281
     1
  0
CLASS
  1
XRECORD
  2
AcDbXrecord
  3
AutoCAD 2000
 90
        0
280
     0
281
     0
  0
ENDSEC
  0
SECTION
  2
TABLES
  0
TABLE
  2
VPORT
  5
8
330
0
100
AcDbSymbolTable
 70
     3
  0
VPORT
  5
42F5
330
8
100
AcDbSymbolTableRecord
100
AcDbViewportTableRecord
  2
*ACTIVE
 70
     0
 10
0.0
 20
0.0
 11
1.0
 21
1.0
 12
-60.50618011405231
 22
1.756988879609082
 13
0.0
 23
0.0
 14
2.5
 24
2.5
 15
10.0
 25
10.0
 16
0.0
 26
0.0
 36
1.0
 17
0.0
 27
0.0
 37
0.0
 40
198.5266490590719
 41
1.56570841889117
 42
50.0
 43
0.0
 44
0.0
 50
0.0
 51
0.0
 71
     0
 72
   100
 73
     1
 74
     1
 75
     0
 76
     0
 77
     0
 78
     0
  0
ENDTAB
  0
TABLE
  2
LTYPE
  5
5
330
0
100
AcDbSymbolTable
 70
    10
  0
LTYPE
  5
14
330
5
100
AcDbSymbolTableRecord
100
AcDbLinetypeTableRecord
  2
BYBLOCK
 70
     0
  3

 72
    65
 73
     0
 40
0.0
  0
LTYPE
  5
15
330
5
100
AcDbSymbolTableRecord
100
AcDbLinetypeTableRecord
  2
BYLAYER
 70
     0
  3

 72
    65
 73
     0
 40
0.0
  0
LTYPE
  5
16
330
5
100
AcDbSymbolTableRecord
100
AcDbLinetypeTableRecord
  2
CONTINUOUS
 70
     0
  3
Solid line
 72
    65
 73
     0
 40
0.0
  0
LTYPE
  5
4B
330
5
100
AcDbSymbolTableRecord
100
AcDbLinetypeTableRecord
  2
AM_ISO02W050
 70
     0
  3
__ __ __ __ __ __ __ __ __ __ __ __ __ __ __
 72
    65
 73
     2
 40
7.5
 49
6.0
 74
     0
 49
-1.5
 74
     0
  0
LTYPE
  5
4C
330
5
100
AcDbSymbolTableRecord
100
AcDbLinetypeTableRecord
  2
AM_ISO08W050
 70
     0
  3
____ . ____ . ____ . ____ . ____ . ____ . ____
 72
    65
 73
     4
 40
18.0
 49
12.0
 74
     0
 49
-1.5
 74
     0
 49
3.0
 74
     0
 49
-1.5
 74
     0
  0
LTYPE
  5
4D
330
5
100
AcDbSymbolTableRecord
100
AcDbLinetypeTableRecord
  2
AM_ISO09W050
 70
     0
  3
_____ . . _____ . . _____ . . ____ .. ____
 72
    65
 73
     6
 40
22.5
 49
12.0
 74
     0
 49
-1.5
 74
     0
 49
3.0
 74
     0
 49
-1.5
 74
     0
 49
3.0
 74
     0
 49
-1.5
 74
     0
  0
LTYPE
  5
4E
330
5
100
AcDbSymbolTableRecord
100
AcDbLinetypeTableRecord
  2
AMCONSTR
 70
     0
  3
_______________________
 72
    65
 73
     2
 40
9999.0
 49
9999.0
 74
     0
 49
0.0
 74
     0
  0
LTYPE
  5
4F
330
5
100
AcDbSymbolTableRecord
100
AcDbLinetypeTableRecord
  2
AM_ISO02W050X2
 70
     0
  3
 _ _ _ _ _ _ _ _ _ _ _ _
 72
    65
 73
     2
 40
3.75
 49
3.0
 74
     0
 49
-0.75
 74
     0
  0
LTYPE
  5
50
330
5
100
AcDbSymbolTableRecord
100
AcDbLinetypeTableRecord
  2
AM_ISO08W050X2
 70
     0
  3
__ . __ . __ . __ . __ . __
 72
    65
 73
     4
 40
9.0
 49
6.0
 74
     0
 49
-0.75
 74
     0
 49
1.5
 74
     0
 49
-0.75
 74
     0
  0
LTYPE
  5
53
330
5
100
AcDbSymbolTableRecord
100
AcDbLinetypeTableRecord
  2
AMZIGZAG
 70
     0
  3
/\/-/\/-/\/-/\/-/\/-/\/
 72
    65
 73
     2
 40
11.00009999999999
 49
0.0001
 74
     4
 75
   135
340
52
 46
0.04
 50
0.0
 44
0.0
 45
0.0
 49
-11.0
 74
     0
  0
LTYPE
  5
166
330
5
100
AcDbSymbolTableRecord
100
AcDbLinetypeTableRecord
  2
ACJISTGL
 70
     0
  3
_ _ _ _ _
 72
    65
 73
     2
 40
3.0
 49
2.0
 74
     0
 49
-1.0
 74
     0
  0
LTYPE
  5
26A
330
5
100
AcDbSymbolTableRecord
100
AcDbLinetypeTableRecord
  2
ACJISTGB
 70
     0
  3
__ . . __ . .
 72
    65
 73
     6
 40
9.0
 49
4.0
 74
     0
 49
-1.0
 74
     0
 49
1.0
 74
     0
 49
-1.0
 74
     0
 49
1.0
 74
     0
 49
-1.0
 74
     0
  0
ENDTAB
  0
TABLE
  2
LAYER
  5
2
330
0
100
AcDbSymbolTable
 70
    11
  0
LAYER
  5
10
330
2
100
AcDbSymbolTableRecord
100
AcDbLayerTableRecord
  2
0
 70
     0
 62
     7
  6
CONTINUOUS
  0
LAYER
  5
3F9
330
2
100
AcDbSymbolTableRecord
100
AcDbLayerTableRecord
  2
AM_0
 70
     0
 62
     7
  6
CONTINUOUS
  0
LAYER
  5
BA4
330
2
100
AcDbSymbolTableRecord
100
AcDbLayerTableRecord
  2
PV0001_1
 70
     0
 62
     7
  6
CONTINUOUS
  0
LAYER
  5
C6C
330
2
100
AcDbSymbolTableRecord
100
AcDbLayerTableRecord
  2
AM_CL
 70
     0
 62
     1
  6
AMCONSTR
  0
LAYER
  5
C7C
330
2
100
AcDbSymbolTableRecord
100
AcDbLayerTableRecord
  2
AM_7
 70
     0
 62
     4
  6
AM_ISO08W050
  0
LAYER
  5
C97
330
2
100
AcDbSymbolTableRecord
100
AcDbLayerTableRecord
  2
AM_11
 70
     0
 62
     3
  6
AM_ISO09W050
  0
LAYER
  5
CC5
330
2
100
AcDbSymbolTableRecord
100
AcDbLayerTableRecord
  2
AM_5
 70
     0
 62
     3
  6
CONTINUOUS
  0
LAYER
  5
CC7
330
2
100
AcDbSymbolTableRecord
100
AcDbLayerTableRecord
  2
DEFPOINTS
 70
     0
 62
     7
  6
CONTINUOUS
  0
LAYER
  5
19BC
330
2
100
AcDbSymbolTableRecord
100
AcDbLayerTableRecord
  2
AM_6
 70
     0
 62
     2
  6
CONTINUOUS
  0
LAYER
  5
1F8E
330
2
100
AcDbSymbolTableRecord
100
AcDbLayerTableRecord
  2
AM_4
 70
     0
 62
     3
  6
CONTINUOUS
  0
LAYER
  5
3588
330
2
100
AcDbSymbolTableRecord
100
AcDbLayerTableRecord
  2
AM_3
 70
     0
 62
     6
  6
ACJISTGL
  0
ENDTAB
  0
TABLE
  2
STYLE
  5
3
330
0
100
AcDbSymbolTable
 70
     5
  0
STYLE
  5
11
330
3
100
AcDbSymbolTableRecord
100
AcDbTextStyleTableRecord
  2
STANDARD
 70
     0
 40
0.0
 41
1.0
 50
0.0
 71
     0
 42
2.5
  3
simplex.shx
  4
EXTFONT.SHX
  0
STYLE
  5
52
330
3
100
AcDbSymbolTableRecord
100
AcDbTextStyleTableRecord
  2

 70
     1
 40
0.0
 41
1.0
 50
0.0
 71
     0
 42
2.5
  3
ltypeshp.shx
  4

  0
STYLE
  5
6B
330
3
100
AcDbSymbolTableRecord
100
AcDbTextStyleTableRecord
  2
ASAMI
 70
     0
 40
0.0
 41
1.0
 50
0.0
 71
     0
 42
2.5
  3
simplex.shx
  4
EXTFONT.SHX
  0
STYLE
  5
262
330
3
100
AcDbSymbolTableRecord
100
AcDbTextStyleTableRecord
  2
ACJISTS
 70
     0
 40
1.0
 41
1.0
 50
0.0
 71
     0
 42
2.5
  3
simplex.shx
  4
bigfont.shx
  0
STYLE
  5
269
330
3
100
AcDbSymbolTableRecord
100
AcDbTextStyleTableRecord
  2
ACJISGDT
 70
     0
 40
0.0
 41
1.0
 50
0.0
 71
     0
 42
2.5
  3
amgdtans.shx
  4

  0
ENDTAB
  0
TABLE
  2
VIEW
  5
6
330
0
100
AcDbSymbolTable
 70
     0
  0
ENDTAB
  0
TABLE
  2
UCS
  5
7
330
0
100
AcDbSymbolTable
 70
     0
  0
ENDTAB
  0
TABLE
  2
APPID
  5
9
330
0
100
AcDbSymbolTable
 70
    14
  0
APPID
  5
12
330
9
100
AcDbSymbolTableRecord
100
AcDbRegAppTableRecord
  2
ACAD
 70
     0
  0
APPID
  5
30
330
9
100
AcDbSymbolTableRecord
100
AcDbRegAppTableRecord
  2
MCAD_NO_VIS
 70
     0
  0
APPID
  5
31
330
9
100
AcDbSymbolTableRecord
100
AcDbRegAppTableRecord
  2
ACAD_TEMP_GRAPHIC
 70
     0
  0
APPID
  5
2C2
330
9
100
AcDbSymbolTableRecord
100
AcDbRegAppTableRecord
  2
GENIUS_GENDTOL_13
 70
     0
  0
APPID
  5
339
330
9
100
AcDbSymbolTableRecord
100
AcDbRegAppTableRecord
  2
GENIUS_GENODEF_13
 70
     0
  0
APPID
  5
33A
330
9
100
AcDbSymbolTableRecord
100
AcDbRegAppTableRecord
  2
GENIUS_GENOBJ-N-RSBK_13
 70
     0
  0
APPID
  5
33B
330
9
100
AcDbSymbolTableRecord
100
AcDbRegAppTableRecord
  2
GENIUS_GENOBJ-N-LIB_13
 70
     0
  0
APPID
  5
33C
330
9
100
AcDbSymbolTableRecord
100
AcDbRegAppTableRecord
  2
GENIUS_GENSCALE_13
 70
     0
  0
APPID
  5
378
330
9
100
AcDbSymbolTableRecord
100
AcDbRegAppTableRecord
  2
GENIUS_GENDIMSH_14
 70
     0
  0
APPID
  5
C82
330
9
100
AcDbSymbolTableRecord
100
AcDbRegAppTableRecord
  2
GENIUS_GENOBJ-N-CRS_13
 70
     0
  0
APPID
  5
C83
330
9
100
AcDbSymbolTableRecord
100
AcDbRegAppTableRecord
  2
GENIUS_GENOENT_13
 70
     0
  0
APPID
  5
C84
330
9
100
AcDbSymbolTableRecord
100
AcDbRegAppTableRecord
  2
GENIUS_GENOREF_13
 70
     0
  0
APPID
  5
C85
330
9
100
AcDbSymbolTableRecord
100
AcDbRegAppTableRecord
  2
GENIUS_GENOLIS_13
 70
     0
  0
APPID
  5
CA0
330
9
100
AcDbSymbolTableRecord
100
AcDbRegAppTableRecord
  2
GENIUS_GENOBJ-N-CEN_13
 70
     0
  0
ENDTAB
  0
TABLE
  2
DIMSTYLE
  5
A
330
0
100
AcDbSymbolTable
 70
    10
  0
DIMSTYLE
105
58
330
A
100
AcDbSymbolTableRecord
100
AcDbDimStyleTableRecord
  2
AM_JIS
 70
     0
  3

  4
"
  5
OPEN30
  6

  7

 40
1.0
 41
2.5
 42
1.0
 43
12.0
 44
1.0
 45
0.0
 46
0.0
 47
0.1
 48
0.1
140
3.2
141
0.0
142
0.0
143
0.0393701
144
1.0
145
0.0
146
0.71
147
1.5
 71
     0
 72
     0
 73
     0
 74
     0
 75
     0
 76
     0
 77
     3
 78
     8
170
     0
171
     2
172
     1
173
     0
174
     0
175
     0
176
   256
177
   256
178
     2
270
     2
271
     3
272
     3
273
     2
274
     2
340
6B
275
     0
280
     0
281
     0
282
     0
283
     0
284
     0
285
     0
286
     0
287
     3
288
     0
  0
DIMSTYLE
105
5F
330
A
100
AcDbSymbolTableRecord
100
AcDbDimStyleTableRecord
  2
AM_JIS$3
 70
     0
  3

  4
"
  5
OPEN30
  6

  7

 40
1.0
 41
2.5
 42
1.0
 43
10.0
 44
1.0
 45
0.0
 46
0.0
 47
0.1
 48
0.1
140
3.2
141
0.0
142
0.0
143
0.0393701
144
1.0
145
0.0
146
0.71
147
1.5
 71
     0
 72
     0
 73
     0
 74
     1
 75
     0
 76
     0
 77
     3
 78
     8
170
     0
171
     2
172
     0
173
     0
174
     0
175
     0
176
   256
177
   256
178
     2
270
     2
271
     2
272
     3
273
     2
274
     2
340
6B
275
     0
280
     0
281
     0
282
     0
283
     0
284
     0
285
     0
286
     0
287
     0
288
     1
  0
DIMSTYLE
105
60
330
A
100
AcDbSymbolTableRecord
100
AcDbDimStyleTableRecord
  2
AM_JIS$4
 70
     0
  3

  4
"
  5
OPEN30
  6

  7

 40
1.0
 41
2.5
 42
1.0
 43
10.0
 44
1.0
 45
0.0
 46
0.0
 47
0.1
 48
0.1
140
3.2
141
0.0
142
0.0
143
0.0393701
144
1.0
145
0.0
146
0.71
147
1.5
 71
     0
 72
     0
 73
     0
 74
     1
 75
     0
 76
     0
 77
     3
 78
     8
170
     0
171
     2
172
     0
173
     0
174
     0
175
     0
176
   256
177
   256
178
     2
270
     2
271
     2
272
     3
273
     2
274
     2
340
6B
275
     0
280
     0
281
     0
282
     0
283
     0
284
     0
285
     0
286
     0
287
     0
288
     1
  0
DIMSTYLE
105
61
330
A
100
AcDbSymbolTableRecord
100
AcDbDimStyleTableRecord
  2
AM_JIS$6
 70
     0
  3

  4
"
  5
OPEN30
  6

  7

 40
1.0
 41
2.5
 42
1.0
 43
10.0
 44
1.0
 45
0.0
 46
0.0
 47
0.1
 48
0.1
140
3.2
141
0.0
142
0.0
143
0.0393701
144
1.0
145
0.0
146
0.71
147
1.5
 71
     0
 72
     0
 73
     0
 74
     0
 75
     0
 76
     0
 77
     0
 78
     8
170
     0
171
     2
172
     1
173
     0
174
     0
175
     0
176
   256
177
   256
178
     2
270
     2
271
     2
272
     2
273
     2
274
     2
340
6B
275
     0
280
     0
281
     0
282
     0
283
     0
284
     0
285
     0
286
     0
287
     3
288
     0
  0
DIMSTYLE
105
62
330
A
100
AcDbSymbolTableRecord
100
AcDbDimStyleTableRecord
  2
AM_JIS$7
 70
     0
  3

  4
"
  5
OPEN30
  6

  7

 40
1.0
 41
2.5
 42
1.0
 43
10.0
 44
1.0
 45
0.0
 46
0.0
 47
0.1
 48
0.1
140
3.2
141
0.0
142
0.0
143
0.0393701
144
1.0
145
0.0
146
0.71
147
1.5
 71
     0
 72
     0
 73
     0
 74
     0
 75
     0
 76
     0
 77
     3
 78
     8
170
     0
171
     2
172
     1
173
     0
174
     0
175
     0
176
   256
177
   256
178
     2
270
     2
271
     2
272
     3
273
     2
274
     2
340
6B
275
     0
280
     0
281
     0
282
     0
283
     0
284
     0
285
     0
286
     0
287
     3
288
     0
  0
DIMSTYLE
105
63
330
A
100
AcDbSymbolTableRecord
100
AcDbDimStyleTableRecord
  2
AM_JIS$SF
 70
     0
  3

  4
"
  5
OPEN30
  6

  7

 40
1.0
 41
2.5
 42
1.0
 43
10.0
 44
1.0
 45
0.0
 46
0.0
 47
0.1
 48
0.1
140
3.2
141
0.0
142
0.0
143
0.0393701
144
1.0
145
0.0
146
0.71
147
1.5
 71
     0
 72
     0
 73
     0
 74
     0
 75
     1
 76
     1
 77
     3
 78
     8
170
     0
171
     2
172
     1
173
     0
174
     0
175
     0
176
   256
177
   256
178
     2
270
     2
271
     2
272
     2
273
     2
274
     2
340
6B
275
     0
280
     0
281
     0
282
     0
283
     0
284
     0
285
     0
286
     0
287
     3
288
     0
  0
DIMSTYLE
105
68
330
A
100
AcDbSymbolTableRecord
100
AcDbDimStyleTableRecord
  2
AM_JIS$SH
 70
     0
  3

  4
"
  5

  6
GENAXEH
  7
OPEN30
 40
1.0
 41
2.5
 42
1.0
 43
10.0
 44
1.0
 45
0.0
 46
0.0
 47
0.1
 48
0.1
140
3.2
141
0.0
142
0.0
143
0.0393701
144
2.0
145
0.0
146
0.71
147
1.5
 71
     0
 72
     0
 73
     0
 74
     0
 75
     1
 76
     1
 77
     3
 78
     8
170
     0
171
     2
172
     1
173
     1
174
     0
175
     0
176
   256
177
   256
178
     2
270
     2
271
     2
272
     2
273
     2
274
     2
340
6B
275
     0
280
     0
281
     0
282
     0
283
     0
284
     0
285
     0
286
     0
287
     3
288
     0
  0
DIMSTYLE
105
B34
102
{ACAD_REACTORS
330
36BA
102
}
330
A
100
AcDbSymbolTableRecord
100
AcDbDimStyleTableRecord
  2
AM_JIS$2
 70
     0
  3

  4
"
  5
OPEN30
  6

  7

 40
1.0
 41
2.5
 42
1.0
 43
12.0
 44
1.0
 45
0.0
 46
0.0
 47
0.1
 48
0.1
140
3.2
141
0.0
142
0.0
143
0.0393701
144
1.0
145
0.0
146
0.71
147
1.5
 71
     0
 72
     0
 73
     0
 74
     0
 75
     0
 76
     0
 77
     3
 78
     8
170
     0
171
     2
172
     1
173
     0
174
     0
175
     0
176
   256
177
   256
178
     2
270
     2
271
     3
272
     3
273
     2
274
     2
340
6B
275
     0
280
     0
281
     0
282
     0
283
     0
284
     0
285
     0
286
     0
287
     3
288
     0
  0
DIMSTYLE
105
BA5
102
{ACAD_REACTORS
330
3866
330
3990
330
3B0D
330
3BB8
330
3C40
330
3CCB
330
3D56
330
3DFD
330
41C2
102
}
330
A
100
AcDbSymbolTableRecord
100
AcDbDimStyleTableRecord
  2
AM_JIS$0
 70
     0
  3

  4
"
  5
OPEN30
  6

  7

 40
1.0
 41
2.5
 42
0.8
 43
10.0
 44
1.0
 45
0.0
 46
0.0
 47
0.1
 48
0.1000000001
140
3.799999999999999
141
0.0
142
0.0
143
0.0393701
144
1.0
145
0.0
146
0.71
147
1.5
 71
     0
 72
     0
 73
     0
 74
     0
 75
     0
 76
     0
 77
     3
 78
     9
170
     0
171
     2
172
     1
173
     0
174
     0
175
     0
176
     3
177
     3
178
     2
270
     2
271
     2
272
     2
273
     2
274
     2
340
11
275
     1
280
     0
281
     0
282
     0
283
     0
284
     8
285
     0
286
     0
287
     0
288
     0
  0
DIMSTYLE
105
BA6
330
A
100
AcDbSymbolTableRecord
100
AcDbDimStyleTableRecord
  2
AM_JISORG-1P0$2
 70
     0
  3

  4
"
  5
OPEN30
  6

  7

 40
1.0
 41
2.5
 42
0.0
 43
10.0
 44
1.0
 45
0.0
 46
0.0
 47
0.1
 48
0.1000000001
140
3.799999999999999
141
0.0
142
0.0
143
0.0393701
144
-0.999999980146674
145
0.0
146
0.71
147
1.5
 71
     0
 72
     0
 73
     0
 74
     0
 75
     0
 76
     0
 77
     3
 78
     1
170
     0
171
     2
172
     1
173
     0
174
     0
175
     0
176
     3
177
     3
178
     2
270
     2
271
     2
272
     2
273
     2
274
     2
340
11
275
     1
280
     0
281
     0
282
     0
283
     0
284
     8
285
     0
286
     0
287
     0
288
     0
  0
ENDTAB
  0
TABLE
  2
BLOCK_RECORD
  5
1
330
0
100
AcDbSymbolTable
 70
    19
  0
BLOCK_RECORD
  5
1F
102
{ACAD_XDICTIONARY
360
74
102
}
330
1
100
AcDbSymbolTableRecord
100
AcDbBlockTableRecord
  2
*MODEL_SPACE
  0
BLOCK_RECORD
  5
101
102
{ACAD_XDICTIONARY
360
431E
102
}
330
1
100
AcDbSymbolTableRecord
100
AcDbBlockTableRecord
  2
*PAPER_SPACE
  0
BLOCK_RECORD
  5
59
330
1
100
AcDbSymbolTableRecord
100
AcDbBlockTableRecord
  2
_OPEN30
  0
BLOCK_RECORD
  5
64
330
1
100
AcDbSymbolTableRecord
100
AcDbBlockTableRecord
  2
GENAXEH
  0
BLOCK_RECORD
  5
C31
330
1
100
AcDbSymbolTableRecord
100
AcDbBlockTableRecord
  2
A$C36D02A34
  0
BLOCK_RECORD
  5
2453
330
1
100
AcDbSymbolTableRecord
100
AcDbBlockTableRecord
  2
*D6
  0
BLOCK_RECORD
  5
245F
330
1
100
AcDbSymbolTableRecord
100
AcDbBlockTableRecord
  2
A$C4FFC6CC0
  0
BLOCK_RECORD
  5
36BB
330
1
100
AcDbSymbolTableRecord
100
AcDbBlockTableRecord
  2
*D8
  0
BLOCK_RECORD
  5
3867
330
1
100
AcDbSymbolTableRecord
100
AcDbBlockTableRecord
  2
*D9
  0
BLOCK_RECORD
  5
3991
330
1
100
AcDbSymbolTableRecord
100
AcDbBlockTableRecord
  2
*D10
  0
BLOCK_RECORD
  5
3B0E
330
1
100
AcDbSymbolTableRecord
100
AcDbBlockTableRecord
  2
*D11
  0
BLOCK_RECORD
  5
3BB9
330
1
100
AcDbSymbolTableRecord
100
AcDbBlockTableRecord
  2
*D12
  0
BLOCK_RECORD
  5
3C41
330
1
100
AcDbSymbolTableRecord
100
AcDbBlockTableRecord
  2
*D13
  0
BLOCK_RECORD
  5
3CCC
330
1
100
AcDbSymbolTableRecord
100
AcDbBlockTableRecord
  2
*D14
  0
BLOCK_RECORD
  5
3D57
330
1
100
AcDbSymbolTableRecord
100
AcDbBlockTableRecord
  2
*D15
  0
BLOCK_RECORD
  5
3DFE
330
1
100
AcDbSymbolTableRecord
100
AcDbBlockTableRecord
  2
*D16
  0
BLOCK_RECORD
  5
41C3
330
1
100
AcDbSymbolTableRecord
100
AcDbBlockTableRecord
  2
*D17
  0
ENDTAB
  0
ENDSEC
  0
SECTION
  2
BLOCKS
  0
BLOCK
  5
20
330
1F
100
AcDbEntity
  8
0
100
AcDbBlockBegin
  2
*MODEL_SPACE
 70
     0
 10
0.0
 20
0.0
 30
0.0
  3
*MODEL_SPACE
  1

  0
ENDBLK
  5
21
330
1F
100
AcDbEntity
  8
0
100
AcDbBlockEnd
  0
BLOCK
  5
103
330
101
100
AcDbEntity
 67
     1
  8
0
100
AcDbBlockBegin
  2
*PAPER_SPACE
 70
     0
 10
0.0
 20
0.0
 30
0.0
  3
*PAPER_SPACE
  1

  0
ENDBLK
  5
104
330
101
100
AcDbEntity
 67
     1
  8
0
100
AcDbBlockEnd
  0
BLOCK
  5
5D
330
59
100
AcDbEntity
  8
0
100
AcDbBlockBegin
  2
_OPEN30
 70
     0
 10
0.0
 20
0.0
 30
0.0
  3
_OPEN30
  1

  0
LINE
  5
5A
330
59
100
AcDbEntity
  8
0
 62
     0
100
AcDbLine
 10
-1.0
 20
0.26794919
 30
0.0
 11
0.0
 21
0.0
 31
0.0
  0
LINE
  5
5B
330
59
100
AcDbEntity
  8
0
 62
     0
100
AcDbLine
 10
0.0
 20
0.0
 30
0.0
 11
-1.0
 21
-0.26794919
 31
0.0
  0
LINE
  5
5C
330
59
100
AcDbEntity
  8
0
 62
     0
100
AcDbLine
 10
0.0
 20
0.0
 30
0.0
 11
-1.0
 21
0.0
 31
0.0
  0
ENDBLK
  5
5E
330
59
100
AcDbEntity
  8
0
100
AcDbBlockEnd
  0
BLOCK
  5
66
330
64
100
AcDbEntity
  8
0
100
AcDbBlockBegin
  2
GENAXEH
 70
     0
 10
0.0
 20
0.0
 30
0.0
  3
GENAXEH
  1

  0
LINE
  5
65
330
64
100
AcDbEntity
  8
0
100
AcDbLine
 10
-1.0
 20
0.0
 30
0.0
 11
1.0
 21
0.0
 31
0.0
  0
ENDBLK
  5
67
330
64
100
AcDbEntity
  8
0
100
AcDbBlockEnd
  0
BLOCK
  5
C4B
330
C31
100
AcDbEntity
  8
0
100
AcDbBlockBegin
  2
A$C36D02A34
 70
     0
 10
0.0
 20
0.0
 30
0.0
  3
A$C36D02A34
  1

  0
ARC
  5
C32
330
C31
100
AcDbEntity
  8
PV0001_1
  6
CONTINUOUS
 48
0.5
100
AcDbCircle
 10
18.06811523436999
 20
-11.83651161193799
 30
0.0
 40
21.600000381469
100
AcDbArc
 50
123.2290435713209
 51
126.6341524197568
  0
ARC
  5
C33
330
C31
100
AcDbEntity
  8
PV0001_1
  6
CONTINUOUS
 48
0.5
100
AcDbCircle
 10
18.06811523436999
 20
-11.83651161193799
 30
0.0
 40
21.600000381469
100
AcDbArc
 50
135.0736707620117
 51
146.7709980930592
  0
ARC
  5
C34
330
C31
100
AcDbEntity
  8
PV0001_1
  6
CONTINUOUS
 48
0.5
100
AcDbCircle
 10
-18.0680770874
 20
11.8365631103514
 30
0.0
 40
21.600000381469
100
AcDbArc
 50
315.0734847530392
 51
326.770781348241
  0
ARC
  5
C35
330
C31
100
AcDbEntity
  8
PV0001_1
  6
CONTINUOUS
 48
0.5
100
AcDbCircle
 10
-18.0680770874
 20
11.8365631103514
 30
0.0
 40
21.600000381469
100
AcDbArc
 50
303.2288882981993
 51
306.633986901359
  0
ARC
  5
C36
330
C31
100
AcDbEntity
  8
PV0001_1
  6
CONTINUOUS
 48
0.5
100
AcDbCircle
 10
-0.6269836425800009
 20
-2.044216156005997
 30
0.0
 40
2.0
100
AcDbArc
 50
337.4067997351092
 51
43.42231293132884
  0
ARC
  5
C37
330
C31
100
AcDbEntity
  8
PV0001_1
  6
CONTINUOUS
 48
0.5
100
AcDbCircle
 10
0.626953125
 20
2.044223785401001
 30
0.0
 40
2.0
100
AcDbArc
 50
157.4068184044407
 51
223.4222769591536
  0
CIRCLE
  5
C38
330
C31
100
AcDbEntity
  8
PV0001_1
  6
CONTINUOUS
 48
0.5
100
AcDbCircle
 10
3.856727600100001
 20
4.596265792847002
 30
0.0
 40
1.6000000238419
  0
CIRCLE
  5
C39
330
C31
100
AcDbEntity
  8
PV0001_1
  6
CONTINUOUS
 48
0.5
100
AcDbCircle
 10
-3.856727600100001
 20
-4.596265792845997
 30
0.0
 40
1.6000000238419
  0
ARC
  5
C3A
330
C31
100
AcDbEntity
  8
PV0001_1
  6
CONTINUOUS
 48
0.5
100
AcDbCircle
 10
-5.58123779297
 20
5.092639923096001
 30
0.0
 40
5.019082546234099
100
AcDbArc
 50
240.2658959250867
 51
321.5156269706421
  0
ARC
  5
C3B
330
C31
100
AcDbEntity
  8
PV0001_1
  6
CONTINUOUS
 48
0.5
100
AcDbCircle
 10
5.486755371089998
 20
-4.601703643798998
 30
0.0
 40
4.651036739349399
100
AcDbArc
 50
56.25271400417071
 51
145.528859890601
  0
ARC
  5
C3C
330
C31
100
AcDbEntity
  8
PV0001_1
  6
CONTINUOUS
 48
0.5
100
AcDbCircle
 10
-2.11590576172
 20
-3.453323364257997
 30
0.0
 40
4.050000190734899
100
AcDbArc
 50
43.42230610113921
 51
58.50391703385149
  0
ARC
  5
C3D
330
C31
100
AcDbEntity
  8
PV0001_1
  6
CONTINUOUS
 48
0.5
100
AcDbCircle
 10
2.115875244139999
 20
3.453330993653001
 30
0.0
 40
4.050000190734899
100
AcDbArc
 50
223.4222942619974
 51
238.5038164022482
  0
ARC
  5
C3E
330
C31
100
AcDbEntity
  8
PV0001_1
  6
CONTINUOUS
 48
0.5
100
AcDbCircle
 10
-6.70369720459
 20
5.094657897949002
 30
0.0
 40
5.940000057220499
100
AcDbArc
 50
328.2536768887549
 51
31.74641873389623
  0
ARC
  5
C3F
330
C31
100
AcDbEntity
  8
PV0001_1
  6
CONTINUOUS
 48
0.5
100
AcDbCircle
 10
6.703674316410001
 20
-5.094650268553998
 30
0.0
 40
5.940000057220499
100
AcDbArc
 50
148.2533403882529
 51
211.7466423089037
  0
ARC
  5
C40
330
C31
100
AcDbEntity
  8
PV0001_1
  6
CONTINUOUS
 48
0.5
100
AcDbCircle
 10
0.0
 20
0.0
 30
0.0
 40
8.812800407409699
100
AcDbArc
 50
175.2198288164333
 51
272.8622597568298
  0
ARC
  5
C41
330
C31
100
AcDbEntity
  8
PV0001_1
  6
CONTINUOUS
 48
0.5
100
AcDbCircle
 10
0.0
 20
0.0
 30
0.0
 40
9.1800003051758
100
AcDbArc
 50
272.7511362215027
 51
280.3697477877874
  0
ARC
  5
C42
330
C31
100
AcDbEntity
  8
PV0001_1
  6
CONTINUOUS
 48
0.5
100
AcDbCircle
 10
0.0
 20
0.0
 30
0.0
 40
8.812800407409699
100
AcDbArc
 50
355.2198199654955
 51
92.86229572901076
  0
ARC
  5
C43
330
C31
100
AcDbEntity
  8
PV0001_1
  6
CONTINUOUS
 48
0.5
100
AcDbCircle
 10
0.0
 20
0.0
 30
0.0
 40
9.1800003051758
100
AcDbArc
 50
92.75115489083434
 51
100.3697664571193
  0
CIRCLE
  5
C44
330
C31
100
AcDbEntity
  8
PV0001_1
  6
CONTINUOUS
100
AcDbCircle
 10
0.0
 20
0.0
 30
0.0
 40
9.1800003051758
  0
LINE
  5
C45
330
C31
100
AcDbEntity
  8
PV0001_1
  6
CONTINUOUS
 48
0.5
100
AcDbLine
 10
-1.652404785160001
 20
9.030059814453
 30
0.0
 11
-1.652404785160001
 21
8.220062255860002
 31
0.0
  0
LINE
  5
C46
330
C31
100
AcDbEntity
  8
PV0001_1
  6
CONTINUOUS
 48
0.5
100
AcDbLine
 10
1.652404785160001
 20
-8.220058441161999
 30
0.0
 11
1.652404785160001
 21
-9.030055999755997
 31
0.0
  0
LINE
  5
C47
330
C31
100
AcDbEntity
  8
PV0001_1
  6
CONTINUOUS
 48
0.5
100
AcDbLine
 10
-8.78217315674
 20
0.7343807220460015
 30
0.0
 11
-8.070594787600001
 21
0.7343997955320028
 31
0.0
  0
LINE
  5
C48
330
C31
100
AcDbEntity
  8
PV0001_1
  6
CONTINUOUS
 48
0.5
100
AcDbLine
 10
8.07057952881
 20
-0.7343864440919994
 30
0.0
 11
8.78215789795
 21
-0.7343654632569994
 31
0.0
  0
LINE
  5
C49
330
C31
100
AcDbEntity
  8
PV0001_1
  6
CONTINUOUS
 48
0.5
100
AcDbLine
 10
0.4406127929700006
 20
-9.169414520263
 30
0.0
 11
0.4406127929700006
 21
-8.812801361083998
 31
0.0
  0
LINE
  5
C4A
330
C31
100
AcDbEntity
  8
PV0001_1
  6
CONTINUOUS
 48
0.5
100
AcDbLine
 10
-0.4406127929700006
 20
9.169418334961001
 30
0.0
 11
-0.4406127929700006
 21
8.812805175781001
 31
0.0
  0
ENDBLK
  5
C4C
330
C31
100
AcDbEntity
  8
0
100
AcDbBlockEnd
  0
BLOCK
  5
245D
330
2453
100
AcDbEntity
  8
0
100
AcDbBlockBegin
  2
*D6
 70
     1
 10
0.0
 20
0.0
 30
0.0
  3
*D6
  1

  0
LINE
  5
2454
330
2453
100
AcDbEntity
  8
AM_5
 62
     3
100
AcDbLine
 10
-137.574381722344
 20
-5.00000294019065
 30
0.0
 11
-152.8199008769066
 21
-5.000002940190694
 31
0.0
  0
LINE
  5
2455
330
2453
100
AcDbEntity
  8
AM_5
 62
     3
100
AcDbLine
 10
-137.5743817223442
 20
5.00002461040103
 30
0.0
 11
-152.8199008769066
 21
5.000024610400987
 31
0.0
  0
LINE
  5
2456
330
2453
100
AcDbEntity
  8
AM_5
 62
     3
100
AcDbLine
 10
-151.8199008769066
 20
-2.500002940190691
 30
0.0
 11
-151.8199008769066
 21
2.50002461040099
 31
0.0
  0
INSERT
  5
2457
330
2453
100
AcDbEntity
  8
AM_5
 62
     3
100
AcDbBlockReference
  2
_OPEN30
 10
-151.8199008769066
 20
-5.00000294019069
 30
0.0
 41
2.5
 42
2.5
 43
2.5
 50
270.0000000000001
  0
INSERT
  5
2458
330
2453
100
AcDbEntity
  8
AM_5
 62
     3
100
AcDbBlockReference
  2
_OPEN30
 10
-151.8199008769066
 20
5.00002461040099
 30
0.0
 41
2.5
 42
2.5
 43
2.5
 50
90.00000000000015
  0
MTEXT
  5
2459
330
2453
100
AcDbEntity
  8
AM_5
 62
     2
100
AcDbMText
 10
-155.2199008769066
 20
0.000010835105146
 30
0.0
 40
3.799999999999999
 41
0.0
 71
     5
 72
     1
  1
%%c10
 11
-0.0000000000000028
 21
1.0
 31
0.0
1001
ACAD
1000
MTEXTBEGIN
1070
    73
1070
     1
1070
    44
1040
1.0
1070
    74
1070
     0
1000
MTEXTEND
  0
POINT
  5
245A
330
2453
100
AcDbEntity
  8
DEFPOINTS
 62
     0
100
AcDbPoint
 10
-137.5743817223441
 20
-5.000002940190223
 30
0.0
  0
POINT
  5
245B
330
2453
100
AcDbEntity
  8
DEFPOINTS
 62
     0
100
AcDbPoint
 10
-137.5743817223441
 20
5.000024610401458
 30
0.0
  0
POINT
  5
245C
330
2453
100
AcDbEntity
  8
DEFPOINTS
 62
     0
100
AcDbPoint
 10
-151.8199008769066
 20
5.000024610401462
 30
0.0
  0
ENDBLK
  5
245E
330
2453
100
AcDbEntity
  8
0
100
AcDbBlockEnd
  0
BLOCK
  5
246B
330
245F
100
AcDbEntity
  8
0
100
AcDbBlockBegin
  2
A$C4FFC6CC0
 70
     0
 10
0.0
 20
0.0
 30
0.0
  3
A$C4FFC6CC0
  1

  0
DIMENSION
  5
2460
330
245F
100
AcDbEntity
  8
AM_5
100
AcDbDimension
  2
*D6
 10
-70.00000100000002
 20
5.000008477104842
 30
0.0
 11
-70.00000100000002
 21
-0.0000052981910228
 31
0.0
 12
81.81989987690661
 22
-0.0000161332966199
 32
0.0
 70
   128
  1
%%c<>
 51
359.9999999999998
  3
AM_JIS$0
100
AcDbAlignedDimension
 13
-55.75448184543748
 23
-5.000019073486843
 33
0.0
 14
-55.75448184543756
 24
5.000008477104838
 34
0.0
 50
270.0
100
AcDbRotatedDimension
1001
ACAD
1000
DSTYLE
1002
{
1070
   271
1070
     0
1002
}
1001
GENIUS_GENDTOL_13
1000

1000
h7
1000

1040
0.0
  0
LINE
  5
2461
330
245F
100
AcDbEntity
  8
AM_0
 48
0.5
100
AcDbLine
 10
-56.0
 20
-4.754495620727796
 30
0.0
 11
-56.00000000000003
 21
4.754485024345811
 31
0.0
  0
LINE
  5
2462
330
245F
100
AcDbEntity
  8
AM_0
 48
0.5
100
AcDbLine
 10
-55.75448184543751
 20
-5.000019073486843
 30
0.0
 11
-55.75448184543754
 21
5.000008477104838
 31
0.0
  0
LINE
  5
2463
330
245F
100
AcDbEntity
  8
AM_0
100
AcDbLine
 10
-0.0000000000000142
 20
4.999995231627903
 30
0.0
 11
-55.75448184543754
 21
4.999995231627746
 31
0.0
  0
LINE
  5
2464
330
245F
100
AcDbEntity
  8
AM_0
 48
0.5
100
AcDbLine
 10
-55.99996821086117
 20
4.754439989725671
 30
0.0
 11
-55.75443945990975
 21
4.999963442484006
 31
0.0
  0
LINE
  5
2465
330
245F
100
AcDbEntity
  8
AM_0
100
AcDbLine
 10
-55.75448184543751
 20
-5.000008477105588
 30
0.0
 11
0.0000000000000142
 21
-5.00000847710543
 31
0.0
  0
LINE
  5
2466
330
245F
100
AcDbEntity
  8
AM_0
 48
0.5
100
AcDbLine
 10
-55.99996821086114
 20
-4.754474427965309
 30
0.0
 11
-55.75443945990972
 21
-4.999997880724334
 31
0.0
  0
LINE
  5
2467
330
245F
100
AcDbEntity
  8
AM_0
100
AcDbLine
 10
0.7794201296714505
 20
4.549985867772141
 30
0.0
 11
0.7794201296714789
 21
-4.550003370497427
 31
0.0
  0
LINE
  5
2468
330
245F
100
AcDbEntity
  8
AM_0
 48
0.5
100
AcDbLine
 10
0.0000000000000142
 20
-5.00000847710543
 30
0.0
 11
-0.0000000000000142
 21
5.000008477104995
 31
0.0
  0
LINE
  5
2469
330
245F
100
AcDbEntity
  8
AM_0
 48
0.5
100
AcDbLine
 10
0.7794201296714647
 20
-4.550003370497435
 30
0.0
 11
-0.0000105963812445
 21
-5.00000847710543
 31
0.0
  0
LINE
  5
246A
330
245F
100
AcDbEntity
  8
AM_0
 48
0.5
100
AcDbLine
 10
0.7794201296714647
 20
4.549985867772141
 30
0.0
 11
-0.0000000000000142
 21
4.999984635246652
 31
0.0
  0
ENDBLK
  5
246C
330
245F
100
AcDbEntity
  8
0
100
AcDbBlockEnd
  0
BLOCK
  5
36C9
330
36BB
100
AcDbEntity
  8
0
100
AcDbBlockBegin
  2
*D8
 70
     1
 10
0.0
 20
0.0
 30
0.0
  3
*D8
  1

  0
LINE
  5
3778
330
36BB
100
AcDbEntity
  8
AM_5
100
AcDbLine
 10
0.3420201408161502
 20
-0.9396926216994629
 30
0.0
 11
9.05039403968759
 21
-24.86575346782887
 31
0.0
  0
LINE
  5
3779
330
36BB
100
AcDbEntity
  8
AM_5
100
AcDbLine
 10
0.3420201408161393
 20
0.939692621699157
 30
0.0
 11
9.050394039687303
 21
24.86575346782866
 31
0.0
  0
ARC
  5
377A
330
36BB
100
AcDbEntity
  8
AM_5
100
AcDbCircle
 10
0.0000000000000263
 20
-0.000000000000155
 30
0.0
 40
25.46158211060797
100
AcDbArc
 50
295.6279710168337
 51
64.37202898316695
  0
INSERT
  5
377B
330
36BB
100
AcDbEntity
  8
AM_5
100
AcDbBlockReference
  2
_OPEN30
 10
8.708373898871467
 20
-23.92606084612956
 30
0.0
 41
2.5
 42
2.5
 43
2.5
 50
202.8139854319097
  0
INSERT
  5
377C
330
36BB
100
AcDbEntity
  8
AM_5
100
AcDbBlockReference
  2
_OPEN30
 10
8.708373898871188
 20
23.92606084612935
 30
0.0
 41
2.5
 42
2.5
 43
2.5
 50
157.1860145680908
  0
MTEXT
  5
377D
330
36BB
100
AcDbEntity
  8
AM_5
 62
     2
100
AcDbMText
 10
22.361582110608
 20
-0.0000000000000054
 30
0.0
 40
3.2
 41
0.0
 71
     5
 72
     1
  1
140°
  7
ASAMI
 11
-0.0000000000000028
 21
1.0
 31
0.0
1001
ACAD
1000
MTEXTBEGIN
1070
    73
1070
     1
1070
    44
1040
1.0
1070
    74
1070
     0
1000
MTEXTEND
  0
POINT
  5
377E
330
36BB
100
AcDbEntity
  8
DEFPOINTS
 62
     0
100
AcDbPoint
 10
23.3792347916374
 20
-10.08481750616873
 30
0.0
  0
POINT
  5
377F
330
36BB
100
AcDbEntity
  8
DEFPOINTS
 62
     0
100
AcDbPoint
 10
0.0
 20
-0.0000000000002274
 30
0.0
  0
POINT
  5
3780
330
36BB
100
AcDbEntity
  8
DEFPOINTS
 62
     0
100
AcDbPoint
 10
0.0
 20
-0.0000000000000827
 30
0.0
  0
POINT
  5
3781
330
36BB
100
AcDbEntity
  8
DEFPOINTS
 62
     0
100
AcDbPoint
 10
-2.547791618692619
 20
6.999999999999763
 30
0.0
  0
POINT
  5
3782
330
36BB
100
AcDbEntity
  8
DEFPOINTS
 62
     0
100
AcDbPoint
 10
-2.547791618692583
 20
-7.000000000000091
 30
0.0
  0
ENDBLK
  5
36CA
330
36BB
100
AcDbEntity
  8
0
100
AcDbBlockEnd
  0
BLOCK
  5
3871
330
3867
100
AcDbEntity
  8
0
100
AcDbBlockBegin
  2
*D9
 70
     1
 10
0.0
 20
0.0
 30
0.0
  3
*D9
  1

  0
LINE
  5
4221
330
3867
100
AcDbEntity
  8
AM_5
 62
     3
100
AcDbLine
 10
-148.014455563227
 20
7.999945983885356
 30
0.0
 11
-162.214455563227
 21
7.999945983885316
 31
0.0
  0
LINE
  5
4222
330
3867
100
AcDbEntity
  8
AM_5
 62
     3
100
AcDbLine
 10
-148.0144555632269
 20
-8.000005493165424
 30
0.0
 11
-162.2144555632269
 21
-8.000005493165463
 31
0.0
  0
LINE
  5
4223
330
3867
100
AcDbEntity
  8
AM_5
 62
     3
100
AcDbLine
 10
-161.2144555632269
 20
5.499945983885319
 30
0.0
 11
-161.2144555632269
 21
-5.500005493165462
 31
0.0
  0
INSERT
  5
4224
330
3867
100
AcDbEntity
  8
AM_5
 62
     3
100
AcDbBlockReference
  2
_OPEN30
 10
-161.2144555632269
 20
7.999945983885319
 30
0.0
 41
2.5
 42
2.5
 43
2.5
 50
90.00000000000017
  0
INSERT
  5
4225
330
3867
100
AcDbEntity
  8
AM_5
 62
     3
100
AcDbBlockReference
  2
_OPEN30
 10
-161.2144555632269
 20
-8.000005493165462
 30
0.0
 41
2.5
 42
2.5
 43
2.5
 50
270.0000000000001
  0
MTEXT
  5
4226
330
3867
100
AcDbEntity
  8
AM_5
 62
     2
100
AcDbMText
 10
-164.6144555632269
 20
-0.0000297546400746
 30
0.0
 40
3.799999999999999
 41
0.0
 71
     5
 72
     1
  1
%%C16
 11
-0.0000000000000028
 21
1.0
 31
0.0
1001
ACAD
1000
MTEXTBEGIN
1070
    73
1070
     1
1070
    44
1040
1.0
1070
    74
1070
     0
1000
MTEXTEND
  0
POINT
  5
4227
330
3867
100
AcDbEntity
  8
DEFPOINTS
 62
     0
100
AcDbPoint
 10
-147.214455563227
 20
7.999945983885816
 30
0.0
  0
POINT
  5
4228
330
3867
100
AcDbEntity
  8
DEFPOINTS
 62
     0
100
AcDbPoint
 10
-147.2144555632269
 20
-8.000005493164964
 30
0.0
  0
POINT
  5
4229
330
3867
100
AcDbEntity
  8
DEFPOINTS
 62
     0
100
AcDbPoint
 10
-161.2144555632269
 20
-8.000005493164961
 30
0.0
  0
ENDBLK
  5
3872
330
3867
100
AcDbEntity
  8
0
100
AcDbBlockEnd
  0
BLOCK
  5
399B
330
3991
100
AcDbEntity
  8
0
100
AcDbBlockBegin
  2
*D10
 70
     1
 10
0.0
 20
0.0
 30
0.0
  3
*D10
  1

  0
LINE
  5
4218
330
3991
100
AcDbEntity
  8
AM_5
 62
     3
100
AcDbLine
 10
-2.638784176503085
 20
7.799999999999827
 30
0.0
 11
-2.638784176503126
 21
22.12982160606341
 31
0.0
  0
LINE
  5
4219
330
3991
100
AcDbEntity
  8
AM_5
 62
     3
100
AcDbLine
 10
-80.63878417650306
 20
7.799999999999553
 30
0.0
 11
-80.63878417650309
 21
22.12982160606319
 31
0.0
  0
LINE
  5
421A
330
3991
100
AcDbEntity
  8
AM_5
 62
     3
100
AcDbLine
 10
-5.138784176503123
 20
21.1298216060634
 30
0.0
 11
-78.13878417650307
 21
21.12982160606319
 31
0.0
  0
INSERT
  5
421B
330
3991
100
AcDbEntity
  8
AM_5
 62
     3
100
AcDbBlockReference
  2
_OPEN30
 10
-2.638784176503123
 20
21.12982160606341
 30
0.0
 41
2.5
 42
2.5
 43
2.5
 50
0.0000000000001527
  0
INSERT
  5
421C
330
3991
100
AcDbEntity
  8
AM_5
 62
     3
100
AcDbBlockReference
  2
_OPEN30
 10
-80.63878417650307
 20
21.12982160606319
 30
0.0
 41
2.5
 42
2.5
 43
2.5
 50
180.0000000000001
  0
MTEXT
  5
421D
330
3991
100
AcDbEntity
  8
AM_5
 62
     2
100
AcDbMText
 10
-41.63878417650312
 20
24.5298216060633
 30
0.0
 40
3.799999999999999
 41
0.0
 71
     5
 72
     1
  1
78
1001
ACAD
1000
MTEXTBEGIN
1070
    73
1070
     1
1070
    44
1040
1.0
1070
    74
1070
     0
1000
MTEXTEND
  0
POINT
  5
421E
330
3991
100
AcDbEntity
  8
DEFPOINTS
 62
     0
100
AcDbPoint
 10
-2.638784176503063
 20
6.999999999999835
 30
0.0
  0
POINT
  5
421F
330
3991
100
AcDbEntity
  8
DEFPOINTS
 62
     0
100
AcDbPoint
 10
-80.63878417650302
 20
6.999999999999787
 30
0.0
  0
POINT
  5
4220
330
3991
100
AcDbEntity
  8
DEFPOINTS
 62
     0
100
AcDbPoint
 10
-80.63878417650302
 20
21.12982160606342
 30
0.0
  0
ENDBLK
  5
399C
330
3991
100
AcDbEntity
  8
0
100
AcDbBlockEnd
  0
BLOCK
  5
3B18
330
3B0E
100
AcDbEntity
  8
0
100
AcDbBlockBegin
  2
*D11
 70
     1
 10
0.0
 20
0.0
 30
0.0
  3
*D11
  1

  0
LINE
  5
420F
330
3B0E
100
AcDbEntity
  8
AM_5
 62
     3
100
AcDbLine
 10
-2.638784176503105
 20
11.10518360585826
 30
0.0
 11
-2.638784176503164
 21
31.99788174485804
 31
0.0
  0
LINE
  5
4210
330
3B0E
100
AcDbEntity
  8
AM_5
 62
     3
100
AcDbLine
 10
-82.63878417650309
 20
7.799999999999545
 30
0.0
 11
-82.63878417650316
 21
31.99788174485781
 31
0.0
  0
LINE
  5
4211
330
3B0E
100
AcDbEntity
  8
AM_5
 62
     3
100
AcDbLine
 10
-5.138784176503161
 20
30.99788174485803
 30
0.0
 11
-80.13878417650314
 21
30.99788174485782
 31
0.0
  0
INSERT
  5
4212
330
3B0E
100
AcDbEntity
  8
AM_5
 62
     3
100
AcDbBlockReference
  2
_OPEN30
 10
-2.638784176503161
 20
30.99788174485804
 30
0.0
 41
2.5
 42
2.5
 43
2.5
 50
0.0000000000001527
  0
INSERT
  5
4213
330
3B0E
100
AcDbEntity
  8
AM_5
 62
     3
100
AcDbBlockReference
  2
_OPEN30
 10
-82.63878417650314
 20
30.99788174485781
 30
0.0
 41
2.5
 42
2.5
 43
2.5
 50
180.0000000000001
  0
MTEXT
  5
4214
330
3B0E
100
AcDbEntity
  8
AM_5
 62
     2
100
AcDbMText
 10
-42.63878417650316
 20
34.39788174485793
 30
0.0
 40
3.799999999999999
 41
0.0
 71
     5
 72
     1
  1
80
1001
ACAD
1000
MTEXTBEGIN
1070
    73
1070
     1
1070
    44
1040
1.0
1070
    74
1070
     0
1000
MTEXTEND
  0
POINT
  5
4215
330
3B0E
100
AcDbEntity
  8
DEFPOINTS
 62
     0
100
AcDbPoint
 10
-2.638784176503072
 20
10.30518360585826
 30
0.0
  0
POINT
  5
4216
330
3B0E
100
AcDbEntity
  8
DEFPOINTS
 62
     0
100
AcDbPoint
 10
-82.63878417650305
 20
6.999999999999786
 30
0.0
  0
POINT
  5
4217
330
3B0E
100
AcDbEntity
  8
DEFPOINTS
 62
     0
100
AcDbPoint
 10
-82.63878417650305
 20
30.99788174485805
 30
0.0
  0
ENDBLK
  5
3B19
330
3B0E
100
AcDbEntity
  8
0
100
AcDbBlockEnd
  0
BLOCK
  5
3BC3
330
3BB9
100
AcDbEntity
  8
0
100
AcDbBlockBegin
  2
*D12
 70
     1
 10
0.0
 20
0.0
 30
0.0
  3
*D12
  1

  0
LINE
  5
4250
330
3BB9
100
AcDbEntity
  8
AM_5
 62
     3
100
AcDbLine
 10
-2.638793216240402
 20
-7.800000000000172
 30
0.0
 11
-2.638793216240331
 21
-32.86909391057141
 31
0.0
  0
LINE
  5
4251
330
3BB9
100
AcDbEntity
  8
AM_5
 62
     3
100
AcDbLine
 10
-99.63878417650297
 20
-8.800005493165153
 30
0.0
 11
-99.6387841765029
 21
-32.8690939105717
 31
0.0
  0
LINE
  5
4252
330
3BB9
100
AcDbEntity
  8
AM_5
 62
     3
100
AcDbLine
 10
-5.138793216240333
 20
-31.86909391057142
 30
0.0
 11
-97.1387841765029
 21
-31.86909391057169
 31
0.0
  0
INSERT
  5
4253
330
3BB9
100
AcDbEntity
  8
AM_5
 62
     3
100
AcDbBlockReference
  2
_OPEN30
 10
-2.638793216240333
 20
-31.86909391057141
 30
0.0
 41
2.5
 42
2.5
 43
2.5
 50
0.0000000000001527
  0
INSERT
  5
4254
330
3BB9
100
AcDbEntity
  8
AM_5
 62
     3
100
AcDbBlockReference
  2
_OPEN30
 10
-99.6387841765029
 20
-31.8690939105717
 30
0.0
 41
2.5
 42
2.5
 43
2.5
 50
180.0000000000001
  0
MTEXT
  5
4255
330
3BB9
100
AcDbEntity
  8
AM_5
 62
     2
100
AcDbMText
 10
-51.13878869637162
 20
-28.46909391057156
 30
0.0
 40
3.799999999999999
 41
0.0
 71
     5
 72
     1
  1
97
1001
ACAD
1000
MTEXTBEGIN
1070
    73
1070
     1
1070
    44
1040
1.0
1070
    74
1070
     0
1000
MTEXTEND
  0
POINT
  5
4256
330
3BB9
100
AcDbEntity
  8
DEFPOINTS
 62
     0
100
AcDbPoint
 10
-2.638793216240424
 20
-7.000000000000164
 30
0.0
  0
POINT
  5
4257
330
3BB9
100
AcDbEntity
  8
DEFPOINTS
 62
     0
100
AcDbPoint
 10
-99.63878417650299
 20
-8.000005493164863
 30
0.0
  0
POINT
  5
4258
330
3BB9
100
AcDbEntity
  8
DEFPOINTS
 62
     0
100
AcDbPoint
 10
-99.63878417650299
 20
-31.8690939105714
 30
0.0
  0
ENDBLK
  5
3BC4
330
3BB9
100
AcDbEntity
  8
0
100
AcDbBlockEnd
  0
BLOCK
  5
3C4B
330
3C41
100
AcDbEntity
  8
0
100
AcDbBlockBegin
  2
*D13
 70
     1
 10
0.0
 20
0.0
 30
0.0
  3
*D13
  1

  0
LINE
  5
422A
330
3C41
100
AcDbEntity
  8
AM_5
 62
     3
100
AcDbLine
 10
-99.63878417650299
 20
-8.800005493165146
 30
0.0
 11
-99.63878417650292
 21
-32.86909391057193
 31
0.0
  0
LINE
  5
422B
330
3C41
100
AcDbEntity
  8
AM_5
 62
     3
100
AcDbLine
 10
-147.6387841765029
 20
-8.375759277344499
 30
0.0
 11
-147.6387841765028
 21
-32.86909391057207
 31
0.0
  0
LINE
  5
422C
330
3C41
100
AcDbEntity
  8
AM_5
 62
     3
100
AcDbLine
 10
-102.1387841765029
 20
-31.86909391057194
 30
0.0
 11
-145.1387841765028
 21
-31.86909391057206
 31
0.0
  0
INSERT
  5
422D
330
3C41
100
AcDbEntity
  8
AM_5
 62
     3
100
AcDbBlockReference
  2
_OPEN30
 10
-99.63878417650292
 20
-31.86909391057193
 30
0.0
 41
2.5
 42
2.5
 43
2.5
 50
0.0000000000001527
  0
INSERT
  5
422E
330
3C41
100
AcDbEntity
  8
AM_5
 62
     3
100
AcDbBlockReference
  2
_OPEN30
 10
-147.6387841765028
 20
-31.86909391057207
 30
0.0
 41
2.5
 42
2.5
 43
2.5
 50
180.0000000000001
  0
MTEXT
  5
422F
330
3C41
100
AcDbEntity
  8
AM_5
 62
     2
100
AcDbMText
 10
-123.6387841765029
 20
-28.469093910572
 30
0.0
 40
3.799999999999999
 41
0.0
 71
     5
 72
     1
  1
48
1001
ACAD
1000
MTEXTBEGIN
1070
    73
1070
     1
1070
    44
1040
1.0
1070
    74
1070
     0
1000
MTEXTEND
  0
POINT
  5
4230
330
3C41
100
AcDbEntity
  8
DEFPOINTS
 62
     0
100
AcDbPoint
 10
-99.63878417650303
 20
-8.000005493164856
 30
0.0
  0
POINT
  5
4231
330
3C41
100
AcDbEntity
  8
DEFPOINTS
 62
     0
100
AcDbPoint
 10
-147.6387841765029
 20
-7.575759277344069
 30
0.0
  0
POINT
  5
4232
330
3C41
100
AcDbEntity
  8
DEFPOINTS
 62
     0
100
AcDbPoint
 10
-147.6387841765029
 20
-31.86909391057164
 30
0.0
  0
ENDBLK
  5
3C4C
330
3C41
100
AcDbEntity
  8
0
100
AcDbBlockEnd
  0
BLOCK
  5
3CD6
330
3CCC
100
AcDbEntity
  8
0
100
AcDbBlockBegin
  2
*D14
 70
     1
 10
0.0
 20
0.0
 30
0.0
  3
*D14
  1

  0
LINE
  5
4233
330
3CCC
100
AcDbEntity
  8
AM_5
 62
     3
100
AcDbLine
 10
-2.638784176503004
 20
-7.800000000000098
 30
0.0
 11
-2.6387841765029
 21
-44.11548554233241
 31
0.0
  0
LINE
  5
4234
330
3CCC
100
AcDbEntity
  8
AM_5
 62
     3
100
AcDbLine
 10
-147.6387841765029
 20
-8.375759277344499
 30
0.0
 11
-147.6387841765028
 21
-44.11548554233283
 31
0.0
  0
LINE
  5
4235
330
3CCC
100
AcDbEntity
  8
AM_5
 62
     3
100
AcDbLine
 10
-5.138784176502904
 20
-43.11548554233242
 30
0.0
 11
-145.1387841765028
 21
-43.11548554233282
 31
0.0
  0
INSERT
  5
4236
330
3CCC
100
AcDbEntity
  8
AM_5
 62
     3
100
AcDbBlockReference
  2
_OPEN30
 10
-2.638784176502904
 20
-43.11548554233241
 30
0.0
 41
2.5
 42
2.5
 43
2.5
 50
0.0000000000001527
  0
INSERT
  5
4237
330
3CCC
100
AcDbEntity
  8
AM_5
 62
     3
100
AcDbBlockReference
  2
_OPEN30
 10
-147.6387841765028
 20
-43.11548554233283
 30
0.0
 41
2.5
 42
2.5
 43
2.5
 50
180.0000000000001
  0
MTEXT
  5
4238
330
3CCC
100
AcDbEntity
  8
AM_5
 62
     2
100
AcDbMText
 10
-75.13878417650289
 20
-39.71548554233263
 30
0.0
 40
3.799999999999999
 41
0.0
 71
     5
 72
     1
  1
145
1001
ACAD
1000
MTEXTBEGIN
1070
    73
1070
     1
1070
    44
1040
1.0
1070
    74
1070
     0
1000
MTEXTEND
  0
POINT
  5
4239
330
3CCC
100
AcDbEntity
  8
DEFPOINTS
 62
     0
100
AcDbPoint
 10
-2.638784176503027
 20
-7.00000000000009
 30
0.0
  0
POINT
  5
423A
330
3CCC
100
AcDbEntity
  8
DEFPOINTS
 62
     0
100
AcDbPoint
 10
-147.6387841765029
 20
-7.575759277344069
 30
0.0
  0
POINT
  5
423B
330
3CCC
100
AcDbEntity
  8
DEFPOINTS
 62
     0
100
AcDbPoint
 10
-147.6387841765029
 20
-43.1154855423324
 30
0.0
  0
ENDBLK
  5
3CD7
330
3CCC
100
AcDbEntity
  8
0
100
AcDbBlockEnd
  0
BLOCK
  5
3D63
330
3D57
100
AcDbEntity
  8
0
100
AcDbBlockBegin
  2
*D15
 70
     1
 10
0.0
 20
0.0
 30
0.0
  3
*D15
  1

  0
LINE
  5
4245
330
3D57
100
AcDbEntity
  8
AM_5
 62
     3
100
AcDbLine
 10
-147.638784176503
 20
-0.8000000000009253
 30
0.0
 11
-147.6387841765029
 21
-21.80121657883325
 31
0.0
  0
LINE
  5
4246
330
3D57
100
AcDbEntity
  8
AM_5
 62
     3
100
AcDbLine
 10
-141.638784176503
 20
-0.8000000000008929
 30
0.0
 11
-141.6387841765029
 21
-21.80121657883324
 31
0.0
  0
LINE
  5
4247
330
3D57
100
AcDbEntity
  8
AM_5
 62
     3
100
AcDbLine
 10
-150.1387841765029
 20
-20.80121657883326
 30
0.0
 11
-152.6387841765029
 21
-20.80121657883327
 31
0.0
  0
LINE
  5
4248
330
3D57
100
AcDbEntity
  8
AM_5
 62
     3
100
AcDbLine
 10
-139.1387841765029
 20
-20.80121657883323
 30
0.0
 11
-136.6387841765029
 21
-20.80121657883322
 31
0.0
  0
LINE
  5
4249
330
3D57
100
AcDbEntity
  8
AM_5
 62
     3
100
AcDbLine
 10
-147.6387841765029
 20
-20.80121657883325
 30
0.0
 11
-141.6387841765029
 21
-20.80121657883323
 31
0.0
  0
INSERT
  5
424A
330
3D57
100
AcDbEntity
  8
AM_5
 62
     3
100
AcDbBlockReference
  2
_OPEN30
 10
-147.6387841765029
 20
-20.80121657883325
 30
0.0
 41
2.5
 42
2.5
 43
2.5
 50
0.0000000000001527
  0
INSERT
  5
424B
330
3D57
100
AcDbEntity
  8
AM_5
 62
     3
100
AcDbBlockReference
  2
_OPEN30
 10
-141.6387841765029
 20
-20.80121657883323
 30
0.0
 41
2.5
 42
2.5
 43
2.5
 50
180.0000000000001
  0
MTEXT
  5
424C
330
3D57
100
AcDbEntity
  8
AM_5
 62
     2
100
AcDbMText
 10
-144.6387841765029
 20
-17.40121657883324
 30
0.0
 40
3.799999999999999
 41
0.0
 71
     5
 72
     1
  1
6
1001
ACAD
1000
MTEXTBEGIN
1070
    73
1070
     1
1070
    44
1040
1.0
1070
    74
1070
     0
1000
MTEXTEND
  0
POINT
  5
424D
330
3D57
100
AcDbEntity
  8
DEFPOINTS
 62
     0
100
AcDbPoint
 10
-147.638784176503
 20
-0.0000000000004957
 30
0.0
  0
POINT
  5
424E
330
3D57
100
AcDbEntity
  8
DEFPOINTS
 62
     0
100
AcDbPoint
 10
-141.638784176503
 20
-0.0000000000004809
 30
0.0
  0
POINT
  5
424F
330
3D57
100
AcDbEntity
  8
DEFPOINTS
 62
     0
100
AcDbPoint
 10
-141.638784176503
 20
-20.80121657883282
 30
0.0
  0
ENDBLK
  5
3D64
330
3D57
100
AcDbEntity
  8
0
100
AcDbBlockEnd
  0
BLOCK
  5
3E08
330
3DFE
100
AcDbEntity
  8
0
100
AcDbBlockBegin
  2
*D16
 70
     1
 10
0.0
 20
0.0
 30
0.0
  3
*D16
  1

  0
LINE
  5
423C
330
3DFE
100
AcDbEntity
  8
AM_5
 62
     3
100
AcDbLine
 10
-141.638784176503
 20
-0.8000000000009192
 30
0.0
 11
-141.6387841765029
 21
-21.80121657883295
 31
0.0
  0
LINE
  5
423D
330
3DFE
100
AcDbEntity
  8
AM_5
 62
     3
100
AcDbLine
 10
-106.638784176503
 20
-0.8000000000007398
 30
0.0
 11
-106.6387841765029
 21
-21.80121657883284
 31
0.0
  0
LINE
  5
423E
330
3DFE
100
AcDbEntity
  8
AM_5
 62
     3
100
AcDbLine
 10
-139.1387841765029
 20
-20.80121657883294
 30
0.0
 11
-109.1387841765029
 21
-20.80121657883285
 31
0.0
  0
INSERT
  5
423F
330
3DFE
100
AcDbEntity
  8
AM_5
 62
     3
100
AcDbBlockReference
  2
_OPEN30
 10
-141.6387841765029
 20
-20.80121657883295
 30
0.0
 41
2.5
 42
2.5
 43
2.5
 50
180.0000000000001
  0
INSERT
  5
4240
330
3DFE
100
AcDbEntity
  8
AM_5
 62
     3
100
AcDbBlockReference
  2
_OPEN30
 10
-106.6387841765029
 20
-20.80121657883285
 30
0.0
 41
2.5
 42
2.5
 43
2.5
 50
0.0000000000001527
  0
MTEXT
  5
4241
330
3DFE
100
AcDbEntity
  8
AM_5
 62
     2
100
AcDbMText
 10
-124.1387841765029
 20
-17.4012165788329
 30
0.0
 40
3.799999999999999
 41
0.0
 71
     5
 72
     1
  1
35
1001
ACAD
1000
MTEXTBEGIN
1070
    73
1070
     1
1070
    44
1040
1.0
1070
    74
1070
     0
1000
MTEXTEND
  0
POINT
  5
4242
330
3DFE
100
AcDbEntity
  8
DEFPOINTS
 62
     0
100
AcDbPoint
 10
-141.638784176503
 20
-0.000000000000507
 30
0.0
  0
POINT
  5
4243
330
3DFE
100
AcDbEntity
  8
DEFPOINTS
 62
     0
100
AcDbPoint
 10
-106.638784176503
 20
-0.0000000000004294
 30
0.0
  0
POINT
  5
4244
330
3DFE
100
AcDbEntity
  8
DEFPOINTS
 62
     0
100
AcDbPoint
 10
-106.638784176503
 20
-20.80121657883254
 30
0.0
  0
ENDBLK
  5
3E09
330
3DFE
100
AcDbEntity
  8
0
100
AcDbBlockEnd
  0
BLOCK
  5
41CD
330
41C3
100
AcDbEntity
  8
0
100
AcDbBlockBegin
  2
*D17
 70
     1
 10
0.0
 20
0.0
 30
0.0
  3
*D17
  1

  0
LINE
  5
41FC
330
41C3
100
AcDbEntity
  8
AM_5
 62
     3
100
AcDbLine
 10
-1.838784176503179
 20
7.249999999999843
 30
0.0
 11
15.49572145358843
 21
7.249999999999892
 31
0.0
  0
LINE
  5
41FD
330
41C3
100
AcDbEntity
  8
AM_5
 62
     3
100
AcDbLine
 10
-1.838784176502981
 20
-7.250000000000154
 30
0.0
 11
15.49572145358848
 21
-7.250000000000105
 31
0.0
  0
LINE
  5
41FE
330
41C3
100
AcDbEntity
  8
AM_5
 62
     3
100
AcDbLine
 10
14.49572145358844
 20
4.749999999999889
 30
0.0
 11
14.49572145358847
 21
-4.750000000000108
 31
0.0
  0
INSERT
  5
41FF
330
41C3
100
AcDbEntity
  8
AM_5
 62
     3
100
AcDbBlockReference
  2
_OPEN30
 10
14.49572145358843
 20
7.249999999999889
 30
0.0
 41
2.5
 42
2.5
 43
2.5
 50
90.00000000000017
  0
INSERT
  5
4200
330
41C3
100
AcDbEntity
  8
AM_5
 62
     3
100
AcDbBlockReference
  2
_OPEN30
 10
14.49572145358848
 20
-7.250000000000108
 30
0.0
 41
2.5
 42
2.5
 43
2.5
 50
270.0000000000001
  0
MTEXT
  5
4201
330
41C3
100
AcDbEntity
  8
AM_5
 62
     2
100
AcDbMText
 10
11.09572145358845
 20
-0.0000000000001192
 30
0.0
 40
3.799999999999999
 41
0.0
 71
     5
 72
     1
  1
%%C14.5
 11
-0.0000000000000028
 21
1.0
 31
0.0
1001
ACAD
1000
MTEXTBEGIN
1070
    73
1070
     1
1070
    44
1040
1.0
1070
    74
1070
     0
1000
MTEXTEND
  0
POINT
  5
4202
330
41C3
100
AcDbEntity
  8
DEFPOINTS
 62
     0
100
AcDbPoint
 10
-2.638784176503157
 20
7.249999999999849
 30
0.0
  0
POINT
  5
4203
330
41C3
100
AcDbEntity
  8
DEFPOINTS
 62
     0
100
AcDbPoint
 10
-2.638784176503004
 20
-7.250000000000148
 30
0.0
  0
POINT
  5
4204
330
41C3
100
AcDbEntity
  8
DEFPOINTS
 62
     0
100
AcDbPoint
 10
14.49572145358845
 20
-7.250000000000153
 30
0.0
  0
ENDBLK
  5
41CE
330
41C3
100
AcDbEntity
  8
0
100
AcDbBlockEnd
  0
ENDSEC
  0
SECTION
  2
ENTITIES
  0
TEXT
  5
19BD
330
1F
100
AcDbEntity
  8
AM_6
100
AcDbText
 10
-95.40493447583525
 20
-65.61548554233268
 30
0.0
 40
5.0
  1
KDS145LAK
 50
0.0000000000001527
 72
     4
 11
-75.04779161869238
 21
-63.11548554233262
 31
0.0
100
AcDbText
  0
LINE
  5
35D1
330
1F
100
AcDbEntity
  8
AM_7
100
AcDbLine
 10
4.745369175493294
 20
-0.0000000000001137
 30
0.0
 11
-151.5045573464758
 21
-0.0000000000004985
 31
0.0
  0
LINE
  5
35EA
330
1F
100
AcDbEntity
  8
PV0001_1
  6
CONTINUOUS
100
AcDbLine
 10
-147.2145288054189
 20
-8.000005493164964
 30
0.0
 11
-99.63878417650299
 21
-8.000005493164854
 31
0.0
  0
LINE
  5
35EB
330
1F
100
AcDbEntity
  8
PV0001_1
  6
CONTINUOUS
100
AcDbLine
 10
-99.63878417650306
 20
8.000000915526261
 30
0.0
 11
-147.214528805419
 21
8.00000091552615
 31
0.0
  0
LINE
  5
35F4
330
1F
100
AcDbEntity
  8
PV0001_1
  6
CONTINUOUS
 48
0.5
100
AcDbLine
 10
-82.63878417650301
 20
7.250000000000237
 30
0.0
 11
-99.63878417650299
 21
8.00000091552625
 31
0.0
  0
LINE
  5
35F5
330
1F
100
AcDbEntity
  8
PV0001_1
  6
CONTINUOUS
 48
0.5
100
AcDbLine
 10
-82.638784176503
 20
-7.249999999999918
 30
0.0
 11
-99.63878417650297
 21
-8.000005493164863
 31
0.0
  0
LINE
  5
35F9
330
1F
100
AcDbEntity
  8
PV0001_1
  6
CONTINUOUS
 48
0.5
100
AcDbLine
 10
-147.214528805419
 20
-0.0000000000006111
 30
0.0
 11
-147.214528805419
 21
8.000023803710618
 31
0.0
  0
LINE
  5
35FA
330
1F
100
AcDbEntity
  8
PV0001_1
  6
CONTINUOUS
 48
0.5
100
AcDbLine
 10
-147.638784176503
 20
-0.0000000000006111
 30
0.0
 11
-147.638784176503
 21
7.575759277343139
 31
0.0
  0
LINE
  5
35FB
330
1F
100
AcDbEntity
  8
PV0001_1
  6
CONTINUOUS
 48
0.5
100
AcDbLine
 10
-147.638729244871
 20
7.575681457519503
 30
0.0
 11
-147.214455563227
 21
7.999945983885816
 31
0.0
  0
LINE
  5
35FD
330
1F
100
AcDbEntity
  8
PV0001_1
  6
CONTINUOUS
 48
0.5
100
AcDbLine
 10
-147.6387292448709
 20
-7.575722656250611
 30
0.0
 11
-147.2144555632269
 21
-7.999987182618089
 31
0.0
  0
LINE
  5
3601
330
1F
100
AcDbEntity
  8
PV0001_1
  6
CONTINUOUS
 48
0.5
100
AcDbLine
 10
-147.638784176503
 20
-0.0000000000006111
 30
0.0
 11
-147.6387841765029
 21
-7.57575927734407
 31
0.0
  0
LINE
  5
3602
330
1F
100
AcDbEntity
  8
PV0001_1
  6
CONTINUOUS
 48
0.5
100
AcDbLine
 10
-147.214528805419
 20
-0.0000000000006111
 30
0.0
 11
-147.2145288054189
 21
-8.000023803711838
 31
0.0
  0
DIMENSION
  5
36BA
330
1F
100
AcDbEntity
  8
AM_5
100
AcDbDimension
  2
*D8
 10
-2.547791618692583
 20
-7.000000000000091
 30
0.0
 11
22.361582110608
 21
-0.000000000000074
 31
0.0
 70
    34
  1
<>
 51
359.9999999999998
  3
AM_JIS$2
100
AcDb2LineAngularDimension
 13
0.0
 23
-0.0000000000000827
 33
0.0
 14
-2.547791618692619
 24
6.999999999999763
 34
0.0
 15
0.0
 25
-0.0000000000002274
 35
0.0
 16
23.3792347916374
 26
-10.08481750616873
 36
0.0
1001
ACAD
1000
DSTYLE
1002
{
1070
   179
1070
     3
1002
}
1001
GENIUS_GENDTOL_13
1000

1000
h7
1000

1040
0.0
  0
DIMENSION
  5
3866
330
1F
100
AcDbEntity
  8
AM_5
100
AcDbDimension
  2
*D9
 10
-161.2144555632269
 20
-8.000005493164961
 30
0.0
 11
-164.6144555632269
 21
-0.0000297546395957
 31
0.0
 70
    32
  1
%%C<>
 51
359.9999999999998
  3
AM_JIS$0
100
AcDbAlignedDimension
 13
-147.214455563227
 23
7.999945983885816
 33
0.0
 14
-147.2144555632269
 24
-8.000005493164964
 34
0.0
 50
270.0000000000002
100
AcDbRotatedDimension
1001
ACAD
1000
DSTYLE
1002
{
1070
   271
1070
     3
1002
}
1001
GENIUS_GENDTOL_13
1000

1000
h7
1000

1040
0.0
  0
LINE
  5
390B
330
1F
100
AcDbEntity
  8
AM_0
100
AcDbLine
 10
-110.0207214911201
 20
3.381937314616702
 30
0.0
 11
-138.2568468618859
 21
3.381937314616625
 31
0.0
  0
LINE
  5
3910
330
1F
100
AcDbEntity
  8
AM_0
100
AcDbLine
 10
-110.0207214911201
 20
-3.381937314617517
 30
0.0
 11
-138.2568468618859
 21
-3.381937314617592
 31
0.0
  0
ARC
  5
3928
330
1F
100
AcDbEntity
  8
AM_0
100
AcDbCircle
 10
-138.2568468618859
 20
-0.0000000000004938
 30
0.0
 40
3.381937314617109
100
AcDbArc
 50
90.00000000000024
 51
270.0000000000002
  0
ARC
  5
3929
330
1F
100
AcDbEntity
  8
AM_0
100
AcDbCircle
 10
-110.0207214911201
 20
-0.0000000000004343
 30
0.0
 40
3.381937314617109
100
AcDbArc
 50
270.0000000000002
 51
90.00000000000024
  0
LINE
  5
395A
330
1F
100
AcDbEntity
  8
PV0001_1
  6
CONTINUOUS
100
AcDbLine
 10
-99.63878417650299
 20
-8.000005493164854
 30
0.0
 11
-99.63878417650306
 21
8.000000915526261
 31
0.0
  0
DIMENSION
  5
3990
330
1F
100
AcDbEntity
  8
AM_5
100
AcDbDimension
  2
*D10
 10
-80.63878417650302
 20
21.12982160606342
 30
0.0
 11
-41.63878417650304
 21
24.52982160606342
 31
0.0
 70
    32
  1
<>
 51
359.9999999999998
  3
AM_JIS$0
100
AcDbAlignedDimension
 13
-2.638784176503063
 23
6.999999999999835
 33
0.0
 14
-80.63878417650302
 24
6.999999999999787
 34
0.0
 50
180.0000000000001
100
AcDbRotatedDimension
1001
ACAD
1000
DSTYLE
1002
{
1070
   271
1070
     3
1002
}
1001
GENIUS_GENDTOL_13
1000

1000
h7
1000

1040
0.0
  0
DIMENSION
  5
3B0D
330
1F
100
AcDbEntity
  8
AM_5
100
AcDbDimension
  2
*D11
 10
-82.63878417650305
 20
30.99788174485805
 30
0.0
 11
-42.63878417650306
 21
34.39788174485805
 31
0.0
 70
    32
  1
<>
 51
359.9999999999998
  3
AM_JIS$0
100
AcDbAlignedDimension
 13
-2.638784176503072
 23
10.30518360585826
 33
0.0
 14
-82.63878417650305
 24
6.999999999999786
 34
0.0
 50
180.0000000000001
100
AcDbRotatedDimension
1001
ACAD
1000
DSTYLE
1002
{
1070
   271
1070
     3
1002
}
1001
GENIUS_GENDTOL_13
1000

1000
h7
1000

1040
0.0
  0
DIMENSION
  5
3BB8
330
1F
100
AcDbEntity
  8
AM_5
100
AcDbDimension
  2
*D12
 10
-99.63878417650299
 20
-31.8690939105714
 30
0.0
 11
-51.13878869637171
 21
-28.4690939105714
 31
0.0
 70
    32
  1
<>
 51
359.9999999999998
  3
AM_JIS$0
100
AcDbAlignedDimension
 13
-2.638793216240424
 23
-7.000000000000164
 33
0.0
 14
-99.63878417650299
 24
-8.000005493164863
 34
0.0
 50
0.0000000000001641
100
AcDbRotatedDimension
1001
ACAD
1000
DSTYLE
1002
{
1070
   271
1070
     3
1002
}
1001
GENIUS_GENDTOL_13
1000

1000
h7
1000

1040
0.0
  0
DIMENSION
  5
3C40
330
1F
100
AcDbEntity
  8
AM_5
100
AcDbDimension
  2
*D13
 10
-147.6387841765029
 20
-31.86909391057164
 30
0.0
 11
-123.638784176503
 21
-28.46909391057164
 31
0.0
 70
    32
  1
<>
 51
359.9999999999998
  3
AM_JIS$0
100
AcDbAlignedDimension
 13
-99.63878417650303
 23
-8.000005493164856
 33
0.0
 14
-147.6387841765029
 24
-7.575759277344069
 34
0.0
 50
0.0000000000002659
100
AcDbRotatedDimension
1001
ACAD
1000
DSTYLE
1002
{
1070
   271
1070
     3
1002
}
1001
GENIUS_GENDTOL_13
1000

1000
h7
1000

1040
0.0
  0
DIMENSION
  5
3CCB
330
1F
100
AcDbEntity
  8
AM_5
100
AcDbDimension
  2
*D14
 10
-147.6387841765029
 20
-43.1154855423324
 30
0.0
 11
-75.13878417650301
 21
-39.7154855423324
 31
0.0
 70
    32
  1
<>
 51
359.9999999999998
  3
AM_JIS$0
100
AcDbAlignedDimension
 13
-2.638784176503027
 23
-7.00000000000009
 33
0.0
 14
-147.6387841765029
 24
-7.575759277344069
 34
0.0
 50
0.0000000000002659
100
AcDbRotatedDimension
1001
ACAD
1000
DSTYLE
1002
{
1070
   271
1070
     3
1002
}
1001
GENIUS_GENDTOL_13
1000

1000
h7
1000

1040
0.0
  0
DIMENSION
  5
3D56
330
1F
100
AcDbEntity
  8
AM_5
100
AcDbDimension
  2
*D15
 10
-141.638784176503
 20
-20.80121657883282
 30
0.0
 11
-144.638784176503
 21
-20.80121657883282
 31
0.0
 70
   160
  1
<>
 51
359.9999999999998
  3
AM_JIS$0
100
AcDbAlignedDimension
 13
-147.638784176503
 23
-0.0000000000004957
 33
0.0
 14
-141.638784176503
 24
-0.0000000000004809
 34
0.0
 50
0.0000000000002659
100
AcDbRotatedDimension
1001
ACAD
1000
DSTYLE
1002
{
1070
   271
1070
     3
1002
}
1001
GENIUS_GENDTOL_13
1000

1000
h7
1000

1040
0.0
  0
DIMENSION
  5
3DFD
330
1F
100
AcDbEntity
  8
AM_5
100
AcDbDimension
  2
*D16
 10
-106.638784176503
 20
-20.80121657883254
 30
0.0
 11
-124.138784176503
 21
-17.40121657883254
 31
0.0
 70
    32
  1
<>
 51
359.9999999999998
  3
AM_JIS$0
100
AcDbAlignedDimension
 13
-141.638784176503
 23
-0.000000000000507
 33
0.0
 14
-106.638784176503
 24
-0.0000000000004294
 34
0.0
 50
0.0000000000002659
100
AcDbRotatedDimension
1001
ACAD
1000
DSTYLE
1002
{
1070
   271
1070
     3
1002
}
1001
GENIUS_GENDTOL_13
1000

1000
h7
1000

1040
0.0
  0
SPLINE
  5
3F49
330
1F
100
AcDbEntity
  8
AM_0
100
AcDbSpline
210
0.0
220
0.0
230
1.0
 70
     8
 71
     3
 72
    12
 73
     8
 74
     6
 42
0.0000000001
 43
0.0000000001
 44
0.0000000001
 40
0.0
 40
0.0
 40
0.0
 40
0.0
 40
3.431945385626917
 40
4.940343319436021
 40
6.100238971950182
 40
8.564340910050068
 40
10.2964993412911
 40
10.2964993412911
 40
10.2964993412911
 40
10.2964993412911
 10
-92.101870659601
 20
7.044206026704928
 30
0.0
 10
-93.26566359729069
 20
7.055685442216773
 30
0.0
 10
-94.94096317781469
 20
7.0722102546373
 30
0.0
 10
-96.82104740089897
 20
6.205015627629075
 30
0.0
 10
-97.98604801836088
 20
4.771278277913724
 30
0.0
 10
-97.02473614198337
 20
2.743378333663727
 30
0.0
 10
-95.84886658994873
 20
2.021701972364169
 30
0.0
 10
-95.36348384928805
 20
1.723803919377357
 30
0.0
 11
-92.101870659601
 21
7.044206026704928
 31
0.0
 11
-95.51956317183536
 21
6.731752795415786
 31
0.0
 11
-96.85920819402388
 21
6.038488386084736
 31
0.0
 11
-97.53911135094011
 21
5.09875990299156
 31
0.0
 11
-96.74760149408543
 21
2.765240992022654
 31
0.0
 11
-95.36348384928805
 21
1.723803919377357
 31
0.0
  0
LINE
  5
4171
330
1F
100
AcDbEntity
  8
PV0001_1
  6
CONTINUOUS
 48
0.5
100
AcDbLine
 10
0.0
 20
-0.0000000000002274
 30
0.0
 11
-2.638784176503156
 21
7.249999999999849
 31
0.0
  0
LINE
  5
4172
330
1F
100
AcDbEntity
  8
PV0001_1
  6
CONTINUOUS
 48
0.5
100
AcDbLine
 10
0.0
 20
-0.0000000000003766
 30
0.0
 11
-2.638784176503004
 21
-7.250000000000148
 31
0.0
  0
SPLINE
  5
41A2
330
1F
100
AcDbEntity
  8
PV0001_1
  6
CONTINUOUS
100
AcDbSpline
210
0.0
220
0.0
230
1.0
 70
     8
 71
     3
 72
    31
 73
    27
 74
     0
 42
0.0000000001
 43
0.0000000001
 40
0.0
 40
0.0
 40
0.0
 40
0.0
 40
1.010743684496582
 40
2.022833576467832
 40
3.037578957496688
 40
4.056212745003489
 40
5.079857003664532
 40
6.109500240690281
 40
7.145961322679372
 40
8.189895241603872
 40
9.241717795325891
 40
10.30168407291828
 40
11.36983447792315
 40
12.44600489715814
 40
13.52984294512926
 40
14.62081576220742
 40
15.7182257034828
 40
16.82123173843959
 40
17.92886860250316
 40
19.0400688939571
 40
20.15368796660465
 40
21.26852814259644
 40
22.38336992938901
 40
23.49698739941135
 40
24.6081876908653
 40
24.75415722335978
 40
24.75415722335978
 40
24.75415722335978
 40
24.75415722335978
 10
-70.49371860180042
 20
-7.249999999999809
 30
0.0
 10
-70.85232027466716
 20
-7.245686425641806
 30
0.0
 10
-71.57000124124542
 20
-7.237053531684812
 30
0.0
 10
-72.64626151332942
 20
-7.167462714751457
 30
0.0
 10
-73.72247584392042
 20
-7.056831494976975
 30
0.0
 10
-74.79862356741029
 20
-6.901777632841367
 30
0.0
 10
-75.87469394553881
 20
-6.704402405454016
 30
0.0
 10
-76.95066574984338
 20
-6.46558350899793
 30
0.0
 10
-78.02654257940194
 20
-6.186929712681792
 30
0.0
 10
-79.10231489336132
 20
-5.87014735902871
 30
0.0
 10
-80.17797536375145
 20
-5.517181472472598
 30
0.0
 10
-81.25352935214511
 20
-5.130247583396976
 30
0.0
 10
-82.32897973909045
 20
-4.711713753729265
 30
0.0
 10
-83.40433996147851
 20
-4.264185462874483
 30
0.0
 10
-84.47961494270911
 20
-3.790412868065126
 30
0.0
 10
-85.55481465352505
 20
-3.29331777175069
 30
0.0
 10
-86.62995101803687
 20
-2.775966853702602
 30
0.0
 10
-87.70503347221522
 20
-2.241541577289798
 30
0.0
 10
-88.78007244985774
 20
-1.693328865859396
 30
0.0
 10
-89.8550794543385
 20
-1.134702903518782
 30
0.0
 10
-90.93006391449213
 20
-0.5690978931097287
 30
0.0
 10
-92.00504101076429
 20
-0.0000014792631364
 30
0.0
 10
-93.08001328128877
 20
0.5691051786735763
 30
0.0
 10
-94.155001344556
 20
1.13470138111663
 30
0.0
 10
-94.91978589145523
 20
1.532122348916727
 30
0.0
 10
-95.32607328777002
 20
1.741013218324404
 30
0.0
 10
-95.37325757555214
 20
1.765241365804411
 30
0.0
  0
SPLINE
  5
41A3
330
1F
100
AcDbEntity
  8
PV0001_1
  6
CONTINUOUS
100
AcDbSpline
210
0.0
220
0.0
230
1.0
 70
     8
 71
     3
 72
    44
 73
    40
 74
     0
 42
0.0000000001
 43
0.0000000001
 40
0.0
 40
0.0
 40
0.0
 40
0.0
 40
1.010743684496582
 40
2.022833576467832
 40
3.037578957496688
 40
4.056212745003489
 40
5.079857003664532
 40
6.109500240690281
 40
7.145961322679372
 40
8.189895241603872
 40
9.241717795325891
 40
10.30168407291828
 40
11.36983447792315
 40
12.44600489715814
 40
13.52984294512926
 40
14.62081576220742
 40
15.7182257034828
 40
16.82123173843959
 40
17.92886860250316
 40
19.0400688939571
 40
20.15368796660465
 40
21.26852814259644
 40
22.38336992938901
 40
23.49698739941135
 40
24.6081876908653
 40
25.71582455492886
 40
26.81883757994213
 40
27.91624752121713
 40
29.00722033829659
 40
30.09105838626677
 40
31.16722880550176
 40
32.23537921050758
 40
33.29534548809967
 40
34.347168041821
 40
35.39108718934584
 40
36.42754827133493
 40
37.45720575381954
 40
38.48085062012849
 40
39.47486609502677
 40
39.47486609502677
 40
39.47486609502677
 40
39.47486609502677
 10
-52.34994172274481
 20
-7.249999999999861
 30
0.0
 10
-52.70854339561155
 20
-7.245686425641858
 30
0.0
 10
-53.42622436218979
 20
-7.237053531684865
 30
0.0
 10
-54.50248463427381
 20
-7.167462714751512
 30
0.0
 10
-55.57869896486479
 20
-7.056831494977028
 30
0.0
 10
-56.65484668835467
 20
-6.90177763284142
 30
0.0
 10
-57.73091706648318
 20
-6.704402405454069
 30
0.0
 10
-58.80688887078774
 20
-6.465583508997985
 30
0.0
 10
-59.88276570034631
 20
-6.186929712681847
 30
0.0
 10
-60.95853801430568
 20
-5.870147359028763
 30
0.0
 10
-62.03419848469581
 20
-5.517181472472651
 30
0.0
 10
-63.10975247308947
 20
-5.13024758339703
 30
0.0
 10
-64.18520286003479
 20
-4.711713753729319
 30
0.0
 10
-65.26056308242286
 20
-4.264185462874536
 30
0.0
 10
-66.33583806365345
 20
-3.79041286806518
 30
0.0
 10
-67.41103777446941
 20
-3.293317771750742
 30
0.0
 10
-68.48617413898122
 20
-2.775966853702655
 30
0.0
 10
-69.56125659315957
 20
-2.241541577289852
 30
0.0
 10
-70.63629557080211
 20
-1.693328865859449
 30
0.0
 10
-71.71130257528289
 20
-1.134702903518835
 30
0.0
 10
-72.7862870354365
 20
-0.5690978931097817
 30
0.0
 10
-73.86126413170863
 20
-0.0000014792631896
 30
0.0
 10
-74.93623640223312
 20
0.569105178673523
 30
0.0
 10
-76.01122446550037
 20
1.134701381116577
 30
0.0
 10
-77.08623014287055
 20
1.693329034386041
 30
0.0
 10
-78.16127103729572
 20
2.241543834262524
 30
0.0
 10
-79.23635795143169
 20
2.775964549795897
 30
0.0
 10
-80.31149601279279
 20
3.293318091533052
 30
0.0
 10
-81.38669587883185
 20
3.79041278475457
 30
0.0
 10
-82.46197082093656
 20
4.264185479196507
 30
0.0
 10
-83.53733104607821
 20
4.711713770706467
 30
0.0
 10
-84.6127814604161
 20
5.130247500296224
 30
0.0
 10
-85.68833533780088
 20
5.517181784466751
 30
0.0
 10
-86.76399118539746
 20
5.870144554338692
 30
0.0
 10
-87.83975684694761
 20
6.186931057050151
 30
0.0
 10
-88.9156332774117
 20
6.465590456743892
 30
0.0
 10
-89.99161276451557
 20
6.704382076766883
 30
0.0
 10
-91.05906310548553
 20
6.900236153096472
 30
0.0
 10
-91.76928736153939
 20
7.002782678228862
 30
0.0
 10
-92.11984866863785
 20
7.046451599683934
 30
0.0
  0
LINE
  5
41A4
330
1F
100
AcDbEntity
  8
PV0001_1
  6
CONTINUOUS
 48
0.5
100
AcDbLine
 10
-2.29770594692875
 20
6.283334255217829
 30
0.0
 11
-10.12227262256355
 21
6.283334255217856
 31
0.0
  0
LINE
  5
41A5
330
1F
100
AcDbEntity
  8
PV0001_1
  6
CONTINUOUS
 48
0.5
100
AcDbLine
 10
-10.10958420152893
 20
7.249999999999877
 30
0.0
 11
-2.638784176503156
 21
7.249999999999849
 31
0.0
  0
LINE
  5
41A6
330
1F
100
AcDbEntity
  8
PV0001_1
  6
CONTINUOUS
 48
0.5
100
AcDbLine
 10
-7.739402990146264
 20
1.832716659561007
 30
0.0
 11
-5.678192270517268
 21
0.8175668367563687
 31
0.0
  0
ELLIPSE
  5
41A7
330
1F
100
AcDbEntity
  8
AM_0
100
AcDbEllipse
 10
-3.949179098905688
 20
2.408837986624575
 30
0.0
 11
-3.09257666338161
 21
0.254613468811461
 31
0.0
210
0.0
220
0.0
230
1.0
 40
0.6487683443196513
 41
1.031836832836944
 42
3.219027684833184
  0
LINE
  5
41A9
330
1F
100
AcDbEntity
  8
AM_0
100
AcDbLine
 10
-1.979847191573246
 20
-1.794124768735578
 30
0.0
 11
-4.333528142831699
 21
-2.926117689808192
 31
0.0
  0
LINE
  5
41AA
330
1F
100
AcDbEntity
  8
PV0001_1
  6
CONTINUOUS
 48
0.5
100
AcDbLine
 10
-11.03878417650301
 20
-7.250000000000119
 30
0.0
 11
-2.638784176503004
 21
-7.250000000000148
 31
0.0
  0
LINE
  5
41AB
330
1F
100
AcDbEntity
  8
PV0001_1
  6
CONTINUOUS
 48
0.5
100
AcDbLine
 10
-11.038784176503
 20
-6.261363636363769
 30
0.0
 11
-3.135567804689237
 21
-6.261363636363783
 31
0.0
  0
LINE
  5
41AC
330
1F
100
AcDbEntity
  8
PV0001_1
  6
CONTINUOUS
 48
0.5
100
AcDbLine
 10
-1.979847191573246
 20
-1.794124768735578
 30
0.0
 11
-3.135567804689237
 21
-6.261363636363783
 31
0.0
  0
LINE
  5
41AF
330
1F
100
AcDbEntity
  8
PV0001_1
  6
CONTINUOUS
 48
0.5
100
AcDbLine
 10
-5.678192270517229
 20
0.8175668367562673
 30
0.0
 11
-3.135567804689237
 21
-6.261363636363783
 31
0.0
  0
LINE
  5
41B0
330
1F
100
AcDbEntity
  8
AM_0
100
AcDbLine
 10
-2.574497680751172
 20
0.5429722602855734
 30
0.0
 11
-1.979847191573246
 21
-1.794124768735578
 31
0.0
  0
SPLINE
  5
41B6
330
1F
100
AcDbEntity
  8
PV0001_1
  6
CONTINUOUS
100
AcDbSpline
210
0.0
220
0.0
230
1.0
 70
     8
 71
     3
 72
    16
 73
    12
 74
     0
 42
0.0000000001
 43
0.0000000001
 40
2.625839846755727
 40
2.625839846755727
 40
2.625839846755727
 40
2.625839846755727
 40
3.082371838836284
 40
4.126290986361125
 40
5.162752068350215
 40
6.192395305374981
 40
7.216039564037012
 40
8.234688489606833
 40
9.249433870634691
 40
10.26152376260694
 40
11.27226744710342
 40
11.27226744710342
 40
11.27226744710342
 40
11.27226744710352
 10
-61.42122353500324
 20
-5.716754829029198
 30
0.0
 10
-61.57694356601774
 20
-5.767359205626137
 30
0.0
 10
-62.08966504382541
 20
-5.930058953856665
 30
0.0
 10
-62.9608547353372
 20
-6.187033951151956
 30
0.0
 10
-64.03676661497435
 20
-6.465558921908043
 30
0.0
 10
-65.11272779251829
 20
-6.704398917355999
 30
0.0
 10
-66.18880619410422
 20
-6.90181660383494
 30
0.0
 10
-67.264958938859
 20
-7.056685405656825
 30
0.0
 10
-68.34117869349822
 20
-7.168001721166307
 30
0.0
 10
-69.41743894275422
 20
-7.23504899431307
 30
0.0
 10
-70.13511992070636
 20
-7.25000004148476
 30
0.0
 10
-70.49372158884205
 20
-7.249999999999635
 30
0.0
  0
LINE
  5
41B7
330
1F
100
AcDbEntity
  8
PV0001_1
  6
CONTINUOUS
100
AcDbLine
 10
-82.63878417650301
 20
4.335191860712662
 30
0.0
 11
-82.63878417650301
 21
7.250000000000237
 31
0.0
  0
LINE
  5
41B8
330
1F
100
AcDbEntity
  8
PV0001_1
  6
CONTINUOUS
100
AcDbLine
 10
-82.63878417650301
 20
-7.249999999999918
 30
0.0
 11
-82.63878417650303
 21
-4.574992063217103
 31
0.0
  0
LINE
  5
41B9
330
1F
100
AcDbEntity
  8
AM_11
 48
0.5
100
AcDbLine
 10
-80.638784176503
 20
-7.027506809475206
 30
0.0
 11
-80.638784176503
 21
7.250000000000075
 31
0.0
  0
LINE
  5
41BA
330
1F
100
AcDbEntity
  8
PV0001_1
  6
CONTINUOUS
 48
0.5
100
AcDbLine
 10
-82.54779161869256
 20
7.250000000000233
 30
0.0
 11
-68.17435902182571
 21
7.250000000000196
 31
0.0
  0
LINE
  5
41BB
330
1F
100
AcDbEntity
  8
AM_0
100
AcDbLine
 10
-82.63878417650301
 20
-7.249999999999918
 30
0.0
 11
-70.49372158884207
 21
-7.249999999999952
 31
0.0
  0
LINE
  5
41C1
330
1F
100
AcDbEntity
  8
AM_11
 48
0.5
100
AcDbLine
 10
-7.959099792618101
 20
-7.250000000000139
 30
0.0
 11
-70.40272604399153
 21
-7.249999999999936
 31
0.0
  0
DIMENSION
  5
41C2
330
1F
100
AcDbEntity
  8
AM_5
100
AcDbDimension
  2
*D17
 10
14.49572145358845
 20
-7.250000000000153
 30
0.0
 11
14.49572145358845
 21
-0.0000000000001519
 31
0.0
 70
   160
  1
%%C<>
 51
359.9999999999998
  3
AM_JIS$0
100
AcDbAlignedDimension
 13
-2.638784176503157
 23
7.249999999999849
 33
0.0
 14
-2.638784176503004
 24
-7.250000000000148
 34
0.0
 50
89.99999999999976
100
AcDbRotatedDimension
1001
GENIUS_GENDTOL_13
1000

1000
h7
1000

1040
0.0
1001
ACAD
1000
DSTYLE
1002
{
1070
   271
1070
     3
1002
}
  0
SPLINE
  5
42C0
330
1F
100
AcDbEntity
  8
PV0001_1
  6
CONTINUOUS
 48
0.5
100
AcDbSpline
210
0.0
220
0.0
230
1.0
 70
     8
 71
     3
 72
    15
 73
    11
 74
     0
 42
0.0000000001
 43
0.0000000001
 40
0.0
 40
0.0
 40
0.0
 40
0.0
 40
1.010743614677189
 40
2.022833924044153
 40
3.037578959561199
 40
4.056212747067873
 40
5.079857613375832
 40
6.109500119648989
 40
7.14596120163808
 40
7.436855979220325
 40
7.436855979220325
 40
7.436855979220325
 40
7.436855979220325
 10
-10.11960915921505
 20
7.249999999999769
 30
0.0
 10
-10.46614555807986
 20
7.249956433667533
 30
0.0
 10
-11.15974685392529
 20
7.235080068066338
 30
0.0
 10
-12.19984137279782
 20
7.167986035528576
 30
0.0
 10
-13.23990754169982
 20
7.056690025946867
 30
0.0
 10
-14.27990494176668
 20
6.901817631698516
 30
0.0
 10
-15.31982709709173
 20
6.704384533102142
 30
0.0
 10
-16.35965626707879
 20
6.465587617514443
 30
0.0
 10
-17.14763949577597
 20
6.25440265143677
 30
0.0
 10
-17.5893630061977
 20
6.125698652494004
 30
0.0
 10
-17.68606970996883
 20
6.097033763260082
 30
0.0
  0
LINE
  5
42C1
330
1F
100
AcDbEntity
  8
PV0001_1
  6
CONTINUOUS
 48
0.5
100
AcDbLine
 10
-51.69704408779715
 20
7.249999999999857
 30
0.0
 11
-25.50043362688551
 21
7.249999999999715
 31
0.0
  0
LINE
  5
42C2
330
1F
100
AcDbEntity
  8
AM_11
 48
0.5
100
AcDbLine
 10
-69.23134693456282
 20
7.249999999999957
 30
0.0
 11
-10.11960915921505
 21
7.249999999999619
 31
0.0
  0
LINE
  5
42C3
330
1F
100
AcDbEntity
  8
AM_0
100
AcDbLine
 10
-11.03878417650301
 20
-7.234342073237751
 30
0.0
 11
-11.03878417650297
 21
3.48425948445428
 31
0.0
  0
SPLINE
  5
42C4
330
1F
100
AcDbEntity
  8
PV0001_1
  6
CONTINUOUS
100
AcDbSpline
210
0.0
220
0.0
230
1.0
 70
     8
 71
     3
 72
    17
 73
    13
 74
     0
 42
0.0000000001
 43
0.0000000001
 40
1.580019955310467
 40
1.580019955310467
 40
1.580019955310467
 40
1.580019955310467
 40
2.030549285115227
 40
3.082371838836284
 40
4.126290986361125
 40
5.162752068350215
 40
6.192395305374981
 40
7.216039564037012
 40
8.234688489606833
 40
9.249433870634691
 40
10.26152376260694
 40
11.27226744710342
 40
11.27226744710342
 40
11.27226744710342
 40
11.27226744710352
 10
-19.91531142372113
 20
-5.350713487780251
 30
0.0
 10
-20.06246917026462
 20
-5.40582139166406
 30
0.0
 10
-20.5540254831594
 20
-5.586444907355346
 30
0.0
 10
-21.39323401013503
 20
-5.869759354539008
 30
0.0
 10
-22.43271791867573
 20
-6.187033951152453
 30
0.0
 10
-23.47248799616312
 20
-6.465558921908538
 30
0.0
 10
-24.51230571555254
 20
-6.704398917356487
 30
0.0
 10
-25.55223672121896
 20
-6.901816603835426
 30
0.0
 10
-26.59223957273438
 20
-7.056685405657311
 30
0.0
 10
-27.6323071831525
 20
-7.168001721166791
 30
0.0
 10
-28.67241392790086
 20
-7.235048994313548
 30
0.0
 10
-29.36598671966908
 20
-7.250000041485237
 30
0.0
 10
-29.71254231713149
 20
-7.250000000000111
 30
0.0
  0
LINE
  5
42C5
330
1F
100
AcDbEntity
  8
PV0001_1
  6
CONTINUOUS
 48
0.5
100
AcDbLine
 10
-53.85052246687977
 20
-7.250000000000128
 30
0.0
 11
-29.71254231713165
 21
-7.250000000000261
 31
0.0
  0
LINE
  5
42C6
330
1F
100
AcDbEntity
  8
AM_0
100
AcDbLine
 10
-10.16704956448197
 20
3.063749251004109
 30
0.0
 11
-10.10958420152893
 21
7.249999999999769
 31
0.0
  0
SPLINE
  5
42C7
330
1F
100
AcDbEntity
  8
PV0001_1
  6
CONTINUOUS
100
AcDbSpline
210
0.0
220
0.0
230
1.0
 70
     8
 71
     3
 72
    25
 73
    21
 74
     0
 42
0.0000000001
 43
0.0000000001
 40
24.56499986022253
 40
24.56499986022253
 40
24.56499986022253
 40
24.56499986022253
 40
24.6081876908653
 40
25.71582455492886
 40
26.81883757994213
 40
27.91624752121713
 40
29.00722033829659
 40
30.09105838626677
 40
31.16722880550176
 40
32.23537921050758
 40
33.29534548809967
 40
34.347168041821
 40
35.39108718934584
 40
36.42754827133493
 40
37.45720575381954
 40
38.48085062012849
 40
39.49948440763516
 40
40.51422944315121
 40
41.52631975251916
 40
42.53706336680078
 40
42.53706336680078
 40
42.53706336680078
 40
42.53706336680078
 10
-7.739402990146264
 20
1.832716659561007
 30
0.0
 10
-7.752951891212517
 20
1.839781159268487
 30
0.0
 10
-8.114010719789476
 20
2.027970985516006
 30
0.0
 10
-8.822275568683798
 20
2.393482810975311
 30
0.0
 10
-9.866080241588985
 20
2.91840360036124
 30
0.0
 10
-10.90977865182076
 20
3.426257475179201
 30
0.0
 10
-11.95335198339133
 20
3.913852799555258
 30
0.0
 10
-12.99678511875771
 20
4.378126433679509
 30
0.0
 10
-14.04006126293372
 20
4.816156005012618
 30
0.0
 10
-15.08316006964805
 20
5.225191425743196
 30
0.0
 10
-16.12607060412686
 20
5.602627803737074
 30
0.0
 10
-17.1687697853191
 20
5.946093181972115
 30
0.0
 10
-18.21124508102831
 20
6.253382830173124
 30
0.0
 10
-19.2534796182351
 20
6.522545985234333
 30
0.0
 10
-20.29545006529066
 20
6.751842110918022
 30
0.0
 10
-21.33713453177779
 20
6.939783823865464
 30
0.0
 10
-22.37850231843168
 20
7.085160401179219
 30
0.0
 10
-23.41953746047653
 20
7.186971177329268
 30
0.0
 10
-24.46021187740284
 20
7.244548671690633
 30
0.0
 10
-25.15389238114462
 20
7.253161340794297
 30
0.0
 10
-25.50043362688582
 20
7.249999999999857
 30
0.0
  0
SPLINE
  5
42C8
330
1F
100
AcDbEntity
  8
PV0001_1
  6
CONTINUOUS
100
AcDbSpline
210
0.0
220
0.0
230
1.0
 70
     8
 71
     3
 72
    55
 73
    51
 74
     0
 42
0.0000000001
 43
0.0000000001
 40
0.8937596859602555
 40
0.8937596859602555
 40
0.8937596859602555
 40
0.8937596859602555
 40
1.010743684496582
 40
2.022833576467832
 40
3.037578957496688
 40
4.056212745003489
 40
5.079857003664532
 40
6.109500240690281
 40
7.145961322679372
 40
8.189895241603872
 40
9.241717795325891
 40
10.30168407291828
 40
11.36983447792315
 40
12.44600489715814
 40
13.52984294512926
 40
14.62081576220742
 40
15.7182257034828
 40
16.82123173843959
 40
17.92886860250316
 40
19.0400688939571
 40
20.15368796660465
 40
21.26852814259644
 40
22.38336992938901
 40
23.49698739941135
 40
24.6081876908653
 40
25.71582455492886
 40
26.81883757994213
 40
27.91624752121713
 40
29.00722033829659
 40
30.09105838626677
 40
31.16722880550176
 40
32.23537921050758
 40
33.29534548809967
 40
34.347168041821
 40
35.39108718934584
 40
36.42754827133493
 40
37.45720575381954
 40
38.48085062012849
 40
39.49948440763516
 40
40.51422944315121
 40
41.52631975251916
 40
42.53706336719636
 40
43.54780698187354
 40
44.55989729124051
 40
45.57464232675757
 40
46.59327611426424
 40
47.6169209805722
 40
48.64656348684535
 40
49.68302456883444
 40
50.58557219878025
 40
50.58557219878025
 40
50.58557219878025
 40
50.58557219878025
 10
-11.03878417650301
 20
-7.23204737032257
 30
0.0
 10
-11.07887373145077
 20
-7.230696065446323
 30
0.0
 10
-11.46577254894317
 20
-7.216577531700261
 30
0.0
 10
-12.19984430883561
 20
-7.167462714751884
 30
0.0
 10
-13.23990667740896
 20
-7.056831494977396
 30
0.0
 10
-14.27990467633273
 20
-6.901777632841786
 30
0.0
 10
-15.31982792806401
 20
-6.704402405454432
 30
0.0
 10
-16.35965591724217
 20
-6.465583508998346
 30
0.0
 10
-17.39939212204574
 20
-6.186929712682203
 30
0.0
 10
-18.4390273221158
 20
-5.870147359029117
 30
0.0
 10
-19.47855443564192
 20
-5.517181472473002
 30
0.0
 10
-20.51797864409205
 20
-5.130247583397379
 30
0.0
 10
-21.55730273125158
 20
-4.711713753729663
 30
0.0
 10
-22.59653968264244
 20
-4.264185462874879
 30
0.0
 10
-23.63569425627855
 20
-3.79041286806552
 30
0.0
 10
-24.67477608796774
 20
-3.293317771751081
 30
0.0
 10
-25.71379670126829
 20
-2.77596685370299
 30
0.0
 10
-26.75276521517985
 20
-2.241541577290184
 30
0.0
 10
-27.79169171301005
 20
-1.693328865859778
 30
0.0
 10
-28.83058731171411
 20
-1.134702903519162
 30
0.0
 10
-29.86946112339524
 20
-0.5690978931101053
 30
0.0
 10
-30.90832781856085
 20
-0.0000014792635104
 30
0.0
 10
-31.94718985008427
 20
0.569105178673205
 30
0.0
 10
-32.986067143844
 20
1.134701381116262
 30
0.0
 10
-34.0249614600175
 20
1.693329034385729
 30
0.0
 10
-35.06388981024219
 20
2.241543834262215
 30
0.0
 10
-36.10286263429341
 20
2.77596454979559
 30
0.0
 10
-37.14188488744304
 20
3.293318091532749
 30
0.0
 10
-38.18096686914114
 20
3.790412784754269
 30
0.0
 10
-39.22012140496565
 20
4.26418547919621
 30
0.0
 10
-40.25935835901758
 20
4.711713770706174
 30
0.0
 10
-41.29868247264953
 20
5.130247500295933
 30
0.0
 10
-42.33810657381979
 20
5.517181784466461
 30
0.0
 10
-43.37762921984024
 20
5.870144554338405
 30
0.0
 10
-44.41725799096739
 20
6.186931057049868
 30
0.0
 10
-45.45699381008276
 20
6.465590456743613
 30
0.0
 10
-46.49682922398127
 20
6.704382076766606
 30
0.0
 10
-47.53675591132512
 20
6.901818395958831
 30
0.0
 10
-48.57675421855084
 20
7.056688461754457
 30
0.0
 10
-49.61681730979115
 20
7.167991504625598
 30
0.0
 10
-50.6569231947141
 20
7.235059815573145
 30
0.0
 10
-51.69705193533308
 20
7.257465119034129
 30
0.0
 10
-52.73718067442171
 20
7.235059815538085
 30
0.0
 10
-53.77728656394483
 20
7.167991504766484
 30
0.0
 10
-54.81734963824877
 20
7.056688461223389
 30
0.0
 10
-55.85734800897299
 20
6.901818397954717
 30
0.0
 10
-56.89726938776108
 20
6.704383031795477
 30
0.0
 10
-57.93710070510387
 20
6.465592898258837
 30
0.0
 10
-58.92956199292997
 20
6.199580429592753
 30
0.0
 10
-59.57348217894189
 20
6.005042996462236
 30
0.0
 10
-60.40076574357327
 20
5.695118490971233
 30
0.0
  0
SPLINE
  5
42C9
330
1F
100
AcDbEntity
  8
PV0001_1
  6
CONTINUOUS
100
AcDbSpline
210
0.0
220
0.0
230
1.0
 70
     8
 71
     3
 72
    47
 73
    43
 74
     0
 42
0.0000000001
 43
0.0000000001
 40
0.0
 40
0.0
 40
0.0
 40
0.0
 40
1.010743684496582
 40
2.022833576467832
 40
3.037578957496688
 40
4.056212745003489
 40
5.079857003664532
 40
6.109500240690281
 40
7.145961322679372
 40
8.189895241603872
 40
9.241717795325891
 40
10.30168407291828
 40
11.36983447792315
 40
12.44600489715814
 40
13.52984294512926
 40
14.62081576220742
 40
15.7182257034828
 40
16.82123173843959
 40
17.92886860250316
 40
19.0400688939571
 40
20.15368796660465
 40
21.26852814259644
 40
22.38336992938901
 40
23.49698739941135
 40
24.6081876908653
 40
25.71582455492886
 40
26.81883757994213
 40
27.91624752121713
 40
29.00722033829659
 40
30.09105838626677
 40
31.16722880550176
 40
32.23537921050758
 40
33.29534548809967
 40
34.347168041821
 40
35.39108718934584
 40
36.42754827133493
 40
37.45720575381954
 40
38.48085062012849
 40
39.49948440763516
 40
40.51422944315121
 40
41.52631975251916
 40
42.53706336679711
 40
42.53706336679711
 40
42.53706336679711
 40
42.53706336679711
 10
-27.65390415911039
 20
-7.250000000000138
 30
0.0
 10
-28.00045976114491
 20
-7.245686425642133
 30
0.0
 10
-28.69403254192132
 20
-7.237053531685137
 30
0.0
 10
-29.73413930873087
 20
-7.16746271475178
 30
0.0
 10
-30.77420167730423
 20
-7.056831494977296
 30
0.0
 10
-31.814199676228
 20
-6.901777632841685
 30
0.0
 10
-32.85412292795928
 20
-6.704402405454328
 30
0.0
 10
-33.89395091713744
 20
-6.465583508998242
 30
0.0
 10
-34.933687121941
 20
-6.186929712682102
 30
0.0
 10
-35.97332232201107
 20
-5.870147359029017
 30
0.0
 10
-37.01284943553719
 20
-5.517181472472899
 30
0.0
 10
-38.05227364398732
 20
-5.130247583397276
 30
0.0
 10
-39.09159773114687
 20
-4.711713753729562
 30
0.0
 10
-40.13083468253771
 20
-4.264185462874778
 30
0.0
 10
-41.16998925617381
 20
-3.790412868065419
 30
0.0
 10
-42.20907108786301
 20
-3.29331777175098
 30
0.0
 10
-43.24809170116357
 20
-2.775966853702888
 30
0.0
 10
-44.28706021507511
 20
-2.241541577290083
 30
0.0
 10
-45.32598671290532
 20
-1.693328865859677
 30
0.0
 10
-46.36488231160937
 20
-1.13470290351906
 30
0.0
 10
-47.4037561232905
 20
-0.5690978931100041
 30
0.0
 10
-48.44262281845612
 20
-0.0000014792634089
 30
0.0
 10
-49.48148484997954
 20
0.5691051786733067
 30
0.0
 10
-50.52036214373927
 20
1.134701381116364
 30
0.0
 10
-51.55925645991277
 20
1.693329034385831
 30
0.0
 10
-52.59818481013746
 20
2.241543834262317
 30
0.0
 10
-53.63715763418868
 20
2.775964549795692
 30
0.0
 10
-54.67617988733832
 20
3.29331809153285
 30
0.0
 10
-55.71526186903642
 20
3.79041278475437
 30
0.0
 10
-56.75441640486091
 20
4.264185479196314
 30
0.0
 10
-57.79365335891285
 20
4.711713770706275
 30
0.0
 10
-58.83297747254481
 20
5.130247500296033
 30
0.0
 10
-59.87240157371505
 20
5.517181784466561
 30
0.0
 10
-60.91192421973552
 20
5.870144554338509
 30
0.0
 10
-61.95155299086266
 20
6.186931057049971
 30
0.0
 10
-62.99128880997803
 20
6.465590456743713
 30
0.0
 10
-64.03112422387653
 20
6.704382076766706
 30
0.0
 10
-65.07105091122039
 20
6.901818395958935
 30
0.0
 10
-66.11104921844614
 20
7.05668846175456
 30
0.0
 10
-67.15111230968642
 20
7.167991504625699
 30
0.0
 10
-68.1912181944727
 20
7.23505981556443
 30
0.0
 10
-68.88479126937379
 20
7.250000000000048
 30
0.0
 10
-69.23134693456282
 20
7.250000000000105
 30
0.0
  0
VIEWPORT
  5
110
330
101
100
AcDbEntity
 67
     1
  8
0
100
AcDbViewport
 10
420.5
 20
297.0
 30
0.0
 40
948.9782706766916
 41
628.452
 68
     1
 69
     1
1001
ACAD
1000
MVIEW
1002
{
1070
    16
1010
0.0
1020
0.0
1030
0.0
1010
0.0
1020
0.0
1030
1.0
1040
0.0
1040
628.452
1040
420.5
1040
297.0
1040
50.0
1040
0.0
1040
0.0
1070
     0
1070
   100
1070
     1
1070
     1
1070
     0
1070
     0
1070
     0
1070
     0
1040
0.0
1040
0.0
1040
0.0
1040
10.0
1040
10.0
1040
10.0
1040
10.0
1070
     0
1002
{
1002
}
1002
}
  0
ENDSEC
  0
SECTION
  2
OBJECTS
  0
DICTIONARY
  5
C
330
0
100
AcDbDictionary
  3
ACAD_GROUP
350
D
  3
ACAD_LAYOUT
350
1A
  3
ACAD_MLINESTYLE
350
17
  3
ACAD_PLOTSETTINGS
350
19
  3
ACAD_PLOTSTYLENAME
350
E
  3
ACDBVARIABLEDICTIONARY
350
34
  3
ACMDICTIONARY
350
43
  3
AMG
350
2B
  3
AMGSNAPSETTINGS
350
6E
  3
DWGPROPS
350
42E6
  3
ACDBHEADERROUNDTRIPXREC
350
42F6
  0
DICTIONARY
  5
74
330
1F
100
AcDbDictionary
280
     1
  3
ACAD_INDEX
360
42E8
  3
ACAD_LAYOUTSELFREF
360
4319
  0
DICTIONARY
  5
431E
330
101
100
AcDbDictionary
280
     1
  3
ACAD_LAYOUTSELFREF
360
431F
  0
DICTIONARY
  5
D
102
{ACAD_REACTORS
330
C
102
}
330
C
100
AcDbDictionary
  0
DICTIONARY
  5
1A
102
{ACAD_REACTORS
330
C
102
}
330
C
100
AcDbDictionary
  0
DICTIONARY
  5
17
102
{ACAD_REACTORS
330
C
102
}
330
C
100
AcDbDictionary
  3
STANDARD
350
18
  0
DICTIONARY
  5
19
102
{ACAD_REACTORS
330
C
102
}
330
C
100
AcDbDictionary
  0
ACDBDICTIONARYWDFLT
  5
E
102
{ACAD_REACTORS
330
C
102
}
330
C
100
AcDbDictionary
281
     1
  3
Normal
350
F
100
AcDbDictionaryWithDefault
340
F
  0
DICTIONARY
  5
34
102
{ACAD_REACTORS
330
C
102
}
330
C
100
AcDbDictionary
  3
INDEXCTL
350
35
  3
SORTENTS
350
B5E
  0
DICTIONARY
  5
43
102
{ACAD_REACTORS
330
C
102
}
330
C
100
AcDbDictionary
  3
ACMSTDDICTIONARY
350
260
  0
DICTIONARY
  5
2B
102
{ACAD_REACTORS
330
C
102
}
330
C
100
AcDbDictionary
  3
ACMGSETTINGS
350
2C
  0
DICTIONARY
  5
6E
102
{ACAD_REACTORS
330
C
102
}
330
C
100
AcDbDictionary
  0
XRECORD
  5
42E6
102
{ACAD_REACTORS
330
C
102
}
330
C
100
AcDbXrecord
  1
DWGPROPS COOKIE
  2

  3

  4

  6

  7

  8

  9

300
AmdtFileType=82
301
=
302
=
303
=
304
=
305
=
306
=
307
=
308
=
309
=
 40
0.2879869675925926
 41
2452800.443498622
 42
2453002.227002141
  1

 90
        1
  0
DICTIONARY
  5
42F6
102
{ACAD_REACTORS
330
C
102
}
330
C
100
AcDbDictionary
  3
TSTACKALIGN
350
42F7
  3
TSTACKSIZE
350
42F8
  3
HYPERLINKBASE
350
42F9
  3
STYLESHEET
350
42FA
  3
LAYOUTDICT
350
42FB
  3
PLOTSETDICT
350
42FC
  3
PLOTSTYLNAMDICT
350
42FD
  3
LWETCUNION
350
42FE
  3
INSUNITS
350
42FF
  3
CEPSNTYPE
350
4300
  3
FINGERPRINTGUID
350
4301
  3
VERSIONGUID
350
4302
  3
PSVPSCALE
350
4303
  3
DIMSTYLEDATA
350
4304
  3
PUCSORTHOREF
350
4305
  3
PUCSORTHOVIEW
350
4306
  3
PUCSBASE
350
4307
  3
PUCSORGTOP
350
4308
  3
PUCSORGBOTTOM
350
4309
  3
PUCSORGLEFT
350
430A
  3
PUCSORGRIGHT
350
430B
  3
PUCSORGFRONT
350
430C
  3
PUCSORGBACK
350
430D
  3
UCSORTHOREF
350
430E
  3
UCSORTHOVIEW
350
430F
  3
UCSBASE
350
4310
  3
UCSORGTOP
350
4311
  3
UCSORGBOTTOM
350
4312
  3
UCSORGLEFT
350
4313
  3
UCSORGRIGHT
350
4314
  3
UCSORGFRONT
350
4315
  3
UCSORGBACK
350
4316
  0
DICTIONARY
  5
42E8
102
{ACAD_REACTORS
330
74
102
}
330
74
100
AcDbDictionary
  3
*A1
350
42E9
  0
XRECORD
  5
4319
102
{ACAD_REACTORS
330
74
102
}
330
74
100
AcDbXrecord
340
1F
  0
XRECORD
  5
431F
102
{ACAD_REACTORS
330
431E
102
}
330
431E
100
AcDbXrecord
340
101
  0
MLINESTYLE
  5
18
102
{ACAD_REACTORS
330
17
102
}
330
17
100
AcDbMlineStyle
  2
STANDARD
 70
     0
  3

 62
   256
 51
90.0
 52
90.0
 71
     2
 49
0.5
 62
   256
  6
BYLAYER
 49
-0.5
 62
   256
  6
BYLAYER
  0
ACDBPLACEHOLDER
  5
F
102
{ACAD_REACTORS
330
E
102
}
330
E
100
AcDbPlaceHolder
280
     0
  0
DICTIONARYVAR
  5
35
102
{ACAD_REACTORS
330
34
102
}
330
34
100
DictionaryVariables
280
     0
  1
1
  0
DICTIONARYVAR
  5
B5E
102
{ACAD_REACTORS
330
34
102
}
330
34
100
DictionaryVariables
280
     0
  1
96
  0
DICTIONARY
  5
260
102
{ACAD_REACTORS
330
43
102
}
330
43
100
AcDbDictionary
  0
DICTIONARY
  5
2C
102
{ACAD_REACTORS
330
2B
102
}
330
2B
100
AcDbDictionary
  3
DWGSETTINGS
350
2D
  0
XRECORD
  5
42F7
102
{ACAD_REACTORS
330
42F6
102
}
330
42F6
100
AcDbXrecord
 90
        1
  0
XRECORD
  5
42F8
102
{ACAD_REACTORS
330
42F6
102
}
330
42F6
100
AcDbXrecord
 90
       70
  0
XRECORD
  5
42F9
102
{ACAD_REACTORS
330
42F6
102
}
330
42F6
100
AcDbXrecord
  1

  0
XRECORD
  5
42FA
102
{ACAD_REACTORS
330
42F6
102
}
330
42F6
100
AcDbXrecord
  1
ASAMI.ctb
  0
XRECORD
  5
42FB
102
{ACAD_REACTORS
330
42F6
102
}
330
42F6
100
AcDbXrecord
340
1A
  0
XRECORD
  5
42FC
102
{ACAD_REACTORS
330
42F6
102
}
330
42F6
100
AcDbXrecord
340
19
  0
XRECORD
  5
42FD
102
{ACAD_REACTORS
330
42F6
102
}
330
42F6
100
AcDbXrecord
340
E
  0
XRECORD
  5
42FE
102
{ACAD_REACTORS
330
42F6
102
}
330
42F6
100
AcDbXrecord
 90
    10781
  0
XRECORD
  5
42FF
102
{ACAD_REACTORS
330
42F6
102
}
330
42F6
100
AcDbXrecord
 90
        4
  0
XRECORD
  5
4300
102
{ACAD_REACTORS
330
42F6
102
}
330
42F6
100
AcDbXrecord
 90
        0
  0
XRECORD
  5
4301
102
{ACAD_REACTORS
330
42F6
102
}
330
42F6
100
AcDbXrecord
  1
{AFB28963-8C59-40AE-9337-C84526B81ACE}
  0
XRECORD
  5
4302
102
{ACAD_REACTORS
330
42F6
102
}
330
42F6
100
AcDbXrecord
  1
{F0198125-E5B1-49AB-935F-CD125AF476BE}
  0
XRECORD
  5
4303
102
{ACAD_REACTORS
330
42F6
102
}
330
42F6
100
AcDbXrecord
 40
0.0
  0
XRECORD
  5
4304
102
{ACAD_REACTORS
330
42F6
102
}
330
42F6
100
AcDbXrecord
1000
DSTYLE
1002
{
1070
    79
 70
     2
1070
   341
340
59
1070
   342
340
59
1070
   371
 70
    -1
1070
   372
 70
    -1
1002
}
  0
XRECORD
  5
4305
102
{ACAD_REACTORS
330
42F6
102
}
330
42F6
100
AcDbXrecord
340
0
  0
XRECORD
  5
4306
102
{ACAD_REACTORS
330
42F6
102
}
330
42F6
100
AcDbXrecord
 70
     0
  0
XRECORD
  5
4307
102
{ACAD_REACTORS
330
42F6
102
}
330
42F6
100
AcDbXrecord
340
0
  0
XRECORD
  5
4308
102
{ACAD_REACTORS
330
42F6
102
}
330
42F6
100
AcDbXrecord
 10
0.0
 20
0.0
 30
0.0
  0
XRECORD
  5
4309
102
{ACAD_REACTORS
330
42F6
102
}
330
42F6
100
AcDbXrecord
 10
0.0
 20
0.0
 30
0.0
  0
XRECORD
  5
430A
102
{ACAD_REACTORS
330
42F6
102
}
330
42F6
100
AcDbXrecord
 10
0.0
 20
0.0
 30
0.0
  0
XRECORD
  5
430B
102
{ACAD_REACTORS
330
42F6
102
}
330
42F6
100
AcDbXrecord
 10
0.0
 20
0.0
 30
0.0
  0
XRECORD
  5
430C
102
{ACAD_REACTORS
330
42F6
102
}
330
42F6
100
AcDbXrecord
 10
0.0
 20
0.0
 30
0.0
  0
XRECORD
  5
430D
102
{ACAD_REACTORS
330
42F6
102
}
330
42F6
100
AcDbXrecord
 10
0.0
 20
0.0
 30
0.0
  0
XRECORD
  5
430E
102
{ACAD_REACTORS
330
42F6
102
}
330
42F6
100
AcDbXrecord
340
0
  0
XRECORD
  5
430F
102
{ACAD_REACTORS
330
42F6
102
}
330
42F6
100
AcDbXrecord
 70
     0
  0
XRECORD
  5
4310
102
{ACAD_REACTORS
330
42F6
102
}
330
42F6
100
AcDbXrecord
340
0
  0
XRECORD
  5
4311
102
{ACAD_REACTORS
330
42F6
102
}
330
42F6
100
AcDbXrecord
 10
0.0
 20
0.0
 30
0.0
  0
XRECORD
  5
4312
102
{ACAD_REACTORS
330
42F6
102
}
330
42F6
100
AcDbXrecord
 10
0.0
 20
0.0
 30
0.0
  0
XRECORD
  5
4313
102
{ACAD_REACTORS
330
42F6
102
}
330
42F6
100
AcDbXrecord
 10
0.0
 20
0.0
 30
0.0
  0
XRECORD
  5
4314
102
{ACAD_REACTORS
330
42F6
102
}
330
42F6
100
AcDbXrecord
 10
0.0
 20
0.0
 30
0.0
  0
XRECORD
  5
4315
102
{ACAD_REACTORS
330
42F6
102
}
330
42F6
100
AcDbXrecord
 10
0.0
 20
0.0
 30
0.0
  0
XRECORD
  5
4316
102
{ACAD_REACTORS
330
42F6
102
}
330
42F6
100
AcDbXrecord
 10
0.0
 20
0.0
 30
0.0
  0
LAYER_INDEX
  5
42E9
102
{ACAD_REACTORS
330
42E8
102
}
330
42E8
100
AcDbIndex
 40
2453151.704544977
100
AcDbLayerIndex
  8
0
360
42EA
 90
        0
  8
AM_0
360
42EB
 90
       11
  8
PV0001_1
360
42EC
 90
       33
  8
AM_CL
360
42ED
 90
        0
  8
AM_7
360
42EE
 90
        1
  8
AM_11
360
42EF
 90
        3
  8
AM_5
360
42F0
 90
       10
  8
Defpoints
360
42F1
 90
        0
  8
AM_6
360
42F2
 90
        1
  8
AM_4
360
42F3
 90
        0
  8
AM_3
360
42F4
 90
        0
  0
XRECORD
  5
2D
102
{ACAD_REACTORS
330
2C
102
}
330
2C
100
AcDbXrecord
  1
VERSION
140
15.0
  1
PRODUCT
  2
AutoCAD Mechanical 2000
  0
IDBUFFER
  5
42EA
330
0
100
AcDbIdBuffer
  0
IDBUFFER
  5
42EB
330
0
100
AcDbIdBuffer
330
390B
330
3910
330
3928
330
3929
330
3F49
330
41A7
330
41A9
330
41B0
330
41BB
330
42C3
330
42C6
  0
IDBUFFER
  5
42EC
330
0
100
AcDbIdBuffer
330
41A5
330
41A6
330
41AA
330
41AB
330
41AC
330
41AF
330
41B6
330
41B7
330
41B8
330
41BA
330
42C0
330
42C1
330
42C4
330
42C5
330
42C7
330
42C8
330
42C9
330
35EA
330
35EB
330
35F4
330
35F5
330
35F9
330
35FA
330
35FB
330
35FD
330
3601
330
3602
330
395A
330
4171
330
4172
330
41A2
330
41A3
330
41A4
  0
IDBUFFER
  5
42ED
330
0
100
AcDbIdBuffer
  0
IDBUFFER
  5
42EE
330
0
100
AcDbIdBuffer
330
35D1
  0
IDBUFFER
  5
42EF
330
0
100
AcDbIdBuffer
330
41B9
330
41C1
330
42C2
  0
IDBUFFER
  5
42F0
330
0
100
AcDbIdBuffer
330
36BA
330
3866
330
3990
330
3B0D
330
3BB8
330
3C40
330
3CCB
330
3D56
330
3DFD
330
41C2
  0
IDBUFFER
  5
42F1
330
0
100
AcDbIdBuffer
  0
IDBUFFER
  5
42F2
330
0
100
AcDbIdBuffer
330
19BD
  0
IDBUFFER
  5
42F3
330
0
100
AcDbIdBuffer
  0
IDBUFFER
  5
42F4
330
0
100
AcDbIdBuffer
  0
ENDSEC
  0
EOF
