  0
SECTION
  2
HEADER
  9
$ACADVER
  1
AC1014
  9
$ACADMAINTVER
 70
     9
  9
$DWGCODEPAGE
  3
ANSI_932
  9
$INSBASE
 10
0.0
 20
0.0
 30
0.0
  9
$EXTMIN
 10
-176.6964406788478
 20
-67.10222642310276
 30
-0.00000001
  9
$EXTMAX
 10
26.2406899133363
 20
29.85407676458025
 30
0.00000001
  9
$LIMMIN
 10
-182.206109311767
 20
-91.64095510696041
  9
$LIMMAX
 10
38.17958103443015
 20
56.05788976085091
  9
$ORTHOMODE
 70
     0
  9
$REGENMODE
 70
     1
  9
$FILLMODE
 70
     1
  9
$QTEXTMODE
 70
     0
  9
$MIRRTEXT
 70
     0
  9
$DRAGMODE
 70
     2
  9
$LTSCALE
 40
1.0
  9
$OSMODE
 70
    55
  9
$ATTMODE
 70
     1
  9
$TEXTSIZE
 40
2.5
  9
$TRACEWID
 40
1.0
  9
$TEXTSTYLE
  7
STANDARD
  9
$CLAYER
  8
AM_0
  9
$CELTYPE
  6
BYLAYER
  9
$CECOLOR
 62
   256
  9
$CELTSCALE
 40
1.0
  9
$DELOBJ
 70
     1
  9
$DISPSILH
 70
     0
  9
$DIMSCALE
 40
1.0
  9
$DIMASZ
 40
2.5
  9
$DIMEXO
 40
1.0
  9
$DIMDLI
 40
12.0
  9
$DIMRND
 40
0.0
  9
$DIMDLE
 40
0.0
  9
$DIMEXE
 40
1.0
  9
$DIMTP
 40
0.1
  9
$DIMTM
 40
0.1
  9
$DIMTXT
 40
3.2
  9
$DIMCEN
 40
0.0
  9
$DIMTSZ
 40
0.0
  9
$DIMTOL
 70
     0
  9
$DIMLIM
 70
     0
  9
$DIMTIH
 70
     0
  9
$DIMTOH
 70
     0
  9
$DIMSE1
 70
     0
  9
$DIMSE2
 70
     0
  9
$DIMTAD
 70
     3
  9
$DIMZIN
 70
     8
  9
$DIMBLK
  1
OPEN30
  9
$DIMASO
 70
     1
  9
$DIMSHO
 70
     1
  9
$DIMPOST
  1

  9
$DIMAPOST
  1
"
  9
$DIMALT
 70
     0
  9
$DIMALTD
 70
     2
  9
$DIMALTF
 40
0.0393701
  9
$DIMLFAC
 40
1.0
  9
$DIMTOFL
 70
     1
  9
$DIMTVP
 40
0.0
  9
$DIMTIX
 70
     0
  9
$DIMSOXD
 70
     0
  9
$DIMSAH
 70
     0
  9
$DIMBLK1
  1

  9
$DIMBLK2
  1

  9
$DIMSTYLE
  2
AM_JIS
  9
$DIMCLRD
 70
   256
  9
$DIMCLRE
 70
   256
  9
$DIMCLRT
 70
     2
  9
$DIMTFAC
 40
0.71
  9
$DIMGAP
 40
1.5
  9
$DIMJUST
 70
     0
  9
$DIMSD1
 70
     0
  9
$DIMSD2
 70
     0
  9
$DIMTOLJ
 70
     0
  9
$DIMTZIN
 70
     0
  9
$DIMALTZ
 70
     0
  9
$DIMALTTZ
 70
     0
  9
$DIMFIT
 70
     3
  9
$DIMUPT
 70
     0
  9
$DIMUNIT
 70
     2
  9
$DIMDEC
 70
     3
  9
$DIMTDEC
 70
     3
  9
$DIMALTU
 70
     2
  9
$DIMALTTD
 70
     2
  9
$DIMTXSTY
  7
ASAMI
  9
$DIMAUNIT
 70
     0
  9
$LUNITS
 70
     2
  9
$LUPREC
 70
     2
  9
$SKETCHINC
 40
1.0
  9
$FILLETRAD
 40
2.5
  9
$AUNITS
 70
     0
  9
$AUPREC
 70
     0
  9
$MENU
  1
.
  9
$ELEVATION
 40
0.0
  9
$PELEVATION
 40
0.0
  9
$THICKNESS
 40
0.0
  9
$LIMCHECK
 70
     0
  9
$BLIPMODE
 70
     0
  9
$CHAMFERA
 40
2.5
  9
$CHAMFERB
 40
2.5
  9
$CHAMFERC
 40
20.0
  9
$CHAMFERD
 40
0.0
  9
$SKPOLY
 70
     0
  9
$TDCREATE
 40
2452800.443498622
  9
$TDUPDATE
 40
2453151.704951342
  9
$TDINDWG
 40
0.3026933681
  9
$TDUSRTIMER
 40
0.3026933681
  9
$USRTIMER
 70
     1
  9
$ANGBASE
 50
0.0
  9
$ANGDIR
 70
     0
  9
$PDMODE
 70
     0
  9
$PDSIZE
 40
0.0
  9
$PLINEWID
 40
0.0
  9
$COORDS
 70
     1
  9
$SPLFRAME
 70
     0
  9
$SPLINETYPE
 70
     6
  9
$SPLINESEGS
 70
     8
  9
$ATTDIA
 70
     1
  9
$ATTREQ
 70
     1
  9
$HANDLING
 70
 12289
  9
$HANDSEED
  5
4675
  9
$SURFTAB1
 70
     6
  9
$SURFTAB2
 70
     6
  9
$SURFTYPE
 70
     6
  9
$SURFU
 70
     6
  9
$SURFV
 70
     6
  9
$UCSNAME
  2

  9
$UCSORG
 10
0.0
 20
-0.0000000000003766
 30
0.0
  9
$UCSXDIR
 10
1.0
 20
0.0000000000000027
 30
0.0
  9
$UCSYDIR
 10
-0.0000000000000027
 20
1.0
 30
0.0
  9
$PUCSNAME
  2

  9
$PUCSORG
 10
0.0
 20
0.0
 30
0.0
  9
$PUCSXDIR
 10
1.0
 20
0.0
 30
0.0
  9
$PUCSYDIR
 10
0.0
 20
1.0
 30
0.0
  9
$USERI1
 70
     0
  9
$USERI2
 70
     0
  9
$USERI3
 70
     0
  9
$USERI4
 70
     0
  9
$USERI5
 70
     0
  9
$USERR1
 40
0.0
  9
$USERR2
 40
0.0
  9
$USERR3
 40
0.0
  9
$USERR4
 40
0.0
  9
$USERR5
 40
0.0
  9
$WORLDVIEW
 70
     1
  9
$SHADEDGE
 70
     3
  9
$SHADEDIF
 70
    70
  9
$TILEMODE
 70
     1
  9
$MAXACTVP
 70
    64
  9
$PINSBASE
 10
0.0
 20
0.0
 30
0.0
  9
$PLIMCHECK
 70
     0
  9
$PEXTMIN
 10
1.000000000000000E+20
 20
1.000000000000000E+20
 30
1.000000000000000E+20
  9
$PEXTMAX
 10
-1.000000000000000E+20
 20
-1.000000000000000E+20
 30
-1.000000000000000E+20
  9
$PLIMMIN
 10
0.0
 20
0.0
  9
$PLIMMAX
 10
841.0
 20
594.0
  9
$UNITMODE
 70
     0
  9
$VISRETAIN
 70
     1
  9
$PLINEGEN
 70
     0
  9
$PSLTSCALE
 70
     0
  9
$TREEDEPTH
 70
  3020
  9
$PICKSTYLE
 70
     0
  9
$CMLSTYLE
  2
STANDARD
  9
$CMLJUST
 70
     0
  9
$CMLSCALE
 40
20.0
  9
$PROXYGRAPHICS
 70
     1
  9
$MEASUREMENT
 70
     1
  0
ENDSEC
  0
SECTION
  2
CLASSES
  0
CLASS
  1
ACDBDICTIONARYWDFLT
  2
AcDbDictionaryWithDefault
  3
AutoCAD 2000
 90
        0
280
     0
281
     0
  0
CLASS
  1
ACDBPLACEHOLDER
  2
AcDbPlaceHolder
  3
AutoCAD 2000
 90
        0
280
     0
281
     0
  0
CLASS
  1
LAYOUT
  2
AcDbLayout
  3
AutoCAD 2000
 90
        0
280
     0
281
     0
  0
CLASS
  1
AMGSETTINGSOBJ
  2
AmgSettingsObj
  3
"AcadM|Product Description: AutoCAD Mechanical 2000|Company: Autodesk"
 90
        0
280
     0
281
     0
  0
CLASS
  1
ACME_DOCUMENT
  2
AcMeDbDoc
  3
AcMeServices
 90
        0
280
     0
281
     0
  0
CLASS
  1
ACMESCOPE
  2
AcMeScope
  3
AcMeServices
 90
        0
280
     0
281
     0
  0
CLASS
  1
ACMECOMMANDHISTORY
  2
AcMeCommandHistory
  3
AcMeServices
 90
        0
280
     0
281
     0
  0
CLASS
  1
DICTIONARYVAR
  2
AcDbDictionaryVar
  3
AutoCAD 2000
 90
        0
280
     0
281
     0
  0
CLASS
  1
ACIMSYSVARMAN
  2
AcImSysVarManager
  3
AcMeServices
 90
        0
280
     0
281
     0
  0
CLASS
  1
ACIMREALSYSVAR
  2
AcImRealSysVar
  3
AcMeServices
 90
        0
280
     0
281
     0
  0
CLASS
  1
ACIMINTSYSVAR
  2
AcImIntSysVar
  3
AcMeServices
 90
        0
280
     0
281
     0
  0
CLASS
  1
ACMEDRAWINGMAN
  2
AcMeDrawingMan
  3
AcMeServices
 90
        0
280
     0
281
     0
  0
CLASS
  1
ACMEVIEW
  2
AcMeView
  3
AcMeServices
 90
        0
280
     0
281
     0
  0
CLASS
  1
ACDBENTITYCACHE
  2
AcMeEntityCache
  3
AcMeServices
 90
        0
280
     0
281
     0
  0
CLASS
  1
GSMANAGER
  2
AcMeGSManager
  3
AcMeServices
 90
        0
280
     0
281
     0
  0
CLASS
  1
AmdtInternalReactor
  2
AmdtInternalReactor
  3
AcMeServices
 90
        0
280
     0
281
     0
  0
CLASS
  1
ACMESTATEMGR
  2
AcMeStateMgr
  3
AcMeServices
 90
        0
280
     0
281
     0
  0
CLASS
  1
ACME_DATABASE
  2
AcMeDbDatabase
  3
AcMeServices
 90
        0
280
     0
281
     0
  0
CLASS
  1
ACRFINSADJUSTERMGR
  2
AcRfInsAdjusterMgr
  3
AcMeServices
 90
        0
280
     0
281
     0
  0
CLASS
  1
ACMDATADICTIONARY
  2
AcmDataDictionary
  3
"AcmSymBB|Product Description: AutoCAD Mechanical 2000|Company: Autodesk"
 90
        0
280
     0
281
     0
  0
CLASS
  1
ACMDATAENTRYBLOCK
  2
AcmDataEntryBlock
  3
"AcmSymBB|Product Description: AutoCAD Mechanical 2000|Company: Autodesk"
 90
        0
280
     0
281
     0
  0
CLASS
  1
AMGOBJPROPCFG
  2
AmgObjPropCfg
  3
"AmgLay|Product Description: AutoCAD Mechanical 2000|Company: Autodesk"
 90
        1
280
     0
281
     0
  0
CLASS
  1
ACAMGFILTERDAT
  2
AcAmgFilterDat
  3
"AcadM|Product Description: AutoCAD Mechanical 2000|Company: Autodesk"
 90
        0
280
     0
281
     0
  0
CLASS
  1
LAYER_INDEX
  2
AcDbLayerIndex
  3
AutoCAD 2000
 90
        0
280
     0
281
     0
  0
CLASS
  1
IDBUFFER
  2
AcDbIdBuffer
  3
AutoCAD 2000
 90
        0
280
     0
281
     0
  0
CLASS
  1
ACIMSTRSYSVAR
  2
AcImStrSysVar
  3
AcMeServices
 90
        0
280
     0
281
     0
  0
CLASS
  1
ACMSTANDARDJIS
  2
AcmStandardJIS
  3
"AcmSymBB|Product Description: AutoCAD Mechanical 2000|Company: Autodesk"
 90
        0
280
     0
281
     0
  0
CLASS
  1
ACMSURFSTANDARDJIS
  2
AcmSurfTextStdJIS
  3
"AcmSymBB|Product Description: AutoCAD Mechanical 2000|Company: Autodesk"
 90
        0
280
     0
281
     0
  0
CLASS
  1
ACMFCFSTANDARDJIS
  2
AcmFCFStdJIS
  3
"AcmSymBB|Product Description: AutoCAD Mechanical 2000|Company: Autodesk"
 90
        0
280
     0
281
     0
  0
CLASS
  1
ACMWELDSTANDARDJIS
  2
AcmWeldingStdJIS
  3
"AcmSymBB|Product Description: AutoCAD Mechanical 2000|Company: Autodesk"
 90
        0
280
     0
281
     0
  0
CLASS
  1
ACMIDSTANDARDJIS
  2
AcmIdStdJIS
  3
"AcmSymBB|Product Description: AutoCAD Mechanical 2000|Company: Autodesk"
 90
        0
280
     0
281
     0
  0
CLASS
  1
ACMDATUMSTANDARDJIS
  2
AcmDatumStdJIS
  3
"AcmSymBB|Product Description: AutoCAD Mechanical 2000|Company: Autodesk"
 90
        0
280
     0
281
     0
  0
CLASS
  1
ACMBOMSTANDARDJIS
  2
AcmBOMStdJIS
  3
"AcmSymBB|Product Description: AutoCAD Mechanical 2000|Company: Autodesk"
 90
        0
280
     0
281
     0
  0
CLASS
  1
ACMSTANDARDANSI
  2
AcmStandardANSI
  3
"AcmSymBB|Product Description: AutoCAD Mechanical 2000|Company: Autodesk"
 90
        0
280
     0
281
     0
  0
CLASS
  1
ACMSURFSTANDARDANSI
  2
AcmSurfTextStdANSI
  3
"AcmSymBB|Product Description: AutoCAD Mechanical 2000|Company: Autodesk"
 90
        0
280
     0
281
     0
  0
CLASS
  1
ACMFCFSTANDARDANSI
  2
AcmFCFStdANSI
  3
"AcmSymBB|Product Description: AutoCAD Mechanical 2000|Company: Autodesk"
 90
        0
280
     0
281
     0
  0
CLASS
  1
ACMWELDSTANDARDANSI
  2
AcmWeldingStdANSI
  3
"AcmSymBB|Product Description: AutoCAD Mechanical 2000|Company: Autodesk"
 90
        0
280
     0
281
     0
  0
CLASS
  1
ACMIDSTANDARDANSI
  2
AcmIdStdANSI
  3
"AcmSymBB|Product Description: AutoCAD Mechanical 2000|Company: Autodesk"
 90
        0
280
     0
281
     0
  0
CLASS
  1
ACMDATUMSTANDARDANSI
  2
AcmDatumStdANSI
  3
"AcmSymBB|Product Description: AutoCAD Mechanical 2000|Company: Autodesk"
 90
        0
280
     0
281
     0
  0
CLASS
  1
ACMBOMSTANDARDANSI
  2
AcmBOMStdANSI
  3
"AcmSymBB|Product Description: AutoCAD Mechanical 2000|Company: Autodesk"
 90
        0
280
     0
281
     0
  0
CLASS
  1
ACMSTANDARDBSI
  2
AcmStandardBSI
  3
"AcmSymBB|Product Description: AutoCAD Mechanical 2000|Company: Autodesk"
 90
        0
280
     0
281
     0
  0
CLASS
  1
ACMSURFSTANDARDBSI
  2
AcmSurfTextStdBSI
  3
"AcmSymBB|Product Description: AutoCAD Mechanical 2000|Company: Autodesk"
 90
        0
280
     0
281
     0
  0
CLASS
  1
ACMFCFSTANDARDBSI
  2
AcmFCFStdBSI
  3
"AcmSymBB|Product Description: AutoCAD Mechanical 2000|Company: Autodesk"
 90
        0
280
     0
281
     0
  0
CLASS
  1
ACMWELDSTANDARDBSI
  2
AcmWeldingStdBSI
  3
"AcmSymBB|Product Description: AutoCAD Mechanical 2000|Company: Autodesk"
 90
        0
280
     0
281
     0
  0
CLASS
  1
ACMIDSTANDARDBSI
  2
AcmIdStdBSI
  3
"AcmSymBB|Product Description: AutoCAD Mechanical 2000|Company: Autodesk"
 90
        0
280
     0
281
     0
  0
CLASS
  1
ACMDATUMSTANDARDBSI
  2
AcmDatumStdBSI
  3
"AcmSymBB|Product Description: AutoCAD Mechanical 2000|Company: Autodesk"
 90
        0
280
     0
281
     0
  0
CLASS
  1
ACMBOMSTANDARDBSI
  2
AcmBOMStdBSI
  3
"AcmSymBB|Product Description: AutoCAD Mechanical 2000|Company: Autodesk"
 90
        0
280
     0
281
     0
  0
CLASS
  1
LONG_TRANSACTION
  2
AcDbLongTransaction
  3
AutoCAD 2000
 90
        0
280
     0
281
     0
  0
CLASS
  1
LWPOLYLINE
  2
AcDbPolyline
  3
AutoCAD 2000
 90
        0
280
     0
281
     1
  0
CLASS
  1
HATCH
  2
AcDbHatch
  3
AutoCAD 2000
 90
        0
280
     0
281
     1
  0
CLASS
  1
XRECORD
  2
AcDbXrecord
  3
AutoCAD 2000
 90
        0
280
     0
281
     0
  0
ENDSEC
  0
SECTION
  2
TABLES
  0
TABLE
  2
VPORT
  5
8
330
0
100
AcDbSymbolTable
 70
     3
  0
VPORT
  5
464A
330
8
100
AcDbSymbolTableRecord
100
AcDbViewportTableRecord
  2
*ACTIVE
 70
     0
 10
0.0
 20
0.0
 11
1.0
 21
1.0
 12
-53.52116216820957
 22
-5.648232653406253
 13
0.0
 23
0.0
 14
2.5
 24
2.5
 15
10.0
 25
10.0
 16
0.0
 26
0.0
 36
1.0
 17
0.0
 27
0.0
 37
0.0
 40
198.4399960772739
 41
1.56570841889117
 42
50.0
 43
0.0
 44
0.0
 50
0.0
 51
0.0
 71
     0
 72
   100
 73
     1
 74
     1
 75
     0
 76
     0
 77
     0
 78
     0
  0
ENDTAB
  0
TABLE
  2
LTYPE
  5
5
330
0
100
AcDbSymbolTable
 70
    10
  0
LTYPE
  5
14
330
5
100
AcDbSymbolTableRecord
100
AcDbLinetypeTableRecord
  2
BYBLOCK
 70
     0
  3

 72
    65
 73
     0
 40
0.0
  0
LTYPE
  5
15
330
5
100
AcDbSymbolTableRecord
100
AcDbLinetypeTableRecord
  2
BYLAYER
 70
     0
  3

 72
    65
 73
     0
 40
0.0
  0
LTYPE
  5
16
330
5
100
AcDbSymbolTableRecord
100
AcDbLinetypeTableRecord
  2
CONTINUOUS
 70
     0
  3
Solid line
 72
    65
 73
     0
 40
0.0
  0
LTYPE
  5
4B
330
5
100
AcDbSymbolTableRecord
100
AcDbLinetypeTableRecord
  2
AM_ISO02W050
 70
     0
  3
__ __ __ __ __ __ __ __ __ __ __ __ __ __ __
 72
    65
 73
     2
 40
7.5
 49
6.0
 74
     0
 49
-1.5
 74
     0
  0
LTYPE
  5
4C
330
5
100
AcDbSymbolTableRecord
100
AcDbLinetypeTableRecord
  2
AM_ISO08W050
 70
     0
  3
____ . ____ . ____ . ____ . ____ . ____ . ____
 72
    65
 73
     4
 40
18.0
 49
12.0
 74
     0
 49
-1.5
 74
     0
 49
3.0
 74
     0
 49
-1.5
 74
     0
  0
LTYPE
  5
4D
330
5
100
AcDbSymbolTableRecord
100
AcDbLinetypeTableRecord
  2
AM_ISO09W050
 70
     0
  3
_____ . . _____ . . _____ . . ____ .. ____
 72
    65
 73
     6
 40
22.5
 49
12.0
 74
     0
 49
-1.5
 74
     0
 49
3.0
 74
     0
 49
-1.5
 74
     0
 49
3.0
 74
     0
 49
-1.5
 74
     0
  0
LTYPE
  5
4E
330
5
100
AcDbSymbolTableRecord
100
AcDbLinetypeTableRecord
  2
AMCONSTR
 70
     0
  3
_______________________
 72
    65
 73
     2
 40
9999.0
 49
9999.0
 74
     0
 49
0.0
 74
     0
  0
LTYPE
  5
4F
330
5
100
AcDbSymbolTableRecord
100
AcDbLinetypeTableRecord
  2
AM_ISO02W050X2
 70
     0
  3
 _ _ _ _ _ _ _ _ _ _ _ _
 72
    65
 73
     2
 40
3.75
 49
3.0
 74
     0
 49
-0.75
 74
     0
  0
LTYPE
  5
50
330
5
100
AcDbSymbolTableRecord
100
AcDbLinetypeTableRecord
  2
AM_ISO08W050X2
 70
     0
  3
__ . __ . __ . __ . __ . __
 72
    65
 73
     4
 40
9.0
 49
6.0
 74
     0
 49
-0.75
 74
     0
 49
1.5
 74
     0
 49
-0.75
 74
     0
  0
LTYPE
  5
53
330
5
100
AcDbSymbolTableRecord
100
AcDbLinetypeTableRecord
  2
AMZIGZAG
 70
     0
  3
/\/-/\/-/\/-/\/-/\/-/\/
 72
    65
 73
     2
 40
11.00009999999999
 49
0.0001
 74
     4
 75
   135
340
52
 46
0.04
 50
0.0
 44
0.0
 45
0.0
 49
-11.0
 74
     0
  0
LTYPE
  5
166
330
5
100
AcDbSymbolTableRecord
100
AcDbLinetypeTableRecord
  2
ACJISTGL
 70
     0
  3
_ _ _ _ _
 72
    65
 73
     2
 40
3.0
 49
2.0
 74
     0
 49
-1.0
 74
     0
  0
LTYPE
  5
26A
330
5
100
AcDbSymbolTableRecord
100
AcDbLinetypeTableRecord
  2
ACJISTGB
 70
     0
  3
__ . . __ . .
 72
    65
 73
     6
 40
9.0
 49
4.0
 74
     0
 49
-1.0
 74
     0
 49
1.0
 74
     0
 49
-1.0
 74
     0
 49
1.0
 74
     0
 49
-1.0
 74
     0
  0
ENDTAB
  0
TABLE
  2
LAYER
  5
2
330
0
100
AcDbSymbolTable
 70
    11
  0
LAYER
  5
10
330
2
100
AcDbSymbolTableRecord
100
AcDbLayerTableRecord
  2
0
 70
     0
 62
     7
  6
CONTINUOUS
  0
LAYER
  5
3F9
330
2
100
AcDbSymbolTableRecord
100
AcDbLayerTableRecord
  2
AM_0
 70
     0
 62
     7
  6
CONTINUOUS
  0
LAYER
  5
BA4
330
2
100
AcDbSymbolTableRecord
100
AcDbLayerTableRecord
  2
PV0001_1
 70
     0
 62
     7
  6
CONTINUOUS
  0
LAYER
  5
C6C
330
2
100
AcDbSymbolTableRecord
100
AcDbLayerTableRecord
  2
AM_CL
 70
     0
 62
     1
  6
AMCONSTR
  0
LAYER
  5
C7C
330
2
100
AcDbSymbolTableRecord
100
AcDbLayerTableRecord
  2
AM_7
 70
     0
 62
     4
  6
AM_ISO08W050
  0
LAYER
  5
C97
330
2
100
AcDbSymbolTableRecord
100
AcDbLayerTableRecord
  2
AM_11
 70
     0
 62
     3
  6
AM_ISO09W050
  0
LAYER
  5
CC5
330
2
100
AcDbSymbolTableRecord
100
AcDbLayerTableRecord
  2
AM_5
 70
     0
 62
     3
  6
CONTINUOUS
  0
LAYER
  5
CC7
330
2
100
AcDbSymbolTableRecord
100
AcDbLayerTableRecord
  2
DEFPOINTS
 70
     0
 62
     7
  6
CONTINUOUS
  0
LAYER
  5
19BC
330
2
100
AcDbSymbolTableRecord
100
AcDbLayerTableRecord
  2
AM_6
 70
     0
 62
     2
  6
CONTINUOUS
  0
LAYER
  5
1F8E
330
2
100
AcDbSymbolTableRecord
100
AcDbLayerTableRecord
  2
AM_4
 70
     0
 62
     3
  6
CONTINUOUS
  0
LAYER
  5
3588
330
2
100
AcDbSymbolTableRecord
100
AcDbLayerTableRecord
  2
AM_3
 70
     0
 62
     6
  6
ACJISTGL
  0
ENDTAB
  0
TABLE
  2
STYLE
  5
3
330
0
100
AcDbSymbolTable
 70
     5
  0
STYLE
  5
11
330
3
100
AcDbSymbolTableRecord
100
AcDbTextStyleTableRecord
  2
STANDARD
 70
     0
 40
0.0
 41
1.0
 50
0.0
 71
     0
 42
2.5
  3
simplex.shx
  4
EXTFONT.SHX
  0
STYLE
  5
52
330
3
100
AcDbSymbolTableRecord
100
AcDbTextStyleTableRecord
  2

 70
     1
 40
0.0
 41
1.0
 50
0.0
 71
     0
 42
2.5
  3
ltypeshp.shx
  4

  0
STYLE
  5
6B
330
3
100
AcDbSymbolTableRecord
100
AcDbTextStyleTableRecord
  2
ASAMI
 70
     0
 40
0.0
 41
1.0
 50
0.0
 71
     0
 42
2.5
  3
simplex.shx
  4
EXTFONT.SHX
  0
STYLE
  5
262
330
3
100
AcDbSymbolTableRecord
100
AcDbTextStyleTableRecord
  2
ACJISTS
 70
     0
 40
1.0
 41
1.0
 50
0.0
 71
     0
 42
2.5
  3
simplex.shx
  4
bigfont.shx
  0
STYLE
  5
269
330
3
100
AcDbSymbolTableRecord
100
AcDbTextStyleTableRecord
  2
ACJISGDT
 70
     0
 40
0.0
 41
1.0
 50
0.0
 71
     0
 42
2.5
  3
amgdtans.shx
  4

  0
ENDTAB
  0
TABLE
  2
VIEW
  5
6
330
0
100
AcDbSymbolTable
 70
     0
  0
ENDTAB
  0
TABLE
  2
UCS
  5
7
330
0
100
AcDbSymbolTable
 70
     0
  0
ENDTAB
  0
TABLE
  2
APPID
  5
9
330
0
100
AcDbSymbolTable
 70
    14
  0
APPID
  5
12
330
9
100
AcDbSymbolTableRecord
100
AcDbRegAppTableRecord
  2
ACAD
 70
     0
  0
APPID
  5
30
330
9
100
AcDbSymbolTableRecord
100
AcDbRegAppTableRecord
  2
MCAD_NO_VIS
 70
     0
  0
APPID
  5
31
330
9
100
AcDbSymbolTableRecord
100
AcDbRegAppTableRecord
  2
ACAD_TEMP_GRAPHIC
 70
     0
  0
APPID
  5
2C2
330
9
100
AcDbSymbolTableRecord
100
AcDbRegAppTableRecord
  2
GENIUS_GENDTOL_13
 70
     0
  0
APPID
  5
339
330
9
100
AcDbSymbolTableRecord
100
AcDbRegAppTableRecord
  2
GENIUS_GENODEF_13
 70
     0
  0
APPID
  5
33A
330
9
100
AcDbSymbolTableRecord
100
AcDbRegAppTableRecord
  2
GENIUS_GENOBJ-N-RSBK_13
 70
     0
  0
APPID
  5
33B
330
9
100
AcDbSymbolTableRecord
100
AcDbRegAppTableRecord
  2
GENIUS_GENOBJ-N-LIB_13
 70
     0
  0
APPID
  5
33C
330
9
100
AcDbSymbolTableRecord
100
AcDbRegAppTableRecord
  2
GENIUS_GENSCALE_13
 70
     0
  0
APPID
  5
378
330
9
100
AcDbSymbolTableRecord
100
AcDbRegAppTableRecord
  2
GENIUS_GENDIMSH_14
 70
     0
  0
APPID
  5
C82
330
9
100
AcDbSymbolTableRecord
100
AcDbRegAppTableRecord
  2
GENIUS_GENOBJ-N-CRS_13
 70
     0
  0
APPID
  5
C83
330
9
100
AcDbSymbolTableRecord
100
AcDbRegAppTableRecord
  2
GENIUS_GENOENT_13
 70
     0
  0
APPID
  5
C84
330
9
100
AcDbSymbolTableRecord
100
AcDbRegAppTableRecord
  2
GENIUS_GENOREF_13
 70
     0
  0
APPID
  5
C85
330
9
100
AcDbSymbolTableRecord
100
AcDbRegAppTableRecord
  2
GENIUS_GENOLIS_13
 70
     0
  0
APPID
  5
CA0
330
9
100
AcDbSymbolTableRecord
100
AcDbRegAppTableRecord
  2
GENIUS_GENOBJ-N-CEN_13
 70
     0
  0
ENDTAB
  0
TABLE
  2
DIMSTYLE
  5
A
330
0
100
AcDbSymbolTable
 70
    10
  0
DIMSTYLE
105
58
330
A
100
AcDbSymbolTableRecord
100
AcDbDimStyleTableRecord
  2
AM_JIS
 70
     0
  3

  4
"
  5
OPEN30
  6

  7

 40
1.0
 41
2.5
 42
1.0
 43
12.0
 44
1.0
 45
0.0
 46
0.0
 47
0.1
 48
0.1
140
3.2
141
0.0
142
0.0
143
0.0393701
144
1.0
145
0.0
146
0.71
147
1.5
 71
     0
 72
     0
 73
     0
 74
     0
 75
     0
 76
     0
 77
     3
 78
     8
170
     0
171
     2
172
     1
173
     0
174
     0
175
     0
176
   256
177
   256
178
     2
270
     2
271
     3
272
     3
273
     2
274
     2
340
6B
275
     0
280
     0
281
     0
282
     0
283
     0
284
     0
285
     0
286
     0
287
     3
288
     0
  0
DIMSTYLE
105
5F
330
A
100
AcDbSymbolTableRecord
100
AcDbDimStyleTableRecord
  2
AM_JIS$3
 70
     0
  3

  4
"
  5
OPEN30
  6

  7

 40
1.0
 41
2.5
 42
1.0
 43
10.0
 44
1.0
 45
0.0
 46
0.0
 47
0.1
 48
0.1
140
3.2
141
0.0
142
0.0
143
0.0393701
144
1.0
145
0.0
146
0.71
147
1.5
 71
     0
 72
     0
 73
     0
 74
     1
 75
     0
 76
     0
 77
     3
 78
     8
170
     0
171
     2
172
     0
173
     0
174
     0
175
     0
176
   256
177
   256
178
     2
270
     2
271
     2
272
     3
273
     2
274
     2
340
6B
275
     0
280
     0
281
     0
282
     0
283
     0
284
     0
285
     0
286
     0
287
     0
288
     1
  0
DIMSTYLE
105
60
330
A
100
AcDbSymbolTableRecord
100
AcDbDimStyleTableRecord
  2
AM_JIS$4
 70
     0
  3

  4
"
  5
OPEN30
  6

  7

 40
1.0
 41
2.5
 42
1.0
 43
10.0
 44
1.0
 45
0.0
 46
0.0
 47
0.1
 48
0.1
140
3.2
141
0.0
142
0.0
143
0.0393701
144
1.0
145
0.0
146
0.71
147
1.5
 71
     0
 72
     0
 73
     0
 74
     1
 75
     0
 76
     0
 77
     3
 78
     8
170
     0
171
     2
172
     0
173
     0
174
     0
175
     0
176
   256
177
   256
178
     2
270
     2
271
     2
272
     3
273
     2
274
     2
340
6B
275
     0
280
     0
281
     0
282
     0
283
     0
284
     0
285
     0
286
     0
287
     0
288
     1
  0
DIMSTYLE
105
61
330
A
100
AcDbSymbolTableRecord
100
AcDbDimStyleTableRecord
  2
AM_JIS$6
 70
     0
  3

  4
"
  5
OPEN30
  6

  7

 40
1.0
 41
2.5
 42
1.0
 43
10.0
 44
1.0
 45
0.0
 46
0.0
 47
0.1
 48
0.1
140
3.2
141
0.0
142
0.0
143
0.0393701
144
1.0
145
0.0
146
0.71
147
1.5
 71
     0
 72
     0
 73
     0
 74
     0
 75
     0
 76
     0
 77
     0
 78
     8
170
     0
171
     2
172
     1
173
     0
174
     0
175
     0
176
   256
177
   256
178
     2
270
     2
271
     2
272
     2
273
     2
274
     2
340
6B
275
     0
280
     0
281
     0
282
     0
283
     0
284
     0
285
     0
286
     0
287
     3
288
     0
  0
DIMSTYLE
105
62
330
A
100
AcDbSymbolTableRecord
100
AcDbDimStyleTableRecord
  2
AM_JIS$7
 70
     0
  3

  4
"
  5
OPEN30
  6

  7

 40
1.0
 41
2.5
 42
1.0
 43
10.0
 44
1.0
 45
0.0
 46
0.0
 47
0.1
 48
0.1
140
3.2
141
0.0
142
0.0
143
0.0393701
144
1.0
145
0.0
146
0.71
147
1.5
 71
     0
 72
     0
 73
     0
 74
     0
 75
     0
 76
     0
 77
     3
 78
     8
170
     0
171
     2
172
     1
173
     0
174
     0
175
     0
176
   256
177
   256
178
     2
270
     2
271
     2
272
     3
273
     2
274
     2
340
6B
275
     0
280
     0
281
     0
282
     0
283
     0
284
     0
285
     0
286
     0
287
     3
288
     0
  0
DIMSTYLE
105
63
330
A
100
AcDbSymbolTableRecord
100
AcDbDimStyleTableRecord
  2
AM_JIS$SF
 70
     0
  3

  4
"
  5
OPEN30
  6

  7

 40
1.0
 41
2.5
 42
1.0
 43
10.0
 44
1.0
 45
0.0
 46
0.0
 47
0.1
 48
0.1
140
3.2
141
0.0
142
0.0
143
0.0393701
144
1.0
145
0.0
146
0.71
147
1.5
 71
     0
 72
     0
 73
     0
 74
     0
 75
     1
 76
     1
 77
     3
 78
     8
170
     0
171
     2
172
     1
173
     0
174
     0
175
     0
176
   256
177
   256
178
     2
270
     2
271
     2
272
     2
273
     2
274
     2
340
6B
275
     0
280
     0
281
     0
282
     0
283
     0
284
     0
285
     0
286
     0
287
     3
288
     0
  0
DIMSTYLE
105
68
330
A
100
AcDbSymbolTableRecord
100
AcDbDimStyleTableRecord
  2
AM_JIS$SH
 70
     0
  3

  4
"
  5

  6
GENAXEH
  7
OPEN30
 40
1.0
 41
2.5
 42
1.0
 43
10.0
 44
1.0
 45
0.0
 46
0.0
 47
0.1
 48
0.1
140
3.2
141
0.0
142
0.0
143
0.0393701
144
2.0
145
0.0
146
0.71
147
1.5
 71
     0
 72
     0
 73
     0
 74
     0
 75
     1
 76
     1
 77
     3
 78
     8
170
     0
171
     2
172
     1
173
     1
174
     0
175
     0
176
   256
177
   256
178
     2
270
     2
271
     2
272
     2
273
     2
274
     2
340
6B
275
     0
280
     0
281
     0
282
     0
283
     0
284
     0
285
     0
286
     0
287
     3
288
     0
  0
DIMSTYLE
105
B34
102
{ACAD_REACTORS
330
36BA
102
}
330
A
100
AcDbSymbolTableRecord
100
AcDbDimStyleTableRecord
  2
AM_JIS$2
 70
     0
  3

  4
"
  5
OPEN30
  6

  7

 40
1.0
 41
2.5
 42
1.0
 43
12.0
 44
1.0
 45
0.0
 46
0.0
 47
0.1
 48
0.1
140
3.2
141
0.0
142
0.0
143
0.0393701
144
1.0
145
0.0
146
0.71
147
1.5
 71
     0
 72
     0
 73
     0
 74
     0
 75
     0
 76
     0
 77
     3
 78
     8
170
     0
171
     2
172
     1
173
     0
174
     0
175
     0
176
   256
177
   256
178
     2
270
     2
271
     3
272
     3
273
     2
274
     2
340
6B
275
     0
280
     0
281
     0
282
     0
283
     0
284
     0
285
     0
286
     0
287
     3
288
     0
  0
DIMSTYLE
105
BA5
102
{ACAD_REACTORS
330
3B0D
330
3BB8
330
3CCB
330
43AC
330
43A5
330
43AD
330
43A4
330
4515
102
}
330
A
100
AcDbSymbolTableRecord
100
AcDbDimStyleTableRecord
  2
AM_JIS$0
 70
     0
  3

  4
"
  5
OPEN30
  6

  7

 40
1.0
 41
2.5
 42
0.8
 43
10.0
 44
1.0
 45
0.0
 46
0.0
 47
0.1
 48
0.1000000001
140
3.799999999999999
141
0.0
142
0.0
143
0.0393701
144
1.0
145
0.0
146
0.71
147
1.5
 71
     0
 72
     0
 73
     0
 74
     0
 75
     0
 76
     0
 77
     3
 78
     9
170
     0
171
     2
172
     1
173
     0
174
     0
175
     0
176
     3
177
     3
178
     2
270
     2
271
     2
272
     2
273
     2
274
     2
340
11
275
     1
280
     0
281
     0
282
     0
283
     0
284
     8
285
     0
286
     0
287
     0
288
     0
  0
DIMSTYLE
105
BA6
330
A
100
AcDbSymbolTableRecord
100
AcDbDimStyleTableRecord
  2
AM_JISORG-1P0$2
 70
     0
  3

  4
"
  5
OPEN30
  6

  7

 40
1.0
 41
2.5
 42
0.0
 43
10.0
 44
1.0
 45
0.0
 46
0.0
 47
0.1
 48
0.1000000001
140
3.799999999999999
141
0.0
142
0.0
143
0.0393701
144
-0.999999980146674
145
0.0
146
0.71
147
1.5
 71
     0
 72
     0
 73
     0
 74
     0
 75
     0
 76
     0
 77
     3
 78
     1
170
     0
171
     2
172
     1
173
     0
174
     0
175
     0
176
     3
177
     3
178
     2
270
     2
271
     2
272
     2
273
     2
274
     2
340
11
275
     1
280
     0
281
     0
282
     0
283
     0
284
     8
285
     0
286
     0
287
     0
288
     0
  0
ENDTAB
  0
TABLE
  2
BLOCK_RECORD
  5
1
330
0
100
AcDbSymbolTable
 70
    18
  0
BLOCK_RECORD
  5
1F
102
{ACAD_XDICTIONARY
360
74
102
}
330
1
100
AcDbSymbolTableRecord
100
AcDbBlockTableRecord
  2
*MODEL_SPACE
  0
BLOCK_RECORD
  5
101
102
{ACAD_XDICTIONARY
360
4673
102
}
330
1
100
AcDbSymbolTableRecord
100
AcDbBlockTableRecord
  2
*PAPER_SPACE
  0
BLOCK_RECORD
  5
59
330
1
100
AcDbSymbolTableRecord
100
AcDbBlockTableRecord
  2
_OPEN30
  0
BLOCK_RECORD
  5
64
330
1
100
AcDbSymbolTableRecord
100
AcDbBlockTableRecord
  2
GENAXEH
  0
BLOCK_RECORD
  5
C31
330
1
100
AcDbSymbolTableRecord
100
AcDbBlockTableRecord
  2
A$C36D02A34
  0
BLOCK_RECORD
  5
2453
330
1
100
AcDbSymbolTableRecord
100
AcDbBlockTableRecord
  2
*D6
  0
BLOCK_RECORD
  5
245F
330
1
100
AcDbSymbolTableRecord
100
AcDbBlockTableRecord
  2
A$C4FFC6CC0
  0
BLOCK_RECORD
  5
36BB
330
1
100
AcDbSymbolTableRecord
100
AcDbBlockTableRecord
  2
*D8
  0
BLOCK_RECORD
  5
3B0E
330
1
100
AcDbSymbolTableRecord
100
AcDbBlockTableRecord
  2
*D9
  0
BLOCK_RECORD
  5
3BB9
330
1
100
AcDbSymbolTableRecord
100
AcDbBlockTableRecord
  2
*D10
  0
BLOCK_RECORD
  5
3CCC
330
1
100
AcDbSymbolTableRecord
100
AcDbBlockTableRecord
  2
*D11
  0
BLOCK_RECORD
  5
43B5
330
1
100
AcDbSymbolTableRecord
100
AcDbBlockTableRecord
  2
*D12
  0
BLOCK_RECORD
  5
43C1
330
1
100
AcDbSymbolTableRecord
100
AcDbBlockTableRecord
  2
*D13
  0
BLOCK_RECORD
  5
43CD
330
1
100
AcDbSymbolTableRecord
100
AcDbBlockTableRecord
  2
*D14
  0
BLOCK_RECORD
  5
43DB
330
1
100
AcDbSymbolTableRecord
100
AcDbBlockTableRecord
  2
*D15
  0
BLOCK_RECORD
  5
4516
330
1
100
AcDbSymbolTableRecord
100
AcDbBlockTableRecord
  2
*D16
  0
ENDTAB
  0
ENDSEC
  0
SECTION
  2
BLOCKS
  0
BLOCK
  5
20
330
1F
100
AcDbEntity
  8
0
100
AcDbBlockBegin
  2
*MODEL_SPACE
 70
     0
 10
0.0
 20
0.0
 30
0.0
  3
*MODEL_SPACE
  1

  0
ENDBLK
  5
21
330
1F
100
AcDbEntity
  8
0
100
AcDbBlockEnd
  0
BLOCK
  5
103
330
101
100
AcDbEntity
 67
     1
  8
0
100
AcDbBlockBegin
  2
*PAPER_SPACE
 70
     0
 10
0.0
 20
0.0
 30
0.0
  3
*PAPER_SPACE
  1

  0
ENDBLK
  5
104
330
101
100
AcDbEntity
 67
     1
  8
0
100
AcDbBlockEnd
  0
BLOCK
  5
5D
330
59
100
AcDbEntity
  8
0
100
AcDbBlockBegin
  2
_OPEN30
 70
     0
 10
0.0
 20
0.0
 30
0.0
  3
_OPEN30
  1

  0
LINE
  5
5A
330
59
100
AcDbEntity
  8
0
 62
     0
100
AcDbLine
 10
-1.0
 20
0.26794919
 30
0.0
 11
0.0
 21
0.0
 31
0.0
  0
LINE
  5
5B
330
59
100
AcDbEntity
  8
0
 62
     0
100
AcDbLine
 10
0.0
 20
0.0
 30
0.0
 11
-1.0
 21
-0.26794919
 31
0.0
  0
LINE
  5
5C
330
59
100
AcDbEntity
  8
0
 62
     0
100
AcDbLine
 10
0.0
 20
0.0
 30
0.0
 11
-1.0
 21
0.0
 31
0.0
  0
ENDBLK
  5
5E
330
59
100
AcDbEntity
  8
0
100
AcDbBlockEnd
  0
BLOCK
  5
66
330
64
100
AcDbEntity
  8
0
100
AcDbBlockBegin
  2
GENAXEH
 70
     0
 10
0.0
 20
0.0
 30
0.0
  3
GENAXEH
  1

  0
LINE
  5
65
330
64
100
AcDbEntity
  8
0
100
AcDbLine
 10
-1.0
 20
0.0
 30
0.0
 11
1.0
 21
0.0
 31
0.0
  0
ENDBLK
  5
67
330
64
100
AcDbEntity
  8
0
100
AcDbBlockEnd
  0
BLOCK
  5
C4B
330
C31
100
AcDbEntity
  8
0
100
AcDbBlockBegin
  2
A$C36D02A34
 70
     0
 10
0.0
 20
0.0
 30
0.0
  3
A$C36D02A34
  1

  0
ARC
  5
C32
330
C31
100
AcDbEntity
  8
PV0001_1
  6
CONTINUOUS
 48
0.5
100
AcDbCircle
 10
18.06811523436999
 20
-11.83651161193799
 30
0.0
 40
21.600000381469
100
AcDbArc
 50
123.2290435713209
 51
126.6341524197568
  0
ARC
  5
C33
330
C31
100
AcDbEntity
  8
PV0001_1
  6
CONTINUOUS
 48
0.5
100
AcDbCircle
 10
18.06811523436999
 20
-11.83651161193799
 30
0.0
 40
21.600000381469
100
AcDbArc
 50
135.0736707620117
 51
146.7709980930592
  0
ARC
  5
C34
330
C31
100
AcDbEntity
  8
PV0001_1
  6
CONTINUOUS
 48
0.5
100
AcDbCircle
 10
-18.0680770874
 20
11.8365631103514
 30
0.0
 40
21.600000381469
100
AcDbArc
 50
315.0734847530392
 51
326.770781348241
  0
ARC
  5
C35
330
C31
100
AcDbEntity
  8
PV0001_1
  6
CONTINUOUS
 48
0.5
100
AcDbCircle
 10
-18.0680770874
 20
11.8365631103514
 30
0.0
 40
21.600000381469
100
AcDbArc
 50
303.2288882981993
 51
306.633986901359
  0
ARC
  5
C36
330
C31
100
AcDbEntity
  8
PV0001_1
  6
CONTINUOUS
 48
0.5
100
AcDbCircle
 10
-0.6269836425800009
 20
-2.044216156005997
 30
0.0
 40
2.0
100
AcDbArc
 50
337.4067997351092
 51
43.42231293132884
  0
ARC
  5
C37
330
C31
100
AcDbEntity
  8
PV0001_1
  6
CONTINUOUS
 48
0.5
100
AcDbCircle
 10
0.626953125
 20
2.044223785401001
 30
0.0
 40
2.0
100
AcDbArc
 50
157.4068184044407
 51
223.4222769591536
  0
CIRCLE
  5
C38
330
C31
100
AcDbEntity
  8
PV0001_1
  6
CONTINUOUS
 48
0.5
100
AcDbCircle
 10
3.856727600100001
 20
4.596265792847002
 30
0.0
 40
1.6000000238419
  0
CIRCLE
  5
C39
330
C31
100
AcDbEntity
  8
PV0001_1
  6
CONTINUOUS
 48
0.5
100
AcDbCircle
 10
-3.856727600100001
 20
-4.596265792845997
 30
0.0
 40
1.6000000238419
  0
ARC
  5
C3A
330
C31
100
AcDbEntity
  8
PV0001_1
  6
CONTINUOUS
 48
0.5
100
AcDbCircle
 10
-5.58123779297
 20
5.092639923096001
 30
0.0
 40
5.019082546234099
100
AcDbArc
 50
240.2658959250867
 51
321.5156269706421
  0
ARC
  5
C3B
330
C31
100
AcDbEntity
  8
PV0001_1
  6
CONTINUOUS
 48
0.5
100
AcDbCircle
 10
5.486755371089998
 20
-4.601703643798998
 30
0.0
 40
4.651036739349399
100
AcDbArc
 50
56.25271400417071
 51
145.528859890601
  0
ARC
  5
C3C
330
C31
100
AcDbEntity
  8
PV0001_1
  6
CONTINUOUS
 48
0.5
100
AcDbCircle
 10
-2.11590576172
 20
-3.453323364257997
 30
0.0
 40
4.050000190734899
100
AcDbArc
 50
43.42230610113921
 51
58.50391703385149
  0
ARC
  5
C3D
330
C31
100
AcDbEntity
  8
PV0001_1
  6
CONTINUOUS
 48
0.5
100
AcDbCircle
 10
2.115875244139999
 20
3.453330993653001
 30
0.0
 40
4.050000190734899
100
AcDbArc
 50
223.4222942619974
 51
238.5038164022482
  0
ARC
  5
C3E
330
C31
100
AcDbEntity
  8
PV0001_1
  6
CONTINUOUS
 48
0.5
100
AcDbCircle
 10
-6.70369720459
 20
5.094657897949002
 30
0.0
 40
5.940000057220499
100
AcDbArc
 50
328.2536768887549
 51
31.74641873389623
  0
ARC
  5
C3F
330
C31
100
AcDbEntity
  8
PV0001_1
  6
CONTINUOUS
 48
0.5
100
AcDbCircle
 10
6.703674316410001
 20
-5.094650268553998
 30
0.0
 40
5.940000057220499
100
AcDbArc
 50
148.2533403882529
 51
211.7466423089037
  0
ARC
  5
C40
330
C31
100
AcDbEntity
  8
PV0001_1
  6
CONTINUOUS
 48
0.5
100
AcDbCircle
 10
0.0
 20
0.0
 30
0.0
 40
8.812800407409699
100
AcDbArc
 50
175.2198288164333
 51
272.8622597568298
  0
ARC
  5
C41
330
C31
100
AcDbEntity
  8
PV0001_1
  6
CONTINUOUS
 48
0.5
100
AcDbCircle
 10
0.0
 20
0.0
 30
0.0
 40
9.1800003051758
100
AcDbArc
 50
272.7511362215027
 51
280.3697477877874
  0
ARC
  5
C42
330
C31
100
AcDbEntity
  8
PV0001_1
  6
CONTINUOUS
 48
0.5
100
AcDbCircle
 10
0.0
 20
0.0
 30
0.0
 40
8.812800407409699
100
AcDbArc
 50
355.2198199654955
 51
92.86229572901076
  0
ARC
  5
C43
330
C31
100
AcDbEntity
  8
PV0001_1
  6
CONTINUOUS
 48
0.5
100
AcDbCircle
 10
0.0
 20
0.0
 30
0.0
 40
9.1800003051758
100
AcDbArc
 50
92.75115489083434
 51
100.3697664571193
  0
CIRCLE
  5
C44
330
C31
100
AcDbEntity
  8
PV0001_1
  6
CONTINUOUS
100
AcDbCircle
 10
0.0
 20
0.0
 30
0.0
 40
9.1800003051758
  0
LINE
  5
C45
330
C31
100
AcDbEntity
  8
PV0001_1
  6
CONTINUOUS
 48
0.5
100
AcDbLine
 10
-1.652404785160001
 20
9.030059814453
 30
0.0
 11
-1.652404785160001
 21
8.220062255860002
 31
0.0
  0
LINE
  5
C46
330
C31
100
AcDbEntity
  8
PV0001_1
  6
CONTINUOUS
 48
0.5
100
AcDbLine
 10
1.652404785160001
 20
-8.220058441161999
 30
0.0
 11
1.652404785160001
 21
-9.030055999755997
 31
0.0
  0
LINE
  5
C47
330
C31
100
AcDbEntity
  8
PV0001_1
  6
CONTINUOUS
 48
0.5
100
AcDbLine
 10
-8.78217315674
 20
0.7343807220460015
 30
0.0
 11
-8.070594787600001
 21
0.7343997955320028
 31
0.0
  0
LINE
  5
C48
330
C31
100
AcDbEntity
  8
PV0001_1
  6
CONTINUOUS
 48
0.5
100
AcDbLine
 10
8.07057952881
 20
-0.7343864440919994
 30
0.0
 11
8.78215789795
 21
-0.7343654632569994
 31
0.0
  0
LINE
  5
C49
330
C31
100
AcDbEntity
  8
PV0001_1
  6
CONTINUOUS
 48
0.5
100
AcDbLine
 10
0.4406127929700006
 20
-9.169414520263
 30
0.0
 11
0.4406127929700006
 21
-8.812801361083998
 31
0.0
  0
LINE
  5
C4A
330
C31
100
AcDbEntity
  8
PV0001_1
  6
CONTINUOUS
 48
0.5
100
AcDbLine
 10
-0.4406127929700006
 20
9.169418334961001
 30
0.0
 11
-0.4406127929700006
 21
8.812805175781001
 31
0.0
  0
ENDBLK
  5
C4C
330
C31
100
AcDbEntity
  8
0
100
AcDbBlockEnd
  0
BLOCK
  5
245D
330
2453
100
AcDbEntity
  8
0
100
AcDbBlockBegin
  2
*D6
 70
     1
 10
0.0
 20
0.0
 30
0.0
  3
*D6
  1

  0
LINE
  5
2454
330
2453
100
AcDbEntity
  8
AM_5
 62
     3
100
AcDbLine
 10
-137.574381722344
 20
-5.00000294019065
 30
0.0
 11
-152.8199008769066
 21
-5.000002940190694
 31
0.0
  0
LINE
  5
2455
330
2453
100
AcDbEntity
  8
AM_5
 62
     3
100
AcDbLine
 10
-137.5743817223442
 20
5.00002461040103
 30
0.0
 11
-152.8199008769066
 21
5.000024610400987
 31
0.0
  0
LINE
  5
2456
330
2453
100
AcDbEntity
  8
AM_5
 62
     3
100
AcDbLine
 10
-151.8199008769066
 20
-2.500002940190691
 30
0.0
 11
-151.8199008769066
 21
2.50002461040099
 31
0.0
  0
INSERT
  5
2457
330
2453
100
AcDbEntity
  8
AM_5
 62
     3
100
AcDbBlockReference
  2
_OPEN30
 10
-151.8199008769066
 20
-5.00000294019069
 30
0.0
 41
2.5
 42
2.5
 43
2.5
 50
270.0000000000001
  0
INSERT
  5
2458
330
2453
100
AcDbEntity
  8
AM_5
 62
     3
100
AcDbBlockReference
  2
_OPEN30
 10
-151.8199008769066
 20
5.00002461040099
 30
0.0
 41
2.5
 42
2.5
 43
2.5
 50
90.00000000000015
  0
MTEXT
  5
2459
330
2453
100
AcDbEntity
  8
AM_5
 62
     2
100
AcDbMText
 10
-155.2199008769066
 20
0.000010835105146
 30
0.0
 40
3.799999999999999
 41
0.0
 71
     5
 72
     1
  1
%%c10
 11
-0.0000000000000028
 21
1.0
 31
0.0
1001
ACAD
1000
MTEXTBEGIN
1070
    73
1070
     1
1070
    44
1040
1.0
1070
    74
1070
     0
1000
MTEXTEND
  0
POINT
  5
245A
330
2453
100
AcDbEntity
  8
DEFPOINTS
 62
     0
100
AcDbPoint
 10
-137.5743817223441
 20
-5.000002940190223
 30
0.0
  0
POINT
  5
245B
330
2453
100
AcDbEntity
  8
DEFPOINTS
 62
     0
100
AcDbPoint
 10
-137.5743817223441
 20
5.000024610401458
 30
0.0
  0
POINT
  5
245C
330
2453
100
AcDbEntity
  8
DEFPOINTS
 62
     0
100
AcDbPoint
 10
-151.8199008769066
 20
5.000024610401462
 30
0.0
  0
ENDBLK
  5
245E
330
2453
100
AcDbEntity
  8
0
100
AcDbBlockEnd
  0
BLOCK
  5
246B
330
245F
100
AcDbEntity
  8
0
100
AcDbBlockBegin
  2
A$C4FFC6CC0
 70
     0
 10
0.0
 20
0.0
 30
0.0
  3
A$C4FFC6CC0
  1

  0
DIMENSION
  5
2460
330
245F
100
AcDbEntity
  8
AM_5
100
AcDbDimension
  2
*D6
 10
-70.00000100000002
 20
5.000008477104842
 30
0.0
 11
-70.00000100000002
 21
-0.0000052981910228
 31
0.0
 12
81.81989987690661
 22
-0.0000161332966199
 32
0.0
 70
   128
  1
%%c<>
 51
359.9999999999998
  3
AM_JIS$0
100
AcDbAlignedDimension
 13
-55.75448184543748
 23
-5.000019073486843
 33
0.0
 14
-55.75448184543756
 24
5.000008477104838
 34
0.0
 50
270.0
100
AcDbRotatedDimension
1001
ACAD
1000
DSTYLE
1002
{
1070
   271
1070
     0
1002
}
1001
GENIUS_GENDTOL_13
1000

1000
h7
1000

1040
0.0
  0
LINE
  5
2461
330
245F
100
AcDbEntity
  8
AM_0
 48
0.5
100
AcDbLine
 10
-56.0
 20
-4.754495620727796
 30
0.0
 11
-56.00000000000003
 21
4.754485024345811
 31
0.0
  0
LINE
  5
2462
330
245F
100
AcDbEntity
  8
AM_0
 48
0.5
100
AcDbLine
 10
-55.75448184543751
 20
-5.000019073486843
 30
0.0
 11
-55.75448184543754
 21
5.000008477104838
 31
0.0
  0
LINE
  5
2463
330
245F
100
AcDbEntity
  8
AM_0
100
AcDbLine
 10
-0.0000000000000142
 20
4.999995231627903
 30
0.0
 11
-55.75448184543754
 21
4.999995231627746
 31
0.0
  0
LINE
  5
2464
330
245F
100
AcDbEntity
  8
AM_0
 48
0.5
100
AcDbLine
 10
-55.99996821086117
 20
4.754439989725671
 30
0.0
 11
-55.75443945990975
 21
4.999963442484006
 31
0.0
  0
LINE
  5
2465
330
245F
100
AcDbEntity
  8
AM_0
100
AcDbLine
 10
-55.75448184543751
 20
-5.000008477105588
 30
0.0
 11
0.0000000000000142
 21
-5.00000847710543
 31
0.0
  0
LINE
  5
2466
330
245F
100
AcDbEntity
  8
AM_0
 48
0.5
100
AcDbLine
 10
-55.99996821086114
 20
-4.754474427965309
 30
0.0
 11
-55.75443945990972
 21
-4.999997880724334
 31
0.0
  0
LINE
  5
2467
330
245F
100
AcDbEntity
  8
AM_0
100
AcDbLine
 10
0.7794201296714505
 20
4.549985867772141
 30
0.0
 11
0.7794201296714789
 21
-4.550003370497427
 31
0.0
  0
LINE
  5
2468
330
245F
100
AcDbEntity
  8
AM_0
 48
0.5
100
AcDbLine
 10
0.0000000000000142
 20
-5.00000847710543
 30
0.0
 11
-0.0000000000000142
 21
5.000008477104995
 31
0.0
  0
LINE
  5
2469
330
245F
100
AcDbEntity
  8
AM_0
 48
0.5
100
AcDbLine
 10
0.7794201296714647
 20
-4.550003370497435
 30
0.0
 11
-0.0000105963812445
 21
-5.00000847710543
 31
0.0
  0
LINE
  5
246A
330
245F
100
AcDbEntity
  8
AM_0
 48
0.5
100
AcDbLine
 10
0.7794201296714647
 20
4.549985867772141
 30
0.0
 11
-0.0000000000000142
 21
4.999984635246652
 31
0.0
  0
ENDBLK
  5
246C
330
245F
100
AcDbEntity
  8
0
100
AcDbBlockEnd
  0
BLOCK
  5
36C9
330
36BB
100
AcDbEntity
  8
0
100
AcDbBlockBegin
  2
*D8
 70
     1
 10
0.0
 20
0.0
 30
0.0
  3
*D8
  1

  0
LINE
  5
4344
330
36BB
100
AcDbEntity
  8
AM_5
100
AcDbLine
 10
0.3420201408161512
 20
-0.9396926216994554
 30
0.0
 11
9.350682794821089
 21
-25.69079004872987
 31
0.0
  0
LINE
  5
4345
330
36BB
100
AcDbEntity
  8
AM_5
100
AcDbLine
 10
0.3420201408161402
 20
0.9396926216991644
 30
0.0
 11
9.350682794820791
 21
25.69079004872969
 31
0.0
  0
ARC
  5
4346
330
36BB
100
AcDbEntity
  8
AM_5
100
AcDbCircle
 10
0.0000000000000272
 20
-0.0000000000001474
 30
0.0
 40
26.33956770062894
100
AcDbArc
 50
295.4402284706612
 51
64.5597715293395
  0
INSERT
  5
4347
330
36BB
100
AcDbEntity
  8
AM_5
100
AcDbBlockReference
  2
_OPEN30
 10
9.008662654004965
 20
-24.75109742703057
 30
0.0
 41
2.5
 42
2.5
 43
2.5
 50
202.7201141588234
  0
INSERT
  5
4348
330
36BB
100
AcDbEntity
  8
AM_5
100
AcDbBlockReference
  2
_OPEN30
 10
9.008662654004679
 20
24.75109742703038
 30
0.0
 41
2.5
 42
2.5
 43
2.5
 50
157.2798858411772
  0
MTEXT
  5
4349
330
36BB
100
AcDbEntity
  8
AM_5
 62
     2
100
AcDbMText
 10
23.23956770062896
 20
0.0000000000000077
 30
0.0
 40
3.2
 41
0.0
 71
     5
 72
     1
  1
140°
  7
ASAMI
 11
-0.0000000000000028
 21
1.0
 31
0.0
1001
ACAD
1000
MTEXTBEGIN
1070
    73
1070
     1
1070
    44
1040
1.0
1070
    74
1070
     0
1000
MTEXTEND
  0
POINT
  5
434A
330
36BB
100
AcDbEntity
  8
DEFPOINTS
 62
     0
100
AcDbPoint
 10
24.18541530169386
 20
-10.43256983396765
 30
0.0
  0
POINT
  5
434B
330
36BB
100
AcDbEntity
  8
DEFPOINTS
 62
     0
100
AcDbPoint
 10
0.0
 20
-0.0000000000002222
 30
0.0
  0
POINT
  5
434C
330
36BB
100
AcDbEntity
  8
DEFPOINTS
 62
     0
100
AcDbPoint
 10
0.0
 20
-0.0000000000000725
 30
0.0
  0
POINT
  5
434D
330
36BB
100
AcDbEntity
  8
DEFPOINTS
 62
     0
100
AcDbPoint
 10
-2.635646502095813
 20
7.241379310344597
 30
0.0
  0
POINT
  5
434E
330
36BB
100
AcDbEntity
  8
DEFPOINTS
 62
     0
100
AcDbPoint
 10
-2.635646502095776
 20
-7.241379310344909
 30
0.0
  0
ENDBLK
  5
36CA
330
36BB
100
AcDbEntity
  8
0
100
AcDbBlockEnd
  0
BLOCK
  5
3B18
330
3B0E
100
AcDbEntity
  8
0
100
AcDbBlockBegin
  2
*D9
 70
     1
 10
0.0
 20
0.0
 30
0.0
  3
*D9
  1

  0
LINE
  5
4564
330
3B0E
100
AcDbEntity
  8
AM_5
 62
     3
100
AcDbLine
 10
-2.820769292123988
 20
8.549999999999856
 30
0.0
 11
-2.820769292124037
 21
25.55407676458037
 31
0.0
  0
LINE
  5
4565
330
3B0E
100
AcDbEntity
  8
AM_5
 62
     3
100
AcDbLine
 10
-87.82076929212397
 20
8.041379310344364
 30
0.0
 11
-87.82076929212401
 21
25.55407676458012
 31
0.0
  0
LINE
  5
4566
330
3B0E
100
AcDbEntity
  8
AM_5
 62
     3
100
AcDbLine
 10
-5.320769292124033
 20
24.55407676458036
 30
0.0
 11
-85.32076929212401
 21
24.55407676458013
 31
0.0
  0
INSERT
  5
4567
330
3B0E
100
AcDbEntity
  8
AM_5
 62
     3
100
AcDbBlockReference
  2
_OPEN30
 10
-2.820769292124034
 20
24.55407676458037
 30
0.0
 41
2.5
 42
2.5
 43
2.5
 50
0.0000000000001527
  0
INSERT
  5
4568
330
3B0E
100
AcDbEntity
  8
AM_5
 62
     3
100
AcDbBlockReference
  2
_OPEN30
 10
-87.82076929212401
 20
24.55407676458012
 30
0.0
 41
2.5
 42
2.5
 43
2.5
 50
180.0000000000001
  0
MTEXT
  5
4569
330
3B0E
100
AcDbEntity
  8
AM_5
 62
     2
100
AcDbMText
 10
-45.32076929212403
 20
27.95407676458024
 30
0.0
 40
3.799999999999999
 41
0.0
 71
     5
 72
     1
  1
85
1001
ACAD
1000
MTEXTBEGIN
1070
    73
1070
     1
1070
    44
1040
1.0
1070
    74
1070
     0
1000
MTEXTEND
  0
POINT
  5
456A
330
3B0E
100
AcDbEntity
  8
DEFPOINTS
 62
     0
100
AcDbPoint
 10
-2.820769292123964
 20
7.749999999999865
 30
0.0
  0
POINT
  5
456B
330
3B0E
100
AcDbEntity
  8
DEFPOINTS
 62
     0
100
AcDbPoint
 10
-87.82076929212394
 20
7.24137931034462
 30
0.0
  0
POINT
  5
456C
330
3B0E
100
AcDbEntity
  8
DEFPOINTS
 62
     0
100
AcDbPoint
 10
-87.82076929212394
 20
24.55407676458038
 30
0.0
  0
ENDBLK
  5
3B19
330
3B0E
100
AcDbEntity
  8
0
100
AcDbBlockEnd
  0
BLOCK
  5
3BC3
330
3BB9
100
AcDbEntity
  8
0
100
AcDbBlockBegin
  2
*D10
 70
     1
 10
0.0
 20
0.0
 30
0.0
  3
*D10
  1

  0
LINE
  5
457F
330
3BB9
100
AcDbEntity
  8
AM_5
 62
     3
100
AcDbLine
 10
-2.82077864357638
 20
-8.041379310344993
 30
0.0
 11
-2.820778643576304
 21
-34.96802818335004
 31
0.0
  0
LINE
  5
4580
330
3BB9
100
AcDbEntity
  8
AM_5
 62
     3
100
AcDbLine
 10
-107.8207692921238
 20
-11.600006866456
 30
0.0
 11
-107.8207692921237
 21
-34.96802818335035
 31
0.0
  0
LINE
  5
4581
330
3BB9
100
AcDbEntity
  8
AM_5
 62
     3
100
AcDbLine
 10
-5.320778643576307
 20
-33.96802818335005
 30
0.0
 11
-105.3207692921237
 21
-33.96802818335034
 31
0.0
  0
INSERT
  5
4582
330
3BB9
100
AcDbEntity
  8
AM_5
 62
     3
100
AcDbBlockReference
  2
_OPEN30
 10
-2.820778643576307
 20
-33.96802818335004
 30
0.0
 41
2.5
 42
2.5
 43
2.5
 50
0.0000000000001527
  0
INSERT
  5
4583
330
3BB9
100
AcDbEntity
  8
AM_5
 62
     3
100
AcDbBlockReference
  2
_OPEN30
 10
-107.8207692921237
 20
-33.96802818335034
 30
0.0
 41
2.5
 42
2.5
 43
2.5
 50
180.0000000000001
  0
MTEXT
  5
4584
330
3BB9
100
AcDbEntity
  8
AM_5
 62
     2
100
AcDbMText
 10
-55.32077396785003
 20
-30.56802818335019
 30
0.0
 40
3.799999999999999
 41
0.0
 71
     5
 72
     1
  1
105
1001
ACAD
1000
MTEXTBEGIN
1070
    73
1070
     1
1070
    44
1040
1.0
1070
    74
1070
     0
1000
MTEXTEND
  0
POINT
  5
4585
330
3BB9
100
AcDbEntity
  8
DEFPOINTS
 62
     0
100
AcDbPoint
 10
-2.820778643576404
 20
-7.241379310344984
 30
0.0
  0
POINT
  5
4586
330
3BB9
100
AcDbEntity
  8
DEFPOINTS
 62
     0
100
AcDbPoint
 10
-107.8207692921238
 20
-10.80000686645569
 30
0.0
  0
POINT
  5
4587
330
3BB9
100
AcDbEntity
  8
DEFPOINTS
 62
     0
100
AcDbPoint
 10
-107.8207692921238
 20
-33.96802818335003
 30
0.0
  0
ENDBLK
  5
3BC4
330
3BB9
100
AcDbEntity
  8
0
100
AcDbBlockEnd
  0
BLOCK
  5
3CD6
330
3CCC
100
AcDbEntity
  8
0
100
AcDbBlockBegin
  2
*D11
 70
     1
 10
0.0
 20
0.0
 30
0.0
  3
*D11
  1

  0
LINE
  5
4576
330
3CCC
100
AcDbEntity
  8
AM_5
 62
     3
100
AcDbLine
 10
-2.8207692921239
 20
-8.041379310344916
 30
0.0
 11
-2.820769292123793
 21
-45.60222642310248
 31
0.0
  0
LINE
  5
4577
330
3CCC
100
AcDbEntity
  8
AM_5
 62
     3
100
AcDbLine
 10
-157.8207006275837
 20
-10.26965332031345
 30
0.0
 11
-157.8207006275836
 21
-45.60222642310294
 31
0.0
  0
LINE
  5
4578
330
3CCC
100
AcDbEntity
  8
AM_5
 62
     3
100
AcDbLine
 10
-5.320769292123796
 20
-44.60222642310249
 30
0.0
 11
-155.3207006275836
 21
-44.60222642310293
 31
0.0
  0
INSERT
  5
4579
330
3CCC
100
AcDbEntity
  8
AM_5
 62
     3
100
AcDbBlockReference
  2
_OPEN30
 10
-2.820769292123796
 20
-44.60222642310248
 30
0.0
 41
2.5
 42
2.5
 43
2.5
 50
0.0000000000001527
  0
INSERT
  5
457A
330
3CCC
100
AcDbEntity
  8
AM_5
 62
     3
100
AcDbBlockReference
  2
_OPEN30
 10
-157.8207006275836
 20
-44.60222642310294
 30
0.0
 41
2.5
 42
2.5
 43
2.5
 50
180.0000000000001
  0
MTEXT
  5
457B
330
3CCC
100
AcDbEntity
  8
AM_5
 62
     2
100
AcDbMText
 10
-80.32073495985372
 20
-41.20222642310271
 30
0.0
 40
3.799999999999999
 41
0.0
 71
     5
 72
     1
  1
155
1001
ACAD
1000
MTEXTBEGIN
1070
    73
1070
     1
1070
    44
1040
1.0
1070
    74
1070
     0
1000
MTEXTEND
  0
POINT
  5
457C
330
3CCC
100
AcDbEntity
  8
DEFPOINTS
 62
     0
100
AcDbPoint
 10
-2.820769292123923
 20
-7.241379310344908
 30
0.0
  0
POINT
  5
457D
330
3CCC
100
AcDbEntity
  8
DEFPOINTS
 62
     0
100
AcDbPoint
 10
-157.8207006275837
 20
-9.469653320313
 30
0.0
  0
POINT
  5
457E
330
3CCC
100
AcDbEntity
  8
DEFPOINTS
 62
     0
100
AcDbPoint
 10
-157.8207006275837
 20
-44.60222642310248
 30
0.0
  0
ENDBLK
  5
3CD7
330
3CCC
100
AcDbEntity
  8
0
100
AcDbBlockEnd
  0
BLOCK
  5
43BF
330
43B5
100
AcDbEntity
  8
0
100
AcDbBlockBegin
  2
*D12
 70
     1
 10
0.0
 20
0.0
 30
0.0
  3
*D12
  1

  0
LINE
  5
456D
330
43B5
100
AcDbEntity
  8
AM_5
 62
     3
100
AcDbLine
 10
-158.0904500782689
 20
10.00002975463854
 30
0.0
 11
-172.3964406788478
 21
10.00002975463855
 31
0.0
  0
LINE
  5
456E
330
43B5
100
AcDbEntity
  8
AM_5
 62
     3
100
AcDbLine
 10
-158.0904500782688
 20
-9.99989242750793
 30
0.0
 11
-172.3964406788478
 21
-9.999892427507925
 31
0.0
  0
LINE
  5
456F
330
43B5
100
AcDbEntity
  8
AM_5
 62
     3
100
AcDbLine
 10
-171.3964406788478
 20
7.500029754638549
 30
0.0
 11
-171.3964406788478
 21
-7.499892427507927
 31
0.0
  0
INSERT
  5
4570
330
43B5
100
AcDbEntity
  8
AM_5
 62
     3
100
AcDbBlockReference
  2
_OPEN30
 10
-171.3964406788478
 20
10.00002975463854
 30
0.0
 41
2.5
 42
2.5
 43
2.5
 50
90.0
  0
INSERT
  5
4571
330
43B5
100
AcDbEntity
  8
AM_5
 62
     3
100
AcDbBlockReference
  2
_OPEN30
 10
-171.3964406788478
 20
-9.999892427507928
 30
0.0
 41
2.5
 42
2.5
 43
2.5
 50
270.0
  0
MTEXT
  5
4572
330
43B5
100
AcDbEntity
  8
AM_5
 62
     2
100
AcDbMText
 10
-174.7964406788478
 20
0.0000686635652836
 30
0.0
 40
3.799999999999999
 41
0.0
 71
     5
 72
     1
  1
%%C20
 11
0.0000000000000001
 21
1.0
 31
0.0
1001
ACAD
1000
MTEXTBEGIN
1070
    73
1070
     1
1070
    44
1040
1.0
1070
    74
1070
     0
1000
MTEXTEND
  0
POINT
  5
4573
330
43B5
100
AcDbEntity
  8
DEFPOINTS
 62
     0
100
AcDbPoint
 10
-157.2904500782689
 20
10.00002975463854
 30
0.0
  0
POINT
  5
4574
330
43B5
100
AcDbEntity
  8
DEFPOINTS
 62
     0
100
AcDbPoint
 10
-157.2904500782688
 20
-9.99989242750793
 30
0.0
  0
POINT
  5
4575
330
43B5
100
AcDbEntity
  8
DEFPOINTS
 62
     0
100
AcDbPoint
 10
-171.3964406788478
 20
-9.999892427507928
 30
0.0
  0
ENDBLK
  5
43C0
330
43B5
100
AcDbEntity
  8
0
100
AcDbBlockEnd
  0
BLOCK
  5
43CB
330
43C1
100
AcDbEntity
  8
0
100
AcDbBlockBegin
  2
*D13
 70
     1
 10
0.0
 20
0.0
 30
0.0
  3
*D13
  1

  0
LINE
  5
4593
330
43C1
100
AcDbEntity
  8
AM_5
 62
     3
100
AcDbLine
 10
-151.8207692921238
 20
-0.800000000000341
 30
0.0
 11
-151.8207692921238
 21
-24.95356967775132
 31
0.0
  0
LINE
  5
4594
330
43C1
100
AcDbEntity
  8
AM_5
 62
     3
100
AcDbLine
 10
-111.8207692921238
 20
-0.8000000000001136
 30
0.0
 11
-111.8207692921238
 21
-24.95356967775132
 31
0.0
  0
LINE
  5
4595
330
43C1
100
AcDbEntity
  8
AM_5
 62
     3
100
AcDbLine
 10
-149.3207692921238
 20
-23.95356967775132
 30
0.0
 11
-114.3207692921238
 21
-23.95356967775132
 31
0.0
  0
INSERT
  5
4596
330
43C1
100
AcDbEntity
  8
AM_5
 62
     3
100
AcDbBlockReference
  2
_OPEN30
 10
-151.8207692921238
 20
-23.95356967775132
 30
0.0
 41
2.5
 42
2.5
 43
2.5
 50
180.0
  0
INSERT
  5
4597
330
43C1
100
AcDbEntity
  8
AM_5
 62
     3
100
AcDbBlockReference
  2
_OPEN30
 10
-111.8207692921238
 20
-23.95356967775132
 30
0.0
 41
2.5
 42
2.5
 43
2.5
  0
MTEXT
  5
4598
330
43C1
100
AcDbEntity
  8
AM_5
 62
     2
100
AcDbMText
 10
-131.8207692921238
 20
-20.55356967775132
 30
0.0
 40
3.799999999999999
 41
0.0
 71
     5
 72
     1
  1
40
1001
ACAD
1000
MTEXTBEGIN
1070
    73
1070
     1
1070
    44
1040
1.0
1070
    74
1070
     0
1000
MTEXTEND
  0
POINT
  5
4599
330
43C1
100
AcDbEntity
  8
DEFPOINTS
 62
     0
100
AcDbPoint
 10
-151.8207692921238
 20
-0.0000000000003411
 30
0.0
  0
POINT
  5
459A
330
43C1
100
AcDbEntity
  8
DEFPOINTS
 62
     0
100
AcDbPoint
 10
-111.8207692921238
 20
-0.0000000000001137
 30
0.0
  0
POINT
  5
459B
330
43C1
100
AcDbEntity
  8
DEFPOINTS
 62
     0
100
AcDbPoint
 10
-111.8207692921238
 20
-23.95356967775132
 30
0.0
  0
ENDBLK
  5
43CC
330
43C1
100
AcDbEntity
  8
0
100
AcDbBlockEnd
  0
BLOCK
  5
43D9
330
43CD
100
AcDbEntity
  8
0
100
AcDbBlockBegin
  2
*D14
 70
     1
 10
0.0
 20
0.0
 30
0.0
  3
*D14
  1

  0
LINE
  5
4588
330
43CD
100
AcDbEntity
  8
AM_5
 62
     3
100
AcDbLine
 10
-157.8207692921238
 20
-0.8000000000003552
 30
0.0
 11
-157.8207692921238
 21
-24.95356967775171
 31
0.0
  0
LINE
  5
4589
330
43CD
100
AcDbEntity
  8
AM_5
 62
     3
100
AcDbLine
 10
-151.8207692921238
 20
-0.8000000000003126
 30
0.0
 11
-151.8207692921238
 21
-24.95356967775171
 31
0.0
  0
LINE
  5
458A
330
43CD
100
AcDbEntity
  8
AM_5
 62
     3
100
AcDbLine
 10
-160.3207692921238
 20
-23.95356967775171
 30
0.0
 11
-162.8207692921238
 21
-23.95356967775171
 31
0.0
  0
LINE
  5
458B
330
43CD
100
AcDbEntity
  8
AM_5
 62
     3
100
AcDbLine
 10
-149.3207692921238
 20
-23.95356967775171
 30
0.0
 11
-146.8207692921238
 21
-23.95356967775171
 31
0.0
  0
LINE
  5
458C
330
43CD
100
AcDbEntity
  8
AM_5
 62
     3
100
AcDbLine
 10
-157.8207692921238
 20
-23.95356967775171
 30
0.0
 11
-151.8207692921238
 21
-23.95356967775171
 31
0.0
  0
INSERT
  5
458D
330
43CD
100
AcDbEntity
  8
AM_5
 62
     3
100
AcDbBlockReference
  2
_OPEN30
 10
-157.8207692921238
 20
-23.95356967775171
 30
0.0
 41
2.5
 42
2.5
 43
2.5
  0
INSERT
  5
458E
330
43CD
100
AcDbEntity
  8
AM_5
 62
     3
100
AcDbBlockReference
  2
_OPEN30
 10
-151.8207692921238
 20
-23.95356967775171
 30
0.0
 41
2.5
 42
2.5
 43
2.5
 50
180.0
  0
MTEXT
  5
458F
330
43CD
100
AcDbEntity
  8
AM_5
 62
     2
100
AcDbMText
 10
-154.8207692921238
 20
-20.55356967775171
 30
0.0
 40
3.799999999999999
 41
0.0
 71
     5
 72
     1
  1
6
1001
ACAD
1000
MTEXTBEGIN
1070
    73
1070
     1
1070
    44
1040
1.0
1070
    74
1070
     0
1000
MTEXTEND
  0
POINT
  5
4590
330
43CD
100
AcDbEntity
  8
DEFPOINTS
 62
     0
100
AcDbPoint
 10
-157.8207692921238
 20
-0.0000000000003553
 30
0.0
  0
POINT
  5
4591
330
43CD
100
AcDbEntity
  8
DEFPOINTS
 62
     0
100
AcDbPoint
 10
-151.8207692921238
 20
-0.0000000000003126
 30
0.0
  0
POINT
  5
4592
330
43CD
100
AcDbEntity
  8
DEFPOINTS
 62
     0
100
AcDbPoint
 10
-151.8207692921238
 20
-23.95356967775171
 30
0.0
  0
ENDBLK
  5
43DA
330
43CD
100
AcDbEntity
  8
0
100
AcDbBlockEnd
  0
BLOCK
  5
43E5
330
43DB
100
AcDbEntity
  8
0
100
AcDbBlockBegin
  2
*D15
 70
     1
 10
0.0
 20
0.0
 30
0.0
  3
*D15
  1

  0
LINE
  5
459C
330
43DB
100
AcDbEntity
  8
AM_5
 62
     3
100
AcDbLine
 10
-107.8207692921238
 20
-10.80000686645569
 30
0.0
 11
-107.8207692921238
 21
-34.96802818335032
 31
0.0
  0
LINE
  5
459D
330
43DB
100
AcDbEntity
  8
AM_5
 62
     3
100
AcDbLine
 10
-157.8207692921238
 20
-10.26969909667981
 30
0.0
 11
-157.8207692921238
 21
-34.96802818335032
 31
0.0
  0
LINE
  5
459E
330
43DB
100
AcDbEntity
  8
AM_5
 62
     3
100
AcDbLine
 10
-110.3207692921238
 20
-33.96802818335032
 30
0.0
 11
-155.3207692921237
 21
-33.96802818335032
 31
0.0
  0
INSERT
  5
459F
330
43DB
100
AcDbEntity
  8
AM_5
 62
     3
100
AcDbBlockReference
  2
_OPEN30
 10
-107.8207692921238
 20
-33.96802818335032
 30
0.0
 41
2.5
 42
2.5
 43
2.5
  0
INSERT
  5
45A0
330
43DB
100
AcDbEntity
  8
AM_5
 62
     3
100
AcDbBlockReference
  2
_OPEN30
 10
-157.8207692921238
 20
-33.96802818335032
 30
0.0
 41
2.5
 42
2.5
 43
2.5
 50
180.0
  0
MTEXT
  5
45A1
330
43DB
100
AcDbEntity
  8
AM_5
 62
     2
100
AcDbMText
 10
-132.8207692921238
 20
-30.56802818335032
 30
0.0
 40
3.799999999999999
 41
0.0
 71
     5
 72
     1
  1
50
1001
ACAD
1000
MTEXTBEGIN
1070
    73
1070
     1
1070
    44
1040
1.0
1070
    74
1070
     0
1000
MTEXTEND
  0
POINT
  5
45A2
330
43DB
100
AcDbEntity
  8
DEFPOINTS
 62
     0
100
AcDbPoint
 10
-107.8207692921238
 20
-10.00000686645569
 30
0.0
  0
POINT
  5
45A3
330
43DB
100
AcDbEntity
  8
DEFPOINTS
 62
     0
100
AcDbPoint
 10
-157.8207692921238
 20
-9.469699096679818
 30
0.0
  0
POINT
  5
45A4
330
43DB
100
AcDbEntity
  8
DEFPOINTS
 62
     0
100
AcDbPoint
 10
-157.8207692921238
 20
-33.96802818335032
 30
0.0
  0
ENDBLK
  5
43E6
330
43DB
100
AcDbEntity
  8
0
100
AcDbBlockEnd
  0
BLOCK
  5
4520
330
4516
100
AcDbEntity
  8
0
100
AcDbBlockBegin
  2
*D16
 70
     1
 10
0.0
 20
0.0
 30
0.0
  3
*D16
  1

  0
LINE
  5
45A5
330
4516
100
AcDbEntity
  8
AM_5
 62
     3
100
AcDbLine
 10
-1.929776734313615
 20
7.749999999999868
 30
0.0
 11
15.99557391750528
 21
7.749999999999919
 31
0.0
  0
LINE
  5
45A6
330
4516
100
AcDbEntity
  8
AM_5
 62
     3
100
AcDbLine
 10
-2.020769292123875
 20
-7.750000000000133
 30
0.0
 11
15.99557391750532
 21
-7.750000000000081
 31
0.0
  0
LINE
  5
45A7
330
4516
100
AcDbEntity
  8
AM_5
 62
     3
100
AcDbLine
 10
14.99557391750528
 20
5.249999999999916
 30
0.0
 11
14.99557391750531
 21
-5.250000000000084
 31
0.0
  0
INSERT
  5
45A8
330
4516
100
AcDbEntity
  8
AM_5
 62
     3
100
AcDbBlockReference
  2
_OPEN30
 10
14.99557391750528
 20
7.749999999999916
 30
0.0
 41
2.5
 42
2.5
 43
2.5
 50
90.00000000000017
  0
INSERT
  5
45A9
330
4516
100
AcDbEntity
  8
AM_5
 62
     3
100
AcDbBlockReference
  2
_OPEN30
 10
14.99557391750532
 20
-7.750000000000084
 30
0.0
 41
2.5
 42
2.5
 43
2.5
 50
270.0000000000001
  0
MTEXT
  5
45AA
330
4516
100
AcDbEntity
  8
AM_5
 62
     2
100
AcDbMText
 10
11.5955739175053
 20
-0.0000000000000942
 30
0.0
 40
3.799999999999999
 41
0.0
 71
     5
 72
     1
  1
%%C15.5
 11
-0.0000000000000028
 21
1.0
 31
0.0
1001
ACAD
1000
MTEXTBEGIN
1070
    73
1070
     1
1070
    44
1040
1.0
1070
    74
1070
     0
1000
MTEXTEND
  0
POINT
  5
45AB
330
4516
100
AcDbEntity
  8
DEFPOINTS
 62
     0
100
AcDbPoint
 10
-2.729776734313591
 20
7.749999999999874
 30
0.0
  0
POINT
  5
45AC
330
4516
100
AcDbEntity
  8
DEFPOINTS
 62
     0
100
AcDbPoint
 10
-2.8207692921239
 20
-7.750000000000126
 30
0.0
  0
POINT
  5
45AD
330
4516
100
AcDbEntity
  8
DEFPOINTS
 62
     0
100
AcDbPoint
 10
14.9955739175053
 20
-7.750000000000131
 30
0.0
  0
ENDBLK
  5
4521
330
4516
100
AcDbEntity
  8
0
100
AcDbBlockEnd
  0
ENDSEC
  0
SECTION
  2
ENTITIES
  0
TEXT
  5
19BD
330
1F
100
AcDbEntity
  8
AM_6
100
AcDbText
 10
-100.586885259186
 20
-67.10222642310276
 30
0.0
 40
5.0
  1
KDS155LAK
 50
0.0000000000001527
 72
     4
 11
-80.22974240204323
 21
-64.6022264231027
 31
0.0
100
AcDbText
  0
LINE
  5
35D1
330
1F
100
AcDbEntity
  8
AM_7
100
AcDbLine
 10
4.909002595337891
 20
-0.0000000000001046
 30
0.0
 11
-168.5248069137585
 21
-0.0000000000005318
 31
0.0
  0
LINE
  5
35F4
330
1F
100
AcDbEntity
  8
PV0001_1
  6
CONTINUOUS
 48
0.5
100
AcDbLine
 10
-87.82076929212392
 20
7.750000000000746
 30
0.0
 11
-107.8207692921239
 21
10.0000011444082
 31
0.0
  0
LINE
  5
35F5
330
1F
100
AcDbEntity
  8
PV0001_1
  6
CONTINUOUS
 48
0.5
100
AcDbLine
 10
-87.82076929212397
 20
-7.74999999999942
 30
0.0
 11
-107.8207692921238
 21
-10.00000686645569
 31
0.0
  0
DIMENSION
  5
36BA
330
1F
100
AcDbEntity
  8
AM_5
100
AcDbDimension
  2
*D8
 10
-2.635646502095776
 20
-7.241379310344909
 30
0.0
 11
23.23956770062896
 21
-0.0000000000000636
 31
0.0
 70
    34
  1
<>
 51
359.9999999999998
  3
AM_JIS$2
100
AcDb2LineAngularDimension
 13
0.0
 23
-0.0000000000000725
 33
0.0
 14
-2.635646502095813
 24
7.241379310344597
 34
0.0
 15
0.0
 25
-0.0000000000002222
 35
0.0
 16
24.18541530169386
 26
-10.43256983396765
 36
0.0
1001
ACAD
1000
DSTYLE
1002
{
1070
   179
1070
     3
1002
}
1001
GENIUS_GENDTOL_13
1000

1000
h7
1000

1040
0.0
  0
DIMENSION
  5
3B0D
330
1F
100
AcDbEntity
  8
AM_5
100
AcDbDimension
  2
*D9
 10
-87.82076929212394
 20
24.55407676458038
 30
0.0
 11
-45.32076929212395
 21
27.95407676458038
 31
0.0
 70
    32
  1
<>
 51
359.9999999999998
  3
AM_JIS$0
100
AcDbAlignedDimension
 13
-2.820769292123964
 23
7.749999999999865
 33
0.0
 14
-87.82076929212394
 24
7.24137931034462
 34
0.0
 50
180.0000000000001
100
AcDbRotatedDimension
1001
ACAD
1000
DSTYLE
1002
{
1070
   271
1070
     3
1002
}
1001
GENIUS_GENDTOL_13
1000

1000
h7
1000

1040
0.0
  0
DIMENSION
  5
3BB8
330
1F
100
AcDbEntity
  8
AM_5
100
AcDbDimension
  2
*D10
 10
-107.8207692921238
 20
-33.96802818335003
 30
0.0
 11
-55.32077396785012
 21
-30.56802818335004
 31
0.0
 70
    32
  1
<>
 51
359.9999999999998
  3
AM_JIS$0
100
AcDbAlignedDimension
 13
-2.820778643576404
 23
-7.241379310344984
 33
0.0
 14
-107.8207692921238
 24
-10.80000686645569
 34
0.0
 50
0.0000000000001641
100
AcDbRotatedDimension
1001
ACAD
1000
DSTYLE
1002
{
1070
   271
1070
     3
1002
}
1001
GENIUS_GENDTOL_13
1000

1000
h7
1000

1040
0.0
  0
DIMENSION
  5
3CCB
330
1F
100
AcDbEntity
  8
AM_5
100
AcDbDimension
  2
*D11
 10
-157.8207006275837
 20
-44.60222642310248
 30
0.0
 11
-80.32073495985384
 21
-41.20222642310248
 31
0.0
 70
    32
  1
<>
 51
359.9999999999998
  3
AM_JIS$0
100
AcDbAlignedDimension
 13
-2.820769292123923
 23
-7.241379310344908
 33
0.0
 14
-157.8207006275837
 24
-9.469653320313
 34
0.0
 50
0.0000000000002659
100
AcDbRotatedDimension
1001
ACAD
1000
DSTYLE
1002
{
1070
   271
1070
     3
1002
}
1001
GENIUS_GENDTOL_13
1000

1000
h7
1000

1040
0.0
  0
DIMENSION
  5
43A4
330
1F
100
AcDbEntity
  8
AM_5
100
AcDbDimension
  2
*D15
 10
-157.8207692921238
 20
-33.96802818335032
 30
0.0
 11
-132.8207692921238
 21
-30.56802818335032
 31
0.0
 70
    32
  1
<>
  3
AM_JIS$0
100
AcDbAlignedDimension
 13
-107.8207692921238
 23
-10.00000686645569
 33
0.0
 14
-157.8207692921238
 24
-9.469699096679818
 34
0.0
 50
0.0000000000008142
100
AcDbRotatedDimension
1001
ACAD
1000
DSTYLE
1002
{
1070
   271
1070
     3
1002
}
1001
GENIUS_GENDTOL_13
1000

1000
h7
1000

1040
0.0
  0
DIMENSION
  5
43A5
330
1F
100
AcDbEntity
  8
AM_5
100
AcDbDimension
  2
*D13
 10
-111.8207692921238
 20
-23.95356967775132
 30
0.0
 11
-131.8207692921238
 21
-20.55356967775132
 31
0.0
 70
    32
  1
<>
  3
AM_JIS$0
100
AcDbAlignedDimension
 13
-151.8207692921238
 23
-0.0000000000003411
 33
0.0
 14
-111.8207692921238
 24
-0.0000000000001137
 34
0.0
 50
0.0000000000008142
100
AcDbRotatedDimension
1001
ACAD
1000
DSTYLE
1002
{
1070
   271
1070
     3
1002
}
1001
GENIUS_GENDTOL_13
1000

1000
h7
1000

1040
0.0
  0
LINE
  5
43A6
330
1F
100
AcDbEntity
  8
PV0001_1
  6
CONTINUOUS
100
AcDbLine
 10
-157.2904500782688
 20
-10.00000686645593
 30
0.0
 11
-107.8207692921238
 21
-10.00000686645569
 31
0.0
  0
LINE
  5
43A7
330
1F
100
AcDbEntity
  8
PV0001_1
  6
CONTINUOUS
100
AcDbLine
 10
-107.8207692921239
 20
10.0000011444082
 30
0.0
 11
-157.2904500782689
 21
10.00000114440797
 31
0.0
  0
LINE
  5
43A8
330
1F
100
AcDbEntity
  8
AM_0
100
AcDbLine
 10
-115.6204403305165
 20
3.799671038392517
 30
0.0
 11
-148.0210982537312
 21
3.799671038392347
 31
0.0
  0
LINE
  5
43A9
330
1F
100
AcDbEntity
  8
AM_0
100
AcDbLine
 10
-115.6204403305165
 20
-3.799671038392801
 30
0.0
 11
-148.0210982537311
 21
-3.799671038392972
 31
0.0
  0
LINE
  5
43AA
330
1F
100
AcDbEntity
  8
PV0001_1
  6
CONTINUOUS
 48
0.5
100
AcDbLine
 10
-157.8207006275838
 20
9.469601821899658
 30
0.0
 11
-157.2903585255288
 21
9.999932479857534
 31
0.0
  0
LINE
  5
43AB
330
1F
100
AcDbEntity
  8
PV0001_1
  6
CONTINUOUS
 48
0.5
100
AcDbLine
 10
-157.2904500782688
 20
-0.0000000000004974
 30
0.0
 11
-157.2904500782689
 21
10.00002975463854
 31
0.0
  0
DIMENSION
  5
43AC
330
1F
100
AcDbEntity
  8
AM_5
100
AcDbDimension
  2
*D12
 10
-171.3964406788478
 20
-9.999892427507928
 30
0.0
 11
-174.7964406788478
 21
0.0000686635652836
 31
0.0
 70
    32
  1
%%C<>
  3
AM_JIS$0
100
AcDbAlignedDimension
 13
-157.2904500782689
 23
10.00002975463854
 33
0.0
 14
-157.2904500782688
 24
-9.99989242750793
 34
0.0
 50
270.0
100
AcDbRotatedDimension
1001
ACAD
1000
DSTYLE
1002
{
1070
   271
1070
     3
1002
}
1001
GENIUS_GENDTOL_13
1000

1000
h7
1000

1040
0.0
  0
DIMENSION
  5
43AD
330
1F
100
AcDbEntity
  8
AM_5
100
AcDbDimension
  2
*D14
 10
-151.8207692921238
 20
-23.95356967775171
 30
0.0
 11
-154.8207692921238
 21
-23.95356967775171
 31
0.0
 70
   160
  1
<>
  3
AM_JIS$0
100
AcDbAlignedDimension
 13
-157.8207692921238
 23
-0.0000000000003553
 33
0.0
 14
-151.8207692921238
 24
-0.0000000000003126
 34
0.0
 50
0.0000000000008142
100
AcDbRotatedDimension
1001
ACAD
1000
DSTYLE
1002
{
1070
   271
1070
     3
1002
}
1001
GENIUS_GENDTOL_13
1000

1000
h7
1000

1040
0.0
  0
LINE
  5
43AE
330
1F
100
AcDbEntity
  8
PV0001_1
  6
CONTINUOUS
 48
0.5
100
AcDbLine
 10
-157.8207692921238
 20
-0.0000000000004974
 30
0.0
 11
-157.8207692921238
 21
-9.469699096679818
 31
0.0
  0
LINE
  5
43AF
330
1F
100
AcDbEntity
  8
PV0001_1
  6
CONTINUOUS
 48
0.5
100
AcDbLine
 10
-157.2904500782688
 20
-0.0000000000004974
 30
0.0
 11
-157.2904500782688
 21
-10.00002975463952
 31
0.0
  0
LINE
  5
43B0
330
1F
100
AcDbEntity
  8
PV0001_1
  6
CONTINUOUS
 48
0.5
100
AcDbLine
 10
-157.8207006275837
 20
-9.469653320313
 30
0.0
 11
-157.2903585255287
 21
-9.999983978272339
 31
0.0
  0
LINE
  5
43B1
330
1F
100
AcDbEntity
  8
PV0001_1
  6
CONTINUOUS
 48
0.5
100
AcDbLine
 10
-157.8207692921238
 20
-0.0000000000004974
 30
0.0
 11
-157.8207692921239
 21
9.469699096679192
 31
0.0
  0
ARC
  5
43B2
330
1F
100
AcDbEntity
  8
AM_0
100
AcDbCircle
 10
-148.0210982537312
 20
-0.0000000000002984
 30
0.0
 40
3.799671038392649
100
AcDbArc
 50
90.0
 51
270.0
  0
LINE
  5
43B3
330
1F
100
AcDbEntity
  8
PV0001_1
  6
CONTINUOUS
100
AcDbLine
 10
-107.8207692921238
 20
-10.00000686645569
 30
0.0
 11
-107.8207692921239
 21
10.0000011444082
 31
0.0
  0
ARC
  5
43B4
330
1F
100
AcDbEntity
  8
AM_0
100
AcDbCircle
 10
-115.6204403305165
 20
-0.0000000000001279
 30
0.0
 40
3.799671038392649
100
AcDbArc
 50
270.0
 51
90.0
  0
SPLINE
  5
44A0
330
1F
100
AcDbEntity
  8
AM_0
100
AcDbSpline
210
0.0
220
0.0
230
1.0
 70
     8
 71
     3
 72
    12
 73
     8
 74
     0
 42
0.0000000001
 43
0.0000000001
 40
0.0
 40
0.0
 40
0.0
 40
0.0
 40
3.550288329958888
 40
5.110699985623471
 40
6.310592039948465
 40
8.859663010396623
 40
10.65155104271494
 40
10.65155104271494
 40
10.65155104271494
 40
10.65155104271494
 10
-99.88891046617943
 20
7.532413778973046
 30
0.0
 10
-101.1428915308648
 20
7.759907569051847
 30
0.0
 10
-102.9557495438741
 20
7.759907569051847
 30
0.0
 10
-104.9925363348631
 20
6.807219404988472
 30
0.0
 10
-106.2546382343448
 20
5.039541830898098
 30
0.0
 10
-105.213202266857
 20
2.941714302363615
 30
0.0
 10
-103.9393255212816
 20
2.195152549295105
 30
0.0
 10
-103.4134867622445
 20
1.886982149653573
 30
0.0
  0
LINE
  5
44E2
330
1F
100
AcDbEntity
  8
PV0001_1
  6
CONTINUOUS
 48
0.5
100
AcDbLine
 10
-0.0000000000000284
 20
-0.0000000000002984
 30
0.0
 11
-2.820769292124126
 21
7.749999999999873
 31
0.0
  0
LINE
  5
44E3
330
1F
100
AcDbEntity
  8
PV0001_1
  6
CONTINUOUS
 48
0.5
100
AcDbLine
 10
-0.0000000000000284
 20
-0.0000000000004547
 30
0.0
 11
-2.820769292123899
 21
-7.750000000000126
 31
0.0
  0
SPLINE
  5
4513
330
1F
100
AcDbEntity
  8
PV0001_1
  6
CONTINUOUS
100
AcDbSpline
210
0.0
220
0.0
230
1.0
 70
     8
 71
     3
 72
    31
 73
    27
 74
     0
 42
0.0000000001
 43
0.0000000001
 40
0.0
 40
0.0
 40
0.0
 40
0.0
 40
1.010743684496582
 40
2.022833576467832
 40
3.037578957496688
 40
4.056212745003489
 40
5.079857003664532
 40
6.109500240690281
 40
7.145961322679372
 40
8.189895241603872
 40
9.241717795325891
 40
10.30168407291828
 40
11.36983447792315
 40
12.44600489715814
 40
13.52984294512926
 40
14.62081576220742
 40
15.7182257034828
 40
16.82123173843959
 40
17.92886860250316
 40
19.0400688939571
 40
20.15368796660465
 40
21.26852814259644
 40
22.38336992938901
 40
23.49698739941135
 40
24.6081876908653
 40
24.75415722335978
 40
24.75415722335978
 40
24.75415722335978
 40
24.75415722335978
 10
-76.4602706640309
 20
-7.749999999999359
 30
0.0
 10
-76.84876131862687
 20
-7.745388937754596
 30
0.0
 10
-77.62626005773801
 20
-7.736160671800563
 30
0.0
 10
-78.79222521979373
 20
-7.661770488182144
 30
0.0
 10
-79.95814061119294
 20
-7.543509529112863
 30
0.0
 10
-81.12398384387601
 20
-7.377762297174793
 30
0.0
 10
-82.28974328456274
 20
-7.166774985140031
 30
0.0
 10
-83.45539593542588
 20
-6.91148581996283
 30
0.0
 10
-84.62094569552176
 20
-6.61361452045247
 30
0.0
 10
-85.78638222877961
 20
-6.274985107926757
 30
0.0
 10
-86.95169759645258
 20
-5.897676746435732
 30
0.0
 10
-88.11689760699357
 20
-5.484057761561786
 30
0.0
 10
-89.2819853810406
 20
-5.036659529848019
 30
0.0
 10
-90.44697547543213
 20
-4.558267218934281
 30
0.0
 10
-91.6118732239269
 20
-4.0518206520691
 30
0.0
 10
-92.77668942831612
 20
-3.520443135319178
 30
0.0
 10
-93.94143700656938
 20
-2.967412843612596
 30
0.0
 10
-95.10612618113315
 20
-2.39613065158511
 30
0.0
 10
-96.27076825544857
 20
-1.810110166952604
 30
0.0
 10
-97.4353756916809
 20
-1.2129582761747
 30
0.0
 10
-98.59995870454582
 20
-0.6083460236684643
 30
0.0
 10
-99.76453373975939
 20
-0.0000015812807213
 30
0.0
 10
-100.9291035470054
 20
0.6083538116861158
 30
0.0
 10
-102.0936904632988
 20
1.212956648780421
 30
0.0
 10
-102.9222188047161
 20
1.637785959187426
 30
0.0
 10
-103.3623697256156
 20
1.861083095450807
 30
0.0
 10
-103.4134867622445
 20
1.886982149653573
 30
0.0
  0
SPLINE
  5
4514
330
1F
100
AcDbEntity
  8
PV0001_1
  6
CONTINUOUS
100
AcDbSpline
210
0.0
220
0.0
230
1.0
 70
     8
 71
     3
 72
    44
 73
    40
 74
     0
 42
0.0000000001
 43
0.0000000001
 40
0.0
 40
0.0
 40
0.0
 40
0.0
 40
1.010743684496582
 40
2.022833576467832
 40
3.037578957496688
 40
4.056212745003489
 40
5.079857003664532
 40
6.109500240690281
 40
7.145961322679372
 40
8.189895241603872
 40
9.241717795325891
 40
10.30168407291828
 40
11.36983447792315
 40
12.44600489715814
 40
13.52984294512926
 40
14.62081576220742
 40
15.7182257034828
 40
16.82123173843959
 40
17.92886860250316
 40
19.0400688939571
 40
20.15368796660465
 40
21.26852814259644
 40
22.38336992938901
 40
23.49698739941135
 40
24.6081876908653
 40
25.71582455492886
 40
26.81883757994213
 40
27.91624752121713
 40
29.00722033829659
 40
30.09105838626677
 40
31.16722880550176
 40
32.23537921050758
 40
33.29534548809967
 40
34.347168041821
 40
35.39108718934584
 40
36.42754827133493
 40
37.45720575381954
 40
38.48085062012849
 40
39.47486609502677
 40
39.47486609502677
 40
39.47486609502677
 40
39.47486609502677
 10
-56.804233646026
 20
-7.749999999999522
 30
0.0
 10
-57.19272430062196
 20
-7.745388937754757
 30
0.0
 10
-57.97022303973308
 20
-7.736160671800726
 30
0.0
 10
-59.13618820178884
 20
-7.661770488182309
 30
0.0
 10
-60.30210359318804
 20
-7.543509529113027
 30
0.0
 10
-61.46794682587111
 20
-7.377762297174955
 30
0.0
 10
-62.63370626655784
 20
-7.166774985140195
 30
0.0
 10
-63.79935891742093
 20
-6.911485819962996
 30
0.0
 10
-64.96490867751685
 20
-6.613614520452635
 30
0.0
 10
-66.13034521077469
 20
-6.274985107926918
 30
0.0
 10
-67.29566057844763
 20
-5.897676746435894
 30
0.0
 10
-68.46086058898862
 20
-5.484057761561948
 30
0.0
 10
-69.62594836303566
 20
-5.036659529848183
 30
0.0
 10
-70.79093845742718
 20
-4.558267218934442
 30
0.0
 10
-71.95583620592192
 20
-4.051820652069262
 30
0.0
 10
-73.12065241031115
 20
-3.520443135319341
 30
0.0
 10
-74.28539998856442
 20
-2.967412843612759
 30
0.0
 10
-75.4500891631282
 20
-2.396130651585272
 30
0.0
 10
-76.61473123744366
 20
-1.810110166952767
 30
0.0
 10
-77.77933867367598
 20
-1.212958276174862
 30
0.0
 10
-78.94392168654092
 20
-0.6083460236686267
 30
0.0
 10
-80.10849672175444
 20
-0.0000015812808839
 30
0.0
 10
-81.27306652900053
 20
0.6083538116859531
 30
0.0
 10
-82.43765344529391
 20
1.212956648780259
 30
0.0
 10
-83.60225944380273
 20
1.810110347102795
 30
0.0
 10
-84.76690359466214
 20
2.396133064212146
 30
0.0
 10
-85.9315976009152
 20
2.967410380816792
 30
0.0
 10
-87.09634701744789
 20
3.520443477156516
 30
0.0
 10
-88.26116338999787
 20
4.051820563014007
 30
0.0
 10
-89.42606109610565
 20
4.558267236382982
 30
0.0
 10
-90.59105119348028
 20
5.036659547997082
 30
0.0
 10
-91.75613899720302
 20
5.484057672730967
 30
0.0
 10
-92.92133888748265
 20
5.897677079947743
 30
0.0
 10
-94.08664924705826
 20
6.274982109810859
 30
0.0
 10
-95.25207857343724
 20
6.613615957536908
 30
0.0
 10
-96.41762790117468
 20
6.911493246864706
 30
0.0
 10
-97.58328887518839
 20
7.166753254475496
 30
0.0
 10
-98.73970980986202
 20
7.376114508482995
 30
0.0
 10
-99.50913033135195
 20
7.485733207762449
 30
0.0
 10
-99.88891046617943
 20
7.532413778973046
 30
0.0
  0
DIMENSION
  5
4515
330
1F
100
AcDbEntity
  8
AM_5
100
AcDbDimension
  2
*D16
 10
14.9955739175053
 20
-7.750000000000131
 30
0.0
 11
14.9955739175053
 21
-0.0000000000001284
 31
0.0
 70
   160
  1
%%C<>
 51
359.9999999999998
  3
AM_JIS$0
100
AcDbAlignedDimension
 13
-2.729776734313591
 23
7.749999999999874
 33
0.0
 14
-2.8207692921239
 24
-7.750000000000126
 34
0.0
 50
89.99999999999962
100
AcDbRotatedDimension
1001
GENIUS_GENDTOL_13
1000

1000
h7
1000

1040
0.0
1001
ACAD
1000
DSTYLE
1002
{
1070
   271
1070
     3
1002
}
  0
LINE
  5
4522
330
1F
100
AcDbEntity
  8
PV0001_1
  6
CONTINUOUS
 48
0.5
100
AcDbLine
 10
-10.86130797882272
 20
7.749999999999928
 30
0.0
 11
-2.820769292124126
 21
7.749999999999873
 31
0.0
  0
LINE
  5
4523
330
1F
100
AcDbEntity
  8
PV0001_1
  6
CONTINUOUS
 48
0.5
100
AcDbLine
 10
-2.444667078520079
 20
6.716667652129437
 30
0.0
 11
-10.87500558565236
 21
6.71666765212949
 31
0.0
  0
ELLIPSE
  5
4524
330
1F
100
AcDbEntity
  8
AM_0
100
AcDbEllipse
 10
-4.023548365064698
 20
2.700976917387265
 30
0.0
 11
-3.184018539653093
 21
0.2390052174266712
 31
0.0
210
0.0
220
0.0
230
0.9999999999999998
 40
0.7101041064777918
 41
0.9499822005371779
 42
3.144003680479004
  0
LINE
  5
4525
330
1F
100
AcDbEntity
  8
PV0001_1
  6
CONTINUOUS
 48
0.5
100
AcDbLine
 10
-8.317007837480337
 20
2.294095370063216
 30
0.0
 11
-6.013734177562167
 21
1.000909118411179
 31
0.0
  0
LINE
  5
4527
330
1F
100
AcDbEntity
  8
AM_0
100
AcDbLine
 10
-2.048117784386121
 20
-1.917857511406966
 30
0.0
 11
-4.520540543671068
 21
-3.146595513716369
 31
0.0
  0
LINE
  5
4528
330
1F
100
AcDbEntity
  8
PV0001_1
  6
CONTINUOUS
 48
0.5
100
AcDbLine
 10
-11.82076929212396
 20
-7.750000000000067
 30
0.0
 11
-2.820769292123899
 21
-7.750000000000126
 31
0.0
  0
LINE
  5
4529
330
1F
100
AcDbEntity
  8
PV0001_1
  6
CONTINUOUS
 48
0.5
100
AcDbLine
 10
-11.82076929212396
 20
-6.6931818181819
 30
0.0
 11
-3.243690832437159
 21
-6.693181818181941
 31
0.0
  0
LINE
  5
452A
330
1F
100
AcDbEntity
  8
PV0001_1
  6
CONTINUOUS
 48
0.5
100
AcDbLine
 10
-2.048117784386121
 20
-1.917857511406966
 30
0.0
 11
-3.243690832437159
 21
-6.693181818181941
 31
0.0
  0
LINE
  5
452D
330
1F
100
AcDbEntity
  8
AM_0
100
AcDbLine
 10
-2.663273462846039
 20
0.5804186230639222
 30
0.0
 11
-2.048117784386121
 21
-1.917857511406966
 31
0.0
  0
LINE
  5
452E
330
1F
100
AcDbEntity
  8
PV0001_1
  6
CONTINUOUS
 48
0.5
100
AcDbLine
 10
-6.013734177562128
 20
1.000909118411072
 30
0.0
 11
-3.243690832437159
 21
-6.693181818181941
 31
0.0
  0
LINE
  5
4534
330
1F
100
AcDbEntity
  8
PV0001_1
  6
CONTINUOUS
100
AcDbLine
 10
-87.82076929212392
 20
3.869840153705151
 30
0.0
 11
-87.82076929212392
 21
7.750000000000746
 31
0.0
  0
LINE
  5
4535
330
1F
100
AcDbEntity
  8
PV0001_1
  6
CONTINUOUS
 48
0.5
100
AcDbLine
 10
-87.72977673431347
 20
7.750000000000745
 30
0.0
 11
-73.85660293026662
 21
7.750000000000635
 31
0.0
  0
LINE
  5
4536
330
1F
100
AcDbEntity
  8
PV0001_1
  6
CONTINUOUS
100
AcDbLine
 10
-87.82076929212399
 20
-7.749999999999421
 30
0.0
 11
-87.82076929212401
 21
-5.509104088532031
 31
0.0
  0
LINE
  5
4537
330
1F
100
AcDbEntity
  8
AM_0
100
AcDbLine
 10
-87.82076929212399
 20
-7.74999999999942
 30
0.0
 11
-76.46027390003857
 21
-7.749999999999512
 31
0.0
  0
SPLINE
  5
4538
330
1F
100
AcDbEntity
  8
PV0001_1
  6
CONTINUOUS
100
AcDbSpline
210
0.0
220
0.0
230
1.0
 70
     8
 71
     3
 72
    16
 73
    12
 74
     0
 42
0.0000000001
 43
0.0000000001
 40
2.625839846755727
 40
2.625839846755727
 40
2.625839846755727
 40
2.625839846755727
 40
3.082371838836284
 40
4.126290986361125
 40
5.162752068350215
 40
6.192395305374981
 40
7.216039564037012
 40
8.234688489606833
 40
9.249433870634691
 40
10.26152376260694
 40
11.27226744710342
 40
11.27226744710342
 40
11.27226744710342
 40
11.27226744710352
 10
-66.63159496616737
 20
-6.111013782754965
 30
0.0
 10
-66.80029405866993
 20
-6.16510811635859
 30
0.0
 10
-67.35575020293875
 20
-6.339028536880875
 30
0.0
 10
-68.29955241899374
 20
-6.613725947782733
 30
0.0
 10
-69.46514015054657
 20
-6.911459537211647
 30
0.0
 10
-70.6307812889224
 20
-7.166771256483594
 30
0.0
 10
-71.79654942181127
 20
-7.377803955823146
 30
0.0
 10
-72.96239809427513
 20
-7.543353364667223
 30
0.0
 10
-74.1283193618099
 20
-7.662346667453215
 30
0.0
 10
-75.29428449913496
 20
-7.734017890472162
 30
0.0
 10
-76.07178325056799
 20
-7.750000044345343
 30
0.0
 10
-76.46027390003856
 20
-7.749999999999173
 30
0.0
  0
SPLINE
  5
4614
330
1F
100
AcDbEntity
  8
PV0001_1
  6
CONTINUOUS
100
AcDbSpline
210
0.0
220
0.0
230
1.0
 70
     8
 71
     3
 72
    25
 73
    21
 74
     0
 42
0.0000000001
 43
0.0000000001
 40
24.56499986022253
 40
24.56499986022253
 40
24.56499986022253
 40
24.56499986022253
 40
24.6081876908653
 40
25.71582455492886
 40
26.81883757994213
 40
27.91624752121713
 40
29.00722033829659
 40
30.09105838626677
 40
31.16722880550176
 40
32.23537921050758
 40
33.29534548809967
 40
34.347168041821
 40
35.39108718934584
 40
36.42754827133493
 40
37.45720575381954
 40
38.48085062012849
 40
39.49948440763516
 40
40.51422944315121
 40
41.52631975251916
 40
42.53706336680078
 40
42.53706336680078
 40
42.53706336680078
 40
42.53706336680078
 10
-8.317007837480337
 20
2.294095370063216
 30
0.0
 10
-8.331776870469454
 20
2.301391072747033
 30
0.0
 10
-8.725349199933079
 20
2.495737380893592
 30
0.0
 10
-9.497326491433536
 20
2.873074984580015
 30
0.0
 10
-10.63477430684252
 20
3.414477758984389
 30
0.0
 10
-11.77179330815169
 20
3.937641275053076
 30
0.0
 10
-12.90830444489319
 20
4.439154640324566
 30
0.0
 10
-14.04423502672763
 20
4.915744230400224
 30
0.0
 10
-15.17951314077579
 20
5.364286905645131
 30
0.0
 10
-16.3140662068717
 20
5.781843732555647
 30
0.0
 10
-17.44783448495184
 20
6.165630786895428
 30
0.0
 10
-18.58074939697391
 20
6.513113335879872
 30
0.0
 10
-19.71275683920119
 20
6.821935181581788
 30
0.0
 10
-20.84380269035985
 20
7.090011649918005
 30
0.0
 10
-21.97382971868646
 20
7.315482880500449
 30
0.0
 10
-23.1027869071831
 20
7.496759557688428
 30
0.0
 10
-24.23061881130539
 20
7.632548228516474
 30
0.0
 10
-25.35728977123788
 20
7.721779673849564
 30
0.0
 10
-26.48275716660839
 20
7.763741013225858
 30
0.0
 10
-27.23241032131663
 20
7.759896260706531
 30
0.0
 10
-27.60677644203514
 20
7.749997997285912
 30
0.0
  0
SPLINE
  5
4615
330
1F
100
AcDbEntity
  8
PV0001_1
  6
CONTINUOUS
 48
0.5
100
AcDbSpline
210
0.0
220
0.0
230
1.0
 70
     8
 71
     3
 72
    15
 73
    11
 74
     0
 42
0.0000000001
 43
0.0000000001
 40
0.0
 40
0.0
 40
0.0
 40
0.0
 40
1.010743614677189
 40
2.022833924044153
 40
3.037578959561199
 40
4.056212747067873
 40
5.079857613375832
 40
6.109500119648989
 40
7.14596120163808
 40
7.360483723585327
 40
7.360483723585327
 40
7.360483723585327
 40
7.360483723585327
 10
-10.87228860992661
 20
7.749999999999796
 30
0.0
 10
-11.22987348094636
 20
7.749953429092925
 30
0.0
 10
-11.94558857098162
 20
7.734051107243373
 30
0.0
 10
-13.0188439796421
 20
7.662329900047837
 30
0.0
 10
-14.09207013446201
 20
7.543358303598426
 30
0.0
 10
-15.16522532791938
 20
7.37780505457433
 30
0.0
 10
-16.23830287763894
 20
7.166755880212692
 30
0.0
 10
-17.31128447740863
 20
6.911490211825845
 30
0.0
 10
-18.09804409922635
 20
6.693055574998455
 30
0.0
 10
-18.5277388502876
 20
6.563957973944048
 30
0.0
 10
-18.64438080374094
 20
6.525091784558624
 30
0.0
  0
LINE
  5
4616
330
1F
100
AcDbEntity
  8
AM_11
 48
0.5
100
AcDbLine
 10
-71.86866070068941
 20
7.750000000000166
 30
0.0
 11
-10.87228860992661
 21
7.749999999999636
 31
0.0
  0
LINE
  5
4617
330
1F
100
AcDbEntity
  8
PV0001_1
  6
CONTINUOUS
 48
0.5
100
AcDbLine
 10
-56.13204858922134
 20
7.750000000000165
 30
0.0
 11
-27.6067006965967
 21
7.749999999999851
 31
0.0
  0
LINE
  5
4618
330
1F
100
AcDbEntity
  8
AM_0
100
AcDbLine
 10
-11.82076929212396
 20
-7.733262216219622
 30
0.0
 11
-11.82076929212388
 21
3.956123631961534
 31
0.0
  0
SPLINE
  5
4619
330
1F
100
AcDbEntity
  8
PV0001_1
  6
CONTINUOUS
100
AcDbSpline
210
0.0
220
0.0
230
1.0
 70
     8
 71
     3
 72
    17
 73
    13
 74
     0
 42
0.0000000001
 43
0.0000000001
 40
1.580019955310467
 40
1.580019955310467
 40
1.580019955310467
 40
1.580019955310467
 40
2.030549285115227
 40
3.082371838836284
 40
4.126290986361125
 40
5.162752068350215
 40
6.192395305374981
 40
7.216039564037012
 40
8.234688489606833
 40
9.249433870634691
 40
10.26152376260694
 40
11.27226744710342
 40
11.27226744710342
 40
11.27226744710342
 40
11.27226744710352
 10
-21.78789194769659
 20
-5.719728211075318
 30
0.0
 10
-21.94691438840877
 20
-5.778636660054562
 30
0.0
 10
-22.47810276591568
 20
-5.971716969931451
 30
0.0
 10
-23.38497305552493
 20
-6.274570344507083
 30
0.0
 10
-24.50826606659538
 20
-6.613725947783519
 30
0.0
 10
-25.63186831917998
 20
-6.91145953721243
 30
0.0
 10
-26.75552205482763
 20
-7.166771256484372
 30
0.0
 10
-27.87929821053598
 20
-7.37780395582392
 30
0.0
 10
-29.00315200471412
 20
-7.543353364667997
 30
0.0
 10
-30.12707577902594
 20
-7.662346667453986
 30
0.0
 10
-31.25104184290016
 20
-7.734017890472929
 30
0.0
 10
-32.00053441634037
 20
-7.750000044346109
 30
0.0
 10
-32.37503129635786
 20
-7.749999999999936
 30
0.0
  0
LINE
  5
461A
330
1F
100
AcDbEntity
  8
AM_11
 48
0.5
100
AcDbLine
 10
-11.82076929212396
 20
-7.750000000000365
 30
0.0
 11
-74.09078941510156
 21
-7.749999999999801
 31
0.0
  0
LINE
  5
461B
330
1F
100
AcDbEntity
  8
PV0001_1
  6
CONTINUOUS
 48
0.5
100
AcDbLine
 10
-58.45915263849025
 20
-7.749999999999809
 30
0.0
 11
-32.37503129635801
 21
-7.750000000000097
 31
0.0
  0
LINE
  5
461C
330
1F
100
AcDbEntity
  8
AM_0
100
AcDbLine
 10
-10.91768658689684
 20
3.543320920276644
 30
0.0
 11
-10.86194403079176
 21
7.749999999999796
 31
0.0
  0
SPLINE
  5
461D
330
1F
100
AcDbEntity
  8
PV0001_1
  6
CONTINUOUS
100
AcDbSpline
210
0.0
220
0.0
230
1.0
 70
     8
 71
     3
 72
    55
 73
    51
 74
     0
 42
0.0000000001
 43
0.0000000001
 40
0.0
 40
0.0
 40
0.0
 40
0.0
 40
1.010743684496582
 40
2.022833576467832
 40
3.037578957496688
 40
4.056212745003489
 40
5.079857003664532
 40
6.109500240690281
 40
7.145961322679372
 40
8.189895241603872
 40
9.241717795325891
 40
10.30168407291828
 40
11.36983447792315
 40
12.44600489715814
 40
13.52984294512926
 40
14.62081576220742
 40
15.7182257034828
 40
16.82123173843959
 40
17.92886860250316
 40
19.0400688939571
 40
20.15368796660465
 40
21.26852814259644
 40
22.38336992938901
 40
23.49698739941135
 40
24.6081876908653
 40
25.71582455492886
 40
26.81883757994213
 40
27.91624752121713
 40
29.00722033829659
 40
30.09105838626677
 40
31.16722880550176
 40
32.23537921050758
 40
33.29534548809967
 40
34.347168041821
 40
35.39108718934584
 40
36.42754827133493
 40
37.45720575381954
 40
38.48085062012849
 40
39.49948440763516
 40
40.51422944315121
 40
41.52631975251916
 40
42.53706336719636
 40
43.54780698187354
 40
44.55989729124051
 40
45.57464232675757
 40
46.59327611426424
 40
47.6169209805722
 40
48.64656348684535
 40
49.68302456883444
 40
50.58557219878025
 40
50.58557219878025
 40
50.58557219878025
 40
50.58557219878025
 10
-11.20240447469277
 20
-7.750000000000191
 30
0.0
 10
-11.576901359651
 20
-7.745388937755429
 30
0.0
 10
-12.32639392121315
 20
-7.736160671801394
 30
0.0
 10
-13.45036000892727
 20
-7.661770488182973
 30
0.0
 10
-14.57427811876697
 20
-7.543509529113688
 30
0.0
 10
-15.69812666910995
 20
-7.377762297175614
 30
0.0
 10
-16.82189444571683
 20
-7.166774985140852
 30
0.0
 10
-17.94555927916195
 20
-6.911485819963648
 30
0.0
 10
-19.06912492805439
 20
-6.613614520453284
 30
0.0
 10
-20.19258142863746
 20
-6.274985107927564
 30
0.0
 10
-21.31592112812488
 20
-5.897676746436538
 30
0.0
 10
-22.43914962574405
 20
-5.484057761562588
 30
0.0
 10
-23.56226992972496
 20
-5.036659529848819
 30
0.0
 10
-24.68529607255609
 20
-4.558267218935077
 30
0.0
 10
-25.80823319586959
 20
-4.051820652069894
 30
0.0
 10
-26.93109171236682
 20
-3.52044313531997
 30
0.0
 10
-28.05388407470087
 20
-2.967412843613383
 30
0.0
 10
-29.17662013709697
 20
-2.396130651585895
 30
0.0
 10
-30.29931079583637
 20
-1.810110166953386
 30
0.0
 10
-31.42196806418643
 20
-1.212958276175478
 30
0.0
 10
-32.54460178891987
 20
-0.6083460236692393
 30
0.0
 10
-33.66722782336387
 20
-0.0000015812814936
 30
0.0
 10
-34.78984881815634
 20
0.6083538116853466
 30
0.0
 10
-35.91248630571335
 20
1.212956648779655
 30
0.0
 10
-37.03514218812793
 20
1.810110347102195
 30
0.0
 10
-38.15783484861239
 20
2.396133064211548
 30
0.0
 10
-39.28057556865614
 20
2.967410380816197
 30
0.0
 10
-40.40336970305324
 20
3.520443477155925
 30
0.0
 10
-41.52622838165394
 20
4.051820563013419
 30
0.0
 10
-42.64916546410724
 20
4.558267236382397
 30
0.0
 10
-43.77219160981401
 20
5.036659547996503
 30
0.0
 10
-44.89531194240168
 20
5.484057672730389
 30
0.0
 10
-46.01854032409146
 20
5.897677079947166
 30
0.0
 10
-47.14187519587754
 20
6.274982109810286
 30
0.0
 10
-48.26532474917976
 20
6.61361595753634
 30
0.0
 10
-49.38888998128759
 20
6.911493246864142
 30
0.0
 10
-50.51256283807624
 20
7.166753254474933
 30
0.0
 10
-51.6363343272943
 20
7.377805871542491
 30
0.0
 10
-52.7601832107963
 20
7.543356631530925
 30
0.0
 10
-53.88410210156846
 20
7.66233574632422
 30
0.0
 10
-55.00806723629327
 20
7.734029458026776
 30
0.0
 10
-56.13205706947026
 20
7.757979954829905
 30
0.0
 10
-57.25604690099348
 20
7.734029457989312
 30
0.0
 10
-58.38001204068934
 20
7.662335746474848
 30
0.0
 10
-59.50393091315962
 20
7.543356630963269
 30
0.0
 10
-60.62777986527974
 20
7.377805873676075
 30
0.0
 10
-61.75154561793611
 20
7.166754275367928
 30
0.0
 10
-62.8752140478814
 20
6.911495856759803
 30
0.0
 10
-63.9476932072155
 20
6.62713770059951
 30
0.0
 10
-64.64352989953124
 20
6.419183892770342
 30
0.0
 10
-65.53751376853455
 20
6.087885283452378
 30
0.0
  0
SPLINE
  5
461E
330
1F
100
AcDbEntity
  8
PV0001_1
  6
CONTINUOUS
100
AcDbSpline
210
0.0
220
0.0
230
1.0
 70
     8
 71
     3
 72
    47
 73
    43
 74
     0
 42
0.0000000001
 43
0.0000000001
 40
0.0
 40
0.0
 40
0.0
 40
0.0
 40
1.010743684496582
 40
2.022833576467832
 40
3.037578957496688
 40
4.056212745003489
 40
5.079857003664532
 40
6.109500240690281
 40
7.145961322679372
 40
8.189895241603872
 40
9.241717795325891
 40
10.30168407291828
 40
11.36983447792315
 40
12.44600489715814
 40
13.52984294512926
 40
14.62081576220742
 40
15.7182257034828
 40
16.82123173843959
 40
17.92886860250316
 40
19.0400688939571
 40
20.15368796660465
 40
21.26852814259644
 40
22.38336992938901
 40
23.49698739941135
 40
24.6081876908653
 40
25.71582455492886
 40
26.81883757994213
 40
27.91624752121713
 40
29.00722033829659
 40
30.09105838626677
 40
31.16722880550176
 40
32.23537921050758
 40
33.29534548809967
 40
34.347168041821
 40
35.39108718934584
 40
36.42754827133493
 40
37.45720575381954
 40
38.48085062012849
 40
39.49948440763516
 40
40.51422944315121
 40
41.52631975251916
 40
42.53706336679711
 40
42.53706336679711
 40
42.53706336679711
 40
42.53706336679711
 10
-30.15041402597178
 20
-7.749999999999978
 30
0.0
 10
-30.52491091093001
 20
-7.745388937755213
 30
0.0
 10
-31.27440347249216
 20
-7.736160671801179
 30
0.0
 10
-32.3983695602063
 20
-7.661770488182756
 30
0.0
 10
-33.52228767004598
 20
-7.543509529113474
 30
0.0
 10
-34.64613622038898
 20
-7.3777622971754
 30
0.0
 10
-35.76990399699586
 20
-7.166774985140635
 30
0.0
 10
-36.893568830441
 20
-6.911485819963432
 30
0.0
 10
-38.01713447933341
 20
-6.61361452045307
 30
0.0
 10
-39.14059097991646
 20
-6.274985107927349
 30
0.0
 10
-40.26393067940389
 20
-5.897676746436323
 30
0.0
 10
-41.38715917702308
 20
-5.484057761562373
 30
0.0
 10
-42.51027948100399
 20
-5.036659529848605
 30
0.0
 10
-43.63330562383512
 20
-4.558267218934862
 30
0.0
 10
-44.75624274714859
 20
-4.05182065206968
 30
0.0
 10
-45.87910126364581
 20
-3.520443135319755
 30
0.0
 10
-47.00189362597988
 20
-2.967412843613169
 30
0.0
 10
-48.12462968837598
 20
-2.39613065158568
 30
0.0
 10
-49.2473203471154
 20
-1.810110166953171
 30
0.0
 10
-50.36997761546542
 20
-1.212958276175263
 30
0.0
 10
-51.49261134019889
 20
-0.6083460236690249
 30
0.0
 10
-52.61523737464289
 20
-0.0000015812812786
 30
0.0
 10
-53.73785836943536
 20
0.6083538116855618
 30
0.0
 10
-54.86049585699239
 20
1.212956648779871
 30
0.0
 10
-55.98315173940694
 20
1.810110347102411
 30
0.0
 10
-57.10584439989141
 20
2.396133064211764
 30
0.0
 10
-58.22858511993517
 20
2.967410380816413
 30
0.0
 10
-59.35137925433227
 20
3.520443477156139
 30
0.0
 10
-60.47423793293297
 20
4.051820563013634
 30
0.0
 10
-61.59717501538624
 20
4.558267236382615
 30
0.0
 10
-62.72020116109303
 20
5.036659547996717
 30
0.0
 10
-63.8433214936807
 20
5.484057672730603
 30
0.0
 10
-64.96654987537048
 20
5.897677079947381
 30
0.0
 10
-66.08988474715656
 20
6.274982109810504
 30
0.0
 10
-67.21333430045878
 20
6.613615957536555
 30
0.0
 10
-68.33689953256663
 20
6.911493246864357
 30
0.0
 10
-69.46057238935529
 20
7.166753254475148
 30
0.0
 10
-70.58434387857335
 20
7.377805871542708
 30
0.0
 10
-71.70819276207537
 20
7.543356631531142
 30
0.0
 10
-72.83211165284751
 20
7.662335746324434
 30
0.0
 10
-73.95607678742461
 20
7.734029458017567
 30
0.0
 10
-74.70556966682548
 20
7.750000000000473
 30
0.0
 10
-75.08006662003009
 20
7.750000000000537
 30
0.0
  0
VIEWPORT
  5
110
330
101
100
AcDbEntity
 67
     1
  8
0
100
AcDbViewport
 10
420.5
 20
297.0
 30
0.0
 40
948.9782706766916
 41
628.452
 68
     1
 69
     1
1001
ACAD
1000
MVIEW
1002
{
1070
    16
1010
0.0
1020
0.0
1030
0.0
1010
0.0
1020
0.0
1030
1.0
1040
0.0
1040
628.452
1040
420.5
1040
297.0
1040
50.0
1040
0.0
1040
0.0
1070
     0
1070
   100
1070
     1
1070
     1
1070
     0
1070
     0
1070
     0
1070
     0
1040
0.0
1040
0.0
1040
0.0
1040
10.0
1040
10.0
1040
10.0
1040
10.0
1070
     0
1002
{
1002
}
1002
}
  0
ENDSEC
  0
SECTION
  2
OBJECTS
  0
DICTIONARY
  5
C
330
0
100
AcDbDictionary
  3
ACAD_GROUP
350
D
  3
ACAD_LAYOUT
350
1A
  3
ACAD_MLINESTYLE
350
17
  3
ACAD_PLOTSETTINGS
350
19
  3
ACAD_PLOTSTYLENAME
350
E
  3
ACDBVARIABLEDICTIONARY
350
34
  3
ACMDICTIONARY
350
43
  3
AMG
350
2B
  3
AMGSNAPSETTINGS
350
6E
  3
DWGPROPS
350
463B
  3
ACDBHEADERROUNDTRIPXREC
350
464B
  0
DICTIONARY
  5
74
330
1F
100
AcDbDictionary
280
     1
  3
ACAD_INDEX
360
463D
  3
ACAD_LAYOUTSELFREF
360
466E
  0
DICTIONARY
  5
4673
330
101
100
AcDbDictionary
280
     1
  3
ACAD_LAYOUTSELFREF
360
4674
  0
DICTIONARY
  5
D
102
{ACAD_REACTORS
330
C
102
}
330
C
100
AcDbDictionary
  0
DICTIONARY
  5
1A
102
{ACAD_REACTORS
330
C
102
}
330
C
100
AcDbDictionary
  0
DICTIONARY
  5
17
102
{ACAD_REACTORS
330
C
102
}
330
C
100
AcDbDictionary
  3
STANDARD
350
18
  0
DICTIONARY
  5
19
102
{ACAD_REACTORS
330
C
102
}
330
C
100
AcDbDictionary
  0
ACDBDICTIONARYWDFLT
  5
E
102
{ACAD_REACTORS
330
C
102
}
330
C
100
AcDbDictionary
281
     1
  3
Normal
350
F
100
AcDbDictionaryWithDefault
340
F
  0
DICTIONARY
  5
34
102
{ACAD_REACTORS
330
C
102
}
330
C
100
AcDbDictionary
  3
INDEXCTL
350
35
  3
SORTENTS
350
B5E
  0
DICTIONARY
  5
43
102
{ACAD_REACTORS
330
C
102
}
330
C
100
AcDbDictionary
  3
ACMSTDDICTIONARY
350
260
  0
DICTIONARY
  5
2B
102
{ACAD_REACTORS
330
C
102
}
330
C
100
AcDbDictionary
  3
ACMGSETTINGS
350
2C
  0
DICTIONARY
  5
6E
102
{ACAD_REACTORS
330
C
102
}
330
C
100
AcDbDictionary
  0
XRECORD
  5
463B
102
{ACAD_REACTORS
330
C
102
}
330
C
100
AcDbXrecord
  1
DWGPROPS COOKIE
  2

  3

  4

  6

  7

  8

  9

300
AmdtFileType=82
301
=
302
=
303
=
304
=
305
=
306
=
307
=
308
=
309
=
 40
0.3025242824074074
 41
2452800.443498622
 42
2453002.219165868
  1

 90
        1
  0
DICTIONARY
  5
464B
102
{ACAD_REACTORS
330
C
102
}
330
C
100
AcDbDictionary
  3
TSTACKALIGN
350
464C
  3
TSTACKSIZE
350
464D
  3
HYPERLINKBASE
350
464E
  3
STYLESHEET
350
464F
  3
LAYOUTDICT
350
4650
  3
PLOTSETDICT
350
4651
  3
PLOTSTYLNAMDICT
350
4652
  3
LWETCUNION
350
4653
  3
INSUNITS
350
4654
  3
CEPSNTYPE
350
4655
  3
FINGERPRINTGUID
350
4656
  3
VERSIONGUID
350
4657
  3
PSVPSCALE
350
4658
  3
DIMSTYLEDATA
350
4659
  3
PUCSORTHOREF
350
465A
  3
PUCSORTHOVIEW
350
465B
  3
PUCSBASE
350
465C
  3
PUCSORGTOP
350
465D
  3
PUCSORGBOTTOM
350
465E
  3
PUCSORGLEFT
350
465F
  3
PUCSORGRIGHT
350
4660
  3
PUCSORGFRONT
350
4661
  3
PUCSORGBACK
350
4662
  3
UCSORTHOREF
350
4663
  3
UCSORTHOVIEW
350
4664
  3
UCSBASE
350
4665
  3
UCSORGTOP
350
4666
  3
UCSORGBOTTOM
350
4667
  3
UCSORGLEFT
350
4668
  3
UCSORGRIGHT
350
4669
  3
UCSORGFRONT
350
466A
  3
UCSORGBACK
350
466B
  0
DICTIONARY
  5
463D
102
{ACAD_REACTORS
330
74
102
}
330
74
100
AcDbDictionary
  3
*A1
350
463E
  0
XRECORD
  5
466E
102
{ACAD_REACTORS
330
74
102
}
330
74
100
AcDbXrecord
340
1F
  0
XRECORD
  5
4674
102
{ACAD_REACTORS
330
4673
102
}
330
4673
100
AcDbXrecord
340
101
  0
MLINESTYLE
  5
18
102
{ACAD_REACTORS
330
17
102
}
330
17
100
AcDbMlineStyle
  2
STANDARD
 70
     0
  3

 62
   256
 51
90.0
 52
90.0
 71
     2
 49
0.5
 62
   256
  6
BYLAYER
 49
-0.5
 62
   256
  6
BYLAYER
  0
ACDBPLACEHOLDER
  5
F
102
{ACAD_REACTORS
330
E
102
}
330
E
100
AcDbPlaceHolder
280
     0
  0
DICTIONARYVAR
  5
35
102
{ACAD_REACTORS
330
34
102
}
330
34
100
DictionaryVariables
280
     0
  1
1
  0
DICTIONARYVAR
  5
B5E
102
{ACAD_REACTORS
330
34
102
}
330
34
100
DictionaryVariables
280
     0
  1
96
  0
DICTIONARY
  5
260
102
{ACAD_REACTORS
330
43
102
}
330
43
100
AcDbDictionary
  0
DICTIONARY
  5
2C
102
{ACAD_REACTORS
330
2B
102
}
330
2B
100
AcDbDictionary
  3
DWGSETTINGS
350
2D
  0
XRECORD
  5
464C
102
{ACAD_REACTORS
330
464B
102
}
330
464B
100
AcDbXrecord
 90
        1
  0
XRECORD
  5
464D
102
{ACAD_REACTORS
330
464B
102
}
330
464B
100
AcDbXrecord
 90
       70
  0
XRECORD
  5
464E
102
{ACAD_REACTORS
330
464B
102
}
330
464B
100
AcDbXrecord
  1

  0
XRECORD
  5
464F
102
{ACAD_REACTORS
330
464B
102
}
330
464B
100
AcDbXrecord
  1
ASAMI.ctb
  0
XRECORD
  5
4650
102
{ACAD_REACTORS
330
464B
102
}
330
464B
100
AcDbXrecord
340
1A
  0
XRECORD
  5
4651
102
{ACAD_REACTORS
330
464B
102
}
330
464B
100
AcDbXrecord
340
19
  0
XRECORD
  5
4652
102
{ACAD_REACTORS
330
464B
102
}
330
464B
100
AcDbXrecord
340
E
  0
XRECORD
  5
4653
102
{ACAD_REACTORS
330
464B
102
}
330
464B
100
AcDbXrecord
 90
    10781
  0
XRECORD
  5
4654
102
{ACAD_REACTORS
330
464B
102
}
330
464B
100
AcDbXrecord
 90
        4
  0
XRECORD
  5
4655
102
{ACAD_REACTORS
330
464B
102
}
330
464B
100
AcDbXrecord
 90
        0
  0
XRECORD
  5
4656
102
{ACAD_REACTORS
330
464B
102
}
330
464B
100
AcDbXrecord
  1
{AFB28963-8C59-40AE-9337-C84526B81ACE}
  0
XRECORD
  5
4657
102
{ACAD_REACTORS
330
464B
102
}
330
464B
100
AcDbXrecord
  1
{7713E8AB-4FBF-4A14-B41B-DA6145B14C00}
  0
XRECORD
  5
4658
102
{ACAD_REACTORS
330
464B
102
}
330
464B
100
AcDbXrecord
 40
0.0
  0
XRECORD
  5
4659
102
{ACAD_REACTORS
330
464B
102
}
330
464B
100
AcDbXrecord
1000
DSTYLE
1002
{
1070
    79
 70
     2
1070
   341
340
59
1070
   342
340
59
1070
   371
 70
    -1
1070
   372
 70
    -1
1002
}
  0
XRECORD
  5
465A
102
{ACAD_REACTORS
330
464B
102
}
330
464B
100
AcDbXrecord
340
0
  0
XRECORD
  5
465B
102
{ACAD_REACTORS
330
464B
102
}
330
464B
100
AcDbXrecord
 70
     0
  0
XRECORD
  5
465C
102
{ACAD_REACTORS
330
464B
102
}
330
464B
100
AcDbXrecord
340
0
  0
XRECORD
  5
465D
102
{ACAD_REACTORS
330
464B
102
}
330
464B
100
AcDbXrecord
 10
0.0
 20
0.0
 30
0.0
  0
XRECORD
  5
465E
102
{ACAD_REACTORS
330
464B
102
}
330
464B
100
AcDbXrecord
 10
0.0
 20
0.0
 30
0.0
  0
XRECORD
  5
465F
102
{ACAD_REACTORS
330
464B
102
}
330
464B
100
AcDbXrecord
 10
0.0
 20
0.0
 30
0.0
  0
XRECORD
  5
4660
102
{ACAD_REACTORS
330
464B
102
}
330
464B
100
AcDbXrecord
 10
0.0
 20
0.0
 30
0.0
  0
XRECORD
  5
4661
102
{ACAD_REACTORS
330
464B
102
}
330
464B
100
AcDbXrecord
 10
0.0
 20
0.0
 30
0.0
  0
XRECORD
  5
4662
102
{ACAD_REACTORS
330
464B
102
}
330
464B
100
AcDbXrecord
 10
0.0
 20
0.0
 30
0.0
  0
XRECORD
  5
4663
102
{ACAD_REACTORS
330
464B
102
}
330
464B
100
AcDbXrecord
340
0
  0
XRECORD
  5
4664
102
{ACAD_REACTORS
330
464B
102
}
330
464B
100
AcDbXrecord
 70
     0
  0
XRECORD
  5
4665
102
{ACAD_REACTORS
330
464B
102
}
330
464B
100
AcDbXrecord
340
0
  0
XRECORD
  5
4666
102
{ACAD_REACTORS
330
464B
102
}
330
464B
100
AcDbXrecord
 10
0.0
 20
0.0
 30
0.0
  0
XRECORD
  5
4667
102
{ACAD_REACTORS
330
464B
102
}
330
464B
100
AcDbXrecord
 10
0.0
 20
0.0
 30
0.0
  0
XRECORD
  5
4668
102
{ACAD_REACTORS
330
464B
102
}
330
464B
100
AcDbXrecord
 10
0.0
 20
0.0
 30
0.0
  0
XRECORD
  5
4669
102
{ACAD_REACTORS
330
464B
102
}
330
464B
100
AcDbXrecord
 10
0.0
 20
0.0
 30
0.0
  0
XRECORD
  5
466A
102
{ACAD_REACTORS
330
464B
102
}
330
464B
100
AcDbXrecord
 10
0.0
 20
0.0
 30
0.0
  0
XRECORD
  5
466B
102
{ACAD_REACTORS
330
464B
102
}
330
464B
100
AcDbXrecord
 10
0.0
 20
0.0
 30
0.0
  0
LAYER_INDEX
  5
463E
102
{ACAD_REACTORS
330
463D
102
}
330
463D
100
AcDbIndex
 40
2453151.704951342
100
AcDbLayerIndex
  8
0
360
463F
 90
        0
  8
AM_0
360
4640
 90
       11
  8
PV0001_1
360
4641
 90
       33
  8
AM_CL
360
4642
 90
        0
  8
AM_7
360
4643
 90
        1
  8
AM_11
360
4644
 90
        2
  8
AM_5
360
4645
 90
        9
  8
Defpoints
360
4646
 90
        0
  8
AM_6
360
4647
 90
        1
  8
AM_4
360
4648
 90
        0
  8
AM_3
360
4649
 90
        0
  0
XRECORD
  5
2D
102
{ACAD_REACTORS
330
2C
102
}
330
2C
100
AcDbXrecord
  1
VERSION
140
15.0
  1
PRODUCT
  2
AutoCAD Mechanical 2000
  0
IDBUFFER
  5
463F
330
0
100
AcDbIdBuffer
  0
IDBUFFER
  5
4640
330
0
100
AcDbIdBuffer
330
43A8
330
43A9
330
43B2
330
43B4
330
44A0
330
4524
330
4527
330
452D
330
4537
330
4618
330
461C
  0
IDBUFFER
  5
4641
330
0
100
AcDbIdBuffer
330
4523
330
4525
330
4528
330
4529
330
452A
330
452E
330
4534
330
4535
330
4536
330
4538
330
4614
330
4615
330
4617
330
4619
330
461B
330
461D
330
461E
330
35F4
330
35F5
330
43A6
330
43A7
330
43AA
330
43AB
330
43AE
330
43AF
330
43B0
330
43B1
330
43B3
330
44E2
330
44E3
330
4513
330
4514
330
4522
  0
IDBUFFER
  5
4642
330
0
100
AcDbIdBuffer
  0
IDBUFFER
  5
4643
330
0
100
AcDbIdBuffer
330
35D1
  0
IDBUFFER
  5
4644
330
0
100
AcDbIdBuffer
330
4616
330
461A
  0
IDBUFFER
  5
4645
330
0
100
AcDbIdBuffer
330
36BA
330
3B0D
330
3BB8
330
3CCB
330
43A4
330
43A5
330
43AC
330
43AD
330
4515
  0
IDBUFFER
  5
4646
330
0
100
AcDbIdBuffer
  0
IDBUFFER
  5
4647
330
0
100
AcDbIdBuffer
330
19BD
  0
IDBUFFER
  5
4648
330
0
100
AcDbIdBuffer
  0
IDBUFFER
  5
4649
330
0
100
AcDbIdBuffer
  0
ENDSEC
  0
EOF
