  0
SECTION
  2
HEADER
  9
$ACADVER
  1
AC1014
  9
$ACADMAINTVER
 70
     9
  9
$DWGCODEPAGE
  3
ANSI_932
  9
$INSBASE
 10
0.0
 20
0.0
 30
0.0
  9
$EXTMIN
 10
-186.7874332366582
 20
-68.54100792062221
 30
-0.00000001
  9
$EXTMAX
 10
26.2406899133363
 20
40.57861965663943
 30
0.00000001
  9
$LIMMIN
 10
-206.6347757780504
 20
-92.78523932881375
  9
$LIMMAX
 10
44.1113744187096
 20
65.30821293556574
  9
$ORTHOMODE
 70
     0
  9
$REGENMODE
 70
     1
  9
$FILLMODE
 70
     1
  9
$QTEXTMODE
 70
     0
  9
$MIRRTEXT
 70
     0
  9
$DRAGMODE
 70
     2
  9
$LTSCALE
 40
1.0
  9
$OSMODE
 70
    55
  9
$ATTMODE
 70
     1
  9
$TEXTSIZE
 40
2.5
  9
$TRACEWID
 40
1.0
  9
$TEXTSTYLE
  7
STANDARD
  9
$CLAYER
  8
AM_0
  9
$CELTYPE
  6
BYLAYER
  9
$CECOLOR
 62
   256
  9
$CELTSCALE
 40
1.0
  9
$DELOBJ
 70
     1
  9
$DISPSILH
 70
     0
  9
$DIMSCALE
 40
1.0
  9
$DIMASZ
 40
2.5
  9
$DIMEXO
 40
1.0
  9
$DIMDLI
 40
12.0
  9
$DIMRND
 40
0.0
  9
$DIMDLE
 40
0.0
  9
$DIMEXE
 40
1.0
  9
$DIMTP
 40
0.1
  9
$DIMTM
 40
0.1
  9
$DIMTXT
 40
3.2
  9
$DIMCEN
 40
0.0
  9
$DIMTSZ
 40
0.0
  9
$DIMTOL
 70
     0
  9
$DIMLIM
 70
     0
  9
$DIMTIH
 70
     0
  9
$DIMTOH
 70
     0
  9
$DIMSE1
 70
     0
  9
$DIMSE2
 70
     0
  9
$DIMTAD
 70
     3
  9
$DIMZIN
 70
     8
  9
$DIMBLK
  1
OPEN30
  9
$DIMASO
 70
     1
  9
$DIMSHO
 70
     1
  9
$DIMPOST
  1

  9
$DIMAPOST
  1
"
  9
$DIMALT
 70
     0
  9
$DIMALTD
 70
     2
  9
$DIMALTF
 40
0.0393701
  9
$DIMLFAC
 40
1.0
  9
$DIMTOFL
 70
     1
  9
$DIMTVP
 40
0.0
  9
$DIMTIX
 70
     0
  9
$DIMSOXD
 70
     0
  9
$DIMSAH
 70
     0
  9
$DIMBLK1
  1

  9
$DIMBLK2
  1

  9
$DIMSTYLE
  2
AM_JIS
  9
$DIMCLRD
 70
   256
  9
$DIMCLRE
 70
   256
  9
$DIMCLRT
 70
     2
  9
$DIMTFAC
 40
0.71
  9
$DIMGAP
 40
1.5
  9
$DIMJUST
 70
     0
  9
$DIMSD1
 70
     0
  9
$DIMSD2
 70
     0
  9
$DIMTOLJ
 70
     0
  9
$DIMTZIN
 70
     0
  9
$DIMALTZ
 70
     0
  9
$DIMALTTZ
 70
     0
  9
$DIMFIT
 70
     3
  9
$DIMUPT
 70
     0
  9
$DIMUNIT
 70
     2
  9
$DIMDEC
 70
     3
  9
$DIMTDEC
 70
     3
  9
$DIMALTU
 70
     2
  9
$DIMALTTD
 70
     2
  9
$DIMTXSTY
  7
ASAMI
  9
$DIMAUNIT
 70
     0
  9
$LUNITS
 70
     2
  9
$LUPREC
 70
     2
  9
$SKETCHINC
 40
1.0
  9
$FILLETRAD
 40
2.5
  9
$AUNITS
 70
     0
  9
$AUPREC
 70
     0
  9
$MENU
  1
.
  9
$ELEVATION
 40
0.0
  9
$PELEVATION
 40
0.0
  9
$THICKNESS
 40
0.0
  9
$LIMCHECK
 70
     0
  9
$BLIPMODE
 70
     0
  9
$CHAMFERA
 40
2.5
  9
$CHAMFERB
 40
2.5
  9
$CHAMFERC
 40
20.0
  9
$CHAMFERD
 40
0.0
  9
$SKPOLY
 70
     0
  9
$TDCREATE
 40
2452800.443498622
  9
$TDUPDATE
 40
2453151.705154247
  9
$TDINDWG
 40
0.3199622569
  9
$TDUSRTIMER
 40
0.3199622569
  9
$USRTIMER
 70
     1
  9
$ANGBASE
 50
0.0
  9
$ANGDIR
 70
     0
  9
$PDMODE
 70
     0
  9
$PDSIZE
 40
0.0
  9
$PLINEWID
 40
0.0
  9
$COORDS
 70
     1
  9
$SPLFRAME
 70
     0
  9
$SPLINETYPE
 70
     6
  9
$SPLINESEGS
 70
     8
  9
$ATTDIA
 70
     1
  9
$ATTREQ
 70
     1
  9
$HANDLING
 70
 12289
  9
$HANDSEED
  5
4813
  9
$SURFTAB1
 70
     6
  9
$SURFTAB2
 70
     6
  9
$SURFTYPE
 70
     6
  9
$SURFU
 70
     6
  9
$SURFV
 70
     6
  9
$UCSNAME
  2

  9
$UCSORG
 10
0.0
 20
-0.0000000000000725
 30
0.0
  9
$UCSXDIR
 10
1.0
 20
0.0000000000000027
 30
0.0
  9
$UCSYDIR
 10
-0.0000000000000027
 20
1.0
 30
0.0
  9
$PUCSNAME
  2

  9
$PUCSORG
 10
0.0
 20
0.0
 30
0.0
  9
$PUCSXDIR
 10
1.0
 20
0.0
 30
0.0
  9
$PUCSYDIR
 10
0.0
 20
1.0
 30
0.0
  9
$USERI1
 70
     0
  9
$USERI2
 70
     0
  9
$USERI3
 70
     0
  9
$USERI4
 70
     0
  9
$USERI5
 70
     0
  9
$USERR1
 40
0.0
  9
$USERR2
 40
0.0
  9
$USERR3
 40
0.0
  9
$USERR4
 40
0.0
  9
$USERR5
 40
0.0
  9
$WORLDVIEW
 70
     1
  9
$SHADEDGE
 70
     3
  9
$SHADEDIF
 70
    70
  9
$TILEMODE
 70
     1
  9
$MAXACTVP
 70
    64
  9
$PINSBASE
 10
0.0
 20
0.0
 30
0.0
  9
$PLIMCHECK
 70
     0
  9
$PEXTMIN
 10
1.000000000000000E+20
 20
1.000000000000000E+20
 30
1.000000000000000E+20
  9
$PEXTMAX
 10
-1.000000000000000E+20
 20
-1.000000000000000E+20
 30
-1.000000000000000E+20
  9
$PLIMMIN
 10
0.0
 20
0.0
  9
$PLIMMAX
 10
841.0
 20
594.0
  9
$UNITMODE
 70
     0
  9
$VISRETAIN
 70
     1
  9
$PLINEGEN
 70
     0
  9
$PSLTSCALE
 70
     0
  9
$TREEDEPTH
 70
  3020
  9
$PICKSTYLE
 70
     0
  9
$CMLSTYLE
  2
STANDARD
  9
$CMLJUST
 70
     0
  9
$CMLSCALE
 40
20.0
  9
$PROXYGRAPHICS
 70
     1
  9
$MEASUREMENT
 70
     1
  0
ENDSEC
  0
SECTION
  2
CLASSES
  0
CLASS
  1
ACDBDICTIONARYWDFLT
  2
AcDbDictionaryWithDefault
  3
AutoCAD 2000
 90
        0
280
     0
281
     0
  0
CLASS
  1
ACDBPLACEHOLDER
  2
AcDbPlaceHolder
  3
AutoCAD 2000
 90
        0
280
     0
281
     0
  0
CLASS
  1
LAYOUT
  2
AcDbLayout
  3
AutoCAD 2000
 90
        0
280
     0
281
     0
  0
CLASS
  1
AMGSETTINGSOBJ
  2
AmgSettingsObj
  3
"AcadM|Product Description: AutoCAD Mechanical 2000|Company: Autodesk"
 90
        0
280
     0
281
     0
  0
CLASS
  1
ACME_DOCUMENT
  2
AcMeDbDoc
  3
AcMeServices
 90
        0
280
     0
281
     0
  0
CLASS
  1
ACMESCOPE
  2
AcMeScope
  3
AcMeServices
 90
        0
280
     0
281
     0
  0
CLASS
  1
ACMECOMMANDHISTORY
  2
AcMeCommandHistory
  3
AcMeServices
 90
        0
280
     0
281
     0
  0
CLASS
  1
DICTIONARYVAR
  2
AcDbDictionaryVar
  3
AutoCAD 2000
 90
        0
280
     0
281
     0
  0
CLASS
  1
ACIMSYSVARMAN
  2
AcImSysVarManager
  3
AcMeServices
 90
        0
280
     0
281
     0
  0
CLASS
  1
ACIMREALSYSVAR
  2
AcImRealSysVar
  3
AcMeServices
 90
        0
280
     0
281
     0
  0
CLASS
  1
ACIMINTSYSVAR
  2
AcImIntSysVar
  3
AcMeServices
 90
        0
280
     0
281
     0
  0
CLASS
  1
ACMEDRAWINGMAN
  2
AcMeDrawingMan
  3
AcMeServices
 90
        0
280
     0
281
     0
  0
CLASS
  1
ACMEVIEW
  2
AcMeView
  3
AcMeServices
 90
        0
280
     0
281
     0
  0
CLASS
  1
ACDBENTITYCACHE
  2
AcMeEntityCache
  3
AcMeServices
 90
        0
280
     0
281
     0
  0
CLASS
  1
GSMANAGER
  2
AcMeGSManager
  3
AcMeServices
 90
        0
280
     0
281
     0
  0
CLASS
  1
AmdtInternalReactor
  2
AmdtInternalReactor
  3
AcMeServices
 90
        0
280
     0
281
     0
  0
CLASS
  1
ACMESTATEMGR
  2
AcMeStateMgr
  3
AcMeServices
 90
        0
280
     0
281
     0
  0
CLASS
  1
ACME_DATABASE
  2
AcMeDbDatabase
  3
AcMeServices
 90
        0
280
     0
281
     0
  0
CLASS
  1
ACRFINSADJUSTERMGR
  2
AcRfInsAdjusterMgr
  3
AcMeServices
 90
        0
280
     0
281
     0
  0
CLASS
  1
ACMDATADICTIONARY
  2
AcmDataDictionary
  3
"AcmSymBB|Product Description: AutoCAD Mechanical 2000|Company: Autodesk"
 90
        0
280
     0
281
     0
  0
CLASS
  1
ACMDATAENTRYBLOCK
  2
AcmDataEntryBlock
  3
"AcmSymBB|Product Description: AutoCAD Mechanical 2000|Company: Autodesk"
 90
        0
280
     0
281
     0
  0
CLASS
  1
AMGOBJPROPCFG
  2
AmgObjPropCfg
  3
"AmgLay|Product Description: AutoCAD Mechanical 2000|Company: Autodesk"
 90
        1
280
     0
281
     0
  0
CLASS
  1
ACAMGFILTERDAT
  2
AcAmgFilterDat
  3
"AcadM|Product Description: AutoCAD Mechanical 2000|Company: Autodesk"
 90
        0
280
     0
281
     0
  0
CLASS
  1
LAYER_INDEX
  2
AcDbLayerIndex
  3
AutoCAD 2000
 90
        0
280
     0
281
     0
  0
CLASS
  1
IDBUFFER
  2
AcDbIdBuffer
  3
AutoCAD 2000
 90
        0
280
     0
281
     0
  0
CLASS
  1
ACIMSTRSYSVAR
  2
AcImStrSysVar
  3
AcMeServices
 90
        0
280
     0
281
     0
  0
CLASS
  1
ACMSTANDARDJIS
  2
AcmStandardJIS
  3
"AcmSymBB|Product Description: AutoCAD Mechanical 2000|Company: Autodesk"
 90
        0
280
     0
281
     0
  0
CLASS
  1
ACMSURFSTANDARDJIS
  2
AcmSurfTextStdJIS
  3
"AcmSymBB|Product Description: AutoCAD Mechanical 2000|Company: Autodesk"
 90
        0
280
     0
281
     0
  0
CLASS
  1
ACMFCFSTANDARDJIS
  2
AcmFCFStdJIS
  3
"AcmSymBB|Product Description: AutoCAD Mechanical 2000|Company: Autodesk"
 90
        0
280
     0
281
     0
  0
CLASS
  1
ACMWELDSTANDARDJIS
  2
AcmWeldingStdJIS
  3
"AcmSymBB|Product Description: AutoCAD Mechanical 2000|Company: Autodesk"
 90
        0
280
     0
281
     0
  0
CLASS
  1
ACMIDSTANDARDJIS
  2
AcmIdStdJIS
  3
"AcmSymBB|Product Description: AutoCAD Mechanical 2000|Company: Autodesk"
 90
        0
280
     0
281
     0
  0
CLASS
  1
ACMDATUMSTANDARDJIS
  2
AcmDatumStdJIS
  3
"AcmSymBB|Product Description: AutoCAD Mechanical 2000|Company: Autodesk"
 90
        0
280
     0
281
     0
  0
CLASS
  1
ACMBOMSTANDARDJIS
  2
AcmBOMStdJIS
  3
"AcmSymBB|Product Description: AutoCAD Mechanical 2000|Company: Autodesk"
 90
        0
280
     0
281
     0
  0
CLASS
  1
ACMSTANDARDANSI
  2
AcmStandardANSI
  3
"AcmSymBB|Product Description: AutoCAD Mechanical 2000|Company: Autodesk"
 90
        0
280
     0
281
     0
  0
CLASS
  1
ACMSURFSTANDARDANSI
  2
AcmSurfTextStdANSI
  3
"AcmSymBB|Product Description: AutoCAD Mechanical 2000|Company: Autodesk"
 90
        0
280
     0
281
     0
  0
CLASS
  1
ACMFCFSTANDARDANSI
  2
AcmFCFStdANSI
  3
"AcmSymBB|Product Description: AutoCAD Mechanical 2000|Company: Autodesk"
 90
        0
280
     0
281
     0
  0
CLASS
  1
ACMWELDSTANDARDANSI
  2
AcmWeldingStdANSI
  3
"AcmSymBB|Product Description: AutoCAD Mechanical 2000|Company: Autodesk"
 90
        0
280
     0
281
     0
  0
CLASS
  1
ACMIDSTANDARDANSI
  2
AcmIdStdANSI
  3
"AcmSymBB|Product Description: AutoCAD Mechanical 2000|Company: Autodesk"
 90
        0
280
     0
281
     0
  0
CLASS
  1
ACMDATUMSTANDARDANSI
  2
AcmDatumStdANSI
  3
"AcmSymBB|Product Description: AutoCAD Mechanical 2000|Company: Autodesk"
 90
        0
280
     0
281
     0
  0
CLASS
  1
ACMBOMSTANDARDANSI
  2
AcmBOMStdANSI
  3
"AcmSymBB|Product Description: AutoCAD Mechanical 2000|Company: Autodesk"
 90
        0
280
     0
281
     0
  0
CLASS
  1
ACMSTANDARDBSI
  2
AcmStandardBSI
  3
"AcmSymBB|Product Description: AutoCAD Mechanical 2000|Company: Autodesk"
 90
        0
280
     0
281
     0
  0
CLASS
  1
ACMSURFSTANDARDBSI
  2
AcmSurfTextStdBSI
  3
"AcmSymBB|Product Description: AutoCAD Mechanical 2000|Company: Autodesk"
 90
        0
280
     0
281
     0
  0
CLASS
  1
ACMFCFSTANDARDBSI
  2
AcmFCFStdBSI
  3
"AcmSymBB|Product Description: AutoCAD Mechanical 2000|Company: Autodesk"
 90
        0
280
     0
281
     0
  0
CLASS
  1
ACMWELDSTANDARDBSI
  2
AcmWeldingStdBSI
  3
"AcmSymBB|Product Description: AutoCAD Mechanical 2000|Company: Autodesk"
 90
        0
280
     0
281
     0
  0
CLASS
  1
ACMIDSTANDARDBSI
  2
AcmIdStdBSI
  3
"AcmSymBB|Product Description: AutoCAD Mechanical 2000|Company: Autodesk"
 90
        0
280
     0
281
     0
  0
CLASS
  1
ACMDATUMSTANDARDBSI
  2
AcmDatumStdBSI
  3
"AcmSymBB|Product Description: AutoCAD Mechanical 2000|Company: Autodesk"
 90
        0
280
     0
281
     0
  0
CLASS
  1
ACMBOMSTANDARDBSI
  2
AcmBOMStdBSI
  3
"AcmSymBB|Product Description: AutoCAD Mechanical 2000|Company: Autodesk"
 90
        0
280
     0
281
     0
  0
CLASS
  1
LONG_TRANSACTION
  2
AcDbLongTransaction
  3
AutoCAD 2000
 90
        0
280
     0
281
     0
  0
CLASS
  1
LWPOLYLINE
  2
AcDbPolyline
  3
AutoCAD 2000
 90
        0
280
     0
281
     1
  0
CLASS
  1
HATCH
  2
AcDbHatch
  3
AutoCAD 2000
 90
        0
280
     0
281
     1
  0
CLASS
  1
XRECORD
  2
AcDbXrecord
  3
AutoCAD 2000
 90
        0
280
     0
281
     0
  0
ENDSEC
  0
SECTION
  2
TABLES
  0
TABLE
  2
VPORT
  5
8
330
0
100
AcDbSymbolTable
 70
     3
  0
VPORT
  5
47E8
330
8
100
AcDbSymbolTableRecord
100
AcDbViewportTableRecord
  2
*ACTIVE
 70
     0
 10
0.0
 20
0.0
 11
1.0
 21
1.0
 12
-79.3247898349922
 22
-15.90665625045186
 13
0.0
 23
0.0
 14
2.5
 24
2.5
 15
10.0
 25
10.0
 16
0.0
 26
0.0
 36
1.0
 17
0.0
 27
0.0
 37
0.0
 40
188.2435339768765
 41
1.56570841889117
 42
50.0
 43
0.0
 44
0.0
 50
0.0
 51
0.0
 71
     0
 72
   100
 73
     1
 74
     1
 75
     0
 76
     0
 77
     0
 78
     0
  0
ENDTAB
  0
TABLE
  2
LTYPE
  5
5
330
0
100
AcDbSymbolTable
 70
    10
  0
LTYPE
  5
14
330
5
100
AcDbSymbolTableRecord
100
AcDbLinetypeTableRecord
  2
BYBLOCK
 70
     0
  3

 72
    65
 73
     0
 40
0.0
  0
LTYPE
  5
15
330
5
100
AcDbSymbolTableRecord
100
AcDbLinetypeTableRecord
  2
BYLAYER
 70
     0
  3

 72
    65
 73
     0
 40
0.0
  0
LTYPE
  5
16
330
5
100
AcDbSymbolTableRecord
100
AcDbLinetypeTableRecord
  2
CONTINUOUS
 70
     0
  3
Solid line
 72
    65
 73
     0
 40
0.0
  0
LTYPE
  5
4B
330
5
100
AcDbSymbolTableRecord
100
AcDbLinetypeTableRecord
  2
AM_ISO02W050
 70
     0
  3
__ __ __ __ __ __ __ __ __ __ __ __ __ __ __
 72
    65
 73
     2
 40
7.5
 49
6.0
 74
     0
 49
-1.5
 74
     0
  0
LTYPE
  5
4C
330
5
100
AcDbSymbolTableRecord
100
AcDbLinetypeTableRecord
  2
AM_ISO08W050
 70
     0
  3
____ . ____ . ____ . ____ . ____ . ____ . ____
 72
    65
 73
     4
 40
18.0
 49
12.0
 74
     0
 49
-1.5
 74
     0
 49
3.0
 74
     0
 49
-1.5
 74
     0
  0
LTYPE
  5
4D
330
5
100
AcDbSymbolTableRecord
100
AcDbLinetypeTableRecord
  2
AM_ISO09W050
 70
     0
  3
_____ . . _____ . . _____ . . ____ .. ____
 72
    65
 73
     6
 40
22.5
 49
12.0
 74
     0
 49
-1.5
 74
     0
 49
3.0
 74
     0
 49
-1.5
 74
     0
 49
3.0
 74
     0
 49
-1.5
 74
     0
  0
LTYPE
  5
4E
330
5
100
AcDbSymbolTableRecord
100
AcDbLinetypeTableRecord
  2
AMCONSTR
 70
     0
  3
_______________________
 72
    65
 73
     2
 40
9999.0
 49
9999.0
 74
     0
 49
0.0
 74
     0
  0
LTYPE
  5
4F
330
5
100
AcDbSymbolTableRecord
100
AcDbLinetypeTableRecord
  2
AM_ISO02W050X2
 70
     0
  3
 _ _ _ _ _ _ _ _ _ _ _ _
 72
    65
 73
     2
 40
3.75
 49
3.0
 74
     0
 49
-0.75
 74
     0
  0
LTYPE
  5
50
330
5
100
AcDbSymbolTableRecord
100
AcDbLinetypeTableRecord
  2
AM_ISO08W050X2
 70
     0
  3
__ . __ . __ . __ . __ . __
 72
    65
 73
     4
 40
9.0
 49
6.0
 74
     0
 49
-0.75
 74
     0
 49
1.5
 74
     0
 49
-0.75
 74
     0
  0
LTYPE
  5
53
330
5
100
AcDbSymbolTableRecord
100
AcDbLinetypeTableRecord
  2
AMZIGZAG
 70
     0
  3
/\/-/\/-/\/-/\/-/\/-/\/
 72
    65
 73
     2
 40
11.00009999999999
 49
0.0001
 74
     4
 75
   135
340
52
 46
0.04
 50
0.0
 44
0.0
 45
0.0
 49
-11.0
 74
     0
  0
LTYPE
  5
166
330
5
100
AcDbSymbolTableRecord
100
AcDbLinetypeTableRecord
  2
ACJISTGL
 70
     0
  3
_ _ _ _ _
 72
    65
 73
     2
 40
3.0
 49
2.0
 74
     0
 49
-1.0
 74
     0
  0
LTYPE
  5
26A
330
5
100
AcDbSymbolTableRecord
100
AcDbLinetypeTableRecord
  2
ACJISTGB
 70
     0
  3
__ . . __ . .
 72
    65
 73
     6
 40
9.0
 49
4.0
 74
     0
 49
-1.0
 74
     0
 49
1.0
 74
     0
 49
-1.0
 74
     0
 49
1.0
 74
     0
 49
-1.0
 74
     0
  0
ENDTAB
  0
TABLE
  2
LAYER
  5
2
330
0
100
AcDbSymbolTable
 70
    11
  0
LAYER
  5
10
330
2
100
AcDbSymbolTableRecord
100
AcDbLayerTableRecord
  2
0
 70
     0
 62
     7
  6
CONTINUOUS
  0
LAYER
  5
3F9
330
2
100
AcDbSymbolTableRecord
100
AcDbLayerTableRecord
  2
AM_0
 70
     0
 62
     7
  6
CONTINUOUS
  0
LAYER
  5
BA4
330
2
100
AcDbSymbolTableRecord
100
AcDbLayerTableRecord
  2
PV0001_1
 70
     0
 62
     7
  6
CONTINUOUS
  0
LAYER
  5
C6C
330
2
100
AcDbSymbolTableRecord
100
AcDbLayerTableRecord
  2
AM_CL
 70
     0
 62
     1
  6
AMCONSTR
  0
LAYER
  5
C7C
330
2
100
AcDbSymbolTableRecord
100
AcDbLayerTableRecord
  2
AM_7
 70
     0
 62
     4
  6
AM_ISO08W050
  0
LAYER
  5
C97
330
2
100
AcDbSymbolTableRecord
100
AcDbLayerTableRecord
  2
AM_11
 70
     0
 62
     3
  6
AM_ISO09W050
  0
LAYER
  5
CC5
330
2
100
AcDbSymbolTableRecord
100
AcDbLayerTableRecord
  2
AM_5
 70
     0
 62
     3
  6
CONTINUOUS
  0
LAYER
  5
CC7
330
2
100
AcDbSymbolTableRecord
100
AcDbLayerTableRecord
  2
DEFPOINTS
 70
     0
 62
     7
  6
CONTINUOUS
  0
LAYER
  5
19BC
330
2
100
AcDbSymbolTableRecord
100
AcDbLayerTableRecord
  2
AM_6
 70
     0
 62
     2
  6
CONTINUOUS
  0
LAYER
  5
1F8E
330
2
100
AcDbSymbolTableRecord
100
AcDbLayerTableRecord
  2
AM_4
 70
     0
 62
     3
  6
CONTINUOUS
  0
LAYER
  5
3588
330
2
100
AcDbSymbolTableRecord
100
AcDbLayerTableRecord
  2
AM_3
 70
     0
 62
     6
  6
ACJISTGL
  0
ENDTAB
  0
TABLE
  2
STYLE
  5
3
330
0
100
AcDbSymbolTable
 70
     5
  0
STYLE
  5
11
330
3
100
AcDbSymbolTableRecord
100
AcDbTextStyleTableRecord
  2
STANDARD
 70
     0
 40
0.0
 41
1.0
 50
0.0
 71
     0
 42
2.5
  3
simplex.shx
  4
EXTFONT.SHX
  0
STYLE
  5
52
330
3
100
AcDbSymbolTableRecord
100
AcDbTextStyleTableRecord
  2

 70
     1
 40
0.0
 41
1.0
 50
0.0
 71
     0
 42
2.5
  3
ltypeshp.shx
  4

  0
STYLE
  5
6B
330
3
100
AcDbSymbolTableRecord
100
AcDbTextStyleTableRecord
  2
ASAMI
 70
     0
 40
0.0
 41
1.0
 50
0.0
 71
     0
 42
2.5
  3
simplex.shx
  4
EXTFONT.SHX
  0
STYLE
  5
262
330
3
100
AcDbSymbolTableRecord
100
AcDbTextStyleTableRecord
  2
ACJISTS
 70
     0
 40
1.0
 41
1.0
 50
0.0
 71
     0
 42
2.5
  3
simplex.shx
  4
bigfont.shx
  0
STYLE
  5
269
330
3
100
AcDbSymbolTableRecord
100
AcDbTextStyleTableRecord
  2
ACJISGDT
 70
     0
 40
0.0
 41
1.0
 50
0.0
 71
     0
 42
2.5
  3
amgdtans.shx
  4

  0
ENDTAB
  0
TABLE
  2
VIEW
  5
6
330
0
100
AcDbSymbolTable
 70
     0
  0
ENDTAB
  0
TABLE
  2
UCS
  5
7
330
0
100
AcDbSymbolTable
 70
     0
  0
ENDTAB
  0
TABLE
  2
APPID
  5
9
330
0
100
AcDbSymbolTable
 70
    14
  0
APPID
  5
12
330
9
100
AcDbSymbolTableRecord
100
AcDbRegAppTableRecord
  2
ACAD
 70
     0
  0
APPID
  5
30
330
9
100
AcDbSymbolTableRecord
100
AcDbRegAppTableRecord
  2
MCAD_NO_VIS
 70
     0
  0
APPID
  5
31
330
9
100
AcDbSymbolTableRecord
100
AcDbRegAppTableRecord
  2
ACAD_TEMP_GRAPHIC
 70
     0
  0
APPID
  5
2C2
330
9
100
AcDbSymbolTableRecord
100
AcDbRegAppTableRecord
  2
GENIUS_GENDTOL_13
 70
     0
  0
APPID
  5
339
330
9
100
AcDbSymbolTableRecord
100
AcDbRegAppTableRecord
  2
GENIUS_GENODEF_13
 70
     0
  0
APPID
  5
33A
330
9
100
AcDbSymbolTableRecord
100
AcDbRegAppTableRecord
  2
GENIUS_GENOBJ-N-RSBK_13
 70
     0
  0
APPID
  5
33B
330
9
100
AcDbSymbolTableRecord
100
AcDbRegAppTableRecord
  2
GENIUS_GENOBJ-N-LIB_13
 70
     0
  0
APPID
  5
33C
330
9
100
AcDbSymbolTableRecord
100
AcDbRegAppTableRecord
  2
GENIUS_GENSCALE_13
 70
     0
  0
APPID
  5
378
330
9
100
AcDbSymbolTableRecord
100
AcDbRegAppTableRecord
  2
GENIUS_GENDIMSH_14
 70
     0
  0
APPID
  5
C82
330
9
100
AcDbSymbolTableRecord
100
AcDbRegAppTableRecord
  2
GENIUS_GENOBJ-N-CRS_13
 70
     0
  0
APPID
  5
C83
330
9
100
AcDbSymbolTableRecord
100
AcDbRegAppTableRecord
  2
GENIUS_GENOENT_13
 70
     0
  0
APPID
  5
C84
330
9
100
AcDbSymbolTableRecord
100
AcDbRegAppTableRecord
  2
GENIUS_GENOREF_13
 70
     0
  0
APPID
  5
C85
330
9
100
AcDbSymbolTableRecord
100
AcDbRegAppTableRecord
  2
GENIUS_GENOLIS_13
 70
     0
  0
APPID
  5
CA0
330
9
100
AcDbSymbolTableRecord
100
AcDbRegAppTableRecord
  2
GENIUS_GENOBJ-N-CEN_13
 70
     0
  0
ENDTAB
  0
TABLE
  2
DIMSTYLE
  5
A
330
0
100
AcDbSymbolTable
 70
    10
  0
DIMSTYLE
105
58
330
A
100
AcDbSymbolTableRecord
100
AcDbDimStyleTableRecord
  2
AM_JIS
 70
     0
  3

  4
"
  5
OPEN30
  6

  7

 40
1.0
 41
2.5
 42
1.0
 43
12.0
 44
1.0
 45
0.0
 46
0.0
 47
0.1
 48
0.1
140
3.2
141
0.0
142
0.0
143
0.0393701
144
1.0
145
0.0
146
0.71
147
1.5
 71
     0
 72
     0
 73
     0
 74
     0
 75
     0
 76
     0
 77
     3
 78
     8
170
     0
171
     2
172
     1
173
     0
174
     0
175
     0
176
   256
177
   256
178
     2
270
     2
271
     3
272
     3
273
     2
274
     2
340
6B
275
     0
280
     0
281
     0
282
     0
283
     0
284
     0
285
     0
286
     0
287
     3
288
     0
  0
DIMSTYLE
105
5F
330
A
100
AcDbSymbolTableRecord
100
AcDbDimStyleTableRecord
  2
AM_JIS$3
 70
     0
  3

  4
"
  5
OPEN30
  6

  7

 40
1.0
 41
2.5
 42
1.0
 43
10.0
 44
1.0
 45
0.0
 46
0.0
 47
0.1
 48
0.1
140
3.2
141
0.0
142
0.0
143
0.0393701
144
1.0
145
0.0
146
0.71
147
1.5
 71
     0
 72
     0
 73
     0
 74
     1
 75
     0
 76
     0
 77
     3
 78
     8
170
     0
171
     2
172
     0
173
     0
174
     0
175
     0
176
   256
177
   256
178
     2
270
     2
271
     2
272
     3
273
     2
274
     2
340
6B
275
     0
280
     0
281
     0
282
     0
283
     0
284
     0
285
     0
286
     0
287
     0
288
     1
  0
DIMSTYLE
105
60
330
A
100
AcDbSymbolTableRecord
100
AcDbDimStyleTableRecord
  2
AM_JIS$4
 70
     0
  3

  4
"
  5
OPEN30
  6

  7

 40
1.0
 41
2.5
 42
1.0
 43
10.0
 44
1.0
 45
0.0
 46
0.0
 47
0.1
 48
0.1
140
3.2
141
0.0
142
0.0
143
0.0393701
144
1.0
145
0.0
146
0.71
147
1.5
 71
     0
 72
     0
 73
     0
 74
     1
 75
     0
 76
     0
 77
     3
 78
     8
170
     0
171
     2
172
     0
173
     0
174
     0
175
     0
176
   256
177
   256
178
     2
270
     2
271
     2
272
     3
273
     2
274
     2
340
6B
275
     0
280
     0
281
     0
282
     0
283
     0
284
     0
285
     0
286
     0
287
     0
288
     1
  0
DIMSTYLE
105
61
330
A
100
AcDbSymbolTableRecord
100
AcDbDimStyleTableRecord
  2
AM_JIS$6
 70
     0
  3

  4
"
  5
OPEN30
  6

  7

 40
1.0
 41
2.5
 42
1.0
 43
10.0
 44
1.0
 45
0.0
 46
0.0
 47
0.1
 48
0.1
140
3.2
141
0.0
142
0.0
143
0.0393701
144
1.0
145
0.0
146
0.71
147
1.5
 71
     0
 72
     0
 73
     0
 74
     0
 75
     0
 76
     0
 77
     0
 78
     8
170
     0
171
     2
172
     1
173
     0
174
     0
175
     0
176
   256
177
   256
178
     2
270
     2
271
     2
272
     2
273
     2
274
     2
340
6B
275
     0
280
     0
281
     0
282
     0
283
     0
284
     0
285
     0
286
     0
287
     3
288
     0
  0
DIMSTYLE
105
62
330
A
100
AcDbSymbolTableRecord
100
AcDbDimStyleTableRecord
  2
AM_JIS$7
 70
     0
  3

  4
"
  5
OPEN30
  6

  7

 40
1.0
 41
2.5
 42
1.0
 43
10.0
 44
1.0
 45
0.0
 46
0.0
 47
0.1
 48
0.1
140
3.2
141
0.0
142
0.0
143
0.0393701
144
1.0
145
0.0
146
0.71
147
1.5
 71
     0
 72
     0
 73
     0
 74
     0
 75
     0
 76
     0
 77
     3
 78
     8
170
     0
171
     2
172
     1
173
     0
174
     0
175
     0
176
   256
177
   256
178
     2
270
     2
271
     2
272
     3
273
     2
274
     2
340
6B
275
     0
280
     0
281
     0
282
     0
283
     0
284
     0
285
     0
286
     0
287
     3
288
     0
  0
DIMSTYLE
105
63
330
A
100
AcDbSymbolTableRecord
100
AcDbDimStyleTableRecord
  2
AM_JIS$SF
 70
     0
  3

  4
"
  5
OPEN30
  6

  7

 40
1.0
 41
2.5
 42
1.0
 43
10.0
 44
1.0
 45
0.0
 46
0.0
 47
0.1
 48
0.1
140
3.2
141
0.0
142
0.0
143
0.0393701
144
1.0
145
0.0
146
0.71
147
1.5
 71
     0
 72
     0
 73
     0
 74
     0
 75
     1
 76
     1
 77
     3
 78
     8
170
     0
171
     2
172
     1
173
     0
174
     0
175
     0
176
   256
177
   256
178
     2
270
     2
271
     2
272
     2
273
     2
274
     2
340
6B
275
     0
280
     0
281
     0
282
     0
283
     0
284
     0
285
     0
286
     0
287
     3
288
     0
  0
DIMSTYLE
105
68
330
A
100
AcDbSymbolTableRecord
100
AcDbDimStyleTableRecord
  2
AM_JIS$SH
 70
     0
  3

  4
"
  5

  6
GENAXEH
  7
OPEN30
 40
1.0
 41
2.5
 42
1.0
 43
10.0
 44
1.0
 45
0.0
 46
0.0
 47
0.1
 48
0.1
140
3.2
141
0.0
142
0.0
143
0.0393701
144
2.0
145
0.0
146
0.71
147
1.5
 71
     0
 72
     0
 73
     0
 74
     0
 75
     1
 76
     1
 77
     3
 78
     8
170
     0
171
     2
172
     1
173
     1
174
     0
175
     0
176
   256
177
   256
178
     2
270
     2
271
     2
272
     2
273
     2
274
     2
340
6B
275
     0
280
     0
281
     0
282
     0
283
     0
284
     0
285
     0
286
     0
287
     3
288
     0
  0
DIMSTYLE
105
B34
102
{ACAD_REACTORS
330
36BA
102
}
330
A
100
AcDbSymbolTableRecord
100
AcDbDimStyleTableRecord
  2
AM_JIS$2
 70
     0
  3

  4
"
  5
OPEN30
  6

  7

 40
1.0
 41
2.5
 42
1.0
 43
12.0
 44
1.0
 45
0.0
 46
0.0
 47
0.1
 48
0.1
140
3.2
141
0.0
142
0.0
143
0.0393701
144
1.0
145
0.0
146
0.71
147
1.5
 71
     0
 72
     0
 73
     0
 74
     0
 75
     0
 76
     0
 77
     3
 78
     8
170
     0
171
     2
172
     1
173
     0
174
     0
175
     0
176
   256
177
   256
178
     2
270
     2
271
     3
272
     3
273
     2
274
     2
340
6B
275
     0
280
     0
281
     0
282
     0
283
     0
284
     0
285
     0
286
     0
287
     3
288
     0
  0
DIMSTYLE
105
BA5
102
{ACAD_REACTORS
330
3B0D
330
3BB8
330
3CCB
330
43AC
330
43A5
330
43AD
330
43A4
330
4515
330
471A
102
}
330
A
100
AcDbSymbolTableRecord
100
AcDbDimStyleTableRecord
  2
AM_JIS$0
 70
     0
  3

  4
"
  5
OPEN30
  6

  7

 40
1.0
 41
2.5
 42
0.8
 43
10.0
 44
1.0
 45
0.0
 46
0.0
 47
0.1
 48
0.1000000001
140
3.799999999999999
141
0.0
142
0.0
143
0.0393701
144
1.0
145
0.0
146
0.71
147
1.5
 71
     0
 72
     0
 73
     0
 74
     0
 75
     0
 76
     0
 77
     3
 78
     9
170
     0
171
     2
172
     1
173
     0
174
     0
175
     0
176
     3
177
     3
178
     2
270
     2
271
     2
272
     2
273
     2
274
     2
340
11
275
     1
280
     0
281
     0
282
     0
283
     0
284
     8
285
     0
286
     0
287
     0
288
     0
  0
DIMSTYLE
105
BA6
330
A
100
AcDbSymbolTableRecord
100
AcDbDimStyleTableRecord
  2
AM_JISORG-1P0$2
 70
     0
  3

  4
"
  5
OPEN30
  6

  7

 40
1.0
 41
2.5
 42
0.0
 43
10.0
 44
1.0
 45
0.0
 46
0.0
 47
0.1
 48
0.1000000001
140
3.799999999999999
141
0.0
142
0.0
143
0.0393701
144
-0.999999980146674
145
0.0
146
0.71
147
1.5
 71
     0
 72
     0
 73
     0
 74
     0
 75
     0
 76
     0
 77
     3
 78
     1
170
     0
171
     2
172
     1
173
     0
174
     0
175
     0
176
     3
177
     3
178
     2
270
     2
271
     2
272
     2
273
     2
274
     2
340
11
275
     1
280
     0
281
     0
282
     0
283
     0
284
     8
285
     0
286
     0
287
     0
288
     0
  0
ENDTAB
  0
TABLE
  2
BLOCK_RECORD
  5
1
330
0
100
AcDbSymbolTable
 70
    19
  0
BLOCK_RECORD
  5
1F
102
{ACAD_XDICTIONARY
360
74
102
}
330
1
100
AcDbSymbolTableRecord
100
AcDbBlockTableRecord
  2
*MODEL_SPACE
  0
BLOCK_RECORD
  5
101
102
{ACAD_XDICTIONARY
360
4811
102
}
330
1
100
AcDbSymbolTableRecord
100
AcDbBlockTableRecord
  2
*PAPER_SPACE
  0
BLOCK_RECORD
  5
59
330
1
100
AcDbSymbolTableRecord
100
AcDbBlockTableRecord
  2
_OPEN30
  0
BLOCK_RECORD
  5
64
330
1
100
AcDbSymbolTableRecord
100
AcDbBlockTableRecord
  2
GENAXEH
  0
BLOCK_RECORD
  5
C31
330
1
100
AcDbSymbolTableRecord
100
AcDbBlockTableRecord
  2
A$C36D02A34
  0
BLOCK_RECORD
  5
2453
330
1
100
AcDbSymbolTableRecord
100
AcDbBlockTableRecord
  2
*D6
  0
BLOCK_RECORD
  5
245F
330
1
100
AcDbSymbolTableRecord
100
AcDbBlockTableRecord
  2
A$C4FFC6CC0
  0
BLOCK_RECORD
  5
36BB
330
1
100
AcDbSymbolTableRecord
100
AcDbBlockTableRecord
  2
*D8
  0
BLOCK_RECORD
  5
3B0E
330
1
100
AcDbSymbolTableRecord
100
AcDbBlockTableRecord
  2
*D9
  0
BLOCK_RECORD
  5
3BB9
330
1
100
AcDbSymbolTableRecord
100
AcDbBlockTableRecord
  2
*D10
  0
BLOCK_RECORD
  5
3CCC
330
1
100
AcDbSymbolTableRecord
100
AcDbBlockTableRecord
  2
*D11
  0
BLOCK_RECORD
  5
43B5
330
1
100
AcDbSymbolTableRecord
100
AcDbBlockTableRecord
  2
*D12
  0
BLOCK_RECORD
  5
43C1
330
1
100
AcDbSymbolTableRecord
100
AcDbBlockTableRecord
  2
*D13
  0
BLOCK_RECORD
  5
43CD
330
1
100
AcDbSymbolTableRecord
100
AcDbBlockTableRecord
  2
*D14
  0
BLOCK_RECORD
  5
43DB
330
1
100
AcDbSymbolTableRecord
100
AcDbBlockTableRecord
  2
*D15
  0
BLOCK_RECORD
  5
4516
330
1
100
AcDbSymbolTableRecord
100
AcDbBlockTableRecord
  2
*D16
  0
BLOCK_RECORD
  5
471B
330
1
100
AcDbSymbolTableRecord
100
AcDbBlockTableRecord
  2
*D17
  0
ENDTAB
  0
ENDSEC
  0
SECTION
  2
BLOCKS
  0
BLOCK
  5
20
330
1F
100
AcDbEntity
  8
0
100
AcDbBlockBegin
  2
*MODEL_SPACE
 70
     0
 10
0.0
 20
0.0
 30
0.0
  3
*MODEL_SPACE
  1

  0
ENDBLK
  5
21
330
1F
100
AcDbEntity
  8
0
100
AcDbBlockEnd
  0
BLOCK
  5
103
330
101
100
AcDbEntity
 67
     1
  8
0
100
AcDbBlockBegin
  2
*PAPER_SPACE
 70
     0
 10
0.0
 20
0.0
 30
0.0
  3
*PAPER_SPACE
  1

  0
ENDBLK
  5
104
330
101
100
AcDbEntity
 67
     1
  8
0
100
AcDbBlockEnd
  0
BLOCK
  5
5D
330
59
100
AcDbEntity
  8
0
100
AcDbBlockBegin
  2
_OPEN30
 70
     0
 10
0.0
 20
0.0
 30
0.0
  3
_OPEN30
  1

  0
LINE
  5
5A
330
59
100
AcDbEntity
  8
0
 62
     0
100
AcDbLine
 10
-1.0
 20
0.26794919
 30
0.0
 11
0.0
 21
0.0
 31
0.0
  0
LINE
  5
5B
330
59
100
AcDbEntity
  8
0
 62
     0
100
AcDbLine
 10
0.0
 20
0.0
 30
0.0
 11
-1.0
 21
-0.26794919
 31
0.0
  0
LINE
  5
5C
330
59
100
AcDbEntity
  8
0
 62
     0
100
AcDbLine
 10
0.0
 20
0.0
 30
0.0
 11
-1.0
 21
0.0
 31
0.0
  0
ENDBLK
  5
5E
330
59
100
AcDbEntity
  8
0
100
AcDbBlockEnd
  0
BLOCK
  5
66
330
64
100
AcDbEntity
  8
0
100
AcDbBlockBegin
  2
GENAXEH
 70
     0
 10
0.0
 20
0.0
 30
0.0
  3
GENAXEH
  1

  0
LINE
  5
65
330
64
100
AcDbEntity
  8
0
100
AcDbLine
 10
-1.0
 20
0.0
 30
0.0
 11
1.0
 21
0.0
 31
0.0
  0
ENDBLK
  5
67
330
64
100
AcDbEntity
  8
0
100
AcDbBlockEnd
  0
BLOCK
  5
C4B
330
C31
100
AcDbEntity
  8
0
100
AcDbBlockBegin
  2
A$C36D02A34
 70
     0
 10
0.0
 20
0.0
 30
0.0
  3
A$C36D02A34
  1

  0
ARC
  5
C32
330
C31
100
AcDbEntity
  8
PV0001_1
  6
CONTINUOUS
 48
0.5
100
AcDbCircle
 10
18.06811523436999
 20
-11.83651161193799
 30
0.0
 40
21.600000381469
100
AcDbArc
 50
123.2290435713209
 51
126.6341524197568
  0
ARC
  5
C33
330
C31
100
AcDbEntity
  8
PV0001_1
  6
CONTINUOUS
 48
0.5
100
AcDbCircle
 10
18.06811523436999
 20
-11.83651161193799
 30
0.0
 40
21.600000381469
100
AcDbArc
 50
135.0736707620117
 51
146.7709980930592
  0
ARC
  5
C34
330
C31
100
AcDbEntity
  8
PV0001_1
  6
CONTINUOUS
 48
0.5
100
AcDbCircle
 10
-18.0680770874
 20
11.8365631103514
 30
0.0
 40
21.600000381469
100
AcDbArc
 50
315.0734847530392
 51
326.770781348241
  0
ARC
  5
C35
330
C31
100
AcDbEntity
  8
PV0001_1
  6
CONTINUOUS
 48
0.5
100
AcDbCircle
 10
-18.0680770874
 20
11.8365631103514
 30
0.0
 40
21.600000381469
100
AcDbArc
 50
303.2288882981993
 51
306.633986901359
  0
ARC
  5
C36
330
C31
100
AcDbEntity
  8
PV0001_1
  6
CONTINUOUS
 48
0.5
100
AcDbCircle
 10
-0.6269836425800009
 20
-2.044216156005997
 30
0.0
 40
2.0
100
AcDbArc
 50
337.4067997351092
 51
43.42231293132884
  0
ARC
  5
C37
330
C31
100
AcDbEntity
  8
PV0001_1
  6
CONTINUOUS
 48
0.5
100
AcDbCircle
 10
0.626953125
 20
2.044223785401001
 30
0.0
 40
2.0
100
AcDbArc
 50
157.4068184044407
 51
223.4222769591536
  0
CIRCLE
  5
C38
330
C31
100
AcDbEntity
  8
PV0001_1
  6
CONTINUOUS
 48
0.5
100
AcDbCircle
 10
3.856727600100001
 20
4.596265792847002
 30
0.0
 40
1.6000000238419
  0
CIRCLE
  5
C39
330
C31
100
AcDbEntity
  8
PV0001_1
  6
CONTINUOUS
 48
0.5
100
AcDbCircle
 10
-3.856727600100001
 20
-4.596265792845997
 30
0.0
 40
1.6000000238419
  0
ARC
  5
C3A
330
C31
100
AcDbEntity
  8
PV0001_1
  6
CONTINUOUS
 48
0.5
100
AcDbCircle
 10
-5.58123779297
 20
5.092639923096001
 30
0.0
 40
5.019082546234099
100
AcDbArc
 50
240.2658959250867
 51
321.5156269706421
  0
ARC
  5
C3B
330
C31
100
AcDbEntity
  8
PV0001_1
  6
CONTINUOUS
 48
0.5
100
AcDbCircle
 10
5.486755371089998
 20
-4.601703643798998
 30
0.0
 40
4.651036739349399
100
AcDbArc
 50
56.25271400417071
 51
145.528859890601
  0
ARC
  5
C3C
330
C31
100
AcDbEntity
  8
PV0001_1
  6
CONTINUOUS
 48
0.5
100
AcDbCircle
 10
-2.11590576172
 20
-3.453323364257997
 30
0.0
 40
4.050000190734899
100
AcDbArc
 50
43.42230610113921
 51
58.50391703385149
  0
ARC
  5
C3D
330
C31
100
AcDbEntity
  8
PV0001_1
  6
CONTINUOUS
 48
0.5
100
AcDbCircle
 10
2.115875244139999
 20
3.453330993653001
 30
0.0
 40
4.050000190734899
100
AcDbArc
 50
223.4222942619974
 51
238.5038164022482
  0
ARC
  5
C3E
330
C31
100
AcDbEntity
  8
PV0001_1
  6
CONTINUOUS
 48
0.5
100
AcDbCircle
 10
-6.70369720459
 20
5.094657897949002
 30
0.0
 40
5.940000057220499
100
AcDbArc
 50
328.2536768887549
 51
31.74641873389623
  0
ARC
  5
C3F
330
C31
100
AcDbEntity
  8
PV0001_1
  6
CONTINUOUS
 48
0.5
100
AcDbCircle
 10
6.703674316410001
 20
-5.094650268553998
 30
0.0
 40
5.940000057220499
100
AcDbArc
 50
148.2533403882529
 51
211.7466423089037
  0
ARC
  5
C40
330
C31
100
AcDbEntity
  8
PV0001_1
  6
CONTINUOUS
 48
0.5
100
AcDbCircle
 10
0.0
 20
0.0
 30
0.0
 40
8.812800407409699
100
AcDbArc
 50
175.2198288164333
 51
272.8622597568298
  0
ARC
  5
C41
330
C31
100
AcDbEntity
  8
PV0001_1
  6
CONTINUOUS
 48
0.5
100
AcDbCircle
 10
0.0
 20
0.0
 30
0.0
 40
9.1800003051758
100
AcDbArc
 50
272.7511362215027
 51
280.3697477877874
  0
ARC
  5
C42
330
C31
100
AcDbEntity
  8
PV0001_1
  6
CONTINUOUS
 48
0.5
100
AcDbCircle
 10
0.0
 20
0.0
 30
0.0
 40
8.812800407409699
100
AcDbArc
 50
355.2198199654955
 51
92.86229572901076
  0
ARC
  5
C43
330
C31
100
AcDbEntity
  8
PV0001_1
  6
CONTINUOUS
 48
0.5
100
AcDbCircle
 10
0.0
 20
0.0
 30
0.0
 40
9.1800003051758
100
AcDbArc
 50
92.75115489083434
 51
100.3697664571193
  0
CIRCLE
  5
C44
330
C31
100
AcDbEntity
  8
PV0001_1
  6
CONTINUOUS
100
AcDbCircle
 10
0.0
 20
0.0
 30
0.0
 40
9.1800003051758
  0
LINE
  5
C45
330
C31
100
AcDbEntity
  8
PV0001_1
  6
CONTINUOUS
 48
0.5
100
AcDbLine
 10
-1.652404785160001
 20
9.030059814453
 30
0.0
 11
-1.652404785160001
 21
8.220062255860002
 31
0.0
  0
LINE
  5
C46
330
C31
100
AcDbEntity
  8
PV0001_1
  6
CONTINUOUS
 48
0.5
100
AcDbLine
 10
1.652404785160001
 20
-8.220058441161999
 30
0.0
 11
1.652404785160001
 21
-9.030055999755997
 31
0.0
  0
LINE
  5
C47
330
C31
100
AcDbEntity
  8
PV0001_1
  6
CONTINUOUS
 48
0.5
100
AcDbLine
 10
-8.78217315674
 20
0.7343807220460015
 30
0.0
 11
-8.070594787600001
 21
0.7343997955320028
 31
0.0
  0
LINE
  5
C48
330
C31
100
AcDbEntity
  8
PV0001_1
  6
CONTINUOUS
 48
0.5
100
AcDbLine
 10
8.07057952881
 20
-0.7343864440919994
 30
0.0
 11
8.78215789795
 21
-0.7343654632569994
 31
0.0
  0
LINE
  5
C49
330
C31
100
AcDbEntity
  8
PV0001_1
  6
CONTINUOUS
 48
0.5
100
AcDbLine
 10
0.4406127929700006
 20
-9.169414520263
 30
0.0
 11
0.4406127929700006
 21
-8.812801361083998
 31
0.0
  0
LINE
  5
C4A
330
C31
100
AcDbEntity
  8
PV0001_1
  6
CONTINUOUS
 48
0.5
100
AcDbLine
 10
-0.4406127929700006
 20
9.169418334961001
 30
0.0
 11
-0.4406127929700006
 21
8.812805175781001
 31
0.0
  0
ENDBLK
  5
C4C
330
C31
100
AcDbEntity
  8
0
100
AcDbBlockEnd
  0
BLOCK
  5
245D
330
2453
100
AcDbEntity
  8
0
100
AcDbBlockBegin
  2
*D6
 70
     1
 10
0.0
 20
0.0
 30
0.0
  3
*D6
  1

  0
LINE
  5
2454
330
2453
100
AcDbEntity
  8
AM_5
 62
     3
100
AcDbLine
 10
-137.574381722344
 20
-5.00000294019065
 30
0.0
 11
-152.8199008769066
 21
-5.000002940190694
 31
0.0
  0
LINE
  5
2455
330
2453
100
AcDbEntity
  8
AM_5
 62
     3
100
AcDbLine
 10
-137.5743817223442
 20
5.00002461040103
 30
0.0
 11
-152.8199008769066
 21
5.000024610400987
 31
0.0
  0
LINE
  5
2456
330
2453
100
AcDbEntity
  8
AM_5
 62
     3
100
AcDbLine
 10
-151.8199008769066
 20
-2.500002940190691
 30
0.0
 11
-151.8199008769066
 21
2.50002461040099
 31
0.0
  0
INSERT
  5
2457
330
2453
100
AcDbEntity
  8
AM_5
 62
     3
100
AcDbBlockReference
  2
_OPEN30
 10
-151.8199008769066
 20
-5.00000294019069
 30
0.0
 41
2.5
 42
2.5
 43
2.5
 50
270.0000000000001
  0
INSERT
  5
2458
330
2453
100
AcDbEntity
  8
AM_5
 62
     3
100
AcDbBlockReference
  2
_OPEN30
 10
-151.8199008769066
 20
5.00002461040099
 30
0.0
 41
2.5
 42
2.5
 43
2.5
 50
90.00000000000015
  0
MTEXT
  5
2459
330
2453
100
AcDbEntity
  8
AM_5
 62
     2
100
AcDbMText
 10
-155.2199008769066
 20
0.000010835105146
 30
0.0
 40
3.799999999999999
 41
0.0
 71
     5
 72
     1
  1
%%c10
 11
-0.0000000000000028
 21
1.0
 31
0.0
1001
ACAD
1000
MTEXTBEGIN
1070
    73
1070
     1
1070
    44
1040
1.0
1070
    74
1070
     0
1000
MTEXTEND
  0
POINT
  5
245A
330
2453
100
AcDbEntity
  8
DEFPOINTS
 62
     0
100
AcDbPoint
 10
-137.5743817223441
 20
-5.000002940190223
 30
0.0
  0
POINT
  5
245B
330
2453
100
AcDbEntity
  8
DEFPOINTS
 62
     0
100
AcDbPoint
 10
-137.5743817223441
 20
5.000024610401458
 30
0.0
  0
POINT
  5
245C
330
2453
100
AcDbEntity
  8
DEFPOINTS
 62
     0
100
AcDbPoint
 10
-151.8199008769066
 20
5.000024610401462
 30
0.0
  0
ENDBLK
  5
245E
330
2453
100
AcDbEntity
  8
0
100
AcDbBlockEnd
  0
BLOCK
  5
246B
330
245F
100
AcDbEntity
  8
0
100
AcDbBlockBegin
  2
A$C4FFC6CC0
 70
     0
 10
0.0
 20
0.0
 30
0.0
  3
A$C4FFC6CC0
  1

  0
DIMENSION
  5
2460
330
245F
100
AcDbEntity
  8
AM_5
100
AcDbDimension
  2
*D6
 10
-70.00000100000002
 20
5.000008477104842
 30
0.0
 11
-70.00000100000002
 21
-0.0000052981910228
 31
0.0
 12
81.81989987690661
 22
-0.0000161332966199
 32
0.0
 70
   128
  1
%%c<>
 51
359.9999999999998
  3
AM_JIS$0
100
AcDbAlignedDimension
 13
-55.75448184543748
 23
-5.000019073486843
 33
0.0
 14
-55.75448184543756
 24
5.000008477104838
 34
0.0
 50
270.0
100
AcDbRotatedDimension
1001
ACAD
1000
DSTYLE
1002
{
1070
   271
1070
     0
1002
}
1001
GENIUS_GENDTOL_13
1000

1000
h7
1000

1040
0.0
  0
LINE
  5
2461
330
245F
100
AcDbEntity
  8
AM_0
 48
0.5
100
AcDbLine
 10
-56.0
 20
-4.754495620727796
 30
0.0
 11
-56.00000000000003
 21
4.754485024345811
 31
0.0
  0
LINE
  5
2462
330
245F
100
AcDbEntity
  8
AM_0
 48
0.5
100
AcDbLine
 10
-55.75448184543751
 20
-5.000019073486843
 30
0.0
 11
-55.75448184543754
 21
5.000008477104838
 31
0.0
  0
LINE
  5
2463
330
245F
100
AcDbEntity
  8
AM_0
100
AcDbLine
 10
-0.0000000000000142
 20
4.999995231627903
 30
0.0
 11
-55.75448184543754
 21
4.999995231627746
 31
0.0
  0
LINE
  5
2464
330
245F
100
AcDbEntity
  8
AM_0
 48
0.5
100
AcDbLine
 10
-55.99996821086117
 20
4.754439989725671
 30
0.0
 11
-55.75443945990975
 21
4.999963442484006
 31
0.0
  0
LINE
  5
2465
330
245F
100
AcDbEntity
  8
AM_0
100
AcDbLine
 10
-55.75448184543751
 20
-5.000008477105588
 30
0.0
 11
0.0000000000000142
 21
-5.00000847710543
 31
0.0
  0
LINE
  5
2466
330
245F
100
AcDbEntity
  8
AM_0
 48
0.5
100
AcDbLine
 10
-55.99996821086114
 20
-4.754474427965309
 30
0.0
 11
-55.75443945990972
 21
-4.999997880724334
 31
0.0
  0
LINE
  5
2467
330
245F
100
AcDbEntity
  8
AM_0
100
AcDbLine
 10
0.7794201296714505
 20
4.549985867772141
 30
0.0
 11
0.7794201296714789
 21
-4.550003370497427
 31
0.0
  0
LINE
  5
2468
330
245F
100
AcDbEntity
  8
AM_0
 48
0.5
100
AcDbLine
 10
0.0000000000000142
 20
-5.00000847710543
 30
0.0
 11
-0.0000000000000142
 21
5.000008477104995
 31
0.0
  0
LINE
  5
2469
330
245F
100
AcDbEntity
  8
AM_0
 48
0.5
100
AcDbLine
 10
0.7794201296714647
 20
-4.550003370497435
 30
0.0
 11
-0.0000105963812445
 21
-5.00000847710543
 31
0.0
  0
LINE
  5
246A
330
245F
100
AcDbEntity
  8
AM_0
 48
0.5
100
AcDbLine
 10
0.7794201296714647
 20
4.549985867772141
 30
0.0
 11
-0.0000000000000142
 21
4.999984635246652
 31
0.0
  0
ENDBLK
  5
246C
330
245F
100
AcDbEntity
  8
0
100
AcDbBlockEnd
  0
BLOCK
  5
36C9
330
36BB
100
AcDbEntity
  8
0
100
AcDbBlockBegin
  2
*D8
 70
     1
 10
0.0
 20
0.0
 30
0.0
  3
*D8
  1

  0
LINE
  5
4344
330
36BB
100
AcDbEntity
  8
AM_5
100
AcDbLine
 10
0.3420201408161512
 20
-0.9396926216994554
 30
0.0
 11
9.350682794821089
 21
-25.69079004872987
 31
0.0
  0
LINE
  5
4345
330
36BB
100
AcDbEntity
  8
AM_5
100
AcDbLine
 10
0.3420201408161402
 20
0.9396926216991644
 30
0.0
 11
9.350682794820791
 21
25.69079004872969
 31
0.0
  0
ARC
  5
4346
330
36BB
100
AcDbEntity
  8
AM_5
100
AcDbCircle
 10
0.0000000000000272
 20
-0.0000000000001474
 30
0.0
 40
26.33956770062894
100
AcDbArc
 50
295.4402284706612
 51
64.5597715293395
  0
INSERT
  5
4347
330
36BB
100
AcDbEntity
  8
AM_5
100
AcDbBlockReference
  2
_OPEN30
 10
9.008662654004965
 20
-24.75109742703057
 30
0.0
 41
2.5
 42
2.5
 43
2.5
 50
202.7201141588234
  0
INSERT
  5
4348
330
36BB
100
AcDbEntity
  8
AM_5
100
AcDbBlockReference
  2
_OPEN30
 10
9.008662654004679
 20
24.75109742703038
 30
0.0
 41
2.5
 42
2.5
 43
2.5
 50
157.2798858411772
  0
MTEXT
  5
4349
330
36BB
100
AcDbEntity
  8
AM_5
 62
     2
100
AcDbMText
 10
23.23956770062896
 20
0.0000000000000077
 30
0.0
 40
3.2
 41
0.0
 71
     5
 72
     1
  1
140°
  7
ASAMI
 11
-0.0000000000000028
 21
1.0
 31
0.0
1001
ACAD
1000
MTEXTBEGIN
1070
    73
1070
     1
1070
    44
1040
1.0
1070
    74
1070
     0
1000
MTEXTEND
  0
POINT
  5
434A
330
36BB
100
AcDbEntity
  8
DEFPOINTS
 62
     0
100
AcDbPoint
 10
24.18541530169386
 20
-10.43256983396765
 30
0.0
  0
POINT
  5
434B
330
36BB
100
AcDbEntity
  8
DEFPOINTS
 62
     0
100
AcDbPoint
 10
0.0
 20
-0.0000000000002222
 30
0.0
  0
POINT
  5
434C
330
36BB
100
AcDbEntity
  8
DEFPOINTS
 62
     0
100
AcDbPoint
 10
0.0
 20
-0.0000000000000725
 30
0.0
  0
POINT
  5
434D
330
36BB
100
AcDbEntity
  8
DEFPOINTS
 62
     0
100
AcDbPoint
 10
-2.635646502095813
 20
7.241379310344597
 30
0.0
  0
POINT
  5
434E
330
36BB
100
AcDbEntity
  8
DEFPOINTS
 62
     0
100
AcDbPoint
 10
-2.635646502095776
 20
-7.241379310344909
 30
0.0
  0
ENDBLK
  5
36CA
330
36BB
100
AcDbEntity
  8
0
100
AcDbBlockEnd
  0
BLOCK
  5
3B18
330
3B0E
100
AcDbEntity
  8
0
100
AcDbBlockBegin
  2
*D9
 70
     1
 10
0.0
 20
0.0
 30
0.0
  3
*D9
  1

  0
LINE
  5
4742
330
3B0E
100
AcDbEntity
  8
AM_5
 62
     3
100
AcDbLine
 10
-2.911761849934439
 20
8.799999999999867
 30
0.0
 11
-2.911761849934487
 21
25.67627078198594
 31
0.0
  0
LINE
  5
4743
330
3B0E
100
AcDbEntity
  8
AM_5
 62
     3
100
AcDbLine
 10
-93.9117618499344
 20
8.800000000000537
 30
0.0
 11
-93.91176184993446
 21
25.67627078198567
 31
0.0
  0
LINE
  5
4744
330
3B0E
100
AcDbEntity
  8
AM_5
 62
     3
100
AcDbLine
 10
-5.411761849934484
 20
24.67627078198593
 30
0.0
 11
-91.41176184993446
 21
24.67627078198567
 31
0.0
  0
INSERT
  5
4745
330
3B0E
100
AcDbEntity
  8
AM_5
 62
     3
100
AcDbBlockReference
  2
_OPEN30
 10
-2.911761849934484
 20
24.67627078198594
 30
0.0
 41
2.5
 42
2.5
 43
2.5
 50
0.0000000000001527
  0
INSERT
  5
4746
330
3B0E
100
AcDbEntity
  8
AM_5
 62
     3
100
AcDbBlockReference
  2
_OPEN30
 10
-93.91176184993446
 20
24.67627078198567
 30
0.0
 41
2.5
 42
2.5
 43
2.5
 50
180.0000000000001
  0
MTEXT
  5
4747
330
3B0E
100
AcDbEntity
  8
AM_5
 62
     2
100
AcDbMText
 10
-48.41176184993447
 20
28.0762707819858
 30
0.0
 40
3.799999999999999
 41
0.0
 71
     5
 72
     1
  1
91
1001
ACAD
1000
MTEXTBEGIN
1070
    73
1070
     1
1070
    44
1040
1.0
1070
    74
1070
     0
1000
MTEXTEND
  0
POINT
  5
4748
330
3B0E
100
AcDbEntity
  8
DEFPOINTS
 62
     0
100
AcDbPoint
 10
-2.911761849934413
 20
7.999999999999876
 30
0.0
  0
POINT
  5
4749
330
3B0E
100
AcDbEntity
  8
DEFPOINTS
 62
     0
100
AcDbPoint
 10
-93.91176184993438
 20
8.00000000000081
 30
0.0
  0
POINT
  5
474A
330
3B0E
100
AcDbEntity
  8
DEFPOINTS
 62
     0
100
AcDbPoint
 10
-93.91176184993438
 20
24.67627078198594
 30
0.0
  0
ENDBLK
  5
3B19
330
3B0E
100
AcDbEntity
  8
0
100
AcDbBlockEnd
  0
BLOCK
  5
3BC3
330
3BB9
100
AcDbEntity
  8
0
100
AcDbBlockBegin
  2
*D10
 70
     1
 10
0.0
 20
0.0
 30
0.0
  3
*D10
  1

  0
LINE
  5
4641
330
3BB9
100
AcDbEntity
  8
AM_5
 62
     3
100
AcDbLine
 10
-2.911771503046585
 20
-8.274972191323849
 30
0.0
 11
-2.911771503046507
 21
-36.06377102797422
 31
0.0
  0
LINE
  5
4642
330
3BB9
100
AcDbEntity
  8
AM_5
 62
     3
100
AcDbLine
 10
-117.9117618499342
 20
-10.80000686645606
 30
0.0
 11
-117.9117618499342
 21
-36.06377102797455
 31
0.0
  0
LINE
  5
4643
330
3BB9
100
AcDbEntity
  8
AM_5
 62
     3
100
AcDbLine
 10
-5.41177150304651
 20
-35.06377102797422
 30
0.0
 11
-115.4117618499342
 21
-35.06377102797454
 31
0.0
  0
INSERT
  5
4644
330
3BB9
100
AcDbEntity
  8
AM_5
 62
     3
100
AcDbBlockReference
  2
_OPEN30
 10
-2.911771503046509
 20
-35.06377102797422
 30
0.0
 41
2.5
 42
2.5
 43
2.5
 50
0.0000000000001527
  0
INSERT
  5
4645
330
3BB9
100
AcDbEntity
  8
AM_5
 62
     3
100
AcDbBlockReference
  2
_OPEN30
 10
-117.9117618499342
 20
-35.06377102797455
 30
0.0
 41
2.5
 42
2.5
 43
2.5
 50
180.0000000000001
  0
MTEXT
  5
4646
330
3BB9
100
AcDbEntity
  8
AM_5
 62
     2
100
AcDbMText
 10
-60.41176667649036
 20
-31.66377102797438
 30
0.0
 40
3.799999999999999
 41
0.0
 71
     5
 72
     1
  1
115
1001
ACAD
1000
MTEXTBEGIN
1070
    73
1070
     1
1070
    44
1040
1.0
1070
    74
1070
     0
1000
MTEXTEND
  0
POINT
  5
4647
330
3BB9
100
AcDbEntity
  8
DEFPOINTS
 62
     0
100
AcDbPoint
 10
-2.91177150304661
 20
-7.474972191323839
 30
0.0
  0
POINT
  5
4648
330
3BB9
100
AcDbEntity
  8
DEFPOINTS
 62
     0
100
AcDbPoint
 10
-117.9117618499343
 20
-10.00000686645571
 30
0.0
  0
POINT
  5
4649
330
3BB9
100
AcDbEntity
  8
DEFPOINTS
 62
     0
100
AcDbPoint
 10
-117.9117618499343
 20
-35.06377102797421
 30
0.0
  0
ENDBLK
  5
3BC4
330
3BB9
100
AcDbEntity
  8
0
100
AcDbBlockEnd
  0
BLOCK
  5
3CD6
330
3CCC
100
AcDbEntity
  8
0
100
AcDbBlockBegin
  2
*D11
 70
     1
 10
0.0
 20
0.0
 30
0.0
  3
*D11
  1

  0
LINE
  5
4638
330
3CCC
100
AcDbEntity
  8
AM_5
 62
     3
100
AcDbLine
 10
-2.911761849934348
 20
-8.274972191323769
 30
0.0
 11
-2.911761849934237
 21
-47.04100792062191
 31
0.0
  0
LINE
  5
4639
330
3CCC
100
AcDbEntity
  8
AM_5
 62
     3
100
AcDbLine
 10
-167.9117618499342
 20
-10.26969909668033
 30
0.0
 11
-167.9117618499341
 21
-47.04100792062239
 31
0.0
  0
LINE
  5
463A
330
3CCC
100
AcDbEntity
  8
AM_5
 62
     3
100
AcDbLine
 10
-5.411761849934239
 20
-46.04100792062191
 30
0.0
 11
-165.4117618499341
 21
-46.04100792062238
 31
0.0
  0
INSERT
  5
463B
330
3CCC
100
AcDbEntity
  8
AM_5
 62
     3
100
AcDbBlockReference
  2
_OPEN30
 10
-2.91176184993424
 20
-46.0410079206219
 30
0.0
 41
2.5
 42
2.5
 43
2.5
 50
0.0000000000001527
  0
INSERT
  5
463C
330
3CCC
100
AcDbEntity
  8
AM_5
 62
     3
100
AcDbBlockReference
  2
_OPEN30
 10
-167.9117618499341
 20
-46.04100792062239
 30
0.0
 41
2.5
 42
2.5
 43
2.5
 50
180.0000000000001
  0
MTEXT
  5
463D
330
3CCC
100
AcDbEntity
  8
AM_5
 62
     2
100
AcDbMText
 10
-85.41176184993419
 20
-42.64100792062214
 30
0.0
 40
3.799999999999999
 41
0.0
 71
     5
 72
     1
  1
165
1001
ACAD
1000
MTEXTBEGIN
1070
    73
1070
     1
1070
    44
1040
1.0
1070
    74
1070
     0
1000
MTEXTEND
  0
POINT
  5
463E
330
3CCC
100
AcDbEntity
  8
DEFPOINTS
 62
     0
100
AcDbPoint
 10
-2.911761849934372
 20
-7.47497219132376
 30
0.0
  0
POINT
  5
463F
330
3CCC
100
AcDbEntity
  8
DEFPOINTS
 62
     0
100
AcDbPoint
 10
-167.9117618499342
 20
-9.469699096679844
 30
0.0
  0
POINT
  5
4640
330
3CCC
100
AcDbEntity
  8
DEFPOINTS
 62
     0
100
AcDbPoint
 10
-167.9117618499342
 20
-46.04100792062189
 30
0.0
  0
ENDBLK
  5
3CD7
330
3CCC
100
AcDbEntity
  8
0
100
AcDbBlockEnd
  0
BLOCK
  5
43BF
330
43B5
100
AcDbEntity
  8
0
100
AcDbBlockBegin
  2
*D12
 70
     1
 10
0.0
 20
0.0
 30
0.0
  3
*D12
  1

  0
LINE
  5
4612
330
43B5
100
AcDbEntity
  8
AM_5
 62
     3
100
AcDbLine
 10
-168.1814426360793
 20
10.00002975463851
 30
0.0
 11
-182.4874332366582
 21
10.00002975463852
 31
0.0
  0
LINE
  5
4613
330
43B5
100
AcDbEntity
  8
AM_5
 62
     3
100
AcDbLine
 10
-168.1814426360792
 20
-9.999892427507957
 30
0.0
 11
-182.4874332366582
 21
-9.999892427507951
 31
0.0
  0
LINE
  5
4614
330
43B5
100
AcDbEntity
  8
AM_5
 62
     3
100
AcDbLine
 10
-181.4874332366582
 20
7.500029754638522
 30
0.0
 11
-181.4874332366582
 21
-7.499892427507954
 31
0.0
  0
INSERT
  5
4615
330
43B5
100
AcDbEntity
  8
AM_5
 62
     3
100
AcDbBlockReference
  2
_OPEN30
 10
-181.4874332366582
 20
10.00002975463852
 30
0.0
 41
2.5
 42
2.5
 43
2.5
 50
90.0
  0
INSERT
  5
4616
330
43B5
100
AcDbEntity
  8
AM_5
 62
     3
100
AcDbBlockReference
  2
_OPEN30
 10
-181.4874332366582
 20
-9.999892427507953
 30
0.0
 41
2.5
 42
2.5
 43
2.5
 50
270.0
  0
MTEXT
  5
4617
330
43B5
100
AcDbEntity
  8
AM_5
 62
     2
100
AcDbMText
 10
-184.8874332366582
 20
0.0000686635652558
 30
0.0
 40
3.799999999999999
 41
0.0
 71
     5
 72
     1
  1
%%C20
 11
0.0000000000000001
 21
1.0
 31
0.0
1001
ACAD
1000
MTEXTBEGIN
1070
    73
1070
     1
1070
    44
1040
1.0
1070
    74
1070
     0
1000
MTEXTEND
  0
POINT
  5
4618
330
43B5
100
AcDbEntity
  8
DEFPOINTS
 62
     0
100
AcDbPoint
 10
-167.3814426360793
 20
10.00002975463851
 30
0.0
  0
POINT
  5
4619
330
43B5
100
AcDbEntity
  8
DEFPOINTS
 62
     0
100
AcDbPoint
 10
-167.3814426360792
 20
-9.999892427507957
 30
0.0
  0
POINT
  5
461A
330
43B5
100
AcDbEntity
  8
DEFPOINTS
 62
     0
100
AcDbPoint
 10
-181.4874332366582
 20
-9.999892427507953
 30
0.0
  0
ENDBLK
  5
43C0
330
43B5
100
AcDbEntity
  8
0
100
AcDbBlockEnd
  0
BLOCK
  5
43CB
330
43C1
100
AcDbEntity
  8
0
100
AcDbBlockBegin
  2
*D13
 70
     1
 10
0.0
 20
0.0
 30
0.0
  3
*D13
  1

  0
LINE
  5
461B
330
43C1
100
AcDbEntity
  8
AM_5
 62
     3
100
AcDbLine
 10
-161.9117618499343
 20
-0.8000000000003685
 30
0.0
 11
-161.9117618499343
 21
-24.95356967775134
 31
0.0
  0
LINE
  5
461C
330
43C1
100
AcDbEntity
  8
AM_5
 62
     3
100
AcDbLine
 10
-121.9117618499343
 20
-0.8000000000001412
 30
0.0
 11
-121.9117618499343
 21
-24.95356967775134
 31
0.0
  0
LINE
  5
461D
330
43C1
100
AcDbEntity
  8
AM_5
 62
     3
100
AcDbLine
 10
-159.4117618499343
 20
-23.95356967775134
 30
0.0
 11
-124.4117618499343
 21
-23.95356967775134
 31
0.0
  0
INSERT
  5
461E
330
43C1
100
AcDbEntity
  8
AM_5
 62
     3
100
AcDbBlockReference
  2
_OPEN30
 10
-161.9117618499343
 20
-23.95356967775134
 30
0.0
 41
2.5
 42
2.5
 43
2.5
 50
180.0
  0
INSERT
  5
461F
330
43C1
100
AcDbEntity
  8
AM_5
 62
     3
100
AcDbBlockReference
  2
_OPEN30
 10
-121.9117618499343
 20
-23.95356967775134
 30
0.0
 41
2.5
 42
2.5
 43
2.5
  0
MTEXT
  5
4620
330
43C1
100
AcDbEntity
  8
AM_5
 62
     2
100
AcDbMText
 10
-141.9117618499343
 20
-20.55356967775134
 30
0.0
 40
3.799999999999999
 41
0.0
 71
     5
 72
     1
  1
40
1001
ACAD
1000
MTEXTBEGIN
1070
    73
1070
     1
1070
    44
1040
1.0
1070
    74
1070
     0
1000
MTEXTEND
  0
POINT
  5
4621
330
43C1
100
AcDbEntity
  8
DEFPOINTS
 62
     0
100
AcDbPoint
 10
-161.9117618499343
 20
-0.0000000000003685
 30
0.0
  0
POINT
  5
4622
330
43C1
100
AcDbEntity
  8
DEFPOINTS
 62
     0
100
AcDbPoint
 10
-121.9117618499343
 20
-0.0000000000001412
 30
0.0
  0
POINT
  5
4623
330
43C1
100
AcDbEntity
  8
DEFPOINTS
 62
     0
100
AcDbPoint
 10
-121.9117618499343
 20
-23.95356967775134
 30
0.0
  0
ENDBLK
  5
43CC
330
43C1
100
AcDbEntity
  8
0
100
AcDbBlockEnd
  0
BLOCK
  5
43D9
330
43CD
100
AcDbEntity
  8
0
100
AcDbBlockBegin
  2
*D14
 70
     1
 10
0.0
 20
0.0
 30
0.0
  3
*D14
  1

  0
LINE
  5
4624
330
43CD
100
AcDbEntity
  8
AM_5
 62
     3
100
AcDbLine
 10
-167.9117618499343
 20
-0.8000000000003828
 30
0.0
 11
-167.9117618499343
 21
-24.95356967775174
 31
0.0
  0
LINE
  5
4625
330
43CD
100
AcDbEntity
  8
AM_5
 62
     3
100
AcDbLine
 10
-161.9117618499343
 20
-0.8000000000003401
 30
0.0
 11
-161.9117618499343
 21
-24.95356967775174
 31
0.0
  0
LINE
  5
4626
330
43CD
100
AcDbEntity
  8
AM_5
 62
     3
100
AcDbLine
 10
-170.4117618499343
 20
-23.95356967775174
 30
0.0
 11
-172.9117618499343
 21
-23.95356967775174
 31
0.0
  0
LINE
  5
4627
330
43CD
100
AcDbEntity
  8
AM_5
 62
     3
100
AcDbLine
 10
-159.4117618499343
 20
-23.95356967775174
 30
0.0
 11
-156.9117618499343
 21
-23.95356967775174
 31
0.0
  0
LINE
  5
4628
330
43CD
100
AcDbEntity
  8
AM_5
 62
     3
100
AcDbLine
 10
-167.9117618499343
 20
-23.95356967775174
 30
0.0
 11
-161.9117618499343
 21
-23.95356967775174
 31
0.0
  0
INSERT
  5
4629
330
43CD
100
AcDbEntity
  8
AM_5
 62
     3
100
AcDbBlockReference
  2
_OPEN30
 10
-167.9117618499343
 20
-23.95356967775174
 30
0.0
 41
2.5
 42
2.5
 43
2.5
  0
INSERT
  5
462A
330
43CD
100
AcDbEntity
  8
AM_5
 62
     3
100
AcDbBlockReference
  2
_OPEN30
 10
-161.9117618499343
 20
-23.95356967775174
 30
0.0
 41
2.5
 42
2.5
 43
2.5
 50
180.0
  0
MTEXT
  5
462B
330
43CD
100
AcDbEntity
  8
AM_5
 62
     2
100
AcDbMText
 10
-164.9117618499343
 20
-20.55356967775174
 30
0.0
 40
3.799999999999999
 41
0.0
 71
     5
 72
     1
  1
6
1001
ACAD
1000
MTEXTBEGIN
1070
    73
1070
     1
1070
    44
1040
1.0
1070
    74
1070
     0
1000
MTEXTEND
  0
POINT
  5
462C
330
43CD
100
AcDbEntity
  8
DEFPOINTS
 62
     0
100
AcDbPoint
 10
-167.9117618499343
 20
-0.0000000000003828
 30
0.0
  0
POINT
  5
462D
330
43CD
100
AcDbEntity
  8
DEFPOINTS
 62
     0
100
AcDbPoint
 10
-161.9117618499343
 20
-0.0000000000003401
 30
0.0
  0
POINT
  5
462E
330
43CD
100
AcDbEntity
  8
DEFPOINTS
 62
     0
100
AcDbPoint
 10
-161.9117618499343
 20
-23.95356967775174
 30
0.0
  0
ENDBLK
  5
43DA
330
43CD
100
AcDbEntity
  8
0
100
AcDbBlockEnd
  0
BLOCK
  5
43E5
330
43DB
100
AcDbEntity
  8
0
100
AcDbBlockBegin
  2
*D15
 70
     1
 10
0.0
 20
0.0
 30
0.0
  3
*D15
  1

  0
LINE
  5
464A
330
43DB
100
AcDbEntity
  8
AM_5
 62
     3
100
AcDbLine
 10
-117.9117618499343
 20
-10.80000686645572
 30
0.0
 11
-117.9117618499343
 21
-36.06377102797492
 31
0.0
  0
LINE
  5
464B
330
43DB
100
AcDbEntity
  8
AM_5
 62
     3
100
AcDbLine
 10
-167.9117618499342
 20
-10.26969909667984
 30
0.0
 11
-167.9117618499342
 21
-36.06377102797492
 31
0.0
  0
LINE
  5
464C
330
43DB
100
AcDbEntity
  8
AM_5
 62
     3
100
AcDbLine
 10
-120.4117618499343
 20
-35.06377102797492
 30
0.0
 11
-165.4117618499342
 21
-35.06377102797492
 31
0.0
  0
INSERT
  5
464D
330
43DB
100
AcDbEntity
  8
AM_5
 62
     3
100
AcDbBlockReference
  2
_OPEN30
 10
-117.9117618499343
 20
-35.06377102797492
 30
0.0
 41
2.5
 42
2.5
 43
2.5
  0
INSERT
  5
464E
330
43DB
100
AcDbEntity
  8
AM_5
 62
     3
100
AcDbBlockReference
  2
_OPEN30
 10
-167.9117618499342
 20
-35.06377102797492
 30
0.0
 41
2.5
 42
2.5
 43
2.5
 50
180.0
  0
MTEXT
  5
464F
330
43DB
100
AcDbEntity
  8
AM_5
 62
     2
100
AcDbMText
 10
-142.9117618499343
 20
-31.66377102797492
 30
0.0
 40
3.799999999999999
 41
0.0
 71
     5
 72
     1
  1
50
1001
ACAD
1000
MTEXTBEGIN
1070
    73
1070
     1
1070
    44
1040
1.0
1070
    74
1070
     0
1000
MTEXTEND
  0
POINT
  5
4650
330
43DB
100
AcDbEntity
  8
DEFPOINTS
 62
     0
100
AcDbPoint
 10
-117.9117618499343
 20
-10.00000686645571
 30
0.0
  0
POINT
  5
4651
330
43DB
100
AcDbEntity
  8
DEFPOINTS
 62
     0
100
AcDbPoint
 10
-167.9117618499342
 20
-9.469699096679844
 30
0.0
  0
POINT
  5
4652
330
43DB
100
AcDbEntity
  8
DEFPOINTS
 62
     0
100
AcDbPoint
 10
-167.9117618499342
 20
-35.06377102797492
 30
0.0
  0
ENDBLK
  5
43E6
330
43DB
100
AcDbEntity
  8
0
100
AcDbBlockEnd
  0
BLOCK
  5
4520
330
4516
100
AcDbEntity
  8
0
100
AcDbBlockBegin
  2
*D16
 70
     1
 10
0.0
 20
0.0
 30
0.0
  3
*D16
  1

  0
LINE
  5
45F5
330
4516
100
AcDbEntity
  8
AM_5
 62
     3
100
AcDbLine
 10
-2.01783404832373
 20
7.999999999999878
 30
0.0
 11
15.13955615839261
 21
7.999999999999927
 31
0.0
  0
LINE
  5
45F6
330
4516
100
AcDbEntity
  8
AM_5
 62
     3
100
AcDbLine
 10
-2.111761849934322
 20
-8.00000000000012
 30
0.0
 11
15.13955615839266
 21
-8.000000000000072
 31
0.0
  0
LINE
  5
45F7
330
4516
100
AcDbEntity
  8
AM_5
 62
     3
100
AcDbLine
 10
14.1395561583926
 20
10.49999999999992
 30
0.0
 11
14.1395561583926
 21
12.99999999999992
 31
0.0
  0
LINE
  5
45F8
330
4516
100
AcDbEntity
  8
AM_5
 62
     3
100
AcDbLine
 10
14.13955615839266
 20
-10.50000000000007
 30
0.0
 11
14.13955615839267
 21
-13.00000000000007
 31
0.0
  0
LINE
  5
45F9
330
4516
100
AcDbEntity
  8
AM_5
 62
     3
100
AcDbLine
 10
14.13955615839261
 20
7.999999999999924
 30
0.0
 11
14.13955615839266
 21
-8.000000000000076
 31
0.0
  0
INSERT
  5
45FA
330
4516
100
AcDbEntity
  8
AM_5
 62
     3
100
AcDbBlockReference
  2
_OPEN30
 10
14.13955615839261
 20
7.999999999999924
 30
0.0
 41
2.5
 42
2.5
 43
2.5
 50
270.0000000000001
  0
INSERT
  5
45FB
330
4516
100
AcDbEntity
  8
AM_5
 62
     3
100
AcDbBlockReference
  2
_OPEN30
 10
14.13955615839266
 20
-8.000000000000076
 30
0.0
 41
2.5
 42
2.5
 43
2.5
 50
90.00000000000015
  0
MTEXT
  5
45FC
330
4516
100
AcDbEntity
  8
AM_5
 62
     2
100
AcDbMText
 10
10.73955615839263
 20
-0.0000000000000447
 30
0.0
 40
3.799999999999999
 41
0.0
 71
     5
 72
     1
  1
%%C16
 11
-0.0000000000000028
 21
1.0
 31
0.0
1001
ACAD
1000
MTEXTBEGIN
1070
    73
1070
     1
1070
    44
1040
1.0
1070
    74
1070
     0
1000
MTEXTEND
  0
POINT
  5
45FD
330
4516
100
AcDbEntity
  8
DEFPOINTS
 62
     0
100
AcDbPoint
 10
-2.817834048323705
 20
7.999999999999885
 30
0.0
  0
POINT
  5
45FE
330
4516
100
AcDbEntity
  8
DEFPOINTS
 62
     0
100
AcDbPoint
 10
-2.911761849934347
 20
-8.000000000000115
 30
0.0
  0
POINT
  5
45FF
330
4516
100
AcDbEntity
  8
DEFPOINTS
 62
     0
100
AcDbPoint
 10
14.13955615839263
 20
-8.00000000000012
 30
0.0
  0
ENDBLK
  5
4521
330
4516
100
AcDbEntity
  8
0
100
AcDbBlockEnd
  0
BLOCK
  5
4725
330
471B
100
AcDbEntity
  8
0
100
AcDbBlockBegin
  2
*D17
 70
     1
 10
0.0
 20
0.0
 30
0.0
  3
*D17
  1

  0
LINE
  5
4739
330
471B
100
AcDbEntity
  8
AM_5
 62
     3
100
AcDbLine
 10
-2.911761849934496
 20
18.73247589965322
 30
0.0
 11
-2.911761849934546
 21
36.27861965663955
 31
0.0
  0
LINE
  5
473A
330
471B
100
AcDbEntity
  8
AM_5
 62
     3
100
AcDbLine
 10
-96.91176184993441
 20
9.050000143051448
 30
0.0
 11
-96.91176184993448
 21
36.27861965663928
 31
0.0
  0
LINE
  5
473B
330
471B
100
AcDbEntity
  8
AM_5
 62
     3
100
AcDbLine
 10
-5.411761849934544
 20
35.27861965663955
 30
0.0
 11
-94.41176184993448
 21
35.27861965663928
 31
0.0
  0
INSERT
  5
473C
330
471B
100
AcDbEntity
  8
AM_5
 62
     3
100
AcDbBlockReference
  2
_OPEN30
 10
-2.911761849934543
 20
35.27861965663955
 30
0.0
 41
2.5
 42
2.5
 43
2.5
 50
0.0000000000001527
  0
INSERT
  5
473D
330
471B
100
AcDbEntity
  8
AM_5
 62
     3
100
AcDbBlockReference
  2
_OPEN30
 10
-96.91176184993448
 20
35.27861965663928
 30
0.0
 41
2.5
 42
2.5
 43
2.5
 50
180.0000000000001
  0
MTEXT
  5
473E
330
471B
100
AcDbEntity
  8
AM_5
 62
     2
100
AcDbMText
 10
-49.91176184993452
 20
38.67861965663942
 30
0.0
 40
3.799999999999999
 41
0.0
 71
     5
 72
     1
  1
94
1001
ACAD
1000
MTEXTBEGIN
1070
    73
1070
     1
1070
    44
1040
1.0
1070
    74
1070
     0
1000
MTEXTEND
  0
POINT
  5
473F
330
471B
100
AcDbEntity
  8
DEFPOINTS
 62
     0
100
AcDbPoint
 10
-2.911761849934441
 20
17.93247589965322
 30
0.0
  0
POINT
  5
4740
330
471B
100
AcDbEntity
  8
DEFPOINTS
 62
     0
100
AcDbPoint
 10
-96.91176184993437
 20
8.25000014305173
 30
0.0
  0
POINT
  5
4741
330
471B
100
AcDbEntity
  8
DEFPOINTS
 62
     0
100
AcDbPoint
 10
-96.91176184993437
 20
35.27861965663956
 30
0.0
  0
ENDBLK
  5
4726
330
471B
100
AcDbEntity
  8
0
100
AcDbBlockEnd
  0
ENDSEC
  0
SECTION
  2
ENTITIES
  0
TEXT
  5
19BD
330
1F
100
AcDbEntity
  8
AM_6
100
AcDbText
 10
-105.768904707077
 20
-68.54100792062221
 30
0.0
 40
5.0
  1
KDS160LAK
 50
0.0000000000001527
 72
     4
 11
-85.41176184993414
 21
-66.04100792062215
 31
0.0
100
AcDbText
  0
LINE
  5
35D1
330
1F
100
AcDbEntity
  8
AM_7
100
AcDbLine
 10
4.909002595337891
 20
-0.0000000000001046
 30
0.0
 11
-173.1844622255253
 21
-0.0000000000005433
 31
0.0
  0
LINE
  5
35F4
330
1F
100
AcDbEntity
  8
PV0001_1
  6
CONTINUOUS
 48
0.5
100
AcDbLine
 10
-93.91176184993438
 20
8.00000000000081
 30
0.0
 11
-117.9117618499344
 21
10.00000114440817
 31
0.0
  0
LINE
  5
35F5
330
1F
100
AcDbEntity
  8
PV0001_1
  6
CONTINUOUS
 48
0.5
100
AcDbLine
 10
-93.93216725181602
 20
-8.0017004559942
 30
0.0
 11
-117.9117618499343
 21
-10.00000686645571
 31
0.0
  0
DIMENSION
  5
36BA
330
1F
100
AcDbEntity
  8
AM_5
100
AcDbDimension
  2
*D8
 10
-2.635646502095776
 20
-7.241379310344909
 30
0.0
 11
23.23956770062896
 21
-0.0000000000000636
 31
0.0
 70
    34
  1
<>
 51
359.9999999999998
  3
AM_JIS$2
100
AcDb2LineAngularDimension
 13
0.0
 23
-0.0000000000000725
 33
0.0
 14
-2.635646502095813
 24
7.241379310344597
 34
0.0
 15
0.0
 25
-0.0000000000002222
 35
0.0
 16
24.18541530169386
 26
-10.43256983396765
 36
0.0
1001
ACAD
1000
DSTYLE
1002
{
1070
   179
1070
     3
1002
}
1001
GENIUS_GENDTOL_13
1000

1000
h7
1000

1040
0.0
  0
DIMENSION
  5
3B0D
330
1F
100
AcDbEntity
  8
AM_5
100
AcDbDimension
  2
*D9
 10
-93.91176184993438
 20
24.67627078198594
 30
0.0
 11
-48.4117618499344
 21
28.07627078198594
 31
0.0
 70
    32
  1
<>
 51
359.9999999999998
  3
AM_JIS$0
100
AcDbAlignedDimension
 13
-2.911761849934413
 23
7.999999999999876
 33
0.0
 14
-93.91176184993438
 24
8.00000000000081
 34
0.0
 50
180.0000000000001
100
AcDbRotatedDimension
1001
ACAD
1000
DSTYLE
1002
{
1070
   271
1070
     3
1002
}
1001
GENIUS_GENDTOL_13
1000

1000
h7
1000

1040
0.0
  0
DIMENSION
  5
3BB8
330
1F
100
AcDbEntity
  8
AM_5
100
AcDbDimension
  2
*D10
 10
-117.9117618499343
 20
-35.06377102797421
 30
0.0
 11
-60.41176667649046
 21
-31.66377102797421
 31
0.0
 70
    32
  1
<>
 51
359.9999999999998
  3
AM_JIS$0
100
AcDbAlignedDimension
 13
-2.91177150304661
 23
-7.474972191323839
 33
0.0
 14
-117.9117618499343
 24
-10.00000686645571
 34
0.0
 50
0.0000000000001641
100
AcDbRotatedDimension
1001
ACAD
1000
DSTYLE
1002
{
1070
   271
1070
     3
1002
}
1001
GENIUS_GENDTOL_13
1000

1000
h7
1000

1040
0.0
  0
DIMENSION
  5
3CCB
330
1F
100
AcDbEntity
  8
AM_5
100
AcDbDimension
  2
*D11
 10
-167.9117618499342
 20
-46.04100792062189
 30
0.0
 11
-85.41176184993432
 21
-42.6410079206219
 31
0.0
 70
    32
  1
<>
 51
359.9999999999998
  3
AM_JIS$0
100
AcDbAlignedDimension
 13
-2.911761849934372
 23
-7.47497219132376
 33
0.0
 14
-167.9117618499342
 24
-9.469699096679844
 34
0.0
 50
0.0000000000002659
100
AcDbRotatedDimension
1001
ACAD
1000
DSTYLE
1002
{
1070
   271
1070
     3
1002
}
1001
GENIUS_GENDTOL_13
1000

1000
h7
1000

1040
0.0
  0
DIMENSION
  5
43A4
330
1F
100
AcDbEntity
  8
AM_5
100
AcDbDimension
  2
*D15
 10
-167.9117618499342
 20
-35.06377102797492
 30
0.0
 11
-142.9117618499343
 21
-31.66377102797492
 31
0.0
 70
    32
  1
<>
  3
AM_JIS$0
100
AcDbAlignedDimension
 13
-117.9117618499343
 23
-10.00000686645571
 33
0.0
 14
-167.9117618499342
 24
-9.469699096679844
 34
0.0
 50
0.0000000000008142
100
AcDbRotatedDimension
1001
ACAD
1000
DSTYLE
1002
{
1070
   271
1070
     3
1002
}
1001
GENIUS_GENDTOL_13
1000

1000
h7
1000

1040
0.0
  0
DIMENSION
  5
43A5
330
1F
100
AcDbEntity
  8
AM_5
100
AcDbDimension
  2
*D13
 10
-121.9117618499343
 20
-23.95356967775134
 30
0.0
 11
-141.9117618499343
 21
-20.55356967775134
 31
0.0
 70
    32
  1
<>
  3
AM_JIS$0
100
AcDbAlignedDimension
 13
-161.9117618499343
 23
-0.0000000000003685
 33
0.0
 14
-121.9117618499343
 24
-0.0000000000001412
 34
0.0
 50
0.0000000000008142
100
AcDbRotatedDimension
1001
ACAD
1000
DSTYLE
1002
{
1070
   271
1070
     3
1002
}
1001
GENIUS_GENDTOL_13
1000

1000
h7
1000

1040
0.0
  0
LINE
  5
43A6
330
1F
100
AcDbEntity
  8
PV0001_1
  6
CONTINUOUS
100
AcDbLine
 10
-167.3814426360792
 20
-10.00000686645596
 30
0.0
 11
-117.9117618499343
 21
-10.00000686645571
 31
0.0
  0
LINE
  5
43A7
330
1F
100
AcDbEntity
  8
PV0001_1
  6
CONTINUOUS
100
AcDbLine
 10
-117.9117618499344
 20
10.00000114440817
 30
0.0
 11
-167.3814426360793
 21
10.00000114440794
 31
0.0
  0
LINE
  5
43A8
330
1F
100
AcDbEntity
  8
AM_0
100
AcDbLine
 10
-125.711432888327
 20
3.79967103839249
 30
0.0
 11
-158.1120908115417
 21
3.799671038392319
 31
0.0
  0
LINE
  5
43A9
330
1F
100
AcDbEntity
  8
AM_0
100
AcDbLine
 10
-125.7114328883269
 20
-3.799671038392829
 30
0.0
 11
-158.1120908115416
 21
-3.799671038392999
 31
0.0
  0
LINE
  5
43AA
330
1F
100
AcDbEntity
  8
PV0001_1
  6
CONTINUOUS
 48
0.5
100
AcDbLine
 10
-167.9116931853943
 20
9.469601821899631
 30
0.0
 11
-167.3813510833393
 21
9.999932479857507
 31
0.0
  0
LINE
  5
43AB
330
1F
100
AcDbEntity
  8
PV0001_1
  6
CONTINUOUS
 48
0.5
100
AcDbLine
 10
-167.3814426360793
 20
-0.0000000000005249
 30
0.0
 11
-167.3814426360793
 21
10.00002975463851
 31
0.0
  0
DIMENSION
  5
43AC
330
1F
100
AcDbEntity
  8
AM_5
100
AcDbDimension
  2
*D12
 10
-181.4874332366582
 20
-9.999892427507953
 30
0.0
 11
-184.8874332366582
 21
0.0000686635652558
 31
0.0
 70
    32
  1
%%C<>
  3
AM_JIS$0
100
AcDbAlignedDimension
 13
-167.3814426360793
 23
10.00002975463851
 33
0.0
 14
-167.3814426360792
 24
-9.999892427507957
 34
0.0
 50
270.0
100
AcDbRotatedDimension
1001
ACAD
1000
DSTYLE
1002
{
1070
   271
1070
     3
1002
}
1001
GENIUS_GENDTOL_13
1000

1000
h7
1000

1040
0.0
  0
DIMENSION
  5
43AD
330
1F
100
AcDbEntity
  8
AM_5
100
AcDbDimension
  2
*D14
 10
-161.9117618499343
 20
-23.95356967775174
 30
0.0
 11
-164.9117618499343
 21
-23.95356967775174
 31
0.0
 70
   160
  1
<>
  3
AM_JIS$0
100
AcDbAlignedDimension
 13
-167.9117618499343
 23
-0.0000000000003828
 33
0.0
 14
-161.9117618499343
 24
-0.0000000000003401
 34
0.0
 50
0.0000000000008142
100
AcDbRotatedDimension
1001
ACAD
1000
DSTYLE
1002
{
1070
   271
1070
     3
1002
}
1001
GENIUS_GENDTOL_13
1000

1000
h7
1000

1040
0.0
  0
LINE
  5
43AE
330
1F
100
AcDbEntity
  8
PV0001_1
  6
CONTINUOUS
 48
0.5
100
AcDbLine
 10
-167.9117618499343
 20
-0.0000000000005249
 30
0.0
 11
-167.9117618499342
 21
-9.469699096679844
 31
0.0
  0
LINE
  5
43AF
330
1F
100
AcDbEntity
  8
PV0001_1
  6
CONTINUOUS
 48
0.5
100
AcDbLine
 10
-167.3814426360793
 20
-0.0000000000005249
 30
0.0
 11
-167.3814426360792
 21
-10.00002975463955
 31
0.0
  0
LINE
  5
43B0
330
1F
100
AcDbEntity
  8
PV0001_1
  6
CONTINUOUS
 48
0.5
100
AcDbLine
 10
-167.9116931853942
 20
-9.469653320313026
 30
0.0
 11
-167.3813510833392
 21
-9.999983978272366
 31
0.0
  0
LINE
  5
43B1
330
1F
100
AcDbEntity
  8
PV0001_1
  6
CONTINUOUS
 48
0.5
100
AcDbLine
 10
-167.9117618499343
 20
-0.0000000000005249
 30
0.0
 11
-167.9117618499344
 21
9.469699096679166
 31
0.0
  0
ARC
  5
43B2
330
1F
100
AcDbEntity
  8
AM_0
100
AcDbCircle
 10
-158.1120908115416
 20
-0.0000000000003259
 30
0.0
 40
3.799671038392649
100
AcDbArc
 50
90.0
 51
270.0
  0
LINE
  5
43B3
330
1F
100
AcDbEntity
  8
PV0001_1
  6
CONTINUOUS
100
AcDbLine
 10
-117.9117618499343
 20
-10.00000686645571
 30
0.0
 11
-117.9117618499344
 21
10.00000114440817
 31
0.0
  0
ARC
  5
43B4
330
1F
100
AcDbEntity
  8
AM_0
100
AcDbCircle
 10
-125.711432888327
 20
-0.0000000000001554
 30
0.0
 40
3.799671038392649
100
AcDbArc
 50
270.0
 51
90.0
  0
LINE
  5
44E2
330
1F
100
AcDbEntity
  8
PV0001_1
  6
CONTINUOUS
 48
0.5
100
AcDbLine
 10
-0.0000000000000284
 20
-0.0000000000002934
 30
0.0
 11
-2.91176184993458
 21
7.999999999999884
 31
0.0
  0
LINE
  5
44E3
330
1F
100
AcDbEntity
  8
PV0001_1
  6
CONTINUOUS
 48
0.5
100
AcDbLine
 10
-0.0000000000000284
 20
-0.0000000000004547
 30
0.0
 11
-2.911761849934347
 21
-8.000000000000115
 31
0.0
  0
DIMENSION
  5
4515
330
1F
100
AcDbEntity
  8
AM_5
100
AcDbDimension
  2
*D16
 10
14.13955615839263
 20
-8.00000000000012
 30
0.0
 11
14.13955615839263
 21
-0.0000000000000764
 31
0.0
 70
   160
  1
%%C<>
 51
359.9999999999998
  3
AM_JIS$0
100
AcDbAlignedDimension
 13
-2.817834048323705
 23
7.999999999999885
 33
0.0
 14
-2.911761849934347
 24
-8.000000000000115
 34
0.0
 50
89.99999999999962
100
AcDbRotatedDimension
1001
GENIUS_GENDTOL_13
1000

1000
h7
1000

1040
0.0
1001
ACAD
1000
DSTYLE
1002
{
1070
   271
1070
     3
1002
}
  0
LINE
  5
4522
330
1F
100
AcDbEntity
  8
PV0001_1
  6
CONTINUOUS
 48
0.5
100
AcDbLine
 10
-11.52196737902102
 20
7.999999999999941
 30
0.0
 11
-2.91176184993458
 21
7.999999999999884
 31
0.0
  0
LINE
  5
4523
330
1F
100
AcDbEntity
  8
PV0001_1
  6
CONTINUOUS
 48
0.5
100
AcDbLine
 10
-2.523527306859436
 20
6.93333435058524
 30
0.0
 11
-11.53609726045093
 21
6.933334350585296
 31
0.0
  0
ELLIPSE
  5
4524
330
1F
100
AcDbEntity
  8
AM_0
100
AcDbEllipse
 10
-4.33450261777898
 20
2.769938954587814
 30
0.0
 11
-3.386869155456515
 21
0.0467064553377561
 31
0.0
210
0.0
220
0.0
230
0.9999999999999998
 40
0.719759412360676
 41
0.8918496911335488
 42
3.072312397041439
  0
LINE
  5
4525
330
1F
100
AcDbEntity
  8
PV0001_1
  6
CONTINUOUS
 48
0.5
100
AcDbLine
 10
-9.210922243151873
 20
2.304155757967306
 30
0.0
 11
-6.487529294460314
 21
0.9021427164208715
 31
0.0
  0
LINE
  5
4527
330
1F
100
AcDbEntity
  8
AM_0
100
AcDbLine
 10
-2.114186100011479
 20
-1.97972388274266
 30
0.0
 11
-4.79410414488098
 21
-3.311582333098545
 31
0.0
  0
LINE
  5
4528
330
1F
100
AcDbEntity
  8
PV0001_1
  6
CONTINUOUS
 48
0.5
100
AcDbLine
 10
-12.51176184993441
 20
-8.000000000000053
 30
0.0
 11
-2.911761849934347
 21
-8.000000000000115
 31
0.0
  0
LINE
  5
4529
330
1F
100
AcDbEntity
  8
PV0001_1
  6
CONTINUOUS
 48
0.5
100
AcDbLine
 10
-12.5117618499344
 20
-6.909090909090977
 30
0.0
 11
-3.348326020580292
 21
-6.909090909091021
 31
0.0
  0
LINE
  5
452A
330
1F
100
AcDbEntity
  8
PV0001_1
  6
CONTINUOUS
 48
0.5
100
AcDbLine
 10
-2.114186100011479
 20
-1.97972388274266
 30
0.0
 11
-3.348326020580292
 21
-6.909090909091021
 31
0.0
  0
LINE
  5
452D
330
1F
100
AcDbEntity
  8
AM_0
100
AcDbLine
 10
-2.74918551003462
 20
0.5991418044530956
 30
0.0
 11
-2.114186100011479
 21
-1.97972388274266
 31
0.0
  0
LINE
  5
452E
330
1F
100
AcDbEntity
  8
PV0001_1
  6
CONTINUOUS
 48
0.5
100
AcDbLine
 10
-6.487529294460273
 20
0.9021427164207619
 30
0.0
 11
-3.348326020580292
 21
-6.909090909091021
 31
0.0
  0
LINE
  5
4534
330
1F
100
AcDbEntity
  8
PV0001_1
  6
CONTINUOUS
100
AcDbLine
 10
-93.91176184993438
 20
2.975706504728916
 30
0.0
 11
-93.91176184993438
 21
8.000000000001003
 31
0.0
  0
LINE
  5
4536
330
1F
100
AcDbEntity
  8
PV0001_1
  6
CONTINUOUS
100
AcDbLine
 10
-93.91176184993433
 20
-8.061772639100972
 30
0.0
 11
-93.91176184993437
 21
-6.451209423963069
 31
0.0
  0
LINE
  5
4539
330
1F
100
AcDbEntity
  8
AM_11
 48
0.5
100
AcDbLine
 10
-8.499149945398659
 20
-8.00000000000009
 30
0.0
 11
-83.72778738897695
 21
-7.999999999999631
 31
0.0
  0
LINE
  5
453A
330
1F
100
AcDbEntity
  8
AM_11
 48
0.5
100
AcDbLine
 10
-80.8766932677396
 20
8.000000000000333
 30
0.0
 11
-7.483488093135274
 21
7.999999999999914
 31
0.0
  0
LINE
  5
46A3
330
1F
100
AcDbEntity
  8
PV0001_1
  6
CONTINUOUS
 48
0.5
100
AcDbLine
 10
-93.91176184993438
 20
8.000000000001003
 30
0.0
 11
-80.87664212687329
 21
8.000000000000873
 31
0.0
  0
LINE
  5
46A4
330
1F
100
AcDbEntity
  8
AM_0
100
AcDbLine
 10
-93.93216725181602
 20
-7.999999999999167
 30
0.0
 11
-83.72779093258264
 21
-7.999999999999271
 31
0.0
  0
LINE
  5
46A5
330
1F
100
AcDbEntity
  8
AM_11
 48
0.5
100
AcDbLine
 10
-96.91176184993439
 20
-8.256730475617985
 30
0.0
 11
-96.91176184993437
 21
8.250000143051728
 31
0.0
  0
SPLINE
  5
46A6
330
1F
100
AcDbEntity
  8
PV0001_1
  6
CONTINUOUS
100
AcDbSpline
210
0.0
220
0.0
230
1.0
 70
     8
 71
     3
 72
    16
 73
    12
 74
     0
 42
0.0000000001
 43
0.0000000001
 40
2.625839846755727
 40
2.625839846755727
 40
2.625839846755727
 40
2.625839846755727
 40
3.082371838836284
 40
4.126290986361125
 40
5.162752068350215
 40
6.192395305374981
 40
7.216039564037012
 40
8.234688489606833
 40
9.249433870634691
 40
10.26152376260694
 40
11.27226744710342
 40
11.27226744710342
 40
11.27226744710342
 40
11.27226744710352
 10
-72.9649001797386
 20
-6.30814325961783
 30
0.0
 10
-73.14963405037627
 20
-6.363982571724797
 30
0.0
 10
-73.75788606867745
 20
-6.54351332839296
 30
0.0
 10
-74.79139629034982
 20
-6.827071946098102
 30
0.0
 10
-76.06777264794209
 20
-7.134409844863429
 30
0.0
 10
-77.34420748865355
 20
-7.397957426047371
 30
0.0
 10
-78.62078139465335
 20
-7.615797631817229
 30
0.0
 10
-79.89744349548101
 20
-7.786687344172401
 30
0.0
 10
-81.17418509151072
 20
-7.909519140596648
 30
0.0
 10
-82.45097472713592
 20
-7.983502338551687
 30
0.0
 10
-83.30237440947861
 20
-8.000000045775614
 30
0.0
 10
-83.72779093258262
 20
-7.999999999998921
 30
0.0
  0
SPLINE
  5
46AA
330
1F
100
AcDbEntity
  8
AM_0
100
AcDbSpline
210
0.0
220
0.0
230
1.0
 70
     8
 71
     3
 72
    12
 73
     8
 74
     0
 42
0.0000000001
 43
0.0000000001
 40
0.0
 40
0.0
 40
0.0
 40
0.0
 40
3.550288329958888
 40
5.110699985623471
 40
6.310592039948465
 40
8.859663010396623
 40
10.65155104271494
 40
10.65155104271494
 40
10.65155104271494
 40
10.65155104271494
 10
-109.3833095985223
 20
7.775394868617627
 30
0.0
 10
-110.7564810385653
 20
8.010227168053813
 30
0.0
 10
-112.7416504469581
 20
8.010227168053816
 30
0.0
 10
-114.9720329699547
 20
7.026807127730339
 30
0.0
 10
-116.3540971267425
 20
5.202107696411247
 30
0.0
 10
-115.2136731064271
 20
3.036608312117584
 30
0.0
 10
-113.8187149093527
 20
2.265963921853312
 30
0.0
 10
-113.2428953963536
 20
1.947852541578181
 30
0.0
  0
SPLINE
  5
46AB
330
1F
100
AcDbEntity
  8
PV0001_1
  6
CONTINUOUS
100
AcDbSpline
210
0.0
220
0.0
230
1.0
 70
     8
 71
     3
 72
    31
 73
    27
 74
     0
 42
0.0000000001
 43
0.0000000001
 40
0.0
 40
0.0
 40
0.0
 40
0.0
 40
1.010743684496582
 40
2.022833576467832
 40
3.037578957496688
 40
4.056212745003489
 40
5.079857003664532
 40
6.109500240690281
 40
7.145961322679372
 40
8.189895241603872
 40
9.241717795325891
 40
10.30168407291828
 40
11.36983447792315
 40
12.44600489715814
 40
13.52984294512926
 40
14.62081576220742
 40
15.7182257034828
 40
16.82123173843959
 40
17.92886860250316
 40
19.0400688939571
 40
20.15368796660465
 40
21.26852814259644
 40
22.38336992938901
 40
23.49698739941135
 40
24.6081876908653
 40
24.75415722335978
 40
24.75415722335978
 40
24.75415722335978
 40
24.75415722335978
 10
-83.72778738899379
 20
-7.999999999999112
 30
0.0
 10
-84.15320391771038
 20
-7.995240193810969
 30
0.0
 10
-85.00460358655999
 20
-7.985714241858417
 30
0.0
 10
-86.2813932492665
 20
-7.908924374897464
 30
0.0
 10
-87.5581284106364
 20
-7.786848546180785
 30
0.0
 10
-88.83478455463441
 20
-7.615754629341484
 30
0.0
 10
-90.1113489422419
 20
-7.397961274983017
 30
0.0
 10
-91.3877963896977
 20
-7.134436975445258
 30
0.0
 10
-92.66413116666196
 20
-6.826956924337785
 30
0.0
 10
-93.94034195462459
 20
-6.477403982375755
 30
0.0
 10
-95.21642006026421
 20
-6.087924383417275
 30
0.0
 10
-96.49237184412475
 20
-5.660962850644166
 30
0.0
 10
-97.76820072345955
 20
-5.199132417907372
 30
0.0
 10
-99.04392263872848
 20
-4.705308096964155
 30
0.0
 10
-100.3195434306618
 20
-4.182524544071061
 30
0.0
 10
-101.5950749277564
 20
-3.634005817103398
 30
0.0
 10
-102.8705312758297
 20
-3.063135838567568
 30
0.0
 10
-104.1459236689671
 20
-2.47342518873274
 30
0.0
 10
-105.4212644849974
 20
-1.868500817499183
 30
0.0
 10
-106.6965673706092
 20
-1.252085962502633
 30
0.0
 10
-107.9718435114228
 20
-0.6279700889478063
 30
0.0
 10
-109.2471109163126
 20
-0.0000016322894878
 30
0.0
 10
-110.5223725963188
 20
0.6279781281924118
 30
0.0
 10
-111.7976530115801
 20
1.252084282612343
 30
0.0
 10
-112.7049326250771
 20
1.690617764322802
 30
0.0
 10
-113.1869197067876
 20
1.921118034014035
 30
0.0
 10
-113.2428953963536
 20
1.947852541578181
 30
0.0
  0
SPLINE
  5
46AC
330
1F
100
AcDbEntity
  8
PV0001_1
  6
CONTINUOUS
100
AcDbSpline
210
0.0
220
0.0
230
1.0
 70
     8
 71
     3
 72
    44
 73
    40
 74
     0
 42
0.0000000001
 43
0.0000000001
 40
0.0
 40
0.0
 40
0.0
 40
0.0
 40
1.010743684496582
 40
2.022833576467832
 40
3.037578957496688
 40
4.056212745003489
 40
5.079857003664532
 40
6.109500240690281
 40
7.145961322679372
 40
8.189895241603872
 40
9.241717795325891
 40
10.30168407291828
 40
11.36983447792315
 40
12.44600489715814
 40
13.52984294512926
 40
14.62081576220742
 40
15.7182257034828
 40
16.82123173843959
 40
17.92886860250316
 40
19.0400688939571
 40
20.15368796660465
 40
21.26852814259644
 40
22.38336992938901
 40
23.49698739941135
 40
24.6081876908653
 40
25.71582455492886
 40
26.81883757994213
 40
27.91624752121713
 40
29.00722033829659
 40
30.09105838626677
 40
31.16722880550176
 40
32.23537921050758
 40
33.29534548809967
 40
34.347168041821
 40
35.39108718934584
 40
36.42754827133493
 40
37.45720575381954
 40
38.48085062012849
 40
39.47486609502677
 40
39.47486609502677
 40
39.47486609502677
 40
39.47486609502677
 10
-62.20345227925797
 20
-7.999999999999334
 30
0.0
 10
-62.62886880797453
 20
-7.99524019381119
 30
0.0
 10
-63.48026847682413
 20
-7.985714241858638
 30
0.0
 10
-64.75705813953067
 20
-7.908924374897689
 30
0.0
 10
-66.03379330090056
 20
-7.786848546181007
 30
0.0
 10
-67.31044944489856
 20
-7.615754629341705
 30
0.0
 10
-68.58701383250603
 20
-7.39796127498324
 30
0.0
 10
-69.86346127996185
 20
-7.134436975445482
 30
0.0
 10
-71.13979605692612
 20
-6.82695692433801
 30
0.0
 10
-72.41600684488874
 20
-6.477403982375976
 30
0.0
 10
-73.69208495052834
 20
-6.087924383417496
 30
0.0
 10
-74.96803673438887
 20
-5.660962850644388
 30
0.0
 10
-76.24386561372367
 20
-5.199132417907595
 30
0.0
 10
-77.51958752899259
 20
-4.705308096964376
 30
0.0
 10
-78.79520832092588
 20
-4.182524544071283
 30
0.0
 10
-80.07073981802056
 20
-3.63400581710362
 30
0.0
 10
-81.34619616609379
 20
-3.06313583856779
 30
0.0
 10
-82.62158855923127
 20
-2.473425188732962
 30
0.0
 10
-83.89692937526154
 20
-1.868500817499405
 30
0.0
 10
-85.17223226087336
 20
-1.252085962502855
 30
0.0
 10
-86.447508401687
 20
-0.627970088948028
 30
0.0
 10
-87.72277580657675
 20
-0.0000016322897097
 30
0.0
 10
-88.99803748658298
 20
0.6279781281921898
 30
0.0
 10
-90.27331790184428
 20
1.252084282612121
 30
0.0
 10
-91.54861921307759
 20
1.868501003461195
 30
0.0
 10
-92.82396230302646
 20
2.473427679186979
 30
0.0
 10
-94.09935998710325
 20
3.063133296327262
 30
0.0
 10
-95.37481834818359
 20
3.63400616996827
 30
0.0
 10
-96.65035002942264
 20
4.182524452143749
 30
0.0
 10
-97.92597077494011
 20
4.705308114976242
 30
0.0
 10
-99.20169269347567
 20
5.199132436642414
 30
0.0
 10
-100.4775216053068
 20
5.660962758948363
 30
0.0
 10
-101.7534732574752
 20
6.087924727688263
 30
0.0
 10
-103.0295458789999
 20
6.477400887546966
 30
0.0
 10
-104.3057487750728
 20
6.826958407780312
 30
0.0
 10
-105.5820830785831
 20
7.134444641925139
 30
0.0
 10
-106.8585396403015
 20
7.397938843329828
 30
0.0
 10
-108.1248779008079
 20
7.614053686176282
 30
0.0
 10
-108.9674315208325
 20
7.727208472529269
 30
0.0
 10
-109.3833095985223
 20
7.775394868617627
 30
0.0
  0
DIMENSION
  5
471A
330
1F
100
AcDbEntity
  8
AM_5
100
AcDbDimension
  2
*D17
 10
-96.91176184993437
 20
35.27861965663956
 30
0.0
 11
-49.91176184993441
 21
38.67861965663956
 31
0.0
 70
    32
  1
<>
 51
359.9999999999998
  3
AM_JIS$0
100
AcDbAlignedDimension
 13
-2.911761849934441
 23
17.93247589965322
 33
0.0
 14
-96.91176184993437
 24
8.25000014305173
 34
0.0
 50
180.0000000000002
100
AcDbRotatedDimension
1001
ACAD
1000
DSTYLE
1002
{
1070
   271
1070
     3
1002
}
1001
GENIUS_GENDTOL_13
1000

1000
h7
1000

1040
0.0
  0
SPLINE
  5
47B4
330
1F
100
AcDbEntity
  8
PV0001_1
  6
CONTINUOUS
100
AcDbSpline
210
0.0
220
0.0
230
1.0
 70
     8
 71
     3
 72
    25
 73
    21
 74
     0
 42
0.0000000001
 43
0.0000000001
 40
24.56499986022253
 40
24.56499986022253
 40
24.56499986022253
 40
24.56499986022253
 40
24.6081876908653
 40
25.71582455492886
 40
26.81883757994213
 40
27.91624752121713
 40
29.00722033829659
 40
30.09105838626677
 40
31.16722880550176
 40
32.23537921050758
 40
33.29534548809967
 40
34.347168041821
 40
35.39108718934584
 40
36.42754827133493
 40
37.45720575381954
 40
38.48085062012849
 40
39.49948440763516
 40
40.51422944315121
 40
41.52631975251916
 40
42.53706336680078
 40
42.53706336680078
 40
42.53706336680078
 40
42.53706336680078
 10
-9.210922243151873
 20
2.304155757967306
 30
0.0
 10
-9.22703740112707
 20
2.311735842382387
 30
0.0
 10
-9.656482380865584
 20
2.513658132330402
 30
0.0
 10
-10.49884690044139
 20
2.905730951795318
 30
0.0
 10
-11.74009667254462
 20
3.468374392329857
 30
0.0
 10
-12.9809922345846
 20
4.012188329962168
 30
0.0
 10
-14.22146859524808
 20
4.533651495380449
 30
0.0
 10
-15.46146685718988
 20
5.029384339859698
 30
0.0
 10
-16.70092802479028
 20
5.496162660177597
 30
0.0
 10
-17.93979121056496
 20
5.930952403845351
 30
0.0
 10
-19.17800859989321
 20
6.330879574346397
 30
0.0
 10
-20.41552113560113
 20
6.693327382142469
 30
0.0
 10
-21.65228447326024
 20
7.015863384150275
 30
0.0
 10
-22.88825253691152
 20
7.296335426798991
 30
0.0
 10
-24.12337442914343
 20
7.532823417686075
 30
0.0
 10
-25.35760434695033
 20
7.723686563830678
 30
0.0
 10
-26.59088977660701
 20
7.867589471750155
 30
0.0
 10
-27.82319843992301
 20
7.963428286275579
 30
0.0
 10
-29.0544881948292
 20
8.010466971729655
 30
0.0
 10
-29.87482818769846
 20
8.008977712265643
 30
0.0
 10
-30.28454462388369
 20
7.99999818317335
 30
0.0
  0
SPLINE
  5
47B5
330
1F
100
AcDbEntity
  8
PV0001_1
  6
CONTINUOUS
100
AcDbSpline
210
0.0
220
0.0
230
1.0
 70
     8
 71
     3
 72
    47
 73
    43
 74
     0
 42
0.0000000001
 43
0.0000000001
 40
0.0
 40
0.0
 40
0.0
 40
0.0
 40
1.010743684496582
 40
2.022833576467832
 40
3.037578957496688
 40
4.056212745003489
 40
5.079857003664532
 40
6.109500240690281
 40
7.145961322679372
 40
8.189895241603872
 40
9.241717795325891
 40
10.30168407291828
 40
11.36983447792315
 40
12.44600489715814
 40
13.52984294512926
 40
14.62081576220742
 40
15.7182257034828
 40
16.82123173843959
 40
17.92886860250316
 40
19.0400688939571
 40
20.15368796660465
 40
21.26852814259644
 40
22.38336992938901
 40
23.49698739941135
 40
24.6081876908653
 40
25.71582455492886
 40
26.81883757994213
 40
27.91624752121713
 40
29.00722033829659
 40
30.09105838626677
 40
31.16722880550176
 40
32.23537921050758
 40
33.29534548809967
 40
34.347168041821
 40
35.39108718934584
 40
36.42754827133493
 40
37.45720575381954
 40
38.48085062012849
 40
39.49948440763516
 40
40.51422944315121
 40
41.52631975251916
 40
42.53706336679711
 40
42.53706336679711
 40
42.53706336679711
 40
42.53706336679711
 10
-33.06806629643066
 20
-7.9999999999999
 30
0.0
 10
-33.47788104581117
 20
-7.995240193811754
 30
0.0
 10
-34.29805637601026
 20
-7.9857142418592
 30
0.0
 10
-35.52802089387303
 20
-7.908924374898244
 30
0.0
 10
-36.75793290918802
 20
-7.786848546181563
 30
0.0
 10
-37.98776880502421
 20
-7.615754629342257
 30
0.0
 10
-39.21751630955529
 20
-7.397961274983786
 30
0.0
 10
-40.44715116261255
 20
-7.134436975446026
 30
0.0
 10
-41.67667747727
 20
-6.826956924338551
 30
0.0
 10
-42.90608435011408
 20
-6.477403982376515
 30
0.0
 10
-44.1353634066434
 20
-6.087924383418031
 30
0.0
 10
-45.36452077413445
 20
-5.660962850644919
 30
0.0
 10
-46.59355974451581
 20
-5.199132417908122
 30
0.0
 10
-47.82249567364496
 20
-4.705308096964902
 30
0.0
 10
-49.05133418804837
 20
-4.182524544071807
 30
0.0
 10
-50.28008668242332
 20
-3.634005817104139
 30
0.0
 10
-51.5087667838015
 20
-3.063135838568304
 30
0.0
 10
-52.73738527573538
 20
-2.473425188733474
 30
0.0
 10
-53.9659540821073
 20
-1.868500817499913
 30
0.0
 10
-55.19448634912572
 20
-1.252085962503359
 30
0.0
 10
-56.422992852188
 20
-0.6279700889485297
 30
0.0
 10
-57.65149093970887
 20
-0.0000016322902076
 30
0.0
 10
-58.87998351230126
 20
0.6279781281916954
 30
0.0
 10
-60.1084941330496
 20
1.252084282611631
 30
0.0
 10
-61.33702488342843
 20
1.868501003460707
 30
0.0
 10
-62.56559588032496
 20
2.473427679186495
 30
0.0
 10
-63.79421946915762
 20
3.06313329632678
 30
0.0
 10
-65.02290150971764
 20
3.634006169967792
 30
0.0
 10
-66.25165418148367
 20
4.182524452143275
 30
0.0
 10
-67.48049265117344
 20
4.705308114975775
 30
0.0
 10
-68.70942858344943
 20
5.199132436641948
 30
0.0
 10
-69.93846758513541
 20
5.660962758947898
 30
0.0
 10
-71.16762482576404
 20
6.087924727687802
 30
0.0
 10
-72.39689859930354
 20
6.477400887546512
 30
0.0
 10
-73.62629786968614
 20
6.826958407779859
 30
0.0
 10
-74.85582372825311
 20
7.13444464192469
 30
0.0
 10
-76.08546736131535
 20
7.397938843329381
 30
0.0
 10
-77.31521892858467
 20
7.615799609334607
 30
0.0
 10
-78.54505518899927
 20
7.786690716419446
 30
0.0
 10
-79.77496805889453
 20
7.909507867173815
 30
0.0
 10
-81.00493153373227
 20
7.98351427924415
 30
0.0
 10
-81.82510721174466
 20
8.000000000000699
 30
0.0
 10
-82.2349220358077
 20
8.000000000000763
 30
0.0
  0
SPLINE
  5
47B6
330
1F
100
AcDbEntity
  8
PV0001_1
  6
CONTINUOUS
 48
0.5
100
AcDbSpline
210
0.0
220
0.0
230
1.0
 70
     8
 71
     3
 72
    15
 73
    11
 74
     0
 42
0.0000000001
 43
0.0000000001
 40
0.0
 40
0.0
 40
0.0
 40
0.0
 40
1.010743614677189
 40
2.022833924044153
 40
3.037578959561199
 40
4.056212747067873
 40
5.079857613375832
 40
6.109500119648989
 40
7.14596120163808
 40
7.389233408729577
 40
7.389233408729577
 40
7.389233408729577
 40
7.389233408729577
 10
-11.97186909632898
 20
7.999999999999806
 30
0.0
 10
-12.36317690204161
 20
7.99995192680562
 30
0.0
 10
-13.14638929186794
 20
7.983536626831891
 30
0.0
 10
-14.32086073338747
 20
7.90950183230747
 30
0.0
 10
-15.49530016220995
 20
7.786692442424211
 30
0.0
 10
-16.66966193748126
 20
7.615798766012242
 30
0.0
 10
-17.84393874662806
 20
7.397941553767975
 30
0.0
 10
-19.01811055702526
 20
7.134441508981556
 30
0.0
 10
-19.88992077649942
 20
6.906118170014205
 30
0.0
 10
-20.37089741476607
 20
6.769568327200584
 30
0.0
 10
-20.53089270926879
 20
6.718477041492098
 30
0.0
  0
LINE
  5
47B7
330
1F
100
AcDbEntity
  8
AM_0
100
AcDbLine
 10
-11.58365182121679
 20
3.395376745373457
 30
0.0
 11
-11.52267746943493
 21
7.999999999999785
 31
0.0
  0
LINE
  5
47B8
330
1F
100
AcDbEntity
  8
AM_0
100
AcDbLine
 10
-12.51176184993441
 20
-7.982722287710581
 30
0.0
 11
-12.51176184993433
 21
3.80549408870433
 31
0.0
  0
LINE
  5
47B9
330
1F
100
AcDbEntity
  8
PV0001_1
  6
CONTINUOUS
 48
0.5
100
AcDbLine
 10
-61.49996382268566
 20
8.000000000000325
 30
0.0
 11
-30.2844617260215
 21
7.999999999999912
 31
0.0
  0
LINE
  5
47BA
330
1F
100
AcDbEntity
  8
PV0001_1
  6
CONTINUOUS
 48
0.5
100
AcDbLine
 10
-64.04653123362661
 20
-7.999999999999641
 30
0.0
 11
-35.50248165674153
 21
-8.000000000000017
 31
0.0
  0
SPLINE
  5
47BB
330
1F
100
AcDbEntity
  8
PV0001_1
  6
CONTINUOUS
100
AcDbSpline
210
0.0
220
0.0
230
1.0
 70
     8
 71
     3
 72
    55
 73
    51
 74
     0
 42
0.0000000001
 43
0.0000000001
 40
0.0
 40
0.0
 40
0.0
 40
0.0
 40
1.010743684496582
 40
2.022833576467832
 40
3.037578957496688
 40
4.056212745003489
 40
5.079857003664532
 40
6.109500240690281
 40
7.145961322679372
 40
8.189895241603872
 40
9.241717795325891
 40
10.30168407291828
 40
11.36983447792315
 40
12.44600489715814
 40
13.52984294512926
 40
14.62081576220742
 40
15.7182257034828
 40
16.82123173843959
 40
17.92886860250316
 40
19.0400688939571
 40
20.15368796660465
 40
21.26852814259644
 40
22.38336992938901
 40
23.49698739941135
 40
24.6081876908653
 40
25.71582455492886
 40
26.81883757994213
 40
27.91624752121713
 40
29.00722033829659
 40
30.09105838626677
 40
31.16722880550176
 40
32.23537921050758
 40
33.29534548809967
 40
34.347168041821
 40
35.39108718934584
 40
36.42754827133493
 40
37.45720575381954
 40
38.48085062012849
 40
39.49948440763516
 40
40.51422944315121
 40
41.52631975251916
 40
42.53706336719636
 40
43.54780698187354
 40
44.55989729124051
 40
45.57464232675757
 40
46.59327611426424
 40
47.6169209805722
 40
48.64656348684535
 40
49.68302456883444
 40
50.58557219878025
 40
50.58557219878025
 40
50.58557219878025
 40
50.58557219878025
 10
-12.33311736252157
 20
-8.000000000000177
 30
0.0
 10
-12.74293211190209
 20
-7.995240193812034
 30
0.0
 10
-13.56310744210118
 20
-7.98571424185948
 30
0.0
 10
-14.79307195996396
 20
-7.908924374898526
 30
0.0
 10
-16.02298397527896
 20
-7.786848546181841
 30
0.0
 10
-17.25281987111513
 20
-7.615754629342536
 30
0.0
 10
-18.48256737564621
 20
-7.397961274984067
 30
0.0
 10
-19.71220222870344
 20
-7.134436975446306
 30
0.0
 10
-20.94172854336093
 20
-6.826956924338829
 30
0.0
 10
-22.17113541620503
 20
-6.477403982376793
 30
0.0
 10
-23.40041447273432
 20
-6.087924383418312
 30
0.0
 10
-24.62957184022535
 20
-5.660962850645199
 30
0.0
 10
-25.85861081060672
 20
-5.1991324179084
 30
0.0
 10
-27.08754673973585
 20
-4.70530809696518
 30
0.0
 10
-28.3163852541393
 20
-4.182524544072085
 30
0.0
 10
-29.54513774851426
 20
-3.634005817104418
 30
0.0
 10
-30.77381784989244
 20
-3.063135838568584
 30
0.0
 10
-32.00243634182631
 20
-2.473425188733754
 30
0.0
 10
-33.2310051481982
 20
-1.868500817500192
 30
0.0
 10
-34.45953741521666
 20
-1.252085962503639
 30
0.0
 10
-35.68804391827893
 20
-0.6279700889488085
 30
0.0
 10
-36.91654200579978
 20
-0.0000016322904869
 30
0.0
 10
-38.14503457839218
 20
0.627978128191416
 30
0.0
 10
-39.37354519914049
 20
1.252084282611351
 30
0.0
 10
-40.60207594951935
 20
1.868501003460428
 30
0.0
 10
-41.83064694641588
 20
2.473427679186215
 30
0.0
 10
-43.05927053524853
 20
3.0631332963265
 30
0.0
 10
-44.28795257580856
 20
3.634006169967514
 30
0.0
 10
-45.51670524757457
 20
4.182524452142995
 30
0.0
 10
-46.74554371726439
 20
4.705308114975492
 30
0.0
 10
-47.97447964954035
 20
5.19913243664167
 30
0.0
 10
-49.20351865122632
 20
5.66096275894762
 30
0.0
 10
-50.43267589185494
 20
6.087924727687523
 30
0.0
 10
-51.66194966539446
 20
6.47740088754623
 30
0.0
 10
-52.89134893577703
 20
6.82695840777958
 30
0.0
 10
-54.12087479434401
 20
7.13444464192441
 30
0.0
 10
-55.35051842740624
 20
7.397938843329102
 30
0.0
 10
-56.58026999467556
 20
7.615799609334326
 30
0.0
 10
-57.81010625509013
 20
7.786690716419165
 30
0.0
 10
-59.04001912498539
 20
7.909507867173537
 30
0.0
 10
-60.26998259998481
 20
7.983514279253599
 30
0.0
 10
-61.49997310268563
 20
8.008237372727798
 30
0.0
 10
-62.72996360357675
 20
7.983514279214933
 30
0.0
 10
-63.959927084016
 20
7.909507867329038
 30
0.0
 10
-65.18983993388338
 20
7.786690715833218
 30
0.0
 10
-66.41967626938729
 20
7.615799611536762
 30
0.0
 10
-67.64942155909415
 20
7.397939897154163
 30
0.0
 10
-68.87906034782848
 20
7.134447336010295
 30
0.0
 10
-70.05268233388946
 20
6.8409163361029
 30
0.0
 10
-70.81414164403281
 20
6.626254340924405
 30
0.0
 10
-71.79243489543509
 20
6.284268679692961
 30
0.0
  0
SPLINE
  5
47BC
330
1F
100
AcDbEntity
  8
PV0001_1
  6
CONTINUOUS
100
AcDbSpline
210
0.0
220
0.0
230
1.0
 70
     8
 71
     3
 72
    17
 73
    13
 74
     0
 42
0.0000000001
 43
0.0000000001
 40
1.580019955310467
 40
1.580019955310467
 40
1.580019955310467
 40
1.580019955310467
 40
2.030549285115227
 40
3.082371838836284
 40
4.126290986361125
 40
5.162752068350215
 40
6.192395305374981
 40
7.216039564037012
 40
8.234688489606833
 40
9.249433870634691
 40
10.26152376260694
 40
11.27226744710342
 40
11.27226744710342
 40
11.27226744710342
 40
11.27226744710352
 10
-23.91689567967219
 20
-5.904235572722856
 30
0.0
 10
-24.09091512897578
 20
-5.965044294249818
 30
0.0
 10
-24.67219855360591
 20
-6.164353001219509
 30
0.0
 10
-25.66459351170628
 20
-6.476975839491126
 30
0.0
 10
-26.8938214767508
 20
-6.827071946099056
 30
0.0
 10
-28.1233878471031
 20
-7.13440984486438
 30
0.0
 10
-29.35301055575733
 20
-7.397957426048317
 30
0.0
 10
-30.58276722960198
 20
-7.615797631818169
 30
0.0
 10
-31.8126088638063
 20
-7.786687344173341
 30
0.0
 10
-33.04252707779562
 20
-7.909519140597587
 30
0.0
 10
-34.27249156957019
 20
-7.983502338552621
 30
0.0
 10
-35.09266691276755
 20
-8.000000045776548
 30
0.0
 10
-35.50248165674136
 20
-7.999999999999849
 30
0.0
  0
VIEWPORT
  5
110
330
101
100
AcDbEntity
 67
     1
  8
0
100
AcDbViewport
 10
420.5
 20
297.0
 30
0.0
 40
948.9782706766916
 41
628.452
 68
     1
 69
     1
1001
ACAD
1000
MVIEW
1002
{
1070
    16
1010
0.0
1020
0.0
1030
0.0
1010
0.0
1020
0.0
1030
1.0
1040
0.0
1040
628.452
1040
420.5
1040
297.0
1040
50.0
1040
0.0
1040
0.0
1070
     0
1070
   100
1070
     1
1070
     1
1070
     0
1070
     0
1070
     0
1070
     0
1040
0.0
1040
0.0
1040
0.0
1040
10.0
1040
10.0
1040
10.0
1040
10.0
1070
     0
1002
{
1002
}
1002
}
  0
ENDSEC
  0
SECTION
  2
OBJECTS
  0
DICTIONARY
  5
C
330
0
100
AcDbDictionary
  3
ACAD_GROUP
350
D
  3
ACAD_LAYOUT
350
1A
  3
ACAD_MLINESTYLE
350
17
  3
ACAD_PLOTSETTINGS
350
19
  3
ACAD_PLOTSTYLENAME
350
E
  3
ACDBVARIABLEDICTIONARY
350
34
  3
ACMDICTIONARY
350
43
  3
AMG
350
2B
  3
AMGSNAPSETTINGS
350
6E
  3
DWGPROPS
350
47D9
  3
ACDBHEADERROUNDTRIPXREC
350
47E9
  0
DICTIONARY
  5
74
330
1F
100
AcDbDictionary
280
     1
  3
ACAD_INDEX
360
47DB
  3
ACAD_LAYOUTSELFREF
360
480C
  0
DICTIONARY
  5
4811
330
101
100
AcDbDictionary
280
     1
  3
ACAD_LAYOUTSELFREF
360
4812
  0
DICTIONARY
  5
D
102
{ACAD_REACTORS
330
C
102
}
330
C
100
AcDbDictionary
  0
DICTIONARY
  5
1A
102
{ACAD_REACTORS
330
C
102
}
330
C
100
AcDbDictionary
  0
DICTIONARY
  5
17
102
{ACAD_REACTORS
330
C
102
}
330
C
100
AcDbDictionary
  3
STANDARD
350
18
  0
DICTIONARY
  5
19
102
{ACAD_REACTORS
330
C
102
}
330
C
100
AcDbDictionary
  0
ACDBDICTIONARYWDFLT
  5
E
102
{ACAD_REACTORS
330
C
102
}
330
C
100
AcDbDictionary
281
     1
  3
Normal
350
F
100
AcDbDictionaryWithDefault
340
F
  0
DICTIONARY
  5
34
102
{ACAD_REACTORS
330
C
102
}
330
C
100
AcDbDictionary
  3
INDEXCTL
350
35
  3
SORTENTS
350
B5E
  0
DICTIONARY
  5
43
102
{ACAD_REACTORS
330
C
102
}
330
C
100
AcDbDictionary
  3
ACMSTDDICTIONARY
350
260
  0
DICTIONARY
  5
2B
102
{ACAD_REACTORS
330
C
102
}
330
C
100
AcDbDictionary
  3
ACMGSETTINGS
350
2C
  0
DICTIONARY
  5
6E
102
{ACAD_REACTORS
330
C
102
}
330
C
100
AcDbDictionary
  0
XRECORD
  5
47D9
102
{ACAD_REACTORS
330
C
102
}
330
C
100
AcDbXrecord
  1
DWGPROPS COOKIE
  2

  3

  4

  6

  7

  8

  9

300
AmdtFileType=82
301
=
302
=
303
=
304
=
305
=
306
=
307
=
308
=
309
=
 40
0.3197926273148148
 41
2452800.443498622
 42
2453002.216464641
  1

 90
        1
  0
DICTIONARY
  5
47E9
102
{ACAD_REACTORS
330
C
102
}
330
C
100
AcDbDictionary
  3
TSTACKALIGN
350
47EA
  3
TSTACKSIZE
350
47EB
  3
HYPERLINKBASE
350
47EC
  3
STYLESHEET
350
47ED
  3
LAYOUTDICT
350
47EE
  3
PLOTSETDICT
350
47EF
  3
PLOTSTYLNAMDICT
350
47F0
  3
LWETCUNION
350
47F1
  3
INSUNITS
350
47F2
  3
CEPSNTYPE
350
47F3
  3
FINGERPRINTGUID
350
47F4
  3
VERSIONGUID
350
47F5
  3
PSVPSCALE
350
47F6
  3
DIMSTYLEDATA
350
47F7
  3
PUCSORTHOREF
350
47F8
  3
PUCSORTHOVIEW
350
47F9
  3
PUCSBASE
350
47FA
  3
PUCSORGTOP
350
47FB
  3
PUCSORGBOTTOM
350
47FC
  3
PUCSORGLEFT
350
47FD
  3
PUCSORGRIGHT
350
47FE
  3
PUCSORGFRONT
350
47FF
  3
PUCSORGBACK
350
4800
  3
UCSORTHOREF
350
4801
  3
UCSORTHOVIEW
350
4802
  3
UCSBASE
350
4803
  3
UCSORGTOP
350
4804
  3
UCSORGBOTTOM
350
4805
  3
UCSORGLEFT
350
4806
  3
UCSORGRIGHT
350
4807
  3
UCSORGFRONT
350
4808
  3
UCSORGBACK
350
4809
  0
DICTIONARY
  5
47DB
102
{ACAD_REACTORS
330
74
102
}
330
74
100
AcDbDictionary
  3
*A1
350
47DC
  0
XRECORD
  5
480C
102
{ACAD_REACTORS
330
74
102
}
330
74
100
AcDbXrecord
340
1F
  0
XRECORD
  5
4812
102
{ACAD_REACTORS
330
4811
102
}
330
4811
100
AcDbXrecord
340
101
  0
MLINESTYLE
  5
18
102
{ACAD_REACTORS
330
17
102
}
330
17
100
AcDbMlineStyle
  2
STANDARD
 70
     0
  3

 62
   256
 51
90.0
 52
90.0
 71
     2
 49
0.5
 62
   256
  6
BYLAYER
 49
-0.5
 62
   256
  6
BYLAYER
  0
ACDBPLACEHOLDER
  5
F
102
{ACAD_REACTORS
330
E
102
}
330
E
100
AcDbPlaceHolder
280
     0
  0
DICTIONARYVAR
  5
35
102
{ACAD_REACTORS
330
34
102
}
330
34
100
DictionaryVariables
280
     0
  1
1
  0
DICTIONARYVAR
  5
B5E
102
{ACAD_REACTORS
330
34
102
}
330
34
100
DictionaryVariables
280
     0
  1
96
  0
DICTIONARY
  5
260
102
{ACAD_REACTORS
330
43
102
}
330
43
100
AcDbDictionary
  0
DICTIONARY
  5
2C
102
{ACAD_REACTORS
330
2B
102
}
330
2B
100
AcDbDictionary
  3
DWGSETTINGS
350
2D
  0
XRECORD
  5
47EA
102
{ACAD_REACTORS
330
47E9
102
}
330
47E9
100
AcDbXrecord
 90
        1
  0
XRECORD
  5
47EB
102
{ACAD_REACTORS
330
47E9
102
}
330
47E9
100
AcDbXrecord
 90
       70
  0
XRECORD
  5
47EC
102
{ACAD_REACTORS
330
47E9
102
}
330
47E9
100
AcDbXrecord
  1

  0
XRECORD
  5
47ED
102
{ACAD_REACTORS
330
47E9
102
}
330
47E9
100
AcDbXrecord
  1
ASAMI.ctb
  0
XRECORD
  5
47EE
102
{ACAD_REACTORS
330
47E9
102
}
330
47E9
100
AcDbXrecord
340
1A
  0
XRECORD
  5
47EF
102
{ACAD_REACTORS
330
47E9
102
}
330
47E9
100
AcDbXrecord
340
19
  0
XRECORD
  5
47F0
102
{ACAD_REACTORS
330
47E9
102
}
330
47E9
100
AcDbXrecord
340
E
  0
XRECORD
  5
47F1
102
{ACAD_REACTORS
330
47E9
102
}
330
47E9
100
AcDbXrecord
 90
    10781
  0
XRECORD
  5
47F2
102
{ACAD_REACTORS
330
47E9
102
}
330
47E9
100
AcDbXrecord
 90
        4
  0
XRECORD
  5
47F3
102
{ACAD_REACTORS
330
47E9
102
}
330
47E9
100
AcDbXrecord
 90
        0
  0
XRECORD
  5
47F4
102
{ACAD_REACTORS
330
47E9
102
}
330
47E9
100
AcDbXrecord
  1
{AFB28963-8C59-40AE-9337-C84526B81ACE}
  0
XRECORD
  5
47F5
102
{ACAD_REACTORS
330
47E9
102
}
330
47E9
100
AcDbXrecord
  1
{A9F1FA3E-EC52-4754-985A-9F8390A37F94}
  0
XRECORD
  5
47F6
102
{ACAD_REACTORS
330
47E9
102
}
330
47E9
100
AcDbXrecord
 40
0.0
  0
XRECORD
  5
47F7
102
{ACAD_REACTORS
330
47E9
102
}
330
47E9
100
AcDbXrecord
1000
DSTYLE
1002
{
1070
    79
 70
     2
1070
   341
340
59
1070
   342
340
59
1070
   371
 70
    -1
1070
   372
 70
    -1
1002
}
  0
XRECORD
  5
47F8
102
{ACAD_REACTORS
330
47E9
102
}
330
47E9
100
AcDbXrecord
340
0
  0
XRECORD
  5
47F9
102
{ACAD_REACTORS
330
47E9
102
}
330
47E9
100
AcDbXrecord
 70
     0
  0
XRECORD
  5
47FA
102
{ACAD_REACTORS
330
47E9
102
}
330
47E9
100
AcDbXrecord
340
0
  0
XRECORD
  5
47FB
102
{ACAD_REACTORS
330
47E9
102
}
330
47E9
100
AcDbXrecord
 10
0.0
 20
0.0
 30
0.0
  0
XRECORD
  5
47FC
102
{ACAD_REACTORS
330
47E9
102
}
330
47E9
100
AcDbXrecord
 10
0.0
 20
0.0
 30
0.0
  0
XRECORD
  5
47FD
102
{ACAD_REACTORS
330
47E9
102
}
330
47E9
100
AcDbXrecord
 10
0.0
 20
0.0
 30
0.0
  0
XRECORD
  5
47FE
102
{ACAD_REACTORS
330
47E9
102
}
330
47E9
100
AcDbXrecord
 10
0.0
 20
0.0
 30
0.0
  0
XRECORD
  5
47FF
102
{ACAD_REACTORS
330
47E9
102
}
330
47E9
100
AcDbXrecord
 10
0.0
 20
0.0
 30
0.0
  0
XRECORD
  5
4800
102
{ACAD_REACTORS
330
47E9
102
}
330
47E9
100
AcDbXrecord
 10
0.0
 20
0.0
 30
0.0
  0
XRECORD
  5
4801
102
{ACAD_REACTORS
330
47E9
102
}
330
47E9
100
AcDbXrecord
340
0
  0
XRECORD
  5
4802
102
{ACAD_REACTORS
330
47E9
102
}
330
47E9
100
AcDbXrecord
 70
     0
  0
XRECORD
  5
4803
102
{ACAD_REACTORS
330
47E9
102
}
330
47E9
100
AcDbXrecord
340
0
  0
XRECORD
  5
4804
102
{ACAD_REACTORS
330
47E9
102
}
330
47E9
100
AcDbXrecord
 10
0.0
 20
0.0
 30
0.0
  0
XRECORD
  5
4805
102
{ACAD_REACTORS
330
47E9
102
}
330
47E9
100
AcDbXrecord
 10
0.0
 20
0.0
 30
0.0
  0
XRECORD
  5
4806
102
{ACAD_REACTORS
330
47E9
102
}
330
47E9
100
AcDbXrecord
 10
0.0
 20
0.0
 30
0.0
  0
XRECORD
  5
4807
102
{ACAD_REACTORS
330
47E9
102
}
330
47E9
100
AcDbXrecord
 10
0.0
 20
0.0
 30
0.0
  0
XRECORD
  5
4808
102
{ACAD_REACTORS
330
47E9
102
}
330
47E9
100
AcDbXrecord
 10
0.0
 20
0.0
 30
0.0
  0
XRECORD
  5
4809
102
{ACAD_REACTORS
330
47E9
102
}
330
47E9
100
AcDbXrecord
 10
0.0
 20
0.0
 30
0.0
  0
LAYER_INDEX
  5
47DC
102
{ACAD_REACTORS
330
47DB
102
}
330
47DB
100
AcDbIndex
 40
2453151.705154247
100
AcDbLayerIndex
  8
0
360
47DD
 90
        0
  8
AM_0
360
47DE
 90
       11
  8
PV0001_1
360
47DF
 90
       33
  8
AM_CL
360
47E0
 90
        0
  8
AM_7
360
47E1
 90
        1
  8
AM_11
360
47E2
 90
        3
  8
AM_5
360
47E3
 90
       10
  8
Defpoints
360
47E4
 90
        0
  8
AM_6
360
47E5
 90
        1
  8
AM_4
360
47E6
 90
        0
  8
AM_3
360
47E7
 90
        0
  0
XRECORD
  5
2D
102
{ACAD_REACTORS
330
2C
102
}
330
2C
100
AcDbXrecord
  1
VERSION
140
15.0
  1
PRODUCT
  2
AutoCAD Mechanical 2000
  0
IDBUFFER
  5
47DD
330
0
100
AcDbIdBuffer
  0
IDBUFFER
  5
47DE
330
0
100
AcDbIdBuffer
330
43A8
330
43A9
330
43B2
330
43B4
330
4524
330
4527
330
452D
330
46A4
330
46AA
330
47B7
330
47B8
  0
IDBUFFER
  5
47DF
330
0
100
AcDbIdBuffer
330
4528
330
4529
330
452A
330
452E
330
4534
330
4536
330
46A3
330
46A6
330
46AB
330
46AC
330
47B4
330
47B5
330
47B6
330
47B9
330
47BA
330
47BB
330
47BC
330
35F4
330
35F5
330
43A6
330
43A7
330
43AA
330
43AB
330
43AE
330
43AF
330
43B0
330
43B1
330
43B3
330
44E2
330
44E3
330
4522
330
4523
330
4525
  0
IDBUFFER
  5
47E0
330
0
100
AcDbIdBuffer
  0
IDBUFFER
  5
47E1
330
0
100
AcDbIdBuffer
330
35D1
  0
IDBUFFER
  5
47E2
330
0
100
AcDbIdBuffer
330
4539
330
453A
330
46A5
  0
IDBUFFER
  5
47E3
330
0
100
AcDbIdBuffer
330
36BA
330
3B0D
330
3BB8
330
3CCB
330
43A4
330
43A5
330
43AC
330
43AD
330
4515
330
471A
  0
IDBUFFER
  5
47E4
330
0
100
AcDbIdBuffer
  0
IDBUFFER
  5
47E5
330
0
100
AcDbIdBuffer
330
19BD
  0
IDBUFFER
  5
47E6
330
0
100
AcDbIdBuffer
  0
IDBUFFER
  5
47E7
330
0
100
AcDbIdBuffer
  0
ENDSEC
  0
EOF
