  0
SECTION
  2
HEADER
  9
$ACADVER
  1
AC1014
  9
$ACADMAINTVER
 70
     9
  9
$DWGCODEPAGE
  3
ANSI_932
  9
$INSBASE
 10
0.0
 20
0.0
 30
0.0
  9
$EXTMIN
 10
-186.8784161413565
 20
-68.54100792062221
 30
-0.00000001
  9
$EXTMAX
 10
26.2406899133363
 20
40.57861965663943
 30
0.00000001
  9
$LIMMIN
 10
-206.6347757780504
 20
-92.78523932881375
  9
$LIMMAX
 10
44.1113744187096
 20
65.30821293556574
  9
$ORTHOMODE
 70
     0
  9
$REGENMODE
 70
     1
  9
$FILLMODE
 70
     1
  9
$QTEXTMODE
 70
     0
  9
$MIRRTEXT
 70
     0
  9
$DRAGMODE
 70
     2
  9
$LTSCALE
 40
1.0
  9
$OSMODE
 70
    55
  9
$ATTMODE
 70
     1
  9
$TEXTSIZE
 40
2.5
  9
$TRACEWID
 40
1.0
  9
$TEXTSTYLE
  7
STANDARD
  9
$CLAYER
  8
AM_0
  9
$CELTYPE
  6
BYLAYER
  9
$CECOLOR
 62
   256
  9
$CELTSCALE
 40
1.0
  9
$DELOBJ
 70
     1
  9
$DISPSILH
 70
     0
  9
$DIMSCALE
 40
1.0
  9
$DIMASZ
 40
2.5
  9
$DIMEXO
 40
1.0
  9
$DIMDLI
 40
12.0
  9
$DIMRND
 40
0.0
  9
$DIMDLE
 40
0.0
  9
$DIMEXE
 40
1.0
  9
$DIMTP
 40
0.1
  9
$DIMTM
 40
0.1
  9
$DIMTXT
 40
3.2
  9
$DIMCEN
 40
0.0
  9
$DIMTSZ
 40
0.0
  9
$DIMTOL
 70
     0
  9
$DIMLIM
 70
     0
  9
$DIMTIH
 70
     0
  9
$DIMTOH
 70
     0
  9
$DIMSE1
 70
     0
  9
$DIMSE2
 70
     0
  9
$DIMTAD
 70
     3
  9
$DIMZIN
 70
     8
  9
$DIMBLK
  1
OPEN30
  9
$DIMASO
 70
     1
  9
$DIMSHO
 70
     1
  9
$DIMPOST
  1

  9
$DIMAPOST
  1
"
  9
$DIMALT
 70
     0
  9
$DIMALTD
 70
     2
  9
$DIMALTF
 40
0.0393701
  9
$DIMLFAC
 40
1.0
  9
$DIMTOFL
 70
     1
  9
$DIMTVP
 40
0.0
  9
$DIMTIX
 70
     0
  9
$DIMSOXD
 70
     0
  9
$DIMSAH
 70
     0
  9
$DIMBLK1
  1

  9
$DIMBLK2
  1

  9
$DIMSTYLE
  2
AM_JIS
  9
$DIMCLRD
 70
   256
  9
$DIMCLRE
 70
   256
  9
$DIMCLRT
 70
     2
  9
$DIMTFAC
 40
0.71
  9
$DIMGAP
 40
1.5
  9
$DIMJUST
 70
     0
  9
$DIMSD1
 70
     0
  9
$DIMSD2
 70
     0
  9
$DIMTOLJ
 70
     0
  9
$DIMTZIN
 70
     0
  9
$DIMALTZ
 70
     0
  9
$DIMALTTZ
 70
     0
  9
$DIMFIT
 70
     3
  9
$DIMUPT
 70
     0
  9
$DIMUNIT
 70
     2
  9
$DIMDEC
 70
     3
  9
$DIMTDEC
 70
     3
  9
$DIMALTU
 70
     2
  9
$DIMALTTD
 70
     2
  9
$DIMTXSTY
  7
ASAMI
  9
$DIMAUNIT
 70
     0
  9
$LUNITS
 70
     2
  9
$LUPREC
 70
     2
  9
$SKETCHINC
 40
1.0
  9
$FILLETRAD
 40
2.5
  9
$AUNITS
 70
     0
  9
$AUPREC
 70
     0
  9
$MENU
  1
.
  9
$ELEVATION
 40
0.0
  9
$PELEVATION
 40
0.0
  9
$THICKNESS
 40
0.0
  9
$LIMCHECK
 70
     0
  9
$BLIPMODE
 70
     0
  9
$CHAMFERA
 40
2.5
  9
$CHAMFERB
 40
2.5
  9
$CHAMFERC
 40
20.0
  9
$CHAMFERD
 40
0.0
  9
$SKPOLY
 70
     0
  9
$TDCREATE
 40
2452800.443498622
  9
$TDUPDATE
 40
2453151.705563854
  9
$TDINDWG
 40
0.3310035417
  9
$TDUSRTIMER
 40
0.3310035417
  9
$USRTIMER
 70
     1
  9
$ANGBASE
 50
0.0
  9
$ANGDIR
 70
     0
  9
$PDMODE
 70
     0
  9
$PDSIZE
 40
0.0
  9
$PLINEWID
 40
0.0
  9
$COORDS
 70
     1
  9
$SPLFRAME
 70
     0
  9
$SPLINETYPE
 70
     6
  9
$SPLINESEGS
 70
     8
  9
$ATTDIA
 70
     1
  9
$ATTREQ
 70
     1
  9
$HANDLING
 70
 12289
  9
$HANDSEED
  5
4893
  9
$SURFTAB1
 70
     6
  9
$SURFTAB2
 70
     6
  9
$SURFTYPE
 70
     6
  9
$SURFU
 70
     6
  9
$SURFV
 70
     6
  9
$UCSNAME
  2

  9
$UCSORG
 10
0.0
 20
-0.0000000000000725
 30
0.0
  9
$UCSXDIR
 10
1.0
 20
0.0000000000000027
 30
0.0
  9
$UCSYDIR
 10
-0.0000000000000027
 20
1.0
 30
0.0
  9
$PUCSNAME
  2

  9
$PUCSORG
 10
0.0
 20
0.0
 30
0.0
  9
$PUCSXDIR
 10
1.0
 20
0.0
 30
0.0
  9
$PUCSYDIR
 10
0.0
 20
1.0
 30
0.0
  9
$USERI1
 70
     0
  9
$USERI2
 70
     0
  9
$USERI3
 70
     0
  9
$USERI4
 70
     0
  9
$USERI5
 70
     0
  9
$USERR1
 40
0.0
  9
$USERR2
 40
0.0
  9
$USERR3
 40
0.0
  9
$USERR4
 40
0.0
  9
$USERR5
 40
0.0
  9
$WORLDVIEW
 70
     1
  9
$SHADEDGE
 70
     3
  9
$SHADEDIF
 70
    70
  9
$TILEMODE
 70
     1
  9
$MAXACTVP
 70
    64
  9
$PINSBASE
 10
0.0
 20
0.0
 30
0.0
  9
$PLIMCHECK
 70
     0
  9
$PEXTMIN
 10
1.000000000000000E+20
 20
1.000000000000000E+20
 30
1.000000000000000E+20
  9
$PEXTMAX
 10
-1.000000000000000E+20
 20
-1.000000000000000E+20
 30
-1.000000000000000E+20
  9
$PLIMMIN
 10
0.0
 20
0.0
  9
$PLIMMAX
 10
841.0
 20
594.0
  9
$UNITMODE
 70
     0
  9
$VISRETAIN
 70
     1
  9
$PLINEGEN
 70
     0
  9
$PSLTSCALE
 70
     0
  9
$TREEDEPTH
 70
  3020
  9
$PICKSTYLE
 70
     0
  9
$CMLSTYLE
  2
STANDARD
  9
$CMLJUST
 70
     0
  9
$CMLSCALE
 40
20.0
  9
$PROXYGRAPHICS
 70
     1
  9
$MEASUREMENT
 70
     1
  0
ENDSEC
  0
SECTION
  2
CLASSES
  0
CLASS
  1
ACDBDICTIONARYWDFLT
  2
AcDbDictionaryWithDefault
  3
AutoCAD 2000
 90
        0
280
     0
281
     0
  0
CLASS
  1
ACDBPLACEHOLDER
  2
AcDbPlaceHolder
  3
AutoCAD 2000
 90
        0
280
     0
281
     0
  0
CLASS
  1
LAYOUT
  2
AcDbLayout
  3
AutoCAD 2000
 90
        0
280
     0
281
     0
  0
CLASS
  1
AMGSETTINGSOBJ
  2
AmgSettingsObj
  3
"AcadM|Product Description: AutoCAD Mechanical 2000|Company: Autodesk"
 90
        0
280
     0
281
     0
  0
CLASS
  1
ACME_DOCUMENT
  2
AcMeDbDoc
  3
AcMeServices
 90
        0
280
     0
281
     0
  0
CLASS
  1
ACMESCOPE
  2
AcMeScope
  3
AcMeServices
 90
        0
280
     0
281
     0
  0
CLASS
  1
ACMECOMMANDHISTORY
  2
AcMeCommandHistory
  3
AcMeServices
 90
        0
280
     0
281
     0
  0
CLASS
  1
DICTIONARYVAR
  2
AcDbDictionaryVar
  3
AutoCAD 2000
 90
        0
280
     0
281
     0
  0
CLASS
  1
ACIMSYSVARMAN
  2
AcImSysVarManager
  3
AcMeServices
 90
        0
280
     0
281
     0
  0
CLASS
  1
ACIMREALSYSVAR
  2
AcImRealSysVar
  3
AcMeServices
 90
        0
280
     0
281
     0
  0
CLASS
  1
ACIMINTSYSVAR
  2
AcImIntSysVar
  3
AcMeServices
 90
        0
280
     0
281
     0
  0
CLASS
  1
ACMEDRAWINGMAN
  2
AcMeDrawingMan
  3
AcMeServices
 90
        0
280
     0
281
     0
  0
CLASS
  1
ACMEVIEW
  2
AcMeView
  3
AcMeServices
 90
        0
280
     0
281
     0
  0
CLASS
  1
ACDBENTITYCACHE
  2
AcMeEntityCache
  3
AcMeServices
 90
        0
280
     0
281
     0
  0
CLASS
  1
GSMANAGER
  2
AcMeGSManager
  3
AcMeServices
 90
        0
280
     0
281
     0
  0
CLASS
  1
AmdtInternalReactor
  2
AmdtInternalReactor
  3
AcMeServices
 90
        0
280
     0
281
     0
  0
CLASS
  1
ACMESTATEMGR
  2
AcMeStateMgr
  3
AcMeServices
 90
        0
280
     0
281
     0
  0
CLASS
  1
ACME_DATABASE
  2
AcMeDbDatabase
  3
AcMeServices
 90
        0
280
     0
281
     0
  0
CLASS
  1
ACRFINSADJUSTERMGR
  2
AcRfInsAdjusterMgr
  3
AcMeServices
 90
        0
280
     0
281
     0
  0
CLASS
  1
ACMDATADICTIONARY
  2
AcmDataDictionary
  3
"AcmSymBB|Product Description: AutoCAD Mechanical 2000|Company: Autodesk"
 90
        0
280
     0
281
     0
  0
CLASS
  1
ACMDATAENTRYBLOCK
  2
AcmDataEntryBlock
  3
"AcmSymBB|Product Description: AutoCAD Mechanical 2000|Company: Autodesk"
 90
        0
280
     0
281
     0
  0
CLASS
  1
AMGOBJPROPCFG
  2
AmgObjPropCfg
  3
"AmgLay|Product Description: AutoCAD Mechanical 2000|Company: Autodesk"
 90
        1
280
     0
281
     0
  0
CLASS
  1
ACAMGFILTERDAT
  2
AcAmgFilterDat
  3
"AcadM|Product Description: AutoCAD Mechanical 2000|Company: Autodesk"
 90
        0
280
     0
281
     0
  0
CLASS
  1
LAYER_INDEX
  2
AcDbLayerIndex
  3
AutoCAD 2000
 90
        0
280
     0
281
     0
  0
CLASS
  1
IDBUFFER
  2
AcDbIdBuffer
  3
AutoCAD 2000
 90
        0
280
     0
281
     0
  0
CLASS
  1
ACIMSTRSYSVAR
  2
AcImStrSysVar
  3
AcMeServices
 90
        0
280
     0
281
     0
  0
CLASS
  1
ACMSTANDARDJIS
  2
AcmStandardJIS
  3
"AcmSymBB|Product Description: AutoCAD Mechanical 2000|Company: Autodesk"
 90
        0
280
     0
281
     0
  0
CLASS
  1
ACMSURFSTANDARDJIS
  2
AcmSurfTextStdJIS
  3
"AcmSymBB|Product Description: AutoCAD Mechanical 2000|Company: Autodesk"
 90
        0
280
     0
281
     0
  0
CLASS
  1
ACMFCFSTANDARDJIS
  2
AcmFCFStdJIS
  3
"AcmSymBB|Product Description: AutoCAD Mechanical 2000|Company: Autodesk"
 90
        0
280
     0
281
     0
  0
CLASS
  1
ACMWELDSTANDARDJIS
  2
AcmWeldingStdJIS
  3
"AcmSymBB|Product Description: AutoCAD Mechanical 2000|Company: Autodesk"
 90
        0
280
     0
281
     0
  0
CLASS
  1
ACMIDSTANDARDJIS
  2
AcmIdStdJIS
  3
"AcmSymBB|Product Description: AutoCAD Mechanical 2000|Company: Autodesk"
 90
        0
280
     0
281
     0
  0
CLASS
  1
ACMDATUMSTANDARDJIS
  2
AcmDatumStdJIS
  3
"AcmSymBB|Product Description: AutoCAD Mechanical 2000|Company: Autodesk"
 90
        0
280
     0
281
     0
  0
CLASS
  1
ACMBOMSTANDARDJIS
  2
AcmBOMStdJIS
  3
"AcmSymBB|Product Description: AutoCAD Mechanical 2000|Company: Autodesk"
 90
        0
280
     0
281
     0
  0
CLASS
  1
ACMSTANDARDANSI
  2
AcmStandardANSI
  3
"AcmSymBB|Product Description: AutoCAD Mechanical 2000|Company: Autodesk"
 90
        0
280
     0
281
     0
  0
CLASS
  1
ACMSURFSTANDARDANSI
  2
AcmSurfTextStdANSI
  3
"AcmSymBB|Product Description: AutoCAD Mechanical 2000|Company: Autodesk"
 90
        0
280
     0
281
     0
  0
CLASS
  1
ACMFCFSTANDARDANSI
  2
AcmFCFStdANSI
  3
"AcmSymBB|Product Description: AutoCAD Mechanical 2000|Company: Autodesk"
 90
        0
280
     0
281
     0
  0
CLASS
  1
ACMWELDSTANDARDANSI
  2
AcmWeldingStdANSI
  3
"AcmSymBB|Product Description: AutoCAD Mechanical 2000|Company: Autodesk"
 90
        0
280
     0
281
     0
  0
CLASS
  1
ACMIDSTANDARDANSI
  2
AcmIdStdANSI
  3
"AcmSymBB|Product Description: AutoCAD Mechanical 2000|Company: Autodesk"
 90
        0
280
     0
281
     0
  0
CLASS
  1
ACMDATUMSTANDARDANSI
  2
AcmDatumStdANSI
  3
"AcmSymBB|Product Description: AutoCAD Mechanical 2000|Company: Autodesk"
 90
        0
280
     0
281
     0
  0
CLASS
  1
ACMBOMSTANDARDANSI
  2
AcmBOMStdANSI
  3
"AcmSymBB|Product Description: AutoCAD Mechanical 2000|Company: Autodesk"
 90
        0
280
     0
281
     0
  0
CLASS
  1
ACMSTANDARDBSI
  2
AcmStandardBSI
  3
"AcmSymBB|Product Description: AutoCAD Mechanical 2000|Company: Autodesk"
 90
        0
280
     0
281
     0
  0
CLASS
  1
ACMSURFSTANDARDBSI
  2
AcmSurfTextStdBSI
  3
"AcmSymBB|Product Description: AutoCAD Mechanical 2000|Company: Autodesk"
 90
        0
280
     0
281
     0
  0
CLASS
  1
ACMFCFSTANDARDBSI
  2
AcmFCFStdBSI
  3
"AcmSymBB|Product Description: AutoCAD Mechanical 2000|Company: Autodesk"
 90
        0
280
     0
281
     0
  0
CLASS
  1
ACMWELDSTANDARDBSI
  2
AcmWeldingStdBSI
  3
"AcmSymBB|Product Description: AutoCAD Mechanical 2000|Company: Autodesk"
 90
        0
280
     0
281
     0
  0
CLASS
  1
ACMIDSTANDARDBSI
  2
AcmIdStdBSI
  3
"AcmSymBB|Product Description: AutoCAD Mechanical 2000|Company: Autodesk"
 90
        0
280
     0
281
     0
  0
CLASS
  1
ACMDATUMSTANDARDBSI
  2
AcmDatumStdBSI
  3
"AcmSymBB|Product Description: AutoCAD Mechanical 2000|Company: Autodesk"
 90
        0
280
     0
281
     0
  0
CLASS
  1
ACMBOMSTANDARDBSI
  2
AcmBOMStdBSI
  3
"AcmSymBB|Product Description: AutoCAD Mechanical 2000|Company: Autodesk"
 90
        0
280
     0
281
     0
  0
CLASS
  1
LONG_TRANSACTION
  2
AcDbLongTransaction
  3
AutoCAD 2000
 90
        0
280
     0
281
     0
  0
CLASS
  1
LWPOLYLINE
  2
AcDbPolyline
  3
AutoCAD 2000
 90
        0
280
     0
281
     1
  0
CLASS
  1
HATCH
  2
AcDbHatch
  3
AutoCAD 2000
 90
        0
280
     0
281
     1
  0
CLASS
  1
XRECORD
  2
AcDbXrecord
  3
AutoCAD 2000
 90
        0
280
     0
281
     0
  0
ENDSEC
  0
SECTION
  2
TABLES
  0
TABLE
  2
VPORT
  5
8
330
0
100
AcDbSymbolTable
 70
     3
  0
VPORT
  5
4868
330
8
100
AcDbSymbolTableRecord
100
AcDbViewportTableRecord
  2
*ACTIVE
 70
     0
 10
0.0
 20
0.0
 11
1.0
 21
1.0
 12
-59.41205917370576
 22
-9.140432658180372
 13
0.0
 23
0.0
 14
2.5
 24
2.5
 15
10.0
 25
10.0
 16
0.0
 26
0.0
 36
1.0
 17
0.0
 27
0.0
 37
0.0
 40
191.5235770057321
 41
1.56570841889117
 42
50.0
 43
0.0
 44
0.0
 50
0.0
 51
0.0
 71
     0
 72
   100
 73
     1
 74
     1
 75
     0
 76
     0
 77
     0
 78
     0
  0
ENDTAB
  0
TABLE
  2
LTYPE
  5
5
330
0
100
AcDbSymbolTable
 70
    10
  0
LTYPE
  5
14
330
5
100
AcDbSymbolTableRecord
100
AcDbLinetypeTableRecord
  2
BYBLOCK
 70
     0
  3

 72
    65
 73
     0
 40
0.0
  0
LTYPE
  5
15
330
5
100
AcDbSymbolTableRecord
100
AcDbLinetypeTableRecord
  2
BYLAYER
 70
     0
  3

 72
    65
 73
     0
 40
0.0
  0
LTYPE
  5
16
330
5
100
AcDbSymbolTableRecord
100
AcDbLinetypeTableRecord
  2
CONTINUOUS
 70
     0
  3
Solid line
 72
    65
 73
     0
 40
0.0
  0
LTYPE
  5
4B
330
5
100
AcDbSymbolTableRecord
100
AcDbLinetypeTableRecord
  2
AM_ISO02W050
 70
     0
  3
__ __ __ __ __ __ __ __ __ __ __ __ __ __ __
 72
    65
 73
     2
 40
7.5
 49
6.0
 74
     0
 49
-1.5
 74
     0
  0
LTYPE
  5
4C
330
5
100
AcDbSymbolTableRecord
100
AcDbLinetypeTableRecord
  2
AM_ISO08W050
 70
     0
  3
____ . ____ . ____ . ____ . ____ . ____ . ____
 72
    65
 73
     4
 40
18.0
 49
12.0
 74
     0
 49
-1.5
 74
     0
 49
3.0
 74
     0
 49
-1.5
 74
     0
  0
LTYPE
  5
4D
330
5
100
AcDbSymbolTableRecord
100
AcDbLinetypeTableRecord
  2
AM_ISO09W050
 70
     0
  3
_____ . . _____ . . _____ . . ____ .. ____
 72
    65
 73
     6
 40
22.5
 49
12.0
 74
     0
 49
-1.5
 74
     0
 49
3.0
 74
     0
 49
-1.5
 74
     0
 49
3.0
 74
     0
 49
-1.5
 74
     0
  0
LTYPE
  5
4E
330
5
100
AcDbSymbolTableRecord
100
AcDbLinetypeTableRecord
  2
AMCONSTR
 70
     0
  3
_______________________
 72
    65
 73
     2
 40
9999.0
 49
9999.0
 74
     0
 49
0.0
 74
     0
  0
LTYPE
  5
4F
330
5
100
AcDbSymbolTableRecord
100
AcDbLinetypeTableRecord
  2
AM_ISO02W050X2
 70
     0
  3
 _ _ _ _ _ _ _ _ _ _ _ _
 72
    65
 73
     2
 40
3.75
 49
3.0
 74
     0
 49
-0.75
 74
     0
  0
LTYPE
  5
50
330
5
100
AcDbSymbolTableRecord
100
AcDbLinetypeTableRecord
  2
AM_ISO08W050X2
 70
     0
  3
__ . __ . __ . __ . __ . __
 72
    65
 73
     4
 40
9.0
 49
6.0
 74
     0
 49
-0.75
 74
     0
 49
1.5
 74
     0
 49
-0.75
 74
     0
  0
LTYPE
  5
53
330
5
100
AcDbSymbolTableRecord
100
AcDbLinetypeTableRecord
  2
AMZIGZAG
 70
     0
  3
/\/-/\/-/\/-/\/-/\/-/\/
 72
    65
 73
     2
 40
11.00009999999999
 49
0.0001
 74
     4
 75
   135
340
52
 46
0.04
 50
0.0
 44
0.0
 45
0.0
 49
-11.0
 74
     0
  0
LTYPE
  5
166
330
5
100
AcDbSymbolTableRecord
100
AcDbLinetypeTableRecord
  2
ACJISTGL
 70
     0
  3
_ _ _ _ _
 72
    65
 73
     2
 40
3.0
 49
2.0
 74
     0
 49
-1.0
 74
     0
  0
LTYPE
  5
26A
330
5
100
AcDbSymbolTableRecord
100
AcDbLinetypeTableRecord
  2
ACJISTGB
 70
     0
  3
__ . . __ . .
 72
    65
 73
     6
 40
9.0
 49
4.0
 74
     0
 49
-1.0
 74
     0
 49
1.0
 74
     0
 49
-1.0
 74
     0
 49
1.0
 74
     0
 49
-1.0
 74
     0
  0
ENDTAB
  0
TABLE
  2
LAYER
  5
2
330
0
100
AcDbSymbolTable
 70
    11
  0
LAYER
  5
10
330
2
100
AcDbSymbolTableRecord
100
AcDbLayerTableRecord
  2
0
 70
     0
 62
     7
  6
CONTINUOUS
  0
LAYER
  5
3F9
330
2
100
AcDbSymbolTableRecord
100
AcDbLayerTableRecord
  2
AM_0
 70
     0
 62
     7
  6
CONTINUOUS
  0
LAYER
  5
BA4
330
2
100
AcDbSymbolTableRecord
100
AcDbLayerTableRecord
  2
PV0001_1
 70
     0
 62
     7
  6
CONTINUOUS
  0
LAYER
  5
C6C
330
2
100
AcDbSymbolTableRecord
100
AcDbLayerTableRecord
  2
AM_CL
 70
     0
 62
     1
  6
AMCONSTR
  0
LAYER
  5
C7C
330
2
100
AcDbSymbolTableRecord
100
AcDbLayerTableRecord
  2
AM_7
 70
     0
 62
     4
  6
AM_ISO08W050
  0
LAYER
  5
C97
330
2
100
AcDbSymbolTableRecord
100
AcDbLayerTableRecord
  2
AM_11
 70
     0
 62
     3
  6
AM_ISO09W050
  0
LAYER
  5
CC5
330
2
100
AcDbSymbolTableRecord
100
AcDbLayerTableRecord
  2
AM_5
 70
     0
 62
     3
  6
CONTINUOUS
  0
LAYER
  5
CC7
330
2
100
AcDbSymbolTableRecord
100
AcDbLayerTableRecord
  2
DEFPOINTS
 70
     0
 62
     7
  6
CONTINUOUS
  0
LAYER
  5
19BC
330
2
100
AcDbSymbolTableRecord
100
AcDbLayerTableRecord
  2
AM_6
 70
     0
 62
     2
  6
CONTINUOUS
  0
LAYER
  5
1F8E
330
2
100
AcDbSymbolTableRecord
100
AcDbLayerTableRecord
  2
AM_4
 70
     0
 62
     3
  6
CONTINUOUS
  0
LAYER
  5
3588
330
2
100
AcDbSymbolTableRecord
100
AcDbLayerTableRecord
  2
AM_3
 70
     0
 62
     6
  6
ACJISTGL
  0
ENDTAB
  0
TABLE
  2
STYLE
  5
3
330
0
100
AcDbSymbolTable
 70
     5
  0
STYLE
  5
11
330
3
100
AcDbSymbolTableRecord
100
AcDbTextStyleTableRecord
  2
STANDARD
 70
     0
 40
0.0
 41
1.0
 50
0.0
 71
     0
 42
2.5
  3
simplex.shx
  4
EXTFONT.SHX
  0
STYLE
  5
52
330
3
100
AcDbSymbolTableRecord
100
AcDbTextStyleTableRecord
  2

 70
     1
 40
0.0
 41
1.0
 50
0.0
 71
     0
 42
2.5
  3
ltypeshp.shx
  4

  0
STYLE
  5
6B
330
3
100
AcDbSymbolTableRecord
100
AcDbTextStyleTableRecord
  2
ASAMI
 70
     0
 40
0.0
 41
1.0
 50
0.0
 71
     0
 42
2.5
  3
simplex.shx
  4
EXTFONT.SHX
  0
STYLE
  5
262
330
3
100
AcDbSymbolTableRecord
100
AcDbTextStyleTableRecord
  2
ACJISTS
 70
     0
 40
1.0
 41
1.0
 50
0.0
 71
     0
 42
2.5
  3
simplex.shx
  4
bigfont.shx
  0
STYLE
  5
269
330
3
100
AcDbSymbolTableRecord
100
AcDbTextStyleTableRecord
  2
ACJISGDT
 70
     0
 40
0.0
 41
1.0
 50
0.0
 71
     0
 42
2.5
  3
amgdtans.shx
  4

  0
ENDTAB
  0
TABLE
  2
VIEW
  5
6
330
0
100
AcDbSymbolTable
 70
     0
  0
ENDTAB
  0
TABLE
  2
UCS
  5
7
330
0
100
AcDbSymbolTable
 70
     0
  0
ENDTAB
  0
TABLE
  2
APPID
  5
9
330
0
100
AcDbSymbolTable
 70
    14
  0
APPID
  5
12
330
9
100
AcDbSymbolTableRecord
100
AcDbRegAppTableRecord
  2
ACAD
 70
     0
  0
APPID
  5
30
330
9
100
AcDbSymbolTableRecord
100
AcDbRegAppTableRecord
  2
MCAD_NO_VIS
 70
     0
  0
APPID
  5
31
330
9
100
AcDbSymbolTableRecord
100
AcDbRegAppTableRecord
  2
ACAD_TEMP_GRAPHIC
 70
     0
  0
APPID
  5
2C2
330
9
100
AcDbSymbolTableRecord
100
AcDbRegAppTableRecord
  2
GENIUS_GENDTOL_13
 70
     0
  0
APPID
  5
339
330
9
100
AcDbSymbolTableRecord
100
AcDbRegAppTableRecord
  2
GENIUS_GENODEF_13
 70
     0
  0
APPID
  5
33A
330
9
100
AcDbSymbolTableRecord
100
AcDbRegAppTableRecord
  2
GENIUS_GENOBJ-N-RSBK_13
 70
     0
  0
APPID
  5
33B
330
9
100
AcDbSymbolTableRecord
100
AcDbRegAppTableRecord
  2
GENIUS_GENOBJ-N-LIB_13
 70
     0
  0
APPID
  5
33C
330
9
100
AcDbSymbolTableRecord
100
AcDbRegAppTableRecord
  2
GENIUS_GENSCALE_13
 70
     0
  0
APPID
  5
378
330
9
100
AcDbSymbolTableRecord
100
AcDbRegAppTableRecord
  2
GENIUS_GENDIMSH_14
 70
     0
  0
APPID
  5
C82
330
9
100
AcDbSymbolTableRecord
100
AcDbRegAppTableRecord
  2
GENIUS_GENOBJ-N-CRS_13
 70
     0
  0
APPID
  5
C83
330
9
100
AcDbSymbolTableRecord
100
AcDbRegAppTableRecord
  2
GENIUS_GENOENT_13
 70
     0
  0
APPID
  5
C84
330
9
100
AcDbSymbolTableRecord
100
AcDbRegAppTableRecord
  2
GENIUS_GENOREF_13
 70
     0
  0
APPID
  5
C85
330
9
100
AcDbSymbolTableRecord
100
AcDbRegAppTableRecord
  2
GENIUS_GENOLIS_13
 70
     0
  0
APPID
  5
CA0
330
9
100
AcDbSymbolTableRecord
100
AcDbRegAppTableRecord
  2
GENIUS_GENOBJ-N-CEN_13
 70
     0
  0
ENDTAB
  0
TABLE
  2
DIMSTYLE
  5
A
330
0
100
AcDbSymbolTable
 70
    10
  0
DIMSTYLE
105
58
330
A
100
AcDbSymbolTableRecord
100
AcDbDimStyleTableRecord
  2
AM_JIS
 70
     0
  3

  4
"
  5
OPEN30
  6

  7

 40
1.0
 41
2.5
 42
1.0
 43
12.0
 44
1.0
 45
0.0
 46
0.0
 47
0.1
 48
0.1
140
3.2
141
0.0
142
0.0
143
0.0393701
144
1.0
145
0.0
146
0.71
147
1.5
 71
     0
 72
     0
 73
     0
 74
     0
 75
     0
 76
     0
 77
     3
 78
     8
170
     0
171
     2
172
     1
173
     0
174
     0
175
     0
176
   256
177
   256
178
     2
270
     2
271
     3
272
     3
273
     2
274
     2
340
6B
275
     0
280
     0
281
     0
282
     0
283
     0
284
     0
285
     0
286
     0
287
     3
288
     0
  0
DIMSTYLE
105
5F
330
A
100
AcDbSymbolTableRecord
100
AcDbDimStyleTableRecord
  2
AM_JIS$3
 70
     0
  3

  4
"
  5
OPEN30
  6

  7

 40
1.0
 41
2.5
 42
1.0
 43
10.0
 44
1.0
 45
0.0
 46
0.0
 47
0.1
 48
0.1
140
3.2
141
0.0
142
0.0
143
0.0393701
144
1.0
145
0.0
146
0.71
147
1.5
 71
     0
 72
     0
 73
     0
 74
     1
 75
     0
 76
     0
 77
     3
 78
     8
170
     0
171
     2
172
     0
173
     0
174
     0
175
     0
176
   256
177
   256
178
     2
270
     2
271
     2
272
     3
273
     2
274
     2
340
6B
275
     0
280
     0
281
     0
282
     0
283
     0
284
     0
285
     0
286
     0
287
     0
288
     1
  0
DIMSTYLE
105
60
330
A
100
AcDbSymbolTableRecord
100
AcDbDimStyleTableRecord
  2
AM_JIS$4
 70
     0
  3

  4
"
  5
OPEN30
  6

  7

 40
1.0
 41
2.5
 42
1.0
 43
10.0
 44
1.0
 45
0.0
 46
0.0
 47
0.1
 48
0.1
140
3.2
141
0.0
142
0.0
143
0.0393701
144
1.0
145
0.0
146
0.71
147
1.5
 71
     0
 72
     0
 73
     0
 74
     1
 75
     0
 76
     0
 77
     3
 78
     8
170
     0
171
     2
172
     0
173
     0
174
     0
175
     0
176
   256
177
   256
178
     2
270
     2
271
     2
272
     3
273
     2
274
     2
340
6B
275
     0
280
     0
281
     0
282
     0
283
     0
284
     0
285
     0
286
     0
287
     0
288
     1
  0
DIMSTYLE
105
61
330
A
100
AcDbSymbolTableRecord
100
AcDbDimStyleTableRecord
  2
AM_JIS$6
 70
     0
  3

  4
"
  5
OPEN30
  6

  7

 40
1.0
 41
2.5
 42
1.0
 43
10.0
 44
1.0
 45
0.0
 46
0.0
 47
0.1
 48
0.1
140
3.2
141
0.0
142
0.0
143
0.0393701
144
1.0
145
0.0
146
0.71
147
1.5
 71
     0
 72
     0
 73
     0
 74
     0
 75
     0
 76
     0
 77
     0
 78
     8
170
     0
171
     2
172
     1
173
     0
174
     0
175
     0
176
   256
177
   256
178
     2
270
     2
271
     2
272
     2
273
     2
274
     2
340
6B
275
     0
280
     0
281
     0
282
     0
283
     0
284
     0
285
     0
286
     0
287
     3
288
     0
  0
DIMSTYLE
105
62
330
A
100
AcDbSymbolTableRecord
100
AcDbDimStyleTableRecord
  2
AM_JIS$7
 70
     0
  3

  4
"
  5
OPEN30
  6

  7

 40
1.0
 41
2.5
 42
1.0
 43
10.0
 44
1.0
 45
0.0
 46
0.0
 47
0.1
 48
0.1
140
3.2
141
0.0
142
0.0
143
0.0393701
144
1.0
145
0.0
146
0.71
147
1.5
 71
     0
 72
     0
 73
     0
 74
     0
 75
     0
 76
     0
 77
     3
 78
     8
170
     0
171
     2
172
     1
173
     0
174
     0
175
     0
176
   256
177
   256
178
     2
270
     2
271
     2
272
     3
273
     2
274
     2
340
6B
275
     0
280
     0
281
     0
282
     0
283
     0
284
     0
285
     0
286
     0
287
     3
288
     0
  0
DIMSTYLE
105
63
330
A
100
AcDbSymbolTableRecord
100
AcDbDimStyleTableRecord
  2
AM_JIS$SF
 70
     0
  3

  4
"
  5
OPEN30
  6

  7

 40
1.0
 41
2.5
 42
1.0
 43
10.0
 44
1.0
 45
0.0
 46
0.0
 47
0.1
 48
0.1
140
3.2
141
0.0
142
0.0
143
0.0393701
144
1.0
145
0.0
146
0.71
147
1.5
 71
     0
 72
     0
 73
     0
 74
     0
 75
     1
 76
     1
 77
     3
 78
     8
170
     0
171
     2
172
     1
173
     0
174
     0
175
     0
176
   256
177
   256
178
     2
270
     2
271
     2
272
     2
273
     2
274
     2
340
6B
275
     0
280
     0
281
     0
282
     0
283
     0
284
     0
285
     0
286
     0
287
     3
288
     0
  0
DIMSTYLE
105
68
330
A
100
AcDbSymbolTableRecord
100
AcDbDimStyleTableRecord
  2
AM_JIS$SH
 70
     0
  3

  4
"
  5

  6
GENAXEH
  7
OPEN30
 40
1.0
 41
2.5
 42
1.0
 43
10.0
 44
1.0
 45
0.0
 46
0.0
 47
0.1
 48
0.1
140
3.2
141
0.0
142
0.0
143
0.0393701
144
2.0
145
0.0
146
0.71
147
1.5
 71
     0
 72
     0
 73
     0
 74
     0
 75
     1
 76
     1
 77
     3
 78
     8
170
     0
171
     2
172
     1
173
     1
174
     0
175
     0
176
   256
177
   256
178
     2
270
     2
271
     2
272
     2
273
     2
274
     2
340
6B
275
     0
280
     0
281
     0
282
     0
283
     0
284
     0
285
     0
286
     0
287
     3
288
     0
  0
DIMSTYLE
105
B34
102
{ACAD_REACTORS
330
36BA
102
}
330
A
100
AcDbSymbolTableRecord
100
AcDbDimStyleTableRecord
  2
AM_JIS$2
 70
     0
  3

  4
"
  5
OPEN30
  6

  7

 40
1.0
 41
2.5
 42
1.0
 43
12.0
 44
1.0
 45
0.0
 46
0.0
 47
0.1
 48
0.1
140
3.2
141
0.0
142
0.0
143
0.0393701
144
1.0
145
0.0
146
0.71
147
1.5
 71
     0
 72
     0
 73
     0
 74
     0
 75
     0
 76
     0
 77
     3
 78
     8
170
     0
171
     2
172
     1
173
     0
174
     0
175
     0
176
   256
177
   256
178
     2
270
     2
271
     3
272
     3
273
     2
274
     2
340
6B
275
     0
280
     0
281
     0
282
     0
283
     0
284
     0
285
     0
286
     0
287
     3
288
     0
  0
DIMSTYLE
105
BA5
102
{ACAD_REACTORS
330
3B0D
330
3BB8
330
3CCB
330
43AC
330
43A5
330
43AD
330
43A4
330
4515
330
471A
102
}
330
A
100
AcDbSymbolTableRecord
100
AcDbDimStyleTableRecord
  2
AM_JIS$0
 70
     0
  3

  4
"
  5
OPEN30
  6

  7

 40
1.0
 41
2.5
 42
0.8
 43
10.0
 44
1.0
 45
0.0
 46
0.0
 47
0.1
 48
0.1000000001
140
3.799999999999999
141
0.0
142
0.0
143
0.0393701
144
1.0
145
0.0
146
0.71
147
1.5
 71
     0
 72
     0
 73
     0
 74
     0
 75
     0
 76
     0
 77
     3
 78
     9
170
     0
171
     2
172
     1
173
     0
174
     0
175
     0
176
     3
177
     3
178
     2
270
     2
271
     2
272
     2
273
     2
274
     2
340
11
275
     1
280
     0
281
     0
282
     0
283
     0
284
     8
285
     0
286
     0
287
     0
288
     0
  0
DIMSTYLE
105
BA6
330
A
100
AcDbSymbolTableRecord
100
AcDbDimStyleTableRecord
  2
AM_JISORG-1P0$2
 70
     0
  3

  4
"
  5
OPEN30
  6

  7

 40
1.0
 41
2.5
 42
0.0
 43
10.0
 44
1.0
 45
0.0
 46
0.0
 47
0.1
 48
0.1000000001
140
3.799999999999999
141
0.0
142
0.0
143
0.0393701
144
-0.999999980146674
145
0.0
146
0.71
147
1.5
 71
     0
 72
     0
 73
     0
 74
     0
 75
     0
 76
     0
 77
     3
 78
     1
170
     0
171
     2
172
     1
173
     0
174
     0
175
     0
176
     3
177
     3
178
     2
270
     2
271
     2
272
     2
273
     2
274
     2
340
11
275
     1
280
     0
281
     0
282
     0
283
     0
284
     8
285
     0
286
     0
287
     0
288
     0
  0
ENDTAB
  0
TABLE
  2
BLOCK_RECORD
  5
1
330
0
100
AcDbSymbolTable
 70
    19
  0
BLOCK_RECORD
  5
1F
102
{ACAD_XDICTIONARY
360
74
102
}
330
1
100
AcDbSymbolTableRecord
100
AcDbBlockTableRecord
  2
*MODEL_SPACE
  0
BLOCK_RECORD
  5
101
102
{ACAD_XDICTIONARY
360
4891
102
}
330
1
100
AcDbSymbolTableRecord
100
AcDbBlockTableRecord
  2
*PAPER_SPACE
  0
BLOCK_RECORD
  5
59
330
1
100
AcDbSymbolTableRecord
100
AcDbBlockTableRecord
  2
_OPEN30
  0
BLOCK_RECORD
  5
64
330
1
100
AcDbSymbolTableRecord
100
AcDbBlockTableRecord
  2
GENAXEH
  0
BLOCK_RECORD
  5
C31
330
1
100
AcDbSymbolTableRecord
100
AcDbBlockTableRecord
  2
A$C36D02A34
  0
BLOCK_RECORD
  5
2453
330
1
100
AcDbSymbolTableRecord
100
AcDbBlockTableRecord
  2
*D6
  0
BLOCK_RECORD
  5
245F
330
1
100
AcDbSymbolTableRecord
100
AcDbBlockTableRecord
  2
A$C4FFC6CC0
  0
BLOCK_RECORD
  5
36BB
330
1
100
AcDbSymbolTableRecord
100
AcDbBlockTableRecord
  2
*D8
  0
BLOCK_RECORD
  5
3B0E
330
1
100
AcDbSymbolTableRecord
100
AcDbBlockTableRecord
  2
*D9
  0
BLOCK_RECORD
  5
3BB9
330
1
100
AcDbSymbolTableRecord
100
AcDbBlockTableRecord
  2
*D10
  0
BLOCK_RECORD
  5
3CCC
330
1
100
AcDbSymbolTableRecord
100
AcDbBlockTableRecord
  2
*D11
  0
BLOCK_RECORD
  5
43B5
330
1
100
AcDbSymbolTableRecord
100
AcDbBlockTableRecord
  2
*D12
  0
BLOCK_RECORD
  5
43C1
330
1
100
AcDbSymbolTableRecord
100
AcDbBlockTableRecord
  2
*D13
  0
BLOCK_RECORD
  5
43CD
330
1
100
AcDbSymbolTableRecord
100
AcDbBlockTableRecord
  2
*D14
  0
BLOCK_RECORD
  5
43DB
330
1
100
AcDbSymbolTableRecord
100
AcDbBlockTableRecord
  2
*D15
  0
BLOCK_RECORD
  5
4516
330
1
100
AcDbSymbolTableRecord
100
AcDbBlockTableRecord
  2
*D16
  0
BLOCK_RECORD
  5
471B
330
1
100
AcDbSymbolTableRecord
100
AcDbBlockTableRecord
  2
*D17
  0
ENDTAB
  0
ENDSEC
  0
SECTION
  2
BLOCKS
  0
BLOCK
  5
20
330
1F
100
AcDbEntity
  8
0
100
AcDbBlockBegin
  2
*MODEL_SPACE
 70
     0
 10
0.0
 20
0.0
 30
0.0
  3
*MODEL_SPACE
  1

  0
ENDBLK
  5
21
330
1F
100
AcDbEntity
  8
0
100
AcDbBlockEnd
  0
BLOCK
  5
103
330
101
100
AcDbEntity
 67
     1
  8
0
100
AcDbBlockBegin
  2
*PAPER_SPACE
 70
     0
 10
0.0
 20
0.0
 30
0.0
  3
*PAPER_SPACE
  1

  0
ENDBLK
  5
104
330
101
100
AcDbEntity
 67
     1
  8
0
100
AcDbBlockEnd
  0
BLOCK
  5
5D
330
59
100
AcDbEntity
  8
0
100
AcDbBlockBegin
  2
_OPEN30
 70
     0
 10
0.0
 20
0.0
 30
0.0
  3
_OPEN30
  1

  0
LINE
  5
5A
330
59
100
AcDbEntity
  8
0
 62
     0
100
AcDbLine
 10
-1.0
 20
0.26794919
 30
0.0
 11
0.0
 21
0.0
 31
0.0
  0
LINE
  5
5B
330
59
100
AcDbEntity
  8
0
 62
     0
100
AcDbLine
 10
0.0
 20
0.0
 30
0.0
 11
-1.0
 21
-0.26794919
 31
0.0
  0
LINE
  5
5C
330
59
100
AcDbEntity
  8
0
 62
     0
100
AcDbLine
 10
0.0
 20
0.0
 30
0.0
 11
-1.0
 21
0.0
 31
0.0
  0
ENDBLK
  5
5E
330
59
100
AcDbEntity
  8
0
100
AcDbBlockEnd
  0
BLOCK
  5
66
330
64
100
AcDbEntity
  8
0
100
AcDbBlockBegin
  2
GENAXEH
 70
     0
 10
0.0
 20
0.0
 30
0.0
  3
GENAXEH
  1

  0
LINE
  5
65
330
64
100
AcDbEntity
  8
0
100
AcDbLine
 10
-1.0
 20
0.0
 30
0.0
 11
1.0
 21
0.0
 31
0.0
  0
ENDBLK
  5
67
330
64
100
AcDbEntity
  8
0
100
AcDbBlockEnd
  0
BLOCK
  5
C4B
330
C31
100
AcDbEntity
  8
0
100
AcDbBlockBegin
  2
A$C36D02A34
 70
     0
 10
0.0
 20
0.0
 30
0.0
  3
A$C36D02A34
  1

  0
ARC
  5
C32
330
C31
100
AcDbEntity
  8
PV0001_1
  6
CONTINUOUS
 48
0.5
100
AcDbCircle
 10
18.06811523436999
 20
-11.83651161193799
 30
0.0
 40
21.600000381469
100
AcDbArc
 50
123.2290435713209
 51
126.6341524197568
  0
ARC
  5
C33
330
C31
100
AcDbEntity
  8
PV0001_1
  6
CONTINUOUS
 48
0.5
100
AcDbCircle
 10
18.06811523436999
 20
-11.83651161193799
 30
0.0
 40
21.600000381469
100
AcDbArc
 50
135.0736707620117
 51
146.7709980930592
  0
ARC
  5
C34
330
C31
100
AcDbEntity
  8
PV0001_1
  6
CONTINUOUS
 48
0.5
100
AcDbCircle
 10
-18.0680770874
 20
11.8365631103514
 30
0.0
 40
21.600000381469
100
AcDbArc
 50
315.0734847530392
 51
326.770781348241
  0
ARC
  5
C35
330
C31
100
AcDbEntity
  8
PV0001_1
  6
CONTINUOUS
 48
0.5
100
AcDbCircle
 10
-18.0680770874
 20
11.8365631103514
 30
0.0
 40
21.600000381469
100
AcDbArc
 50
303.2288882981993
 51
306.633986901359
  0
ARC
  5
C36
330
C31
100
AcDbEntity
  8
PV0001_1
  6
CONTINUOUS
 48
0.5
100
AcDbCircle
 10
-0.6269836425800009
 20
-2.044216156005997
 30
0.0
 40
2.0
100
AcDbArc
 50
337.4067997351092
 51
43.42231293132884
  0
ARC
  5
C37
330
C31
100
AcDbEntity
  8
PV0001_1
  6
CONTINUOUS
 48
0.5
100
AcDbCircle
 10
0.626953125
 20
2.044223785401001
 30
0.0
 40
2.0
100
AcDbArc
 50
157.4068184044407
 51
223.4222769591536
  0
CIRCLE
  5
C38
330
C31
100
AcDbEntity
  8
PV0001_1
  6
CONTINUOUS
 48
0.5
100
AcDbCircle
 10
3.856727600100001
 20
4.596265792847002
 30
0.0
 40
1.6000000238419
  0
CIRCLE
  5
C39
330
C31
100
AcDbEntity
  8
PV0001_1
  6
CONTINUOUS
 48
0.5
100
AcDbCircle
 10
-3.856727600100001
 20
-4.596265792845997
 30
0.0
 40
1.6000000238419
  0
ARC
  5
C3A
330
C31
100
AcDbEntity
  8
PV0001_1
  6
CONTINUOUS
 48
0.5
100
AcDbCircle
 10
-5.58123779297
 20
5.092639923096001
 30
0.0
 40
5.019082546234099
100
AcDbArc
 50
240.2658959250867
 51
321.5156269706421
  0
ARC
  5
C3B
330
C31
100
AcDbEntity
  8
PV0001_1
  6
CONTINUOUS
 48
0.5
100
AcDbCircle
 10
5.486755371089998
 20
-4.601703643798998
 30
0.0
 40
4.651036739349399
100
AcDbArc
 50
56.25271400417071
 51
145.528859890601
  0
ARC
  5
C3C
330
C31
100
AcDbEntity
  8
PV0001_1
  6
CONTINUOUS
 48
0.5
100
AcDbCircle
 10
-2.11590576172
 20
-3.453323364257997
 30
0.0
 40
4.050000190734899
100
AcDbArc
 50
43.42230610113921
 51
58.50391703385149
  0
ARC
  5
C3D
330
C31
100
AcDbEntity
  8
PV0001_1
  6
CONTINUOUS
 48
0.5
100
AcDbCircle
 10
2.115875244139999
 20
3.453330993653001
 30
0.0
 40
4.050000190734899
100
AcDbArc
 50
223.4222942619974
 51
238.5038164022482
  0
ARC
  5
C3E
330
C31
100
AcDbEntity
  8
PV0001_1
  6
CONTINUOUS
 48
0.5
100
AcDbCircle
 10
-6.70369720459
 20
5.094657897949002
 30
0.0
 40
5.940000057220499
100
AcDbArc
 50
328.2536768887549
 51
31.74641873389623
  0
ARC
  5
C3F
330
C31
100
AcDbEntity
  8
PV0001_1
  6
CONTINUOUS
 48
0.5
100
AcDbCircle
 10
6.703674316410001
 20
-5.094650268553998
 30
0.0
 40
5.940000057220499
100
AcDbArc
 50
148.2533403882529
 51
211.7466423089037
  0
ARC
  5
C40
330
C31
100
AcDbEntity
  8
PV0001_1
  6
CONTINUOUS
 48
0.5
100
AcDbCircle
 10
0.0
 20
0.0
 30
0.0
 40
8.812800407409699
100
AcDbArc
 50
175.2198288164333
 51
272.8622597568298
  0
ARC
  5
C41
330
C31
100
AcDbEntity
  8
PV0001_1
  6
CONTINUOUS
 48
0.5
100
AcDbCircle
 10
0.0
 20
0.0
 30
0.0
 40
9.1800003051758
100
AcDbArc
 50
272.7511362215027
 51
280.3697477877874
  0
ARC
  5
C42
330
C31
100
AcDbEntity
  8
PV0001_1
  6
CONTINUOUS
 48
0.5
100
AcDbCircle
 10
0.0
 20
0.0
 30
0.0
 40
8.812800407409699
100
AcDbArc
 50
355.2198199654955
 51
92.86229572901076
  0
ARC
  5
C43
330
C31
100
AcDbEntity
  8
PV0001_1
  6
CONTINUOUS
 48
0.5
100
AcDbCircle
 10
0.0
 20
0.0
 30
0.0
 40
9.1800003051758
100
AcDbArc
 50
92.75115489083434
 51
100.3697664571193
  0
CIRCLE
  5
C44
330
C31
100
AcDbEntity
  8
PV0001_1
  6
CONTINUOUS
100
AcDbCircle
 10
0.0
 20
0.0
 30
0.0
 40
9.1800003051758
  0
LINE
  5
C45
330
C31
100
AcDbEntity
  8
PV0001_1
  6
CONTINUOUS
 48
0.5
100
AcDbLine
 10
-1.652404785160001
 20
9.030059814453
 30
0.0
 11
-1.652404785160001
 21
8.220062255860002
 31
0.0
  0
LINE
  5
C46
330
C31
100
AcDbEntity
  8
PV0001_1
  6
CONTINUOUS
 48
0.5
100
AcDbLine
 10
1.652404785160001
 20
-8.220058441161999
 30
0.0
 11
1.652404785160001
 21
-9.030055999755997
 31
0.0
  0
LINE
  5
C47
330
C31
100
AcDbEntity
  8
PV0001_1
  6
CONTINUOUS
 48
0.5
100
AcDbLine
 10
-8.78217315674
 20
0.7343807220460015
 30
0.0
 11
-8.070594787600001
 21
0.7343997955320028
 31
0.0
  0
LINE
  5
C48
330
C31
100
AcDbEntity
  8
PV0001_1
  6
CONTINUOUS
 48
0.5
100
AcDbLine
 10
8.07057952881
 20
-0.7343864440919994
 30
0.0
 11
8.78215789795
 21
-0.7343654632569994
 31
0.0
  0
LINE
  5
C49
330
C31
100
AcDbEntity
  8
PV0001_1
  6
CONTINUOUS
 48
0.5
100
AcDbLine
 10
0.4406127929700006
 20
-9.169414520263
 30
0.0
 11
0.4406127929700006
 21
-8.812801361083998
 31
0.0
  0
LINE
  5
C4A
330
C31
100
AcDbEntity
  8
PV0001_1
  6
CONTINUOUS
 48
0.5
100
AcDbLine
 10
-0.4406127929700006
 20
9.169418334961001
 30
0.0
 11
-0.4406127929700006
 21
8.812805175781001
 31
0.0
  0
ENDBLK
  5
C4C
330
C31
100
AcDbEntity
  8
0
100
AcDbBlockEnd
  0
BLOCK
  5
245D
330
2453
100
AcDbEntity
  8
0
100
AcDbBlockBegin
  2
*D6
 70
     1
 10
0.0
 20
0.0
 30
0.0
  3
*D6
  1

  0
LINE
  5
2454
330
2453
100
AcDbEntity
  8
AM_5
 62
     3
100
AcDbLine
 10
-137.574381722344
 20
-5.00000294019065
 30
0.0
 11
-152.8199008769066
 21
-5.000002940190694
 31
0.0
  0
LINE
  5
2455
330
2453
100
AcDbEntity
  8
AM_5
 62
     3
100
AcDbLine
 10
-137.5743817223442
 20
5.00002461040103
 30
0.0
 11
-152.8199008769066
 21
5.000024610400987
 31
0.0
  0
LINE
  5
2456
330
2453
100
AcDbEntity
  8
AM_5
 62
     3
100
AcDbLine
 10
-151.8199008769066
 20
-2.500002940190691
 30
0.0
 11
-151.8199008769066
 21
2.50002461040099
 31
0.0
  0
INSERT
  5
2457
330
2453
100
AcDbEntity
  8
AM_5
 62
     3
100
AcDbBlockReference
  2
_OPEN30
 10
-151.8199008769066
 20
-5.00000294019069
 30
0.0
 41
2.5
 42
2.5
 43
2.5
 50
270.0000000000001
  0
INSERT
  5
2458
330
2453
100
AcDbEntity
  8
AM_5
 62
     3
100
AcDbBlockReference
  2
_OPEN30
 10
-151.8199008769066
 20
5.00002461040099
 30
0.0
 41
2.5
 42
2.5
 43
2.5
 50
90.00000000000015
  0
MTEXT
  5
2459
330
2453
100
AcDbEntity
  8
AM_5
 62
     2
100
AcDbMText
 10
-155.2199008769066
 20
0.000010835105146
 30
0.0
 40
3.799999999999999
 41
0.0
 71
     5
 72
     1
  1
%%c10
 11
-0.0000000000000028
 21
1.0
 31
0.0
1001
ACAD
1000
MTEXTBEGIN
1070
    73
1070
     1
1070
    44
1040
1.0
1070
    74
1070
     0
1000
MTEXTEND
  0
POINT
  5
245A
330
2453
100
AcDbEntity
  8
DEFPOINTS
 62
     0
100
AcDbPoint
 10
-137.5743817223441
 20
-5.000002940190223
 30
0.0
  0
POINT
  5
245B
330
2453
100
AcDbEntity
  8
DEFPOINTS
 62
     0
100
AcDbPoint
 10
-137.5743817223441
 20
5.000024610401458
 30
0.0
  0
POINT
  5
245C
330
2453
100
AcDbEntity
  8
DEFPOINTS
 62
     0
100
AcDbPoint
 10
-151.8199008769066
 20
5.000024610401462
 30
0.0
  0
ENDBLK
  5
245E
330
2453
100
AcDbEntity
  8
0
100
AcDbBlockEnd
  0
BLOCK
  5
246B
330
245F
100
AcDbEntity
  8
0
100
AcDbBlockBegin
  2
A$C4FFC6CC0
 70
     0
 10
0.0
 20
0.0
 30
0.0
  3
A$C4FFC6CC0
  1

  0
DIMENSION
  5
2460
330
245F
100
AcDbEntity
  8
AM_5
100
AcDbDimension
  2
*D6
 10
-70.00000100000002
 20
5.000008477104842
 30
0.0
 11
-70.00000100000002
 21
-0.0000052981910228
 31
0.0
 12
81.81989987690661
 22
-0.0000161332966199
 32
0.0
 70
   128
  1
%%c<>
 51
359.9999999999998
  3
AM_JIS$0
100
AcDbAlignedDimension
 13
-55.75448184543748
 23
-5.000019073486843
 33
0.0
 14
-55.75448184543756
 24
5.000008477104838
 34
0.0
 50
270.0
100
AcDbRotatedDimension
1001
ACAD
1000
DSTYLE
1002
{
1070
   271
1070
     0
1002
}
1001
GENIUS_GENDTOL_13
1000

1000
h7
1000

1040
0.0
  0
LINE
  5
2461
330
245F
100
AcDbEntity
  8
AM_0
 48
0.5
100
AcDbLine
 10
-56.0
 20
-4.754495620727796
 30
0.0
 11
-56.00000000000003
 21
4.754485024345811
 31
0.0
  0
LINE
  5
2462
330
245F
100
AcDbEntity
  8
AM_0
 48
0.5
100
AcDbLine
 10
-55.75448184543751
 20
-5.000019073486843
 30
0.0
 11
-55.75448184543754
 21
5.000008477104838
 31
0.0
  0
LINE
  5
2463
330
245F
100
AcDbEntity
  8
AM_0
100
AcDbLine
 10
-0.0000000000000142
 20
4.999995231627903
 30
0.0
 11
-55.75448184543754
 21
4.999995231627746
 31
0.0
  0
LINE
  5
2464
330
245F
100
AcDbEntity
  8
AM_0
 48
0.5
100
AcDbLine
 10
-55.99996821086117
 20
4.754439989725671
 30
0.0
 11
-55.75443945990975
 21
4.999963442484006
 31
0.0
  0
LINE
  5
2465
330
245F
100
AcDbEntity
  8
AM_0
100
AcDbLine
 10
-55.75448184543751
 20
-5.000008477105588
 30
0.0
 11
0.0000000000000142
 21
-5.00000847710543
 31
0.0
  0
LINE
  5
2466
330
245F
100
AcDbEntity
  8
AM_0
 48
0.5
100
AcDbLine
 10
-55.99996821086114
 20
-4.754474427965309
 30
0.0
 11
-55.75443945990972
 21
-4.999997880724334
 31
0.0
  0
LINE
  5
2467
330
245F
100
AcDbEntity
  8
AM_0
100
AcDbLine
 10
0.7794201296714505
 20
4.549985867772141
 30
0.0
 11
0.7794201296714789
 21
-4.550003370497427
 31
0.0
  0
LINE
  5
2468
330
245F
100
AcDbEntity
  8
AM_0
 48
0.5
100
AcDbLine
 10
0.0000000000000142
 20
-5.00000847710543
 30
0.0
 11
-0.0000000000000142
 21
5.000008477104995
 31
0.0
  0
LINE
  5
2469
330
245F
100
AcDbEntity
  8
AM_0
 48
0.5
100
AcDbLine
 10
0.7794201296714647
 20
-4.550003370497435
 30
0.0
 11
-0.0000105963812445
 21
-5.00000847710543
 31
0.0
  0
LINE
  5
246A
330
245F
100
AcDbEntity
  8
AM_0
 48
0.5
100
AcDbLine
 10
0.7794201296714647
 20
4.549985867772141
 30
0.0
 11
-0.0000000000000142
 21
4.999984635246652
 31
0.0
  0
ENDBLK
  5
246C
330
245F
100
AcDbEntity
  8
0
100
AcDbBlockEnd
  0
BLOCK
  5
36C9
330
36BB
100
AcDbEntity
  8
0
100
AcDbBlockBegin
  2
*D8
 70
     1
 10
0.0
 20
0.0
 30
0.0
  3
*D8
  1

  0
LINE
  5
4344
330
36BB
100
AcDbEntity
  8
AM_5
100
AcDbLine
 10
0.3420201408161512
 20
-0.9396926216994554
 30
0.0
 11
9.350682794821089
 21
-25.69079004872987
 31
0.0
  0
LINE
  5
4345
330
36BB
100
AcDbEntity
  8
AM_5
100
AcDbLine
 10
0.3420201408161402
 20
0.9396926216991644
 30
0.0
 11
9.350682794820791
 21
25.69079004872969
 31
0.0
  0
ARC
  5
4346
330
36BB
100
AcDbEntity
  8
AM_5
100
AcDbCircle
 10
0.0000000000000272
 20
-0.0000000000001474
 30
0.0
 40
26.33956770062894
100
AcDbArc
 50
295.4402284706612
 51
64.5597715293395
  0
INSERT
  5
4347
330
36BB
100
AcDbEntity
  8
AM_5
100
AcDbBlockReference
  2
_OPEN30
 10
9.008662654004965
 20
-24.75109742703057
 30
0.0
 41
2.5
 42
2.5
 43
2.5
 50
202.7201141588234
  0
INSERT
  5
4348
330
36BB
100
AcDbEntity
  8
AM_5
100
AcDbBlockReference
  2
_OPEN30
 10
9.008662654004679
 20
24.75109742703038
 30
0.0
 41
2.5
 42
2.5
 43
2.5
 50
157.2798858411772
  0
MTEXT
  5
4349
330
36BB
100
AcDbEntity
  8
AM_5
 62
     2
100
AcDbMText
 10
23.23956770062896
 20
0.0000000000000077
 30
0.0
 40
3.2
 41
0.0
 71
     5
 72
     1
  1
140°
  7
ASAMI
 11
-0.0000000000000028
 21
1.0
 31
0.0
1001
ACAD
1000
MTEXTBEGIN
1070
    73
1070
     1
1070
    44
1040
1.0
1070
    74
1070
     0
1000
MTEXTEND
  0
POINT
  5
434A
330
36BB
100
AcDbEntity
  8
DEFPOINTS
 62
     0
100
AcDbPoint
 10
24.18541530169386
 20
-10.43256983396765
 30
0.0
  0
POINT
  5
434B
330
36BB
100
AcDbEntity
  8
DEFPOINTS
 62
     0
100
AcDbPoint
 10
0.0
 20
-0.0000000000002222
 30
0.0
  0
POINT
  5
434C
330
36BB
100
AcDbEntity
  8
DEFPOINTS
 62
     0
100
AcDbPoint
 10
0.0
 20
-0.0000000000000725
 30
0.0
  0
POINT
  5
434D
330
36BB
100
AcDbEntity
  8
DEFPOINTS
 62
     0
100
AcDbPoint
 10
-2.635646502095813
 20
7.241379310344597
 30
0.0
  0
POINT
  5
434E
330
36BB
100
AcDbEntity
  8
DEFPOINTS
 62
     0
100
AcDbPoint
 10
-2.635646502095776
 20
-7.241379310344909
 30
0.0
  0
ENDBLK
  5
36CA
330
36BB
100
AcDbEntity
  8
0
100
AcDbBlockEnd
  0
BLOCK
  5
3B18
330
3B0E
100
AcDbEntity
  8
0
100
AcDbBlockBegin
  2
*D9
 70
     1
 10
0.0
 20
0.0
 30
0.0
  3
*D9
  1

  0
LINE
  5
47B0
330
3B0E
100
AcDbEntity
  8
AM_5
 62
     3
100
AcDbLine
 10
-3.002744754632652
 20
8.799999999999867
 30
0.0
 11
-3.0027447546327
 21
25.67627078198594
 31
0.0
  0
LINE
  5
47B1
330
3B0E
100
AcDbEntity
  8
AM_5
 62
     3
100
AcDbLine
 10
-94.00274475463261
 20
8.800000000000537
 30
0.0
 11
-94.00274475463266
 21
25.67627078198567
 31
0.0
  0
LINE
  5
47B2
330
3B0E
100
AcDbEntity
  8
AM_5
 62
     3
100
AcDbLine
 10
-5.502744754632697
 20
24.67627078198592
 30
0.0
 11
-91.50274475463266
 21
24.67627078198567
 31
0.0
  0
INSERT
  5
47B3
330
3B0E
100
AcDbEntity
  8
AM_5
 62
     3
100
AcDbBlockReference
  2
_OPEN30
 10
-3.002744754632697
 20
24.67627078198594
 30
0.0
 41
2.5
 42
2.5
 43
2.5
 50
0.0000000000001527
  0
INSERT
  5
47B4
330
3B0E
100
AcDbEntity
  8
AM_5
 62
     3
100
AcDbBlockReference
  2
_OPEN30
 10
-94.00274475463266
 20
24.67627078198567
 30
0.0
 41
2.5
 42
2.5
 43
2.5
 50
180.0000000000001
  0
MTEXT
  5
47B5
330
3B0E
100
AcDbEntity
  8
AM_5
 62
     2
100
AcDbMText
 10
-48.50274475463269
 20
28.0762707819858
 30
0.0
 40
3.799999999999999
 41
0.0
 71
     5
 72
     1
  1
91
1001
ACAD
1000
MTEXTBEGIN
1070
    73
1070
     1
1070
    44
1040
1.0
1070
    74
1070
     0
1000
MTEXTEND
  0
POINT
  5
47B6
330
3B0E
100
AcDbEntity
  8
DEFPOINTS
 62
     0
100
AcDbPoint
 10
-3.002744754632626
 20
7.999999999999876
 30
0.0
  0
POINT
  5
47B7
330
3B0E
100
AcDbEntity
  8
DEFPOINTS
 62
     0
100
AcDbPoint
 10
-94.00274475463259
 20
8.00000000000081
 30
0.0
  0
POINT
  5
47B8
330
3B0E
100
AcDbEntity
  8
DEFPOINTS
 62
     0
100
AcDbPoint
 10
-94.00274475463259
 20
24.67627078198594
 30
0.0
  0
ENDBLK
  5
3B19
330
3B0E
100
AcDbEntity
  8
0
100
AcDbBlockEnd
  0
BLOCK
  5
3BC3
330
3BB9
100
AcDbEntity
  8
0
100
AcDbBlockBegin
  2
*D10
 70
     1
 10
0.0
 20
0.0
 30
0.0
  3
*D10
  1

  0
LINE
  5
4778
330
3BB9
100
AcDbEntity
  8
AM_5
 62
     3
100
AcDbLine
 10
-3.002754407744799
 20
-8.274972191323849
 30
0.0
 11
-3.00275440774472
 21
-36.06377102797422
 31
0.0
  0
LINE
  5
4779
330
3BB9
100
AcDbEntity
  8
AM_5
 62
     3
100
AcDbLine
 10
-118.0027447546324
 20
-10.80000686645606
 30
0.0
 11
-118.0027447546324
 21
-36.06377102797455
 31
0.0
  0
LINE
  5
477A
330
3BB9
100
AcDbEntity
  8
AM_5
 62
     3
100
AcDbLine
 10
-5.502754407744722
 20
-35.06377102797422
 30
0.0
 11
-115.5027447546324
 21
-35.06377102797454
 31
0.0
  0
INSERT
  5
477B
330
3BB9
100
AcDbEntity
  8
AM_5
 62
     3
100
AcDbBlockReference
  2
_OPEN30
 10
-3.002754407744722
 20
-35.06377102797422
 30
0.0
 41
2.5
 42
2.5
 43
2.5
 50
0.0000000000001527
  0
INSERT
  5
477C
330
3BB9
100
AcDbEntity
  8
AM_5
 62
     3
100
AcDbBlockReference
  2
_OPEN30
 10
-118.0027447546324
 20
-35.06377102797455
 30
0.0
 41
2.5
 42
2.5
 43
2.5
 50
180.0000000000001
  0
MTEXT
  5
477D
330
3BB9
100
AcDbEntity
  8
AM_5
 62
     2
100
AcDbMText
 10
-60.50274958118858
 20
-31.66377102797439
 30
0.0
 40
3.799999999999999
 41
0.0
 71
     5
 72
     1
  1
115
1001
ACAD
1000
MTEXTBEGIN
1070
    73
1070
     1
1070
    44
1040
1.0
1070
    74
1070
     0
1000
MTEXTEND
  0
POINT
  5
477E
330
3BB9
100
AcDbEntity
  8
DEFPOINTS
 62
     0
100
AcDbPoint
 10
-3.002754407744823
 20
-7.474972191323839
 30
0.0
  0
POINT
  5
477F
330
3BB9
100
AcDbEntity
  8
DEFPOINTS
 62
     0
100
AcDbPoint
 10
-118.0027447546325
 20
-10.00000686645571
 30
0.0
  0
POINT
  5
4780
330
3BB9
100
AcDbEntity
  8
DEFPOINTS
 62
     0
100
AcDbPoint
 10
-118.0027447546325
 20
-35.06377102797421
 30
0.0
  0
ENDBLK
  5
3BC4
330
3BB9
100
AcDbEntity
  8
0
100
AcDbBlockEnd
  0
BLOCK
  5
3CD6
330
3CCC
100
AcDbEntity
  8
0
100
AcDbBlockBegin
  2
*D11
 70
     1
 10
0.0
 20
0.0
 30
0.0
  3
*D11
  1

  0
LINE
  5
476F
330
3CCC
100
AcDbEntity
  8
AM_5
 62
     3
100
AcDbLine
 10
-3.002744754632561
 20
-8.274972191323769
 30
0.0
 11
-3.00274475463245
 21
-47.04100792062191
 31
0.0
  0
LINE
  5
4770
330
3CCC
100
AcDbEntity
  8
AM_5
 62
     3
100
AcDbLine
 10
-168.0027447546324
 20
-10.26969909668033
 30
0.0
 11
-168.0027447546323
 21
-47.04100792062239
 31
0.0
  0
LINE
  5
4771
330
3CCC
100
AcDbEntity
  8
AM_5
 62
     3
100
AcDbLine
 10
-5.502744754632453
 20
-46.04100792062191
 30
0.0
 11
-165.5027447546323
 21
-46.04100792062238
 31
0.0
  0
INSERT
  5
4772
330
3CCC
100
AcDbEntity
  8
AM_5
 62
     3
100
AcDbBlockReference
  2
_OPEN30
 10
-3.002744754632453
 20
-46.0410079206219
 30
0.0
 41
2.5
 42
2.5
 43
2.5
 50
0.0000000000001527
  0
INSERT
  5
4773
330
3CCC
100
AcDbEntity
  8
AM_5
 62
     3
100
AcDbBlockReference
  2
_OPEN30
 10
-168.0027447546323
 20
-46.04100792062239
 30
0.0
 41
2.5
 42
2.5
 43
2.5
 50
180.0000000000001
  0
MTEXT
  5
4774
330
3CCC
100
AcDbEntity
  8
AM_5
 62
     2
100
AcDbMText
 10
-85.50274475463242
 20
-42.64100792062214
 30
0.0
 40
3.799999999999999
 41
0.0
 71
     5
 72
     1
  1
165
1001
ACAD
1000
MTEXTBEGIN
1070
    73
1070
     1
1070
    44
1040
1.0
1070
    74
1070
     0
1000
MTEXTEND
  0
POINT
  5
4775
330
3CCC
100
AcDbEntity
  8
DEFPOINTS
 62
     0
100
AcDbPoint
 10
-3.002744754632585
 20
-7.47497219132376
 30
0.0
  0
POINT
  5
4776
330
3CCC
100
AcDbEntity
  8
DEFPOINTS
 62
     0
100
AcDbPoint
 10
-168.0027447546324
 20
-9.469699096679844
 30
0.0
  0
POINT
  5
4777
330
3CCC
100
AcDbEntity
  8
DEFPOINTS
 62
     0
100
AcDbPoint
 10
-168.0027447546324
 20
-46.04100792062189
 30
0.0
  0
ENDBLK
  5
3CD7
330
3CCC
100
AcDbEntity
  8
0
100
AcDbBlockEnd
  0
BLOCK
  5
43BF
330
43B5
100
AcDbEntity
  8
0
100
AcDbBlockBegin
  2
*D12
 70
     1
 10
0.0
 20
0.0
 30
0.0
  3
*D12
  1

  0
LINE
  5
479E
330
43B5
100
AcDbEntity
  8
AM_5
 62
     3
100
AcDbLine
 10
-168.2724255407776
 20
10.00002975463851
 30
0.0
 11
-182.5784161413564
 21
10.00002975463852
 31
0.0
  0
LINE
  5
479F
330
43B5
100
AcDbEntity
  8
AM_5
 62
     3
100
AcDbLine
 10
-168.2724255407775
 20
-9.999892427507957
 30
0.0
 11
-182.5784161413564
 21
-9.999892427507951
 31
0.0
  0
LINE
  5
47A0
330
43B5
100
AcDbEntity
  8
AM_5
 62
     3
100
AcDbLine
 10
-181.5784161413564
 20
7.500029754638522
 30
0.0
 11
-181.5784161413564
 21
-7.499892427507954
 31
0.0
  0
INSERT
  5
47A1
330
43B5
100
AcDbEntity
  8
AM_5
 62
     3
100
AcDbBlockReference
  2
_OPEN30
 10
-181.5784161413564
 20
10.00002975463852
 30
0.0
 41
2.5
 42
2.5
 43
2.5
 50
90.0
  0
INSERT
  5
47A2
330
43B5
100
AcDbEntity
  8
AM_5
 62
     3
100
AcDbBlockReference
  2
_OPEN30
 10
-181.5784161413564
 20
-9.999892427507953
 30
0.0
 41
2.5
 42
2.5
 43
2.5
 50
270.0
  0
MTEXT
  5
47A3
330
43B5
100
AcDbEntity
  8
AM_5
 62
     2
100
AcDbMText
 10
-184.9784161413564
 20
0.0000686635652558
 30
0.0
 40
3.799999999999999
 41
0.0
 71
     5
 72
     1
  1
%%C20
 11
0.0000000000000001
 21
1.0
 31
0.0
1001
ACAD
1000
MTEXTBEGIN
1070
    73
1070
     1
1070
    44
1040
1.0
1070
    74
1070
     0
1000
MTEXTEND
  0
POINT
  5
47A4
330
43B5
100
AcDbEntity
  8
DEFPOINTS
 62
     0
100
AcDbPoint
 10
-167.4724255407776
 20
10.00002975463851
 30
0.0
  0
POINT
  5
47A5
330
43B5
100
AcDbEntity
  8
DEFPOINTS
 62
     0
100
AcDbPoint
 10
-167.4724255407775
 20
-9.999892427507957
 30
0.0
  0
POINT
  5
47A6
330
43B5
100
AcDbEntity
  8
DEFPOINTS
 62
     0
100
AcDbPoint
 10
-181.5784161413564
 20
-9.999892427507953
 30
0.0
  0
ENDBLK
  5
43C0
330
43B5
100
AcDbEntity
  8
0
100
AcDbBlockEnd
  0
BLOCK
  5
43CB
330
43C1
100
AcDbEntity
  8
0
100
AcDbBlockBegin
  2
*D13
 70
     1
 10
0.0
 20
0.0
 30
0.0
  3
*D13
  1

  0
LINE
  5
478C
330
43C1
100
AcDbEntity
  8
AM_5
 62
     3
100
AcDbLine
 10
-162.0027447546325
 20
-0.8000000000003685
 30
0.0
 11
-162.0027447546325
 21
-24.95356967775134
 31
0.0
  0
LINE
  5
478D
330
43C1
100
AcDbEntity
  8
AM_5
 62
     3
100
AcDbLine
 10
-122.0027447546325
 20
-0.8000000000001412
 30
0.0
 11
-122.0027447546325
 21
-24.95356967775134
 31
0.0
  0
LINE
  5
478E
330
43C1
100
AcDbEntity
  8
AM_5
 62
     3
100
AcDbLine
 10
-159.5027447546325
 20
-23.95356967775134
 30
0.0
 11
-124.5027447546325
 21
-23.95356967775134
 31
0.0
  0
INSERT
  5
478F
330
43C1
100
AcDbEntity
  8
AM_5
 62
     3
100
AcDbBlockReference
  2
_OPEN30
 10
-162.0027447546325
 20
-23.95356967775134
 30
0.0
 41
2.5
 42
2.5
 43
2.5
 50
180.0
  0
INSERT
  5
4790
330
43C1
100
AcDbEntity
  8
AM_5
 62
     3
100
AcDbBlockReference
  2
_OPEN30
 10
-122.0027447546325
 20
-23.95356967775134
 30
0.0
 41
2.5
 42
2.5
 43
2.5
  0
MTEXT
  5
4791
330
43C1
100
AcDbEntity
  8
AM_5
 62
     2
100
AcDbMText
 10
-142.0027447546325
 20
-20.55356967775134
 30
0.0
 40
3.799999999999999
 41
0.0
 71
     5
 72
     1
  1
40
1001
ACAD
1000
MTEXTBEGIN
1070
    73
1070
     1
1070
    44
1040
1.0
1070
    74
1070
     0
1000
MTEXTEND
  0
POINT
  5
4792
330
43C1
100
AcDbEntity
  8
DEFPOINTS
 62
     0
100
AcDbPoint
 10
-162.0027447546325
 20
-0.0000000000003685
 30
0.0
  0
POINT
  5
4793
330
43C1
100
AcDbEntity
  8
DEFPOINTS
 62
     0
100
AcDbPoint
 10
-122.0027447546325
 20
-0.0000000000001412
 30
0.0
  0
POINT
  5
4794
330
43C1
100
AcDbEntity
  8
DEFPOINTS
 62
     0
100
AcDbPoint
 10
-122.0027447546325
 20
-23.95356967775134
 30
0.0
  0
ENDBLK
  5
43CC
330
43C1
100
AcDbEntity
  8
0
100
AcDbBlockEnd
  0
BLOCK
  5
43D9
330
43CD
100
AcDbEntity
  8
0
100
AcDbBlockBegin
  2
*D14
 70
     1
 10
0.0
 20
0.0
 30
0.0
  3
*D14
  1

  0
LINE
  5
4781
330
43CD
100
AcDbEntity
  8
AM_5
 62
     3
100
AcDbLine
 10
-168.0027447546325
 20
-0.8000000000003828
 30
0.0
 11
-168.0027447546325
 21
-24.95356967775174
 31
0.0
  0
LINE
  5
4782
330
43CD
100
AcDbEntity
  8
AM_5
 62
     3
100
AcDbLine
 10
-162.0027447546325
 20
-0.8000000000003401
 30
0.0
 11
-162.0027447546325
 21
-24.95356967775174
 31
0.0
  0
LINE
  5
4783
330
43CD
100
AcDbEntity
  8
AM_5
 62
     3
100
AcDbLine
 10
-170.5027447546325
 20
-23.95356967775174
 30
0.0
 11
-173.0027447546325
 21
-23.95356967775174
 31
0.0
  0
LINE
  5
4784
330
43CD
100
AcDbEntity
  8
AM_5
 62
     3
100
AcDbLine
 10
-159.5027447546325
 20
-23.95356967775174
 30
0.0
 11
-157.0027447546325
 21
-23.95356967775174
 31
0.0
  0
LINE
  5
4785
330
43CD
100
AcDbEntity
  8
AM_5
 62
     3
100
AcDbLine
 10
-168.0027447546325
 20
-23.95356967775174
 30
0.0
 11
-162.0027447546325
 21
-23.95356967775174
 31
0.0
  0
INSERT
  5
4786
330
43CD
100
AcDbEntity
  8
AM_5
 62
     3
100
AcDbBlockReference
  2
_OPEN30
 10
-168.0027447546325
 20
-23.95356967775174
 30
0.0
 41
2.5
 42
2.5
 43
2.5
  0
INSERT
  5
4787
330
43CD
100
AcDbEntity
  8
AM_5
 62
     3
100
AcDbBlockReference
  2
_OPEN30
 10
-162.0027447546325
 20
-23.95356967775174
 30
0.0
 41
2.5
 42
2.5
 43
2.5
 50
180.0
  0
MTEXT
  5
4788
330
43CD
100
AcDbEntity
  8
AM_5
 62
     2
100
AcDbMText
 10
-165.0027447546325
 20
-20.55356967775174
 30
0.0
 40
3.799999999999999
 41
0.0
 71
     5
 72
     1
  1
6
1001
ACAD
1000
MTEXTBEGIN
1070
    73
1070
     1
1070
    44
1040
1.0
1070
    74
1070
     0
1000
MTEXTEND
  0
POINT
  5
4789
330
43CD
100
AcDbEntity
  8
DEFPOINTS
 62
     0
100
AcDbPoint
 10
-168.0027447546325
 20
-0.0000000000003828
 30
0.0
  0
POINT
  5
478A
330
43CD
100
AcDbEntity
  8
DEFPOINTS
 62
     0
100
AcDbPoint
 10
-162.0027447546325
 20
-0.0000000000003401
 30
0.0
  0
POINT
  5
478B
330
43CD
100
AcDbEntity
  8
DEFPOINTS
 62
     0
100
AcDbPoint
 10
-162.0027447546325
 20
-23.95356967775174
 30
0.0
  0
ENDBLK
  5
43DA
330
43CD
100
AcDbEntity
  8
0
100
AcDbBlockEnd
  0
BLOCK
  5
43E5
330
43DB
100
AcDbEntity
  8
0
100
AcDbBlockBegin
  2
*D15
 70
     1
 10
0.0
 20
0.0
 30
0.0
  3
*D15
  1

  0
LINE
  5
4795
330
43DB
100
AcDbEntity
  8
AM_5
 62
     3
100
AcDbLine
 10
-118.0027447546325
 20
-10.80000686645572
 30
0.0
 11
-118.0027447546325
 21
-36.06377102797492
 31
0.0
  0
LINE
  5
4796
330
43DB
100
AcDbEntity
  8
AM_5
 62
     3
100
AcDbLine
 10
-168.0027447546324
 20
-10.26969909667984
 30
0.0
 11
-168.0027447546324
 21
-36.06377102797492
 31
0.0
  0
LINE
  5
4797
330
43DB
100
AcDbEntity
  8
AM_5
 62
     3
100
AcDbLine
 10
-120.5027447546325
 20
-35.06377102797492
 30
0.0
 11
-165.5027447546324
 21
-35.06377102797492
 31
0.0
  0
INSERT
  5
4798
330
43DB
100
AcDbEntity
  8
AM_5
 62
     3
100
AcDbBlockReference
  2
_OPEN30
 10
-118.0027447546325
 20
-35.06377102797492
 30
0.0
 41
2.5
 42
2.5
 43
2.5
  0
INSERT
  5
4799
330
43DB
100
AcDbEntity
  8
AM_5
 62
     3
100
AcDbBlockReference
  2
_OPEN30
 10
-168.0027447546324
 20
-35.06377102797492
 30
0.0
 41
2.5
 42
2.5
 43
2.5
 50
180.0
  0
MTEXT
  5
479A
330
43DB
100
AcDbEntity
  8
AM_5
 62
     2
100
AcDbMText
 10
-143.0027447546324
 20
-31.66377102797492
 30
0.0
 40
3.799999999999999
 41
0.0
 71
     5
 72
     1
  1
50
1001
ACAD
1000
MTEXTBEGIN
1070
    73
1070
     1
1070
    44
1040
1.0
1070
    74
1070
     0
1000
MTEXTEND
  0
POINT
  5
479B
330
43DB
100
AcDbEntity
  8
DEFPOINTS
 62
     0
100
AcDbPoint
 10
-118.0027447546325
 20
-10.00000686645571
 30
0.0
  0
POINT
  5
479C
330
43DB
100
AcDbEntity
  8
DEFPOINTS
 62
     0
100
AcDbPoint
 10
-168.0027447546324
 20
-9.469699096679844
 30
0.0
  0
POINT
  5
479D
330
43DB
100
AcDbEntity
  8
DEFPOINTS
 62
     0
100
AcDbPoint
 10
-168.0027447546324
 20
-35.06377102797492
 30
0.0
  0
ENDBLK
  5
43E6
330
43DB
100
AcDbEntity
  8
0
100
AcDbBlockEnd
  0
BLOCK
  5
4520
330
4516
100
AcDbEntity
  8
0
100
AcDbBlockBegin
  2
*D16
 70
     1
 10
0.0
 20
0.0
 30
0.0
  3
*D16
  1

  0
LINE
  5
475C
330
4516
100
AcDbEntity
  8
AM_5
 62
     3
100
AcDbLine
 10
-2.10589136233385
 20
8.249999999999879
 30
0.0
 11
15.58141728834238
 21
8.249999999999927
 31
0.0
  0
LINE
  5
475D
330
4516
100
AcDbEntity
  8
AM_5
 62
     3
100
AcDbLine
 10
-2.202754407744773
 20
-8.250000000000122
 30
0.0
 11
15.58141728834242
 21
-8.250000000000072
 31
0.0
  0
LINE
  5
475E
330
4516
100
AcDbEntity
  8
AM_5
 62
     3
100
AcDbLine
 10
14.58141728834238
 20
5.749999999999924
 30
0.0
 11
14.58141728834242
 21
-5.750000000000075
 31
0.0
  0
INSERT
  5
475F
330
4516
100
AcDbEntity
  8
AM_5
 62
     3
100
AcDbBlockReference
  2
_OPEN30
 10
14.58141728834237
 20
8.249999999999925
 30
0.0
 41
2.5
 42
2.5
 43
2.5
 50
90.00000000000017
  0
INSERT
  5
4760
330
4516
100
AcDbEntity
  8
AM_5
 62
     3
100
AcDbBlockReference
  2
_OPEN30
 10
14.58141728834242
 20
-8.250000000000074
 30
0.0
 41
2.5
 42
2.5
 43
2.5
 50
270.0000000000001
  0
MTEXT
  5
4761
330
4516
100
AcDbEntity
  8
AM_5
 62
     2
100
AcDbMText
 10
11.1814172883424
 20
-0.0000000000000852
 30
0.0
 40
3.799999999999999
 41
0.0
 71
     5
 72
     1
  1
%%C16.5
 11
-0.0000000000000028
 21
1.0
 31
0.0
1001
ACAD
1000
MTEXTBEGIN
1070
    73
1070
     1
1070
    44
1040
1.0
1070
    74
1070
     0
1000
MTEXTEND
  0
POINT
  5
4762
330
4516
100
AcDbEntity
  8
DEFPOINTS
 62
     0
100
AcDbPoint
 10
-2.905891362333824
 20
8.249999999999884
 30
0.0
  0
POINT
  5
4763
330
4516
100
AcDbEntity
  8
DEFPOINTS
 62
     0
100
AcDbPoint
 10
-3.002754407744799
 20
-8.250000000000115
 30
0.0
  0
POINT
  5
4764
330
4516
100
AcDbEntity
  8
DEFPOINTS
 62
     0
100
AcDbPoint
 10
14.5814172883424
 20
-8.25000000000012
 30
0.0
  0
ENDBLK
  5
4521
330
4516
100
AcDbEntity
  8
0
100
AcDbBlockEnd
  0
BLOCK
  5
4725
330
471B
100
AcDbEntity
  8
0
100
AcDbBlockBegin
  2
*D17
 70
     1
 10
0.0
 20
0.0
 30
0.0
  3
*D17
  1

  0
LINE
  5
47A7
330
471B
100
AcDbEntity
  8
AM_5
 62
     3
100
AcDbLine
 10
-3.002744754632709
 20
18.73247589965322
 30
0.0
 11
-3.002744754632759
 21
36.27861965663955
 31
0.0
  0
LINE
  5
47A8
330
471B
100
AcDbEntity
  8
AM_5
 62
     3
100
AcDbLine
 10
-97.00274475463261
 20
9.050000143051448
 30
0.0
 11
-97.00274475463269
 21
36.27861965663928
 31
0.0
  0
LINE
  5
47A9
330
471B
100
AcDbEntity
  8
AM_5
 62
     3
100
AcDbLine
 10
-5.502744754632757
 20
35.27861965663955
 30
0.0
 11
-94.50274475463269
 21
35.27861965663928
 31
0.0
  0
INSERT
  5
47AA
330
471B
100
AcDbEntity
  8
AM_5
 62
     3
100
AcDbBlockReference
  2
_OPEN30
 10
-3.002744754632756
 20
35.27861965663955
 30
0.0
 41
2.5
 42
2.5
 43
2.5
 50
0.0000000000001527
  0
INSERT
  5
47AB
330
471B
100
AcDbEntity
  8
AM_5
 62
     3
100
AcDbBlockReference
  2
_OPEN30
 10
-97.00274475463269
 20
35.27861965663928
 30
0.0
 41
2.5
 42
2.5
 43
2.5
 50
180.0000000000001
  0
MTEXT
  5
47AC
330
471B
100
AcDbEntity
  8
AM_5
 62
     2
100
AcDbMText
 10
-50.00274475463274
 20
38.67861965663942
 30
0.0
 40
3.799999999999999
 41
0.0
 71
     5
 72
     1
  1
94
1001
ACAD
1000
MTEXTBEGIN
1070
    73
1070
     1
1070
    44
1040
1.0
1070
    74
1070
     0
1000
MTEXTEND
  0
POINT
  5
47AD
330
471B
100
AcDbEntity
  8
DEFPOINTS
 62
     0
100
AcDbPoint
 10
-3.002744754632654
 20
17.93247589965322
 30
0.0
  0
POINT
  5
47AE
330
471B
100
AcDbEntity
  8
DEFPOINTS
 62
     0
100
AcDbPoint
 10
-97.0027447546326
 20
8.25000014305173
 30
0.0
  0
POINT
  5
47AF
330
471B
100
AcDbEntity
  8
DEFPOINTS
 62
     0
100
AcDbPoint
 10
-97.0027447546326
 20
35.27861965663956
 30
0.0
  0
ENDBLK
  5
4726
330
471B
100
AcDbEntity
  8
0
100
AcDbBlockEnd
  0
ENDSEC
  0
SECTION
  2
ENTITIES
  0
TEXT
  5
19BD
330
1F
100
AcDbEntity
  8
AM_6
100
AcDbText
 10
-105.8598876117752
 20
-68.54100792062221
 30
0.0
 40
5.0
  1
KDS165LAK
 50
0.0000000000001527
 72
     4
 11
-85.50274475463234
 21
-66.04100792062215
 31
0.0
100
AcDbText
  0
LINE
  5
35D1
330
1F
100
AcDbEntity
  8
AM_7
100
AcDbLine
 10
4.909002595337891
 20
-0.0000000000001046
 30
0.0
 11
-173.1844622255253
 21
-0.0000000000005433
 31
0.0
  0
LINE
  5
35F4
330
1F
100
AcDbEntity
  8
PV0001_1
  6
CONTINUOUS
 48
0.5
100
AcDbLine
 10
-94.00274475463261
 20
8.25000000000101
 30
0.0
 11
-118.0027447546326
 21
10.00000114440817
 31
0.0
  0
LINE
  5
35F5
330
1F
100
AcDbEntity
  8
PV0001_1
  6
CONTINUOUS
 48
0.5
100
AcDbLine
 10
-94.02378782532307
 20
-8.251753595243842
 30
0.0
 11
-118.0027447546325
 21
-10.00000686645571
 31
0.0
  0
DIMENSION
  5
36BA
330
1F
100
AcDbEntity
  8
AM_5
100
AcDbDimension
  2
*D8
 10
-2.635646502095776
 20
-7.241379310344909
 30
0.0
 11
23.23956770062896
 21
-0.0000000000000636
 31
0.0
 70
    34
  1
<>
 51
359.9999999999998
  3
AM_JIS$2
100
AcDb2LineAngularDimension
 13
0.0
 23
-0.0000000000000725
 33
0.0
 14
-2.635646502095813
 24
7.241379310344597
 34
0.0
 15
0.0
 25
-0.0000000000002222
 35
0.0
 16
24.18541530169386
 26
-10.43256983396765
 36
0.0
1001
ACAD
1000
DSTYLE
1002
{
1070
   179
1070
     3
1002
}
1001
GENIUS_GENDTOL_13
1000

1000
h7
1000

1040
0.0
  0
DIMENSION
  5
3B0D
330
1F
100
AcDbEntity
  8
AM_5
100
AcDbDimension
  2
*D9
 10
-94.00274475463259
 20
24.67627078198594
 30
0.0
 11
-48.50274475463261
 21
28.07627078198594
 31
0.0
 70
    32
  1
<>
 51
359.9999999999998
  3
AM_JIS$0
100
AcDbAlignedDimension
 13
-3.002744754632626
 23
7.999999999999876
 33
0.0
 14
-94.00274475463259
 24
8.00000000000081
 34
0.0
 50
180.0000000000001
100
AcDbRotatedDimension
1001
ACAD
1000
DSTYLE
1002
{
1070
   271
1070
     3
1002
}
1001
GENIUS_GENDTOL_13
1000

1000
h7
1000

1040
0.0
  0
DIMENSION
  5
3BB8
330
1F
100
AcDbEntity
  8
AM_5
100
AcDbDimension
  2
*D10
 10
-118.0027447546325
 20
-35.06377102797421
 30
0.0
 11
-60.50274958118867
 21
-31.66377102797421
 31
0.0
 70
    32
  1
<>
 51
359.9999999999998
  3
AM_JIS$0
100
AcDbAlignedDimension
 13
-3.002754407744823
 23
-7.474972191323839
 33
0.0
 14
-118.0027447546325
 24
-10.00000686645571
 34
0.0
 50
0.0000000000001641
100
AcDbRotatedDimension
1001
ACAD
1000
DSTYLE
1002
{
1070
   271
1070
     3
1002
}
1001
GENIUS_GENDTOL_13
1000

1000
h7
1000

1040
0.0
  0
DIMENSION
  5
3CCB
330
1F
100
AcDbEntity
  8
AM_5
100
AcDbDimension
  2
*D11
 10
-168.0027447546324
 20
-46.04100792062189
 30
0.0
 11
-85.50274475463254
 21
-42.6410079206219
 31
0.0
 70
    32
  1
<>
 51
359.9999999999998
  3
AM_JIS$0
100
AcDbAlignedDimension
 13
-3.002744754632585
 23
-7.47497219132376
 33
0.0
 14
-168.0027447546324
 24
-9.469699096679844
 34
0.0
 50
0.0000000000002659
100
AcDbRotatedDimension
1001
ACAD
1000
DSTYLE
1002
{
1070
   271
1070
     3
1002
}
1001
GENIUS_GENDTOL_13
1000

1000
h7
1000

1040
0.0
  0
DIMENSION
  5
43A4
330
1F
100
AcDbEntity
  8
AM_5
100
AcDbDimension
  2
*D15
 10
-168.0027447546324
 20
-35.06377102797492
 30
0.0
 11
-143.0027447546324
 21
-31.66377102797492
 31
0.0
 70
    32
  1
<>
  3
AM_JIS$0
100
AcDbAlignedDimension
 13
-118.0027447546325
 23
-10.00000686645571
 33
0.0
 14
-168.0027447546324
 24
-9.469699096679844
 34
0.0
 50
0.0000000000008142
100
AcDbRotatedDimension
1001
ACAD
1000
DSTYLE
1002
{
1070
   271
1070
     3
1002
}
1001
GENIUS_GENDTOL_13
1000

1000
h7
1000

1040
0.0
  0
DIMENSION
  5
43A5
330
1F
100
AcDbEntity
  8
AM_5
100
AcDbDimension
  2
*D13
 10
-122.0027447546325
 20
-23.95356967775134
 30
0.0
 11
-142.0027447546325
 21
-20.55356967775134
 31
0.0
 70
    32
  1
<>
  3
AM_JIS$0
100
AcDbAlignedDimension
 13
-162.0027447546325
 23
-0.0000000000003685
 33
0.0
 14
-122.0027447546325
 24
-0.0000000000001412
 34
0.0
 50
0.0000000000008142
100
AcDbRotatedDimension
1001
ACAD
1000
DSTYLE
1002
{
1070
   271
1070
     3
1002
}
1001
GENIUS_GENDTOL_13
1000

1000
h7
1000

1040
0.0
  0
LINE
  5
43A6
330
1F
100
AcDbEntity
  8
PV0001_1
  6
CONTINUOUS
100
AcDbLine
 10
-167.4724255407775
 20
-10.00000686645596
 30
0.0
 11
-118.0027447546325
 21
-10.00000686645571
 31
0.0
  0
LINE
  5
43A7
330
1F
100
AcDbEntity
  8
PV0001_1
  6
CONTINUOUS
100
AcDbLine
 10
-118.0027447546326
 20
10.00000114440817
 30
0.0
 11
-167.4724255407776
 21
10.00000114440794
 31
0.0
  0
LINE
  5
43A8
330
1F
100
AcDbEntity
  8
AM_0
100
AcDbLine
 10
-125.8024157930252
 20
3.79967103839249
 30
0.0
 11
-158.2030737162399
 21
3.79967103839232
 31
0.0
  0
LINE
  5
43A9
330
1F
100
AcDbEntity
  8
AM_0
100
AcDbLine
 10
-125.8024157930251
 20
-3.799671038392829
 30
0.0
 11
-158.2030737162398
 21
-3.799671038392999
 31
0.0
  0
LINE
  5
43AA
330
1F
100
AcDbEntity
  8
PV0001_1
  6
CONTINUOUS
 48
0.5
100
AcDbLine
 10
-168.0026760900925
 20
9.469601821899631
 30
0.0
 11
-167.4723339880375
 21
9.999932479857507
 31
0.0
  0
LINE
  5
43AB
330
1F
100
AcDbEntity
  8
PV0001_1
  6
CONTINUOUS
 48
0.5
100
AcDbLine
 10
-167.4724255407775
 20
-0.000000000000524
 30
0.0
 11
-167.4724255407776
 21
10.00002975463851
 31
0.0
  0
DIMENSION
  5
43AC
330
1F
100
AcDbEntity
  8
AM_5
100
AcDbDimension
  2
*D12
 10
-181.5784161413564
 20
-9.999892427507953
 30
0.0
 11
-184.9784161413564
 21
0.0000686635652558
 31
0.0
 70
    32
  1
%%C<>
  3
AM_JIS$0
100
AcDbAlignedDimension
 13
-167.4724255407776
 23
10.00002975463851
 33
0.0
 14
-167.4724255407775
 24
-9.999892427507957
 34
0.0
 50
270.0
100
AcDbRotatedDimension
1001
ACAD
1000
DSTYLE
1002
{
1070
   271
1070
     3
1002
}
1001
GENIUS_GENDTOL_13
1000

1000
h7
1000

1040
0.0
  0
DIMENSION
  5
43AD
330
1F
100
AcDbEntity
  8
AM_5
100
AcDbDimension
  2
*D14
 10
-162.0027447546325
 20
-23.95356967775174
 30
0.0
 11
-165.0027447546325
 21
-23.95356967775174
 31
0.0
 70
   160
  1
<>
  3
AM_JIS$0
100
AcDbAlignedDimension
 13
-168.0027447546325
 23
-0.0000000000003828
 33
0.0
 14
-162.0027447546325
 24
-0.0000000000003401
 34
0.0
 50
0.0000000000008142
100
AcDbRotatedDimension
1001
ACAD
1000
DSTYLE
1002
{
1070
   271
1070
     3
1002
}
1001
GENIUS_GENDTOL_13
1000

1000
h7
1000

1040
0.0
  0
LINE
  5
43AE
330
1F
100
AcDbEntity
  8
PV0001_1
  6
CONTINUOUS
 48
0.5
100
AcDbLine
 10
-168.0027447546325
 20
-0.000000000000524
 30
0.0
 11
-168.0027447546324
 21
-9.469699096679844
 31
0.0
  0
LINE
  5
43AF
330
1F
100
AcDbEntity
  8
PV0001_1
  6
CONTINUOUS
 48
0.5
100
AcDbLine
 10
-167.4724255407775
 20
-0.000000000000524
 30
0.0
 11
-167.4724255407775
 21
-10.00002975463955
 31
0.0
  0
LINE
  5
43B0
330
1F
100
AcDbEntity
  8
PV0001_1
  6
CONTINUOUS
 48
0.5
100
AcDbLine
 10
-168.0026760900924
 20
-9.469653320313026
 30
0.0
 11
-167.4723339880374
 21
-9.999983978272366
 31
0.0
  0
LINE
  5
43B1
330
1F
100
AcDbEntity
  8
PV0001_1
  6
CONTINUOUS
 48
0.5
100
AcDbLine
 10
-168.0027447546325
 20
-0.000000000000524
 30
0.0
 11
-168.0027447546326
 21
9.469699096679166
 31
0.0
  0
ARC
  5
43B2
330
1F
100
AcDbEntity
  8
AM_0
100
AcDbCircle
 10
-158.2030737162399
 20
-0.0000000000003251
 30
0.0
 40
3.799671038392649
100
AcDbArc
 50
90.0
 51
270.0
  0
LINE
  5
43B3
330
1F
100
AcDbEntity
  8
PV0001_1
  6
CONTINUOUS
100
AcDbLine
 10
-118.0027447546325
 20
-10.00000686645571
 30
0.0
 11
-118.0027447546326
 21
10.00000114440817
 31
0.0
  0
ARC
  5
43B4
330
1F
100
AcDbEntity
  8
AM_0
100
AcDbCircle
 10
-125.8024157930252
 20
-0.0000000000001545
 30
0.0
 40
3.799671038392649
100
AcDbArc
 50
270.0
 51
90.0
  0
LINE
  5
44E2
330
1F
100
AcDbEntity
  8
PV0001_1
  6
CONTINUOUS
 48
0.5
100
AcDbLine
 10
-0.0000000000000322
 20
-0.0000000000002989
 30
0.0
 11
-3.002754407745039
 21
8.249999999999884
 31
0.0
  0
LINE
  5
44E3
330
1F
100
AcDbEntity
  8
PV0001_1
  6
CONTINUOUS
 48
0.5
100
AcDbLine
 10
-0.0000000000000322
 20
-0.0000000000004653
 30
0.0
 11
-3.002754407744798
 21
-8.250000000000115
 31
0.0
  0
DIMENSION
  5
4515
330
1F
100
AcDbEntity
  8
AM_5
100
AcDbDimension
  2
*D16
 10
14.5814172883424
 20
-8.25000000000012
 30
0.0
 11
14.5814172883424
 21
-0.0000000000001181
 31
0.0
 70
   160
  1
%%C<>
 51
359.9999999999998
  3
AM_JIS$0
100
AcDbAlignedDimension
 13
-2.905891362333824
 23
8.249999999999884
 33
0.0
 14
-3.002754407744799
 24
-8.250000000000115
 34
0.0
 50
89.99999999999962
100
AcDbRotatedDimension
1001
GENIUS_GENDTOL_13
1000

1000
h7
1000

1040
0.0
1001
ACAD
1000
DSTYLE
1002
{
1070
   271
1070
     3
1002
}
  0
LINE
  5
4522
330
1F
100
AcDbEntity
  8
PV0001_1
  6
CONTINUOUS
 48
0.5
100
AcDbLine
 10
-11.58112104113394
 20
8.249999999999943
 30
0.0
 11
-3.002754407745039
 21
8.249999999999884
 31
0.0
  0
LINE
  5
4523
330
1F
100
AcDbEntity
  8
PV0001_1
  6
CONTINUOUS
 48
0.5
100
AcDbLine
 10
-2.602387535198796
 20
7.150001049041033
 30
0.0
 11
-11.59503420721781
 21
7.150001049041089
 31
0.0
  0
ELLIPSE
  5
4524
330
1F
100
AcDbEntity
  8
AM_0
100
AcDbEllipse
 10
-4.563074153109027
 20
3.233588525307823
 30
0.0
 11
-3.579403472650645
 21
0.8217531722794486
 31
0.0
210
0.0
220
0.0
230
1.0
 40
0.7508749855807607
 41
1.257288486963139
 42
3.213277682737571
  0
LINE
  5
4525
330
1F
100
AcDbEntity
  8
PV0001_1
  6
CONTINUOUS
 48
0.5
100
AcDbLine
 10
-8.914611234202753
 20
2.315702138194892
 30
0.0
 11
-6.253911026854028
 21
0.9303346763090337
 31
0.0
  0
LINE
  5
4527
330
1F
100
AcDbEntity
  8
AM_0
100
AcDbLine
 10
-2.180254415636841
 20
-2.041590254078365
 30
0.0
 11
-4.772565748296286
 21
-3.329910156608791
 31
0.0
  0
LINE
  5
4528
330
1F
100
AcDbEntity
  8
PV0001_1
  6
CONTINUOUS
 48
0.5
100
AcDbLine
 10
-12.41822314229597
 20
-8.250000000000056
 30
0.0
 11
-3.002754407744798
 21
-8.250000000000115
 31
0.0
  0
LINE
  5
4529
330
1F
100
AcDbEntity
  8
PV0001_1
  6
CONTINUOUS
 48
0.5
100
AcDbLine
 10
-12.60274475463261
 20
-7.125000000000068
 30
0.0
 11
-3.452961208723429
 21
-7.125000000000112
 31
0.0
  0
LINE
  5
452A
330
1F
100
AcDbEntity
  8
PV0001_1
  6
CONTINUOUS
 48
0.5
100
AcDbLine
 10
-2.180254415636841
 20
-2.041590254078365
 30
0.0
 11
-3.452961208723429
 21
-7.125000000000112
 31
0.0
  0
LINE
  5
452D
330
1F
100
AcDbEntity
  8
AM_0
100
AcDbLine
 10
-2.835097557223204
 20
0.6178649858422584
 30
0.0
 11
-2.180254415636841
 21
-2.041590254078365
 31
0.0
  0
LINE
  5
452E
330
1F
100
AcDbEntity
  8
PV0001_1
  6
CONTINUOUS
 48
0.5
100
AcDbLine
 10
-6.253911026853984
 20
0.9303346763089155
 30
0.0
 11
-3.452961208723429
 21
-7.125000000000112
 31
0.0
  0
LINE
  5
4534
330
1F
100
AcDbEntity
  8
PV0001_1
  6
CONTINUOUS
100
AcDbLine
 10
-94.00274475463261
 20
1.738421463095425
 30
0.0
 11
-94.00274475463261
 21
8.250000000001211
 31
0.0
  0
LINE
  5
4536
330
1F
100
AcDbEntity
  8
PV0001_1
  6
CONTINUOUS
100
AcDbLine
 10
-94.00274475463257
 20
-8.249999999999166
 30
0.0
 11
-94.00274475463259
 21
-7.401387433472563
 31
0.0
  0
LINE
  5
4539
330
1F
100
AcDbEntity
  8
AM_11
 48
0.5
100
AcDbLine
 10
-8.76474838119237
 20
-8.25000000000009
 30
0.0
 11
-86.34428074488248
 21
-8.249999999999616
 31
0.0
  0
LINE
  5
453A
330
1F
100
AcDbEntity
  8
AM_11
 48
0.5
100
AcDbLine
 10
-83.40408993235648
 20
8.250000000000348
 30
0.0
 11
-7.717347096045755
 21
8.249999999999916
 31
0.0
  0
LINE
  5
46A3
330
1F
100
AcDbEntity
  8
PV0001_1
  6
CONTINUOUS
 48
0.5
100
AcDbLine
 10
-94.00274475463261
 20
8.25000000000101
 30
0.0
 11
-83.40403719333808
 21
8.250000000000904
 31
0.0
  0
LINE
  5
46A4
330
1F
100
AcDbEntity
  8
AM_0
100
AcDbLine
 10
-94.02378782532307
 20
-8.249999999999166
 30
0.0
 11
-86.34428439922585
 21
-8.249999999999246
 31
0.0
  0
LINE
  5
46A5
330
1F
100
AcDbEntity
  8
AM_11
 48
0.5
100
AcDbLine
 10
-97.00274475463263
 20
-8.466318260100138
 30
0.0
 11
-97.00274475463261
 21
9.050000143051448
 31
0.0
  0
SPLINE
  5
46A6
330
1F
100
AcDbEntity
  8
PV0001_1
  6
CONTINUOUS
100
AcDbSpline
210
0.0
220
0.0
230
1.0
 70
     8
 71
     3
 72
    16
 73
    12
 74
     0
 42
0.0000000001
 43
0.0000000001
 40
2.625839846755727
 40
2.625839846755727
 40
2.625839846755727
 40
2.625839846755727
 40
3.082371838836284
 40
4.126290986361125
 40
5.162752068350215
 40
6.192395305374981
 40
7.216039564037012
 40
8.234688489606833
 40
9.249433870634691
 40
10.26152376260694
 40
11.27226744710342
 40
11.27226744710342
 40
11.27226744710342
 40
11.27226744710352
 10
-75.24505331035545
 20
-6.505272736480883
 30
0.0
 10
-75.43556011445054
 20
-6.562857027091193
 30
0.0
 10
-76.06282000832362
 20
-6.747998119905236
 30
0.0
 10
-77.12862742442325
 20
-7.040417944413664
 30
0.0
 10
-78.44489054319028
 20
-7.357360152515408
 30
0.0
 10
-79.76121397267397
 20
-7.629143595611348
 30
0.0
 10
-81.07768081323627
 20
-7.853791307811514
 30
0.0
 10
-82.39423860471481
 20
-8.030021323677784
 30
0.0
 10
-83.71087837562043
 20
-8.15669161374029
 30
0.0
 10
-85.0275676873589
 20
-8.232986786631425
 30
0.0
 10
-85.90557360977483
 20
-8.250000047206098
 30
0.0
 10
-86.34428439922583
 20
-8.249999999998884
 30
0.0
  0
SPLINE
  5
46AA
330
1F
100
AcDbEntity
  8
AM_0
100
AcDbSpline
210
0.0
220
0.0
230
1.0
 70
     8
 71
     3
 72
    12
 73
     8
 74
     0
 42
0.0000000001
 43
0.0000000001
 40
0.0
 40
0.0
 40
0.0
 40
0.0
 40
3.550288329958888
 40
5.110699985623471
 40
6.310592039948465
 40
8.859663010396623
 40
10.65155104271494
 40
10.65155104271494
 40
10.65155104271494
 40
10.65155104271494
 10
-107.854659774403
 20
7.106495314886354
 30
0.0
 10
-110.6981084808243
 20
7.641752409697005
 30
0.0
 10
-112.7453144332295
 20
7.6602997014229
 30
0.0
 10
-115.0453964100697
 20
6.375570088371339
 30
0.0
 10
-116.4706500717571
 20
4.493848799823525
 30
0.0
 10
-115.2945878008069
 20
1.981468396293394
 30
0.0
 10
-113.9323904457292
 20
0.8075675448268395
 30
0.0
 10
-112.6610816196961
 20
-0.0000000000003941
 30
0.0
  0
SPLINE
  5
46AB
330
1F
100
AcDbEntity
  8
PV0001_1
  6
CONTINUOUS
100
AcDbSpline
210
0.0
220
0.0
230
1.0
 70
     8
 71
     3
 72
    27
 73
    23
 74
     0
 42
0.0000000001
 43
0.0000000001
 40
0.0
 40
0.0
 40
0.0
 40
0.0
 40
1.010743684496582
 40
2.022833576467832
 40
3.037578957496688
 40
4.056212745003489
 40
5.079857003664532
 40
6.109500240690281
 40
7.145961322679372
 40
8.189895241603872
 40
9.241717795325891
 40
10.30168407291828
 40
11.36983447792315
 40
12.44600489715814
 40
13.52984294512926
 40
14.62081576220742
 40
15.7182257034828
 40
16.82123173843959
 40
17.92886860250316
 40
19.0400688939571
 40
20.15368796660465
 40
21.26852814259644
 40
21.26852814265684
 40
21.26852814265684
 40
21.26852814265684
 10
-86.34428074489985
 20
-8.249999999999081
 30
0.0
 10
-86.78299154013883
 20
-8.245091449867558
 30
0.0
 10
-87.66099744863998
 20
-8.235267811916489
 30
0.0
 10
-88.97768678830606
 20
-8.156078261613007
 30
0.0
 10
-90.29431992346879
 20
-8.030187563248931
 30
0.0
 10
-91.61087157196673
 20
-7.853746961508402
 30
0.0
 10
-92.92732859668694
 20
-7.629147564826232
 30
0.0
 10
-94.24366502687576
 20
-7.357388130927919
 30
0.0
 10
-95.55988526562016
 20
-7.040299328223338
 30
0.0
 10
-96.87597764070662
 20
-6.679822856824994
 30
0.0
 10
-98.19193318714747
 20
-6.278172020399062
 30
0.0
 10
-99.50775846425365
 20
-5.837867939726792
 30
0.0
 10
-100.8234569960676
 20
-5.361605305966974
 30
0.0
 10
-102.1390452211887
 20
-4.852348974994281
 30
0.0
 10
-103.4545291628699
 20
-4.313228436073279
 30
0.0
 10
-104.7699210192488
 20
-3.747568498887876
 30
0.0
 10
-106.0852353781993
 20
-3.158858833522801
 30
0.0
 10
-107.4004837836223
 20
-2.550719725880635
 30
0.0
 10
-108.7156790001535
 20
-1.926891468046029
 30
0.0
 10
-110.0308351009407
 20
-1.291213648830837
 30
0.0
 10
-111.3459636211548
 20
-0.6475941542274216
 30
0.0
 10
-112.2225494287223
 20
-0.2159448902408273
 30
0.0
 10
-112.6610816196542
 20
0.0000000000245569
 30
0.0
  0
SPLINE
  5
46AC
330
1F
100
AcDbEntity
  8
PV0001_1
  6
CONTINUOUS
100
AcDbSpline
210
0.0
220
0.0
230
1.0
 70
     8
 71
     3
 72
    41
 73
    37
 74
     0
 42
0.0000000001
 43
0.0000000001
 40
0.0
 40
0.0
 40
0.0
 40
0.0
 40
1.010743684496582
 40
2.022833576467832
 40
3.037578957496688
 40
4.056212745003489
 40
5.079857003664532
 40
6.109500240690281
 40
7.145961322679372
 40
8.189895241603872
 40
9.241717795325891
 40
10.30168407291828
 40
11.36983447792315
 40
12.44600489715814
 40
13.52984294512926
 40
14.62081576220742
 40
15.7182257034828
 40
16.82123173843959
 40
17.92886860250316
 40
19.0400688939571
 40
20.15368796660465
 40
21.26852814259644
 40
22.38336992938901
 40
23.49698739941135
 40
24.6081876908653
 40
25.71582455492886
 40
26.81883757994213
 40
27.91624752121713
 40
29.00722033829659
 40
30.09105838626677
 40
31.16722880550176
 40
32.23537921050758
 40
33.29534548809967
 40
34.347168041821
 40
35.39108718934584
 40
35.61589846690324
 40
35.61589846690324
 40
35.61589846690324
 40
35.61589846690324
 10
-64.14731016298478
 20
-8.24999999999931
 30
0.0
 10
-64.58602095822374
 20
-8.245091449867786
 30
0.0
 10
-65.46402686672488
 20
-8.235267811916717
 30
0.0
 10
-66.78071620639101
 20
-8.156078261613238
 30
0.0
 10
-68.09734934155371
 20
-8.03018756324916
 30
0.0
 10
-69.41390099005165
 20
-7.85374696150863
 30
0.0
 10
-70.73035801477184
 20
-7.629147564826462
 30
0.0
 10
-72.04669444496066
 20
-7.35738813092815
 30
0.0
 10
-73.36291468370506
 20
-7.04029932822357
 30
0.0
 10
-74.67900705879151
 20
-6.679822856825222
 30
0.0
 10
-75.99496260523235
 20
-6.278172020399289
 30
0.0
 10
-77.31078788233853
 20
-5.837867939727021
 30
0.0
 10
-78.62648641415254
 20
-5.361605305967204
 30
0.0
 10
-79.94207463927361
 20
-4.85234897499451
 30
0.0
 10
-81.2575585809548
 20
-4.313228436073507
 30
0.0
 10
-82.57295043733371
 20
-3.747568498888105
 30
0.0
 10
-83.88826479628422
 20
-3.15885883352303
 30
0.0
 10
-85.20351320170725
 20
-2.550719725880864
 30
0.0
 10
-86.51870841823848
 20
-1.926891468046257
 30
0.0
 10
-87.83386451902567
 20
-1.291213648831066
 30
0.0
 10
-89.14899303923972
 20
-0.6475941542276502
 30
0.0
 10
-90.46411255053227
 20
-0.0000016832987595
 30
0.0
 10
-91.7792261580387
 20
0.6476024446981993
 30
0.0
 10
-93.0943590862769
 20
1.291211916443754
 30
0.0
 10
-94.40951356348625
 20
1.926891659819361
 30
0.0
 10
-95.72471112499604
 20
2.550722294161576
 30
0.0
 10
-97.03996498670022
 20
3.158856211837492
 30
0.0
 10
-98.35528142156434
 20
3.747568862779782
 30
0.0
 10
-99.6706734678421
 20
4.313228341273244
 30
0.0
 10
-100.9861573616569
 20
4.852348993569253
 30
0.0
 10
-102.3017455901467
 20
5.361605325287492
 30
0.0
 10
-103.6174441554726
 20
5.837867845165503
 30
0.0
 10
-104.9332692967713
 20
6.278172375428525
 30
0.0
 10
-106.2492191877187
 20
6.679819665282813
 30
0.0
 10
-107.2242656348668
 20
6.946889125183141
 30
0.0
 10
-107.7597096223831
 20
7.082746384020541
 30
0.0
 10
-107.854659774403
 20
7.106495314886359
 30
0.0
  0
DIMENSION
  5
471A
330
1F
100
AcDbEntity
  8
AM_5
100
AcDbDimension
  2
*D17
 10
-97.0027447546326
 20
35.27861965663956
 30
0.0
 11
-50.00274475463262
 21
38.67861965663956
 31
0.0
 70
    32
  1
<>
 51
359.9999999999998
  3
AM_JIS$0
100
AcDbAlignedDimension
 13
-3.002744754632654
 23
17.93247589965322
 33
0.0
 14
-97.0027447546326
 24
8.25000014305173
 34
0.0
 50
180.0000000000002
100
AcDbRotatedDimension
1001
ACAD
1000
DSTYLE
1002
{
1070
   271
1070
     3
1002
}
1001
GENIUS_GENDTOL_13
1000

1000
h7
1000

1040
0.0
  0
SPLINE
  5
4834
330
1F
100
AcDbEntity
  8
PV0001_1
  6
CONTINUOUS
100
AcDbSpline
210
0.0
220
0.0
230
1.0
 70
     8
 71
     3
 72
    25
 73
    21
 74
     0
 42
0.0000000001
 43
0.0000000001
 40
24.56499986022253
 40
24.56499986022253
 40
24.56499986022253
 40
24.56499986022253
 40
24.6081876908653
 40
25.71582455492886
 40
26.81883757994213
 40
27.91624752121713
 40
29.00722033829659
 40
30.09105838626677
 40
31.16722880550176
 40
32.23537921050758
 40
33.29534548809967
 40
34.347168041821
 40
35.39108718934584
 40
36.42754827133493
 40
37.45720575381954
 40
38.48085062012849
 40
39.49948440763516
 40
40.51422944315121
 40
41.52631975251916
 40
42.53706336680078
 40
42.53706336680078
 40
42.53706336680078
 40
42.53706336680078
 10
-8.914611234202753
 20
2.315702138194892
 30
0.0
 10
-8.931232188328124
 20
2.323569600809617
 30
0.0
 10
-9.374156125207854
 20
2.533147727455754
 30
0.0
 10
-10.24297269291409
 20
2.940112583250089
 30
0.0
 10
-11.52324868760532
 20
3.524228462205007
 30
0.0
 10
-12.80321912952387
 20
4.088925384335578
 30
0.0
 10
-14.08282816774111
 20
4.630571851595764
 30
0.0
 10
-15.36202579183324
 20
5.145682533810887
 30
0.0
 10
-16.64076139231929
 20
5.630932299898133
 30
0.0
 10
-17.91898179659851
 20
6.083192104991179
 30
0.0
 10
-19.19664682230089
 20
6.499498002268297
 30
0.0
 10
-20.47370385090497
 20
6.877151253275327
 30
0.0
 10
-21.75011487014326
 20
7.213643272203635
 30
0.0
 10
-23.02583918153439
 20
7.50675451520269
 30
0.0
 10
-24.30083036329319
 20
7.754504735412715
 30
0.0
 10
-25.57504636105294
 20
7.955201728309134
 30
0.0
 10
-26.84843721084009
 20
8.107468210280018
 30
0.0
 10
-28.12097310823609
 20
8.210165734083755
 30
0.0
 10
-29.3926128824175
 20
8.262535133861227
 30
0.0
 10
-30.23994099778398
 20
8.263571679263382
 30
0.0
 10
-30.66316295154985
 20
8.25559632420726
 30
0.0
  0
SPLINE
  5
4835
330
1F
100
AcDbEntity
  8
PV0001_1
  6
CONTINUOUS
100
AcDbSpline
210
0.0
220
0.0
230
1.0
 70
     8
 71
     3
 72
    47
 73
    43
 74
     0
 42
0.0000000001
 43
0.0000000001
 40
0.0
 40
0.0
 40
0.0
 40
0.0
 40
1.010743684496582
 40
2.022833576467832
 40
3.037578957496688
 40
4.056212745003489
 40
5.079857003664532
 40
6.109500240690281
 40
7.145961322679372
 40
8.189895241603872
 40
9.241717795325891
 40
10.30168407291828
 40
11.36983447792315
 40
12.44600489715814
 40
13.52984294512926
 40
14.62081576220742
 40
15.7182257034828
 40
16.82123173843959
 40
17.92886860250316
 40
19.0400688939571
 40
20.15368796660465
 40
21.26852814259644
 40
22.38336992938901
 40
23.49698739941135
 40
24.6081876908653
 40
25.71582455492886
 40
26.81883757994213
 40
27.91624752121713
 40
29.00722033829659
 40
30.09105838626677
 40
31.16722880550176
 40
32.23537921050758
 40
33.29534548809967
 40
34.347168041821
 40
35.39108718934584
 40
36.42754827133493
 40
37.45720575381954
 40
38.48085062012849
 40
39.49948440763516
 40
40.51422944315121
 40
41.52631975251916
 40
42.53706336679711
 40
42.53706336679711
 40
42.53706336679711
 40
42.53706336679711
 10
-33.83531954651641
 20
-8.249999999999886
 30
0.0
 10
-34.25861656177939
 20
-8.245091449868358
 30
0.0
 10
-35.10577438074614
 20
-8.235267811917287
 30
0.0
 10
-36.37620281231842
 20
-8.156078261613801
 30
0.0
 10
-37.64657701409102
 20
-8.030187563249723
 30
0.0
 10
-38.91687259217272
 20
-7.85374696150919
 30
0.0
 10
-40.18707687101326
 20
-7.629147564827017
 30
0.0
 10
-41.45716479232226
 20
-7.357388130928701
 30
0.0
 10
-42.72714060448744
 20
-7.040299328224118
 30
0.0
 10
-43.99699304538993
 20
-6.679822856825768
 30
0.0
 10
-45.2667134650203
 20
-6.278172020399832
 30
0.0
 10
-46.53630819223289
 20
-5.83786793972756
 30
0.0
 10
-47.80578062725564
 20
-5.361605305967739
 30
0.0
 10
-49.07514663112971
 20
-4.852348974995042
 30
0.0
 10
-50.34441201548554
 20
-4.313228436074037
 30
0.0
 10
-51.6135885498882
 20
-3.74756849888863
 30
0.0
 10
-52.88269030967743
 20
-3.158858833523551
 30
0.0
 10
-54.15172843316778
 20
-2.550719725881382
 30
0.0
 10
-55.42071523651867
 20
-1.926891468046772
 30
0.0
 10
-56.68966429842834
 20
-1.291213648831576
 30
0.0
 10
-57.95858674878793
 20
-0.6475941542281579
 30
0.0
 10
-59.22750050674789
 20
-0.0000016832992633
 30
0.0
 10
-60.49640856834685
 20
0.6476024446976992
 30
0.0
 10
-61.76533527185793
 20
1.291211916443257
 30
0.0
 10
-63.03428276723295
 20
1.926891659818868
 30
0.0
 10
-64.30327183317331
 20
2.550722294161086
 30
0.0
 10
-65.57231522124244
 20
3.158856211837006
 30
0.0
 10
-66.84141898400956
 20
3.747568862779299
 30
0.0
 10
-68.11059570163918
 20
4.313228341272765
 30
0.0
 10
-69.37986103981039
 20
4.85234899356878
 30
0.0
 10
-70.64922704693481
 20
5.361605325287022
 30
0.0
 10
-71.91869951429204
 20
5.837867845165033
 30
0.0
 10
-73.18829411046866
 20
6.278172375428058
 30
0.0
 10
-74.4580090733071
 20
6.679819665282354
 30
0.0
 10
-75.72785366163897
 20
7.040300858022992
 30
0.0
 10
-76.99782900270901
 20
7.357396036984849
 30
0.0
 10
-78.26792599287145
 20
7.629124432183436
 30
0.0
 10
-79.538134468108
 20
7.853793347126326
 30
0.0
 10
-80.80843042276214
 20
8.030024801307567
 30
0.0
 10
-82.07880550722936
 20
8.156679988023009
 30
0.0
 10
-83.34923286146272
 20
8.232999100470541
 30
0.0
 10
-84.19639103968529
 20
8.250000000000733
 30
0.0
 10
-84.61968813208773
 20
8.250000000000801
 30
0.0
  0
SPLINE
  5
4836
330
1F
100
AcDbEntity
  8
PV0001_1
  6
CONTINUOUS
 48
0.5
100
AcDbSpline
210
0.0
220
0.0
230
1.0
 70
     8
 71
     3
 72
    15
 73
    11
 74
     0
 42
0.0000000001
 43
0.0000000001
 40
0.0
 40
0.0
 40
0.0
 40
0.0
 40
1.010743614677189
 40
2.022833924044153
 40
3.037578959561199
 40
4.056212747067873
 40
5.079857613375832
 40
6.109500119648989
 40
7.14596120163808
 40
7.400965940468465
 40
7.400965940468465
 40
7.400965940468465
 40
7.400965940468465
 10
-11.59214314054717
 20
8.249999999999623
 30
0.0
 10
-11.99632436256919
 20
8.249950424518116
 30
0.0
 10
-12.80530321809261
 20
8.233022146420209
 30
0.0
 10
-14.01841293768744
 20
8.1566737645669
 30
0.0
 10
-15.23148959141742
 20
8.030026581249789
 30
0.0
 10
-16.44448603691556
 20
7.853792477449946
 30
0.0
 10
-17.65739472103625
 20
7.629127227323046
 30
0.0
 10
-18.87019495211231
 20
7.357392806137051
 30
0.0
 10
-19.77526121603195
 20
7.120738141897972
 30
0.0
 10
-20.27659547783296
 20
6.978534461362013
 30
0.0
 10
-20.53439224266043
 20
6.88724844602282
 30
0.0
  0
LINE
  5
4837
330
1F
100
AcDbEntity
  8
AM_0
100
AcDbLine
 10
-11.64312997742247
 20
3.574721007993835
 30
0.0
 11
-11.58112104113394
 21
8.249999999999792
 31
0.0
  0
LINE
  5
4838
330
1F
100
AcDbEntity
  8
AM_0
100
AcDbLine
 10
-12.60274475463262
 20
-8.232182359201525
 30
0.0
 11
-12.60274475463255
 21
3.99817816991764
 31
0.0
  0
LINE
  5
4839
330
1F
100
AcDbEntity
  8
PV0001_1
  6
CONTINUOUS
 48
0.5
100
AcDbLine
 10
-63.2025821433827
 20
8.250000000000349
 30
0.0
 11
-30.96013872857928
 21
8.249999999999925
 31
0.0
  0
LINE
  5
483A
330
1F
100
AcDbEntity
  8
PV0001_1
  6
CONTINUOUS
 48
0.5
100
AcDbLine
 10
-65.83292764911846
 20
-8.249999999999618
 30
0.0
 11
-36.34982337413032
 21
-8.250000000000005
 31
0.0
  0
SPLINE
  5
483B
330
1F
100
AcDbEntity
  8
PV0001_1
  6
CONTINUOUS
100
AcDbSpline
210
0.0
220
0.0
230
1.0
 70
     8
 71
     3
 72
    55
 73
    51
 74
     0
 42
0.0000000001
 43
0.0000000001
 40
0.0
 40
0.0
 40
0.0
 40
0.0
 40
1.010743684496582
 40
2.022833576467832
 40
3.037578957496688
 40
4.056212745003489
 40
5.079857003664532
 40
6.109500240690281
 40
7.145961322679372
 40
8.189895241603872
 40
9.241717795325891
 40
10.30168407291828
 40
11.36983447792315
 40
12.44600489715814
 40
13.52984294512926
 40
14.62081576220742
 40
15.7182257034828
 40
16.82123173843959
 40
17.92886860250316
 40
19.0400688939571
 40
20.15368796660465
 40
21.26852814259644
 40
22.38336992938901
 40
23.49698739941135
 40
24.6081876908653
 40
25.71582455492886
 40
26.81883757994213
 40
27.91624752121713
 40
29.00722033829659
 40
30.09105838626677
 40
31.16722880550176
 40
32.23537921050758
 40
33.29534548809967
 40
34.347168041821
 40
35.39108718934584
 40
36.42754827133493
 40
37.45720575381954
 40
38.48085062012849
 40
39.49948440763516
 40
40.51422944315121
 40
41.52631975251916
 40
42.53706336719636
 40
43.54780698187354
 40
44.55989729124051
 40
45.57464232675757
 40
46.59327611426424
 40
47.6169209805722
 40
48.64656348684535
 40
49.68302456883444
 40
50.58557219878025
 40
50.58557219878025
 40
50.58557219878025
 40
50.58557219878025
 10
-12.41822314229597
 20
-8.25000000000017
 30
0.0
 10
-12.84152015755893
 20
-8.245091449868647
 30
0.0
 10
-13.68867797652569
 20
-8.235267811917577
 30
0.0
 10
-14.95910640809798
 20
-8.156078261614092
 30
0.0
 10
-16.22948060987057
 20
-8.030187563250011
 30
0.0
 10
-17.49977618795227
 20
-7.853746961509477
 30
0.0
 10
-18.7699804667928
 20
-7.629147564827308
 30
0.0
 10
-20.04006838810178
 20
-7.357388130928991
 30
0.0
 10
-21.31004420026698
 20
-7.040299328224405
 30
0.0
 10
-22.57989664116949
 20
-6.679822856826056
 30
0.0
 10
-23.84961706079985
 20
-6.278172020400122
 30
0.0
 10
-25.11921178801244
 20
-5.837867939727849
 30
0.0
 10
-26.38868422303518
 20
-5.361605305968025
 30
0.0
 10
-27.65805022690924
 20
-4.852348974995329
 30
0.0
 10
-28.9273156112651
 20
-4.313228436074325
 30
0.0
 10
-30.19649214566777
 20
-3.747568498888918
 30
0.0
 10
-31.46559390545698
 20
-3.158858833523839
 30
0.0
 10
-32.73463202894733
 20
-2.55071972588167
 30
0.0
 10
-34.0036188322982
 20
-1.92689146804706
 30
0.0
 10
-35.27256789420791
 20
-1.291213648831865
 30
0.0
 10
-36.54149034456747
 20
-0.6475941542284454
 30
0.0
 10
-37.81040410252744
 20
-0.0000016832995513
 30
0.0
 10
-39.07931216412642
 20
0.6476024446974109
 30
0.0
 10
-40.34823886763745
 20
1.291211916442969
 30
0.0
 10
-41.61718636301251
 20
1.926891659818579
 30
0.0
 10
-42.88617542895287
 20
2.550722294160798
 30
0.0
 10
-44.15521881702197
 20
3.158856211836717
 30
0.0
 10
-45.4243225797891
 20
3.747568862779012
 30
0.0
 10
-46.69349929741872
 20
4.313228341272476
 30
0.0
 10
-47.96276463558995
 20
4.852348993568488
 30
0.0
 10
-49.23213064271438
 20
5.361605325286734
 30
0.0
 10
-50.50160311007158
 20
5.837867845164746
 30
0.0
 10
-51.7711977062482
 20
6.278172375427771
 30
0.0
 10
-53.04091266908665
 20
6.679819665282063
 30
0.0
 10
-54.31075725741851
 20
7.040300858022704
 30
0.0
 10
-55.58073259848852
 20
7.35739603698456
 30
0.0
 10
-56.85082958865097
 20
7.629124432183149
 30
0.0
 10
-58.12103806388751
 20
7.853793347126036
 30
0.0
 10
-59.39133401854165
 20
8.030024801307277
 30
0.0
 10
-60.66170910300886
 20
8.156679988022723
 30
0.0
 10
-61.93213645740922
 20
8.232999100480286
 30
0.0
 10
-63.20259172868018
 20
8.258494790625555
 30
0.0
 10
-64.47304699808191
 20
8.232999100440412
 30
0.0
 10
-65.74347435810105
 20
8.156679988183084
 30
0.0
 10
-67.0138494218815
 20
8.030024800703019
 30
0.0
 10
-68.28414545409531
 20
7.853793349397299
 30
0.0
 10
-69.55434744524737
 20
7.629125518940242
 30
0.0
 10
-70.82443943171108
 20
7.357398815260629
 30
0.0
 10
-72.03667175008806
 20
7.054694971606127
 30
0.0
 10
-72.82318188354499
 20
6.833324789078305
 30
0.0
 10
-73.83365945663496
 20
6.480652075933379
 30
0.0
  0
SPLINE
  5
483C
330
1F
100
AcDbEntity
  8
PV0001_1
  6
CONTINUOUS
100
AcDbSpline
210
0.0
220
0.0
230
1.0
 70
     8
 71
     3
 72
    17
 73
    13
 74
     0
 42
0.0000000001
 43
0.0000000001
 40
1.580019955310467
 40
1.580019955310467
 40
1.580019955310467
 40
1.580019955310467
 40
2.030549285115227
 40
3.082371838836284
 40
4.126290986361125
 40
5.162752068350215
 40
6.192395305374981
 40
7.216039564037012
 40
8.234688489606833
 40
9.249433870634691
 40
10.26152376260694
 40
11.27226744710342
 40
11.27226744710342
 40
11.27226744710342
 40
11.27226744710352
 10
-24.38308969365822
 20
-6.088742934370433
 30
0.0
 10
-24.5628341113476
 20
-6.151451928445113
 30
0.0
 10
-25.16324085375917
 20
-6.356989032507605
 30
0.0
 10
-26.18828405769685
 20
-6.679381334475211
 30
0.0
 10
-27.45795170501228
 20
-7.04041794441464
 30
0.0
 10
-28.72796889064218
 20
-7.35736015251638
 30
0.0
 10
-29.99804426801622
 20
-7.629143595612315
 30
0.0
 10
-31.26825801782647
 20
-7.853791307812476
 30
0.0
 10
-32.53855952305963
 20
-8.030021323678747
 30
0.0
 10
-33.80894012743329
 20
-8.156691613741248
 30
0.0
 10
-35.07936853205909
 20
-8.232986786632377
 30
0.0
 10
-35.92652636445173
 20
-8.250000047207054
 30
0.0
 10
-36.34982337413012
 20
-8.249999999999833
 30
0.0
  0
VIEWPORT
  5
110
330
101
100
AcDbEntity
 67
     1
  8
0
100
AcDbViewport
 10
420.5
 20
297.0
 30
0.0
 40
948.9782706766916
 41
628.452
 68
     1
 69
     1
1001
ACAD
1000
MVIEW
1002
{
1070
    16
1010
0.0
1020
0.0
1030
0.0
1010
0.0
1020
0.0
1030
1.0
1040
0.0
1040
628.452
1040
420.5
1040
297.0
1040
50.0
1040
0.0
1040
0.0
1070
     0
1070
   100
1070
     1
1070
     1
1070
     0
1070
     0
1070
     0
1070
     0
1040
0.0
1040
0.0
1040
0.0
1040
10.0
1040
10.0
1040
10.0
1040
10.0
1070
     0
1002
{
1002
}
1002
}
  0
ENDSEC
  0
SECTION
  2
OBJECTS
  0
DICTIONARY
  5
C
330
0
100
AcDbDictionary
  3
ACAD_GROUP
350
D
  3
ACAD_LAYOUT
350
1A
  3
ACAD_MLINESTYLE
350
17
  3
ACAD_PLOTSETTINGS
350
19
  3
ACAD_PLOTSTYLENAME
350
E
  3
ACDBVARIABLEDICTIONARY
350
34
  3
ACMDICTIONARY
350
43
  3
AMG
350
2B
  3
AMGSNAPSETTINGS
350
6E
  3
DWGPROPS
350
4859
  3
ACDBHEADERROUNDTRIPXREC
350
4869
  0
DICTIONARY
  5
74
330
1F
100
AcDbDictionary
280
     1
  3
ACAD_INDEX
360
485B
  3
ACAD_LAYOUTSELFREF
360
488C
  0
DICTIONARY
  5
4891
330
101
100
AcDbDictionary
280
     1
  3
ACAD_LAYOUTSELFREF
360
4892
  0
DICTIONARY
  5
D
102
{ACAD_REACTORS
330
C
102
}
330
C
100
AcDbDictionary
  0
DICTIONARY
  5
1A
102
{ACAD_REACTORS
330
C
102
}
330
C
100
AcDbDictionary
  0
DICTIONARY
  5
17
102
{ACAD_REACTORS
330
C
102
}
330
C
100
AcDbDictionary
  3
STANDARD
350
18
  0
DICTIONARY
  5
19
102
{ACAD_REACTORS
330
C
102
}
330
C
100
AcDbDictionary
  0
ACDBDICTIONARYWDFLT
  5
E
102
{ACAD_REACTORS
330
C
102
}
330
C
100
AcDbDictionary
281
     1
  3
Normal
350
F
100
AcDbDictionaryWithDefault
340
F
  0
DICTIONARY
  5
34
102
{ACAD_REACTORS
330
C
102
}
330
C
100
AcDbDictionary
  3
INDEXCTL
350
35
  3
SORTENTS
350
B5E
  0
DICTIONARY
  5
43
102
{ACAD_REACTORS
330
C
102
}
330
C
100
AcDbDictionary
  3
ACMSTDDICTIONARY
350
260
  0
DICTIONARY
  5
2B
102
{ACAD_REACTORS
330
C
102
}
330
C
100
AcDbDictionary
  3
ACMGSETTINGS
350
2C
  0
DICTIONARY
  5
6E
102
{ACAD_REACTORS
330
C
102
}
330
C
100
AcDbDictionary
  0
XRECORD
  5
4859
102
{ACAD_REACTORS
330
C
102
}
330
C
100
AcDbXrecord
  1
DWGPROPS COOKIE
  2

  3

  4

  6

  7

  8

  9

300
AmdtFileType=82
301
=
302
=
303
=
304
=
305
=
306
=
307
=
308
=
309
=
 40
0.3308339120370371
 41
2452800.443498622
 42
2453002.211069617
  1

 90
        1
  0
DICTIONARY
  5
4869
102
{ACAD_REACTORS
330
C
102
}
330
C
100
AcDbDictionary
  3
TSTACKALIGN
350
486A
  3
TSTACKSIZE
350
486B
  3
HYPERLINKBASE
350
486C
  3
STYLESHEET
350
486D
  3
LAYOUTDICT
350
486E
  3
PLOTSETDICT
350
486F
  3
PLOTSTYLNAMDICT
350
4870
  3
LWETCUNION
350
4871
  3
INSUNITS
350
4872
  3
CEPSNTYPE
350
4873
  3
FINGERPRINTGUID
350
4874
  3
VERSIONGUID
350
4875
  3
PSVPSCALE
350
4876
  3
DIMSTYLEDATA
350
4877
  3
PUCSORTHOREF
350
4878
  3
PUCSORTHOVIEW
350
4879
  3
PUCSBASE
350
487A
  3
PUCSORGTOP
350
487B
  3
PUCSORGBOTTOM
350
487C
  3
PUCSORGLEFT
350
487D
  3
PUCSORGRIGHT
350
487E
  3
PUCSORGFRONT
350
487F
  3
PUCSORGBACK
350
4880
  3
UCSORTHOREF
350
4881
  3
UCSORTHOVIEW
350
4882
  3
UCSBASE
350
4883
  3
UCSORGTOP
350
4884
  3
UCSORGBOTTOM
350
4885
  3
UCSORGLEFT
350
4886
  3
UCSORGRIGHT
350
4887
  3
UCSORGFRONT
350
4888
  3
UCSORGBACK
350
4889
  0
DICTIONARY
  5
485B
102
{ACAD_REACTORS
330
74
102
}
330
74
100
AcDbDictionary
  3
*A1
350
485C
  0
XRECORD
  5
488C
102
{ACAD_REACTORS
330
74
102
}
330
74
100
AcDbXrecord
340
1F
  0
XRECORD
  5
4892
102
{ACAD_REACTORS
330
4891
102
}
330
4891
100
AcDbXrecord
340
101
  0
MLINESTYLE
  5
18
102
{ACAD_REACTORS
330
17
102
}
330
17
100
AcDbMlineStyle
  2
STANDARD
 70
     0
  3

 62
   256
 51
90.0
 52
90.0
 71
     2
 49
0.5
 62
   256
  6
BYLAYER
 49
-0.5
 62
   256
  6
BYLAYER
  0
ACDBPLACEHOLDER
  5
F
102
{ACAD_REACTORS
330
E
102
}
330
E
100
AcDbPlaceHolder
280
     0
  0
DICTIONARYVAR
  5
35
102
{ACAD_REACTORS
330
34
102
}
330
34
100
DictionaryVariables
280
     0
  1
1
  0
DICTIONARYVAR
  5
B5E
102
{ACAD_REACTORS
330
34
102
}
330
34
100
DictionaryVariables
280
     0
  1
96
  0
DICTIONARY
  5
260
102
{ACAD_REACTORS
330
43
102
}
330
43
100
AcDbDictionary
  0
DICTIONARY
  5
2C
102
{ACAD_REACTORS
330
2B
102
}
330
2B
100
AcDbDictionary
  3
DWGSETTINGS
350
2D
  0
XRECORD
  5
486A
102
{ACAD_REACTORS
330
4869
102
}
330
4869
100
AcDbXrecord
 90
        1
  0
XRECORD
  5
486B
102
{ACAD_REACTORS
330
4869
102
}
330
4869
100
AcDbXrecord
 90
       70
  0
XRECORD
  5
486C
102
{ACAD_REACTORS
330
4869
102
}
330
4869
100
AcDbXrecord
  1

  0
XRECORD
  5
486D
102
{ACAD_REACTORS
330
4869
102
}
330
4869
100
AcDbXrecord
  1
ASAMI.ctb
  0
XRECORD
  5
486E
102
{ACAD_REACTORS
330
4869
102
}
330
4869
100
AcDbXrecord
340
1A
  0
XRECORD
  5
486F
102
{ACAD_REACTORS
330
4869
102
}
330
4869
100
AcDbXrecord
340
19
  0
XRECORD
  5
4870
102
{ACAD_REACTORS
330
4869
102
}
330
4869
100
AcDbXrecord
340
E
  0
XRECORD
  5
4871
102
{ACAD_REACTORS
330
4869
102
}
330
4869
100
AcDbXrecord
 90
    10781
  0
XRECORD
  5
4872
102
{ACAD_REACTORS
330
4869
102
}
330
4869
100
AcDbXrecord
 90
        4
  0
XRECORD
  5
4873
102
{ACAD_REACTORS
330
4869
102
}
330
4869
100
AcDbXrecord
 90
        0
  0
XRECORD
  5
4874
102
{ACAD_REACTORS
330
4869
102
}
330
4869
100
AcDbXrecord
  1
{AFB28963-8C59-40AE-9337-C84526B81ACE}
  0
XRECORD
  5
4875
102
{ACAD_REACTORS
330
4869
102
}
330
4869
100
AcDbXrecord
  1
{9E28CB23-EBBE-4868-A3D7-AB662D2D6F1A}
  0
XRECORD
  5
4876
102
{ACAD_REACTORS
330
4869
102
}
330
4869
100
AcDbXrecord
 40
0.0
  0
XRECORD
  5
4877
102
{ACAD_REACTORS
330
4869
102
}
330
4869
100
AcDbXrecord
1000
DSTYLE
1002
{
1070
    79
 70
     2
1070
   341
340
59
1070
   342
340
59
1070
   371
 70
    -1
1070
   372
 70
    -1
1002
}
  0
XRECORD
  5
4878
102
{ACAD_REACTORS
330
4869
102
}
330
4869
100
AcDbXrecord
340
0
  0
XRECORD
  5
4879
102
{ACAD_REACTORS
330
4869
102
}
330
4869
100
AcDbXrecord
 70
     0
  0
XRECORD
  5
487A
102
{ACAD_REACTORS
330
4869
102
}
330
4869
100
AcDbXrecord
340
0
  0
XRECORD
  5
487B
102
{ACAD_REACTORS
330
4869
102
}
330
4869
100
AcDbXrecord
 10
0.0
 20
0.0
 30
0.0
  0
XRECORD
  5
487C
102
{ACAD_REACTORS
330
4869
102
}
330
4869
100
AcDbXrecord
 10
0.0
 20
0.0
 30
0.0
  0
XRECORD
  5
487D
102
{ACAD_REACTORS
330
4869
102
}
330
4869
100
AcDbXrecord
 10
0.0
 20
0.0
 30
0.0
  0
XRECORD
  5
487E
102
{ACAD_REACTORS
330
4869
102
}
330
4869
100
AcDbXrecord
 10
0.0
 20
0.0
 30
0.0
  0
XRECORD
  5
487F
102
{ACAD_REACTORS
330
4869
102
}
330
4869
100
AcDbXrecord
 10
0.0
 20
0.0
 30
0.0
  0
XRECORD
  5
4880
102
{ACAD_REACTORS
330
4869
102
}
330
4869
100
AcDbXrecord
 10
0.0
 20
0.0
 30
0.0
  0
XRECORD
  5
4881
102
{ACAD_REACTORS
330
4869
102
}
330
4869
100
AcDbXrecord
340
0
  0
XRECORD
  5
4882
102
{ACAD_REACTORS
330
4869
102
}
330
4869
100
AcDbXrecord
 70
     0
  0
XRECORD
  5
4883
102
{ACAD_REACTORS
330
4869
102
}
330
4869
100
AcDbXrecord
340
0
  0
XRECORD
  5
4884
102
{ACAD_REACTORS
330
4869
102
}
330
4869
100
AcDbXrecord
 10
0.0
 20
0.0
 30
0.0
  0
XRECORD
  5
4885
102
{ACAD_REACTORS
330
4869
102
}
330
4869
100
AcDbXrecord
 10
0.0
 20
0.0
 30
0.0
  0
XRECORD
  5
4886
102
{ACAD_REACTORS
330
4869
102
}
330
4869
100
AcDbXrecord
 10
0.0
 20
0.0
 30
0.0
  0
XRECORD
  5
4887
102
{ACAD_REACTORS
330
4869
102
}
330
4869
100
AcDbXrecord
 10
0.0
 20
0.0
 30
0.0
  0
XRECORD
  5
4888
102
{ACAD_REACTORS
330
4869
102
}
330
4869
100
AcDbXrecord
 10
0.0
 20
0.0
 30
0.0
  0
XRECORD
  5
4889
102
{ACAD_REACTORS
330
4869
102
}
330
4869
100
AcDbXrecord
 10
0.0
 20
0.0
 30
0.0
  0
LAYER_INDEX
  5
485C
102
{ACAD_REACTORS
330
485B
102
}
330
485B
100
AcDbIndex
 40
2453151.705563854
100
AcDbLayerIndex
  8
0
360
485D
 90
        0
  8
AM_0
360
485E
 90
       11
  8
PV0001_1
360
485F
 90
       33
  8
AM_CL
360
4860
 90
        0
  8
AM_7
360
4861
 90
        1
  8
AM_11
360
4862
 90
        3
  8
AM_5
360
4863
 90
       10
  8
Defpoints
360
4864
 90
        0
  8
AM_6
360
4865
 90
        1
  8
AM_4
360
4866
 90
        0
  8
AM_3
360
4867
 90
        0
  0
XRECORD
  5
2D
102
{ACAD_REACTORS
330
2C
102
}
330
2C
100
AcDbXrecord
  1
VERSION
140
15.0
  1
PRODUCT
  2
AutoCAD Mechanical 2000
  0
IDBUFFER
  5
485D
330
0
100
AcDbIdBuffer
  0
IDBUFFER
  5
485E
330
0
100
AcDbIdBuffer
330
43A8
330
43A9
330
43B2
330
43B4
330
4524
330
4527
330
452D
330
46A4
330
46AA
330
4837
330
4838
  0
IDBUFFER
  5
485F
330
0
100
AcDbIdBuffer
330
4528
330
4529
330
452A
330
452E
330
4534
330
4536
330
46A3
330
46A6
330
46AB
330
46AC
330
4834
330
4835
330
4836
330
4839
330
483A
330
483B
330
483C
330
35F4
330
35F5
330
43A6
330
43A7
330
43AA
330
43AB
330
43AE
330
43AF
330
43B0
330
43B1
330
43B3
330
44E2
330
44E3
330
4522
330
4523
330
4525
  0
IDBUFFER
  5
4860
330
0
100
AcDbIdBuffer
  0
IDBUFFER
  5
4861
330
0
100
AcDbIdBuffer
330
35D1
  0
IDBUFFER
  5
4862
330
0
100
AcDbIdBuffer
330
4539
330
453A
330
46A5
  0
IDBUFFER
  5
4863
330
0
100
AcDbIdBuffer
330
36BA
330
3B0D
330
3BB8
330
3CCB
330
43A4
330
43A5
330
43AC
330
43AD
330
4515
330
471A
  0
IDBUFFER
  5
4864
330
0
100
AcDbIdBuffer
  0
IDBUFFER
  5
4865
330
0
100
AcDbIdBuffer
330
19BD
  0
IDBUFFER
  5
4866
330
0
100
AcDbIdBuffer
  0
IDBUFFER
  5
4867
330
0
100
AcDbIdBuffer
  0
ENDSEC
  0
EOF
