  0
SECTION
  2
HEADER
  9
$ACADVER
  1
AC1014
  9
$ACADMAINTVER
 70
     9
  9
$DWGCODEPAGE
  3
ANSI_932
  9
$INSBASE
 10
0.0
 20
0.0
 30
0.0
  9
$EXTMIN
 10
-191.9694183522792
 20
-68.54100792062237
 30
-0.00000001
  9
$EXTMAX
 10
27.98579068191831
 20
42.7835333851794
 30
0.00000001
  9
$LIMMIN
 10
-224.5771781212413
 20
-98.95219883702521
  9
$LIMMAX
 10
58.00122170653617
 20
81.62380929633025
  9
$ORTHOMODE
 70
     0
  9
$REGENMODE
 70
     1
  9
$FILLMODE
 70
     1
  9
$QTEXTMODE
 70
     0
  9
$MIRRTEXT
 70
     0
  9
$DRAGMODE
 70
     2
  9
$LTSCALE
 40
1.0
  9
$OSMODE
 70
    55
  9
$ATTMODE
 70
     1
  9
$TEXTSIZE
 40
2.5
  9
$TRACEWID
 40
1.0
  9
$TEXTSTYLE
  7
STANDARD
  9
$CLAYER
  8
AM_0
  9
$CELTYPE
  6
BYLAYER
  9
$CECOLOR
 62
   256
  9
$CELTSCALE
 40
1.0
  9
$DELOBJ
 70
     1
  9
$DISPSILH
 70
     0
  9
$DIMSCALE
 40
1.0
  9
$DIMASZ
 40
2.5
  9
$DIMEXO
 40
1.0
  9
$DIMDLI
 40
12.0
  9
$DIMRND
 40
0.0
  9
$DIMDLE
 40
0.0
  9
$DIMEXE
 40
1.0
  9
$DIMTP
 40
0.1
  9
$DIMTM
 40
0.1
  9
$DIMTXT
 40
3.2
  9
$DIMCEN
 40
0.0
  9
$DIMTSZ
 40
0.0
  9
$DIMTOL
 70
     0
  9
$DIMLIM
 70
     0
  9
$DIMTIH
 70
     0
  9
$DIMTOH
 70
     0
  9
$DIMSE1
 70
     0
  9
$DIMSE2
 70
     0
  9
$DIMTAD
 70
     3
  9
$DIMZIN
 70
     8
  9
$DIMBLK
  1
OPEN30
  9
$DIMASO
 70
     1
  9
$DIMSHO
 70
     1
  9
$DIMPOST
  1

  9
$DIMAPOST
  1
"
  9
$DIMALT
 70
     0
  9
$DIMALTD
 70
     2
  9
$DIMALTF
 40
0.0393701
  9
$DIMLFAC
 40
1.0
  9
$DIMTOFL
 70
     1
  9
$DIMTVP
 40
0.0
  9
$DIMTIX
 70
     0
  9
$DIMSOXD
 70
     0
  9
$DIMSAH
 70
     0
  9
$DIMBLK1
  1

  9
$DIMBLK2
  1

  9
$DIMSTYLE
  2
AM_JIS
  9
$DIMCLRD
 70
   256
  9
$DIMCLRE
 70
   256
  9
$DIMCLRT
 70
     2
  9
$DIMTFAC
 40
0.71
  9
$DIMGAP
 40
1.5
  9
$DIMJUST
 70
     0
  9
$DIMSD1
 70
     0
  9
$DIMSD2
 70
     0
  9
$DIMTOLJ
 70
     0
  9
$DIMTZIN
 70
     0
  9
$DIMALTZ
 70
     0
  9
$DIMALTTZ
 70
     0
  9
$DIMFIT
 70
     3
  9
$DIMUPT
 70
     0
  9
$DIMUNIT
 70
     2
  9
$DIMDEC
 70
     3
  9
$DIMTDEC
 70
     3
  9
$DIMALTU
 70
     2
  9
$DIMALTTD
 70
     2
  9
$DIMTXSTY
  7
ASAMI
  9
$DIMAUNIT
 70
     0
  9
$LUNITS
 70
     2
  9
$LUPREC
 70
     2
  9
$SKETCHINC
 40
1.0
  9
$FILLETRAD
 40
2.5
  9
$AUNITS
 70
     0
  9
$AUPREC
 70
     0
  9
$MENU
  1
.
  9
$ELEVATION
 40
0.0
  9
$PELEVATION
 40
0.0
  9
$THICKNESS
 40
0.0
  9
$LIMCHECK
 70
     0
  9
$BLIPMODE
 70
     0
  9
$CHAMFERA
 40
2.5
  9
$CHAMFERB
 40
2.5
  9
$CHAMFERC
 40
20.0
  9
$CHAMFERD
 40
0.0
  9
$SKPOLY
 70
     0
  9
$TDCREATE
 40
2452800.443498622
  9
$TDUPDATE
 40
2453151.705970035
  9
$TDINDWG
 40
0.3405678588
  9
$TDUSRTIMER
 40
0.3405678588
  9
$USRTIMER
 70
     1
  9
$ANGBASE
 50
0.0
  9
$ANGDIR
 70
     0
  9
$PDMODE
 70
     0
  9
$PDSIZE
 40
0.0
  9
$PLINEWID
 40
0.0
  9
$COORDS
 70
     1
  9
$SPLFRAME
 70
     0
  9
$SPLINETYPE
 70
     6
  9
$SPLINESEGS
 70
     8
  9
$ATTDIA
 70
     1
  9
$ATTREQ
 70
     1
  9
$HANDLING
 70
 12289
  9
$HANDSEED
  5
48E7
  9
$SURFTAB1
 70
     6
  9
$SURFTAB2
 70
     6
  9
$SURFTYPE
 70
     6
  9
$SURFU
 70
     6
  9
$SURFV
 70
     6
  9
$UCSNAME
  2

  9
$UCSORG
 10
0.0
 20
-0.0000000000000725
 30
0.0
  9
$UCSXDIR
 10
1.0
 20
0.0000000000000027
 30
0.0
  9
$UCSYDIR
 10
-0.0000000000000027
 20
1.0
 30
0.0
  9
$PUCSNAME
  2

  9
$PUCSORG
 10
0.0
 20
0.0
 30
0.0
  9
$PUCSXDIR
 10
1.0
 20
0.0
 30
0.0
  9
$PUCSYDIR
 10
0.0
 20
1.0
 30
0.0
  9
$USERI1
 70
     0
  9
$USERI2
 70
     0
  9
$USERI3
 70
     0
  9
$USERI4
 70
     0
  9
$USERI5
 70
     0
  9
$USERR1
 40
0.0
  9
$USERR2
 40
0.0
  9
$USERR3
 40
0.0
  9
$USERR4
 40
0.0
  9
$USERR5
 40
0.0
  9
$WORLDVIEW
 70
     1
  9
$SHADEDGE
 70
     3
  9
$SHADEDIF
 70
    70
  9
$TILEMODE
 70
     1
  9
$MAXACTVP
 70
    64
  9
$PINSBASE
 10
0.0
 20
0.0
 30
0.0
  9
$PLIMCHECK
 70
     0
  9
$PEXTMIN
 10
1.000000000000000E+20
 20
1.000000000000000E+20
 30
1.000000000000000E+20
  9
$PEXTMAX
 10
-1.000000000000000E+20
 20
-1.000000000000000E+20
 30
-1.000000000000000E+20
  9
$PLIMMIN
 10
0.0
 20
0.0
  9
$PLIMMAX
 10
841.0
 20
594.0
  9
$UNITMODE
 70
     0
  9
$VISRETAIN
 70
     1
  9
$PLINEGEN
 70
     0
  9
$PSLTSCALE
 70
     0
  9
$TREEDEPTH
 70
  3020
  9
$PICKSTYLE
 70
     0
  9
$CMLSTYLE
  2
STANDARD
  9
$CMLJUST
 70
     0
  9
$CMLSCALE
 40
20.0
  9
$PROXYGRAPHICS
 70
     1
  9
$MEASUREMENT
 70
     1
  0
ENDSEC
  0
SECTION
  2
CLASSES
  0
CLASS
  1
ACDBDICTIONARYWDFLT
  2
AcDbDictionaryWithDefault
  3
AutoCAD 2000
 90
        0
280
     0
281
     0
  0
CLASS
  1
ACDBPLACEHOLDER
  2
AcDbPlaceHolder
  3
AutoCAD 2000
 90
        0
280
     0
281
     0
  0
CLASS
  1
LAYOUT
  2
AcDbLayout
  3
AutoCAD 2000
 90
        0
280
     0
281
     0
  0
CLASS
  1
AMGSETTINGSOBJ
  2
AmgSettingsObj
  3
"AcadM|Product Description: AutoCAD Mechanical 2000|Company: Autodesk"
 90
        0
280
     0
281
     0
  0
CLASS
  1
ACME_DOCUMENT
  2
AcMeDbDoc
  3
AcMeServices
 90
        0
280
     0
281
     0
  0
CLASS
  1
ACMESCOPE
  2
AcMeScope
  3
AcMeServices
 90
        0
280
     0
281
     0
  0
CLASS
  1
ACMECOMMANDHISTORY
  2
AcMeCommandHistory
  3
AcMeServices
 90
        0
280
     0
281
     0
  0
CLASS
  1
DICTIONARYVAR
  2
AcDbDictionaryVar
  3
AutoCAD 2000
 90
        0
280
     0
281
     0
  0
CLASS
  1
ACIMSYSVARMAN
  2
AcImSysVarManager
  3
AcMeServices
 90
        0
280
     0
281
     0
  0
CLASS
  1
ACIMREALSYSVAR
  2
AcImRealSysVar
  3
AcMeServices
 90
        0
280
     0
281
     0
  0
CLASS
  1
ACIMINTSYSVAR
  2
AcImIntSysVar
  3
AcMeServices
 90
        0
280
     0
281
     0
  0
CLASS
  1
ACMEDRAWINGMAN
  2
AcMeDrawingMan
  3
AcMeServices
 90
        0
280
     0
281
     0
  0
CLASS
  1
ACMEVIEW
  2
AcMeView
  3
AcMeServices
 90
        0
280
     0
281
     0
  0
CLASS
  1
ACDBENTITYCACHE
  2
AcMeEntityCache
  3
AcMeServices
 90
        0
280
     0
281
     0
  0
CLASS
  1
GSMANAGER
  2
AcMeGSManager
  3
AcMeServices
 90
        0
280
     0
281
     0
  0
CLASS
  1
AmdtInternalReactor
  2
AmdtInternalReactor
  3
AcMeServices
 90
        0
280
     0
281
     0
  0
CLASS
  1
ACMESTATEMGR
  2
AcMeStateMgr
  3
AcMeServices
 90
        0
280
     0
281
     0
  0
CLASS
  1
ACME_DATABASE
  2
AcMeDbDatabase
  3
AcMeServices
 90
        0
280
     0
281
     0
  0
CLASS
  1
ACRFINSADJUSTERMGR
  2
AcRfInsAdjusterMgr
  3
AcMeServices
 90
        0
280
     0
281
     0
  0
CLASS
  1
ACMDATADICTIONARY
  2
AcmDataDictionary
  3
"AcmSymBB|Product Description: AutoCAD Mechanical 2000|Company: Autodesk"
 90
        0
280
     0
281
     0
  0
CLASS
  1
ACMDATAENTRYBLOCK
  2
AcmDataEntryBlock
  3
"AcmSymBB|Product Description: AutoCAD Mechanical 2000|Company: Autodesk"
 90
        0
280
     0
281
     0
  0
CLASS
  1
AMGOBJPROPCFG
  2
AmgObjPropCfg
  3
"AmgLay|Product Description: AutoCAD Mechanical 2000|Company: Autodesk"
 90
        1
280
     0
281
     0
  0
CLASS
  1
ACAMGFILTERDAT
  2
AcAmgFilterDat
  3
"AcadM|Product Description: AutoCAD Mechanical 2000|Company: Autodesk"
 90
        0
280
     0
281
     0
  0
CLASS
  1
LAYER_INDEX
  2
AcDbLayerIndex
  3
AutoCAD 2000
 90
        0
280
     0
281
     0
  0
CLASS
  1
IDBUFFER
  2
AcDbIdBuffer
  3
AutoCAD 2000
 90
        0
280
     0
281
     0
  0
CLASS
  1
ACIMSTRSYSVAR
  2
AcImStrSysVar
  3
AcMeServices
 90
        0
280
     0
281
     0
  0
CLASS
  1
ACMSTANDARDJIS
  2
AcmStandardJIS
  3
"AcmSymBB|Product Description: AutoCAD Mechanical 2000|Company: Autodesk"
 90
        0
280
     0
281
     0
  0
CLASS
  1
ACMSURFSTANDARDJIS
  2
AcmSurfTextStdJIS
  3
"AcmSymBB|Product Description: AutoCAD Mechanical 2000|Company: Autodesk"
 90
        0
280
     0
281
     0
  0
CLASS
  1
ACMFCFSTANDARDJIS
  2
AcmFCFStdJIS
  3
"AcmSymBB|Product Description: AutoCAD Mechanical 2000|Company: Autodesk"
 90
        0
280
     0
281
     0
  0
CLASS
  1
ACMWELDSTANDARDJIS
  2
AcmWeldingStdJIS
  3
"AcmSymBB|Product Description: AutoCAD Mechanical 2000|Company: Autodesk"
 90
        0
280
     0
281
     0
  0
CLASS
  1
ACMIDSTANDARDJIS
  2
AcmIdStdJIS
  3
"AcmSymBB|Product Description: AutoCAD Mechanical 2000|Company: Autodesk"
 90
        0
280
     0
281
     0
  0
CLASS
  1
ACMDATUMSTANDARDJIS
  2
AcmDatumStdJIS
  3
"AcmSymBB|Product Description: AutoCAD Mechanical 2000|Company: Autodesk"
 90
        0
280
     0
281
     0
  0
CLASS
  1
ACMBOMSTANDARDJIS
  2
AcmBOMStdJIS
  3
"AcmSymBB|Product Description: AutoCAD Mechanical 2000|Company: Autodesk"
 90
        0
280
     0
281
     0
  0
CLASS
  1
ACMSTANDARDANSI
  2
AcmStandardANSI
  3
"AcmSymBB|Product Description: AutoCAD Mechanical 2000|Company: Autodesk"
 90
        0
280
     0
281
     0
  0
CLASS
  1
ACMSURFSTANDARDANSI
  2
AcmSurfTextStdANSI
  3
"AcmSymBB|Product Description: AutoCAD Mechanical 2000|Company: Autodesk"
 90
        0
280
     0
281
     0
  0
CLASS
  1
ACMFCFSTANDARDANSI
  2
AcmFCFStdANSI
  3
"AcmSymBB|Product Description: AutoCAD Mechanical 2000|Company: Autodesk"
 90
        0
280
     0
281
     0
  0
CLASS
  1
ACMWELDSTANDARDANSI
  2
AcmWeldingStdANSI
  3
"AcmSymBB|Product Description: AutoCAD Mechanical 2000|Company: Autodesk"
 90
        0
280
     0
281
     0
  0
CLASS
  1
ACMIDSTANDARDANSI
  2
AcmIdStdANSI
  3
"AcmSymBB|Product Description: AutoCAD Mechanical 2000|Company: Autodesk"
 90
        0
280
     0
281
     0
  0
CLASS
  1
ACMDATUMSTANDARDANSI
  2
AcmDatumStdANSI
  3
"AcmSymBB|Product Description: AutoCAD Mechanical 2000|Company: Autodesk"
 90
        0
280
     0
281
     0
  0
CLASS
  1
ACMBOMSTANDARDANSI
  2
AcmBOMStdANSI
  3
"AcmSymBB|Product Description: AutoCAD Mechanical 2000|Company: Autodesk"
 90
        0
280
     0
281
     0
  0
CLASS
  1
ACMSTANDARDBSI
  2
AcmStandardBSI
  3
"AcmSymBB|Product Description: AutoCAD Mechanical 2000|Company: Autodesk"
 90
        0
280
     0
281
     0
  0
CLASS
  1
ACMSURFSTANDARDBSI
  2
AcmSurfTextStdBSI
  3
"AcmSymBB|Product Description: AutoCAD Mechanical 2000|Company: Autodesk"
 90
        0
280
     0
281
     0
  0
CLASS
  1
ACMFCFSTANDARDBSI
  2
AcmFCFStdBSI
  3
"AcmSymBB|Product Description: AutoCAD Mechanical 2000|Company: Autodesk"
 90
        0
280
     0
281
     0
  0
CLASS
  1
ACMWELDSTANDARDBSI
  2
AcmWeldingStdBSI
  3
"AcmSymBB|Product Description: AutoCAD Mechanical 2000|Company: Autodesk"
 90
        0
280
     0
281
     0
  0
CLASS
  1
ACMIDSTANDARDBSI
  2
AcmIdStdBSI
  3
"AcmSymBB|Product Description: AutoCAD Mechanical 2000|Company: Autodesk"
 90
        0
280
     0
281
     0
  0
CLASS
  1
ACMDATUMSTANDARDBSI
  2
AcmDatumStdBSI
  3
"AcmSymBB|Product Description: AutoCAD Mechanical 2000|Company: Autodesk"
 90
        0
280
     0
281
     0
  0
CLASS
  1
ACMBOMSTANDARDBSI
  2
AcmBOMStdBSI
  3
"AcmSymBB|Product Description: AutoCAD Mechanical 2000|Company: Autodesk"
 90
        0
280
     0
281
     0
  0
CLASS
  1
LONG_TRANSACTION
  2
AcDbLongTransaction
  3
AutoCAD 2000
 90
        0
280
     0
281
     0
  0
CLASS
  1
LWPOLYLINE
  2
AcDbPolyline
  3
AutoCAD 2000
 90
        0
280
     0
281
     1
  0
CLASS
  1
HATCH
  2
AcDbHatch
  3
AutoCAD 2000
 90
        0
280
     0
281
     1
  0
CLASS
  1
XRECORD
  2
AcDbXrecord
  3
AutoCAD 2000
 90
        0
280
     0
281
     0
  0
ENDSEC
  0
SECTION
  2
TABLES
  0
TABLE
  2
VPORT
  5
8
330
0
100
AcDbSymbolTable
 70
     3
  0
VPORT
  5
48BC
330
8
100
AcDbSymbolTableRecord
100
AcDbViewportTableRecord
  2
*ACTIVE
 70
     0
 10
0.0
 20
0.0
 11
1.0
 21
1.0
 12
-48.88900358163255
 22
6.291797035851871
 13
0.0
 23
0.0
 14
2.5
 24
2.5
 15
10.0
 25
10.0
 16
0.0
 26
0.0
 36
1.0
 17
0.0
 27
0.0
 37
0.0
 40
252.3571300479719
 41
1.56570841889117
 42
50.0
 43
0.0
 44
0.0
 50
0.0
 51
0.0
 71
     0
 72
   100
 73
     1
 74
     1
 75
     0
 76
     0
 77
     0
 78
     0
  0
ENDTAB
  0
TABLE
  2
LTYPE
  5
5
330
0
100
AcDbSymbolTable
 70
    10
  0
LTYPE
  5
14
330
5
100
AcDbSymbolTableRecord
100
AcDbLinetypeTableRecord
  2
BYBLOCK
 70
     0
  3

 72
    65
 73
     0
 40
0.0
  0
LTYPE
  5
15
330
5
100
AcDbSymbolTableRecord
100
AcDbLinetypeTableRecord
  2
BYLAYER
 70
     0
  3

 72
    65
 73
     0
 40
0.0
  0
LTYPE
  5
16
330
5
100
AcDbSymbolTableRecord
100
AcDbLinetypeTableRecord
  2
CONTINUOUS
 70
     0
  3
Solid line
 72
    65
 73
     0
 40
0.0
  0
LTYPE
  5
4B
330
5
100
AcDbSymbolTableRecord
100
AcDbLinetypeTableRecord
  2
AM_ISO02W050
 70
     0
  3
__ __ __ __ __ __ __ __ __ __ __ __ __ __ __
 72
    65
 73
     2
 40
7.5
 49
6.0
 74
     0
 49
-1.5
 74
     0
  0
LTYPE
  5
4C
330
5
100
AcDbSymbolTableRecord
100
AcDbLinetypeTableRecord
  2
AM_ISO08W050
 70
     0
  3
____ . ____ . ____ . ____ . ____ . ____ . ____
 72
    65
 73
     4
 40
18.0
 49
12.0
 74
     0
 49
-1.5
 74
     0
 49
3.0
 74
     0
 49
-1.5
 74
     0
  0
LTYPE
  5
4D
330
5
100
AcDbSymbolTableRecord
100
AcDbLinetypeTableRecord
  2
AM_ISO09W050
 70
     0
  3
_____ . . _____ . . _____ . . ____ .. ____
 72
    65
 73
     6
 40
22.5
 49
12.0
 74
     0
 49
-1.5
 74
     0
 49
3.0
 74
     0
 49
-1.5
 74
     0
 49
3.0
 74
     0
 49
-1.5
 74
     0
  0
LTYPE
  5
4E
330
5
100
AcDbSymbolTableRecord
100
AcDbLinetypeTableRecord
  2
AMCONSTR
 70
     0
  3
_______________________
 72
    65
 73
     2
 40
9999.0
 49
9999.0
 74
     0
 49
0.0
 74
     0
  0
LTYPE
  5
4F
330
5
100
AcDbSymbolTableRecord
100
AcDbLinetypeTableRecord
  2
AM_ISO02W050X2
 70
     0
  3
 _ _ _ _ _ _ _ _ _ _ _ _
 72
    65
 73
     2
 40
3.75
 49
3.0
 74
     0
 49
-0.75
 74
     0
  0
LTYPE
  5
50
330
5
100
AcDbSymbolTableRecord
100
AcDbLinetypeTableRecord
  2
AM_ISO08W050X2
 70
     0
  3
__ . __ . __ . __ . __ . __
 72
    65
 73
     4
 40
9.0
 49
6.0
 74
     0
 49
-0.75
 74
     0
 49
1.5
 74
     0
 49
-0.75
 74
     0
  0
LTYPE
  5
53
330
5
100
AcDbSymbolTableRecord
100
AcDbLinetypeTableRecord
  2
AMZIGZAG
 70
     0
  3
/\/-/\/-/\/-/\/-/\/-/\/
 72
    65
 73
     2
 40
11.00009999999999
 49
0.0001
 74
     4
 75
   135
340
52
 46
0.04
 50
0.0
 44
0.0
 45
0.0
 49
-11.0
 74
     0
  0
LTYPE
  5
166
330
5
100
AcDbSymbolTableRecord
100
AcDbLinetypeTableRecord
  2
ACJISTGL
 70
     0
  3
_ _ _ _ _
 72
    65
 73
     2
 40
3.0
 49
2.0
 74
     0
 49
-1.0
 74
     0
  0
LTYPE
  5
26A
330
5
100
AcDbSymbolTableRecord
100
AcDbLinetypeTableRecord
  2
ACJISTGB
 70
     0
  3
__ . . __ . .
 72
    65
 73
     6
 40
9.0
 49
4.0
 74
     0
 49
-1.0
 74
     0
 49
1.0
 74
     0
 49
-1.0
 74
     0
 49
1.0
 74
     0
 49
-1.0
 74
     0
  0
ENDTAB
  0
TABLE
  2
LAYER
  5
2
330
0
100
AcDbSymbolTable
 70
    11
  0
LAYER
  5
10
330
2
100
AcDbSymbolTableRecord
100
AcDbLayerTableRecord
  2
0
 70
     0
 62
     7
  6
CONTINUOUS
  0
LAYER
  5
3F9
330
2
100
AcDbSymbolTableRecord
100
AcDbLayerTableRecord
  2
AM_0
 70
     0
 62
     7
  6
CONTINUOUS
  0
LAYER
  5
BA4
330
2
100
AcDbSymbolTableRecord
100
AcDbLayerTableRecord
  2
PV0001_1
 70
     0
 62
     7
  6
CONTINUOUS
  0
LAYER
  5
C6C
330
2
100
AcDbSymbolTableRecord
100
AcDbLayerTableRecord
  2
AM_CL
 70
     0
 62
     1
  6
AMCONSTR
  0
LAYER
  5
C7C
330
2
100
AcDbSymbolTableRecord
100
AcDbLayerTableRecord
  2
AM_7
 70
     0
 62
     4
  6
AM_ISO08W050
  0
LAYER
  5
C97
330
2
100
AcDbSymbolTableRecord
100
AcDbLayerTableRecord
  2
AM_11
 70
     0
 62
     3
  6
AM_ISO09W050
  0
LAYER
  5
CC5
330
2
100
AcDbSymbolTableRecord
100
AcDbLayerTableRecord
  2
AM_5
 70
     0
 62
     3
  6
CONTINUOUS
  0
LAYER
  5
CC7
330
2
100
AcDbSymbolTableRecord
100
AcDbLayerTableRecord
  2
DEFPOINTS
 70
     0
 62
     7
  6
CONTINUOUS
  0
LAYER
  5
19BC
330
2
100
AcDbSymbolTableRecord
100
AcDbLayerTableRecord
  2
AM_6
 70
     0
 62
     2
  6
CONTINUOUS
  0
LAYER
  5
1F8E
330
2
100
AcDbSymbolTableRecord
100
AcDbLayerTableRecord
  2
AM_4
 70
     0
 62
     3
  6
CONTINUOUS
  0
LAYER
  5
3588
330
2
100
AcDbSymbolTableRecord
100
AcDbLayerTableRecord
  2
AM_3
 70
     0
 62
     6
  6
ACJISTGL
  0
ENDTAB
  0
TABLE
  2
STYLE
  5
3
330
0
100
AcDbSymbolTable
 70
     5
  0
STYLE
  5
11
330
3
100
AcDbSymbolTableRecord
100
AcDbTextStyleTableRecord
  2
STANDARD
 70
     0
 40
0.0
 41
1.0
 50
0.0
 71
     0
 42
2.5
  3
simplex.shx
  4
EXTFONT.SHX
  0
STYLE
  5
52
330
3
100
AcDbSymbolTableRecord
100
AcDbTextStyleTableRecord
  2

 70
     1
 40
0.0
 41
1.0
 50
0.0
 71
     0
 42
2.5
  3
ltypeshp.shx
  4

  0
STYLE
  5
6B
330
3
100
AcDbSymbolTableRecord
100
AcDbTextStyleTableRecord
  2
ASAMI
 70
     0
 40
0.0
 41
1.0
 50
0.0
 71
     0
 42
2.5
  3
simplex.shx
  4
EXTFONT.SHX
  0
STYLE
  5
262
330
3
100
AcDbSymbolTableRecord
100
AcDbTextStyleTableRecord
  2
ACJISTS
 70
     0
 40
1.0
 41
1.0
 50
0.0
 71
     0
 42
2.5
  3
simplex.shx
  4
bigfont.shx
  0
STYLE
  5
269
330
3
100
AcDbSymbolTableRecord
100
AcDbTextStyleTableRecord
  2
ACJISGDT
 70
     0
 40
0.0
 41
1.0
 50
0.0
 71
     0
 42
2.5
  3
amgdtans.shx
  4

  0
ENDTAB
  0
TABLE
  2
VIEW
  5
6
330
0
100
AcDbSymbolTable
 70
     0
  0
ENDTAB
  0
TABLE
  2
UCS
  5
7
330
0
100
AcDbSymbolTable
 70
     0
  0
ENDTAB
  0
TABLE
  2
APPID
  5
9
330
0
100
AcDbSymbolTable
 70
    14
  0
APPID
  5
12
330
9
100
AcDbSymbolTableRecord
100
AcDbRegAppTableRecord
  2
ACAD
 70
     0
  0
APPID
  5
30
330
9
100
AcDbSymbolTableRecord
100
AcDbRegAppTableRecord
  2
MCAD_NO_VIS
 70
     0
  0
APPID
  5
31
330
9
100
AcDbSymbolTableRecord
100
AcDbRegAppTableRecord
  2
ACAD_TEMP_GRAPHIC
 70
     0
  0
APPID
  5
2C2
330
9
100
AcDbSymbolTableRecord
100
AcDbRegAppTableRecord
  2
GENIUS_GENDTOL_13
 70
     0
  0
APPID
  5
339
330
9
100
AcDbSymbolTableRecord
100
AcDbRegAppTableRecord
  2
GENIUS_GENODEF_13
 70
     0
  0
APPID
  5
33A
330
9
100
AcDbSymbolTableRecord
100
AcDbRegAppTableRecord
  2
GENIUS_GENOBJ-N-RSBK_13
 70
     0
  0
APPID
  5
33B
330
9
100
AcDbSymbolTableRecord
100
AcDbRegAppTableRecord
  2
GENIUS_GENOBJ-N-LIB_13
 70
     0
  0
APPID
  5
33C
330
9
100
AcDbSymbolTableRecord
100
AcDbRegAppTableRecord
  2
GENIUS_GENSCALE_13
 70
     0
  0
APPID
  5
378
330
9
100
AcDbSymbolTableRecord
100
AcDbRegAppTableRecord
  2
GENIUS_GENDIMSH_14
 70
     0
  0
APPID
  5
C82
330
9
100
AcDbSymbolTableRecord
100
AcDbRegAppTableRecord
  2
GENIUS_GENOBJ-N-CRS_13
 70
     0
  0
APPID
  5
C83
330
9
100
AcDbSymbolTableRecord
100
AcDbRegAppTableRecord
  2
GENIUS_GENOENT_13
 70
     0
  0
APPID
  5
C84
330
9
100
AcDbSymbolTableRecord
100
AcDbRegAppTableRecord
  2
GENIUS_GENOREF_13
 70
     0
  0
APPID
  5
C85
330
9
100
AcDbSymbolTableRecord
100
AcDbRegAppTableRecord
  2
GENIUS_GENOLIS_13
 70
     0
  0
APPID
  5
CA0
330
9
100
AcDbSymbolTableRecord
100
AcDbRegAppTableRecord
  2
GENIUS_GENOBJ-N-CEN_13
 70
     0
  0
ENDTAB
  0
TABLE
  2
DIMSTYLE
  5
A
330
0
100
AcDbSymbolTable
 70
    10
  0
DIMSTYLE
105
58
330
A
100
AcDbSymbolTableRecord
100
AcDbDimStyleTableRecord
  2
AM_JIS
 70
     0
  3

  4
"
  5
OPEN30
  6

  7

 40
1.0
 41
2.5
 42
1.0
 43
12.0
 44
1.0
 45
0.0
 46
0.0
 47
0.1
 48
0.1
140
3.2
141
0.0
142
0.0
143
0.0393701
144
1.0
145
0.0
146
0.71
147
1.5
 71
     0
 72
     0
 73
     0
 74
     0
 75
     0
 76
     0
 77
     3
 78
     8
170
     0
171
     2
172
     1
173
     0
174
     0
175
     0
176
   256
177
   256
178
     2
270
     2
271
     3
272
     3
273
     2
274
     2
340
6B
275
     0
280
     0
281
     0
282
     0
283
     0
284
     0
285
     0
286
     0
287
     3
288
     0
  0
DIMSTYLE
105
5F
330
A
100
AcDbSymbolTableRecord
100
AcDbDimStyleTableRecord
  2
AM_JIS$3
 70
     0
  3

  4
"
  5
OPEN30
  6

  7

 40
1.0
 41
2.5
 42
1.0
 43
10.0
 44
1.0
 45
0.0
 46
0.0
 47
0.1
 48
0.1
140
3.2
141
0.0
142
0.0
143
0.0393701
144
1.0
145
0.0
146
0.71
147
1.5
 71
     0
 72
     0
 73
     0
 74
     1
 75
     0
 76
     0
 77
     3
 78
     8
170
     0
171
     2
172
     0
173
     0
174
     0
175
     0
176
   256
177
   256
178
     2
270
     2
271
     2
272
     3
273
     2
274
     2
340
6B
275
     0
280
     0
281
     0
282
     0
283
     0
284
     0
285
     0
286
     0
287
     0
288
     1
  0
DIMSTYLE
105
60
330
A
100
AcDbSymbolTableRecord
100
AcDbDimStyleTableRecord
  2
AM_JIS$4
 70
     0
  3

  4
"
  5
OPEN30
  6

  7

 40
1.0
 41
2.5
 42
1.0
 43
10.0
 44
1.0
 45
0.0
 46
0.0
 47
0.1
 48
0.1
140
3.2
141
0.0
142
0.0
143
0.0393701
144
1.0
145
0.0
146
0.71
147
1.5
 71
     0
 72
     0
 73
     0
 74
     1
 75
     0
 76
     0
 77
     3
 78
     8
170
     0
171
     2
172
     0
173
     0
174
     0
175
     0
176
   256
177
   256
178
     2
270
     2
271
     2
272
     3
273
     2
274
     2
340
6B
275
     0
280
     0
281
     0
282
     0
283
     0
284
     0
285
     0
286
     0
287
     0
288
     1
  0
DIMSTYLE
105
61
330
A
100
AcDbSymbolTableRecord
100
AcDbDimStyleTableRecord
  2
AM_JIS$6
 70
     0
  3

  4
"
  5
OPEN30
  6

  7

 40
1.0
 41
2.5
 42
1.0
 43
10.0
 44
1.0
 45
0.0
 46
0.0
 47
0.1
 48
0.1
140
3.2
141
0.0
142
0.0
143
0.0393701
144
1.0
145
0.0
146
0.71
147
1.5
 71
     0
 72
     0
 73
     0
 74
     0
 75
     0
 76
     0
 77
     0
 78
     8
170
     0
171
     2
172
     1
173
     0
174
     0
175
     0
176
   256
177
   256
178
     2
270
     2
271
     2
272
     2
273
     2
274
     2
340
6B
275
     0
280
     0
281
     0
282
     0
283
     0
284
     0
285
     0
286
     0
287
     3
288
     0
  0
DIMSTYLE
105
62
330
A
100
AcDbSymbolTableRecord
100
AcDbDimStyleTableRecord
  2
AM_JIS$7
 70
     0
  3

  4
"
  5
OPEN30
  6

  7

 40
1.0
 41
2.5
 42
1.0
 43
10.0
 44
1.0
 45
0.0
 46
0.0
 47
0.1
 48
0.1
140
3.2
141
0.0
142
0.0
143
0.0393701
144
1.0
145
0.0
146
0.71
147
1.5
 71
     0
 72
     0
 73
     0
 74
     0
 75
     0
 76
     0
 77
     3
 78
     8
170
     0
171
     2
172
     1
173
     0
174
     0
175
     0
176
   256
177
   256
178
     2
270
     2
271
     2
272
     3
273
     2
274
     2
340
6B
275
     0
280
     0
281
     0
282
     0
283
     0
284
     0
285
     0
286
     0
287
     3
288
     0
  0
DIMSTYLE
105
63
330
A
100
AcDbSymbolTableRecord
100
AcDbDimStyleTableRecord
  2
AM_JIS$SF
 70
     0
  3

  4
"
  5
OPEN30
  6

  7

 40
1.0
 41
2.5
 42
1.0
 43
10.0
 44
1.0
 45
0.0
 46
0.0
 47
0.1
 48
0.1
140
3.2
141
0.0
142
0.0
143
0.0393701
144
1.0
145
0.0
146
0.71
147
1.5
 71
     0
 72
     0
 73
     0
 74
     0
 75
     1
 76
     1
 77
     3
 78
     8
170
     0
171
     2
172
     1
173
     0
174
     0
175
     0
176
   256
177
   256
178
     2
270
     2
271
     2
272
     2
273
     2
274
     2
340
6B
275
     0
280
     0
281
     0
282
     0
283
     0
284
     0
285
     0
286
     0
287
     3
288
     0
  0
DIMSTYLE
105
68
330
A
100
AcDbSymbolTableRecord
100
AcDbDimStyleTableRecord
  2
AM_JIS$SH
 70
     0
  3

  4
"
  5

  6
GENAXEH
  7
OPEN30
 40
1.0
 41
2.5
 42
1.0
 43
10.0
 44
1.0
 45
0.0
 46
0.0
 47
0.1
 48
0.1
140
3.2
141
0.0
142
0.0
143
0.0393701
144
2.0
145
0.0
146
0.71
147
1.5
 71
     0
 72
     0
 73
     0
 74
     0
 75
     1
 76
     1
 77
     3
 78
     8
170
     0
171
     2
172
     1
173
     1
174
     0
175
     0
176
   256
177
   256
178
     2
270
     2
271
     2
272
     2
273
     2
274
     2
340
6B
275
     0
280
     0
281
     0
282
     0
283
     0
284
     0
285
     0
286
     0
287
     3
288
     0
  0
DIMSTYLE
105
B34
102
{ACAD_REACTORS
330
36BA
102
}
330
A
100
AcDbSymbolTableRecord
100
AcDbDimStyleTableRecord
  2
AM_JIS$2
 70
     0
  3

  4
"
  5
OPEN30
  6

  7

 40
1.0
 41
2.5
 42
1.0
 43
12.0
 44
1.0
 45
0.0
 46
0.0
 47
0.1
 48
0.1
140
3.2
141
0.0
142
0.0
143
0.0393701
144
1.0
145
0.0
146
0.71
147
1.5
 71
     0
 72
     0
 73
     0
 74
     0
 75
     0
 76
     0
 77
     3
 78
     8
170
     0
171
     2
172
     1
173
     0
174
     0
175
     0
176
   256
177
   256
178
     2
270
     2
271
     3
272
     3
273
     2
274
     2
340
6B
275
     0
280
     0
281
     0
282
     0
283
     0
284
     0
285
     0
286
     0
287
     3
288
     0
  0
DIMSTYLE
105
BA5
102
{ACAD_REACTORS
330
3B0D
330
3BB8
330
3CCB
330
43AC
330
43A5
330
43AD
330
43A4
330
4515
330
471A
102
}
330
A
100
AcDbSymbolTableRecord
100
AcDbDimStyleTableRecord
  2
AM_JIS$0
 70
     0
  3

  4
"
  5
OPEN30
  6

  7

 40
1.0
 41
2.5
 42
0.8
 43
10.0
 44
1.0
 45
0.0
 46
0.0
 47
0.1
 48
0.1000000001
140
3.799999999999999
141
0.0
142
0.0
143
0.0393701
144
1.0
145
0.0
146
0.71
147
1.5
 71
     0
 72
     0
 73
     0
 74
     0
 75
     0
 76
     0
 77
     3
 78
     9
170
     0
171
     2
172
     1
173
     0
174
     0
175
     0
176
     3
177
     3
178
     2
270
     2
271
     2
272
     2
273
     2
274
     2
340
11
275
     1
280
     0
281
     0
282
     0
283
     0
284
     8
285
     0
286
     0
287
     0
288
     0
  0
DIMSTYLE
105
BA6
330
A
100
AcDbSymbolTableRecord
100
AcDbDimStyleTableRecord
  2
AM_JISORG-1P0$2
 70
     0
  3

  4
"
  5
OPEN30
  6

  7

 40
1.0
 41
2.5
 42
0.0
 43
10.0
 44
1.0
 45
0.0
 46
0.0
 47
0.1
 48
0.1000000001
140
3.799999999999999
141
0.0
142
0.0
143
0.0393701
144
-0.999999980146674
145
0.0
146
0.71
147
1.5
 71
     0
 72
     0
 73
     0
 74
     0
 75
     0
 76
     0
 77
     3
 78
     1
170
     0
171
     2
172
     1
173
     0
174
     0
175
     0
176
     3
177
     3
178
     2
270
     2
271
     2
272
     2
273
     2
274
     2
340
11
275
     1
280
     0
281
     0
282
     0
283
     0
284
     8
285
     0
286
     0
287
     0
288
     0
  0
ENDTAB
  0
TABLE
  2
BLOCK_RECORD
  5
1
330
0
100
AcDbSymbolTable
 70
    19
  0
BLOCK_RECORD
  5
1F
102
{ACAD_XDICTIONARY
360
74
102
}
330
1
100
AcDbSymbolTableRecord
100
AcDbBlockTableRecord
  2
*MODEL_SPACE
  0
BLOCK_RECORD
  5
101
102
{ACAD_XDICTIONARY
360
48E5
102
}
330
1
100
AcDbSymbolTableRecord
100
AcDbBlockTableRecord
  2
*PAPER_SPACE
  0
BLOCK_RECORD
  5
59
330
1
100
AcDbSymbolTableRecord
100
AcDbBlockTableRecord
  2
_OPEN30
  0
BLOCK_RECORD
  5
64
330
1
100
AcDbSymbolTableRecord
100
AcDbBlockTableRecord
  2
GENAXEH
  0
BLOCK_RECORD
  5
C31
330
1
100
AcDbSymbolTableRecord
100
AcDbBlockTableRecord
  2
A$C36D02A34
  0
BLOCK_RECORD
  5
2453
330
1
100
AcDbSymbolTableRecord
100
AcDbBlockTableRecord
  2
*D6
  0
BLOCK_RECORD
  5
245F
330
1
100
AcDbSymbolTableRecord
100
AcDbBlockTableRecord
  2
A$C4FFC6CC0
  0
BLOCK_RECORD
  5
36BB
330
1
100
AcDbSymbolTableRecord
100
AcDbBlockTableRecord
  2
*D8
  0
BLOCK_RECORD
  5
3B0E
330
1
100
AcDbSymbolTableRecord
100
AcDbBlockTableRecord
  2
*D9
  0
BLOCK_RECORD
  5
3BB9
330
1
100
AcDbSymbolTableRecord
100
AcDbBlockTableRecord
  2
*D10
  0
BLOCK_RECORD
  5
3CCC
330
1
100
AcDbSymbolTableRecord
100
AcDbBlockTableRecord
  2
*D11
  0
BLOCK_RECORD
  5
43B5
330
1
100
AcDbSymbolTableRecord
100
AcDbBlockTableRecord
  2
*D12
  0
BLOCK_RECORD
  5
43C1
330
1
100
AcDbSymbolTableRecord
100
AcDbBlockTableRecord
  2
*D13
  0
BLOCK_RECORD
  5
43CD
330
1
100
AcDbSymbolTableRecord
100
AcDbBlockTableRecord
  2
*D14
  0
BLOCK_RECORD
  5
43DB
330
1
100
AcDbSymbolTableRecord
100
AcDbBlockTableRecord
  2
*D15
  0
BLOCK_RECORD
  5
4516
330
1
100
AcDbSymbolTableRecord
100
AcDbBlockTableRecord
  2
*D16
  0
BLOCK_RECORD
  5
471B
330
1
100
AcDbSymbolTableRecord
100
AcDbBlockTableRecord
  2
*D17
  0
ENDTAB
  0
ENDSEC
  0
SECTION
  2
BLOCKS
  0
BLOCK
  5
20
330
1F
100
AcDbEntity
  8
0
100
AcDbBlockBegin
  2
*MODEL_SPACE
 70
     0
 10
0.0
 20
0.0
 30
0.0
  3
*MODEL_SPACE
  1

  0
ENDBLK
  5
21
330
1F
100
AcDbEntity
  8
0
100
AcDbBlockEnd
  0
BLOCK
  5
103
330
101
100
AcDbEntity
 67
     1
  8
0
100
AcDbBlockBegin
  2
*PAPER_SPACE
 70
     0
 10
0.0
 20
0.0
 30
0.0
  3
*PAPER_SPACE
  1

  0
ENDBLK
  5
104
330
101
100
AcDbEntity
 67
     1
  8
0
100
AcDbBlockEnd
  0
BLOCK
  5
5D
330
59
100
AcDbEntity
  8
0
100
AcDbBlockBegin
  2
_OPEN30
 70
     0
 10
0.0
 20
0.0
 30
0.0
  3
_OPEN30
  1

  0
LINE
  5
5A
330
59
100
AcDbEntity
  8
0
 62
     0
100
AcDbLine
 10
-1.0
 20
0.26794919
 30
0.0
 11
0.0
 21
0.0
 31
0.0
  0
LINE
  5
5B
330
59
100
AcDbEntity
  8
0
 62
     0
100
AcDbLine
 10
0.0
 20
0.0
 30
0.0
 11
-1.0
 21
-0.26794919
 31
0.0
  0
LINE
  5
5C
330
59
100
AcDbEntity
  8
0
 62
     0
100
AcDbLine
 10
0.0
 20
0.0
 30
0.0
 11
-1.0
 21
0.0
 31
0.0
  0
ENDBLK
  5
5E
330
59
100
AcDbEntity
  8
0
100
AcDbBlockEnd
  0
BLOCK
  5
66
330
64
100
AcDbEntity
  8
0
100
AcDbBlockBegin
  2
GENAXEH
 70
     0
 10
0.0
 20
0.0
 30
0.0
  3
GENAXEH
  1

  0
LINE
  5
65
330
64
100
AcDbEntity
  8
0
100
AcDbLine
 10
-1.0
 20
0.0
 30
0.0
 11
1.0
 21
0.0
 31
0.0
  0
ENDBLK
  5
67
330
64
100
AcDbEntity
  8
0
100
AcDbBlockEnd
  0
BLOCK
  5
C4B
330
C31
100
AcDbEntity
  8
0
100
AcDbBlockBegin
  2
A$C36D02A34
 70
     0
 10
0.0
 20
0.0
 30
0.0
  3
A$C36D02A34
  1

  0
ARC
  5
C32
330
C31
100
AcDbEntity
  8
PV0001_1
  6
CONTINUOUS
 48
0.5
100
AcDbCircle
 10
18.06811523436999
 20
-11.83651161193799
 30
0.0
 40
21.600000381469
100
AcDbArc
 50
123.2290435713209
 51
126.6341524197568
  0
ARC
  5
C33
330
C31
100
AcDbEntity
  8
PV0001_1
  6
CONTINUOUS
 48
0.5
100
AcDbCircle
 10
18.06811523436999
 20
-11.83651161193799
 30
0.0
 40
21.600000381469
100
AcDbArc
 50
135.0736707620117
 51
146.7709980930592
  0
ARC
  5
C34
330
C31
100
AcDbEntity
  8
PV0001_1
  6
CONTINUOUS
 48
0.5
100
AcDbCircle
 10
-18.0680770874
 20
11.8365631103514
 30
0.0
 40
21.600000381469
100
AcDbArc
 50
315.0734847530392
 51
326.770781348241
  0
ARC
  5
C35
330
C31
100
AcDbEntity
  8
PV0001_1
  6
CONTINUOUS
 48
0.5
100
AcDbCircle
 10
-18.0680770874
 20
11.8365631103514
 30
0.0
 40
21.600000381469
100
AcDbArc
 50
303.2288882981993
 51
306.633986901359
  0
ARC
  5
C36
330
C31
100
AcDbEntity
  8
PV0001_1
  6
CONTINUOUS
 48
0.5
100
AcDbCircle
 10
-0.6269836425800009
 20
-2.044216156005997
 30
0.0
 40
2.0
100
AcDbArc
 50
337.4067997351092
 51
43.42231293132884
  0
ARC
  5
C37
330
C31
100
AcDbEntity
  8
PV0001_1
  6
CONTINUOUS
 48
0.5
100
AcDbCircle
 10
0.626953125
 20
2.044223785401001
 30
0.0
 40
2.0
100
AcDbArc
 50
157.4068184044407
 51
223.4222769591536
  0
CIRCLE
  5
C38
330
C31
100
AcDbEntity
  8
PV0001_1
  6
CONTINUOUS
 48
0.5
100
AcDbCircle
 10
3.856727600100001
 20
4.596265792847002
 30
0.0
 40
1.6000000238419
  0
CIRCLE
  5
C39
330
C31
100
AcDbEntity
  8
PV0001_1
  6
CONTINUOUS
 48
0.5
100
AcDbCircle
 10
-3.856727600100001
 20
-4.596265792845997
 30
0.0
 40
1.6000000238419
  0
ARC
  5
C3A
330
C31
100
AcDbEntity
  8
PV0001_1
  6
CONTINUOUS
 48
0.5
100
AcDbCircle
 10
-5.58123779297
 20
5.092639923096001
 30
0.0
 40
5.019082546234099
100
AcDbArc
 50
240.2658959250867
 51
321.5156269706421
  0
ARC
  5
C3B
330
C31
100
AcDbEntity
  8
PV0001_1
  6
CONTINUOUS
 48
0.5
100
AcDbCircle
 10
5.486755371089998
 20
-4.601703643798998
 30
0.0
 40
4.651036739349399
100
AcDbArc
 50
56.25271400417071
 51
145.528859890601
  0
ARC
  5
C3C
330
C31
100
AcDbEntity
  8
PV0001_1
  6
CONTINUOUS
 48
0.5
100
AcDbCircle
 10
-2.11590576172
 20
-3.453323364257997
 30
0.0
 40
4.050000190734899
100
AcDbArc
 50
43.42230610113921
 51
58.50391703385149
  0
ARC
  5
C3D
330
C31
100
AcDbEntity
  8
PV0001_1
  6
CONTINUOUS
 48
0.5
100
AcDbCircle
 10
2.115875244139999
 20
3.453330993653001
 30
0.0
 40
4.050000190734899
100
AcDbArc
 50
223.4222942619974
 51
238.5038164022482
  0
ARC
  5
C3E
330
C31
100
AcDbEntity
  8
PV0001_1
  6
CONTINUOUS
 48
0.5
100
AcDbCircle
 10
-6.70369720459
 20
5.094657897949002
 30
0.0
 40
5.940000057220499
100
AcDbArc
 50
328.2536768887549
 51
31.74641873389623
  0
ARC
  5
C3F
330
C31
100
AcDbEntity
  8
PV0001_1
  6
CONTINUOUS
 48
0.5
100
AcDbCircle
 10
6.703674316410001
 20
-5.094650268553998
 30
0.0
 40
5.940000057220499
100
AcDbArc
 50
148.2533403882529
 51
211.7466423089037
  0
ARC
  5
C40
330
C31
100
AcDbEntity
  8
PV0001_1
  6
CONTINUOUS
 48
0.5
100
AcDbCircle
 10
0.0
 20
0.0
 30
0.0
 40
8.812800407409699
100
AcDbArc
 50
175.2198288164333
 51
272.8622597568298
  0
ARC
  5
C41
330
C31
100
AcDbEntity
  8
PV0001_1
  6
CONTINUOUS
 48
0.5
100
AcDbCircle
 10
0.0
 20
0.0
 30
0.0
 40
9.1800003051758
100
AcDbArc
 50
272.7511362215027
 51
280.3697477877874
  0
ARC
  5
C42
330
C31
100
AcDbEntity
  8
PV0001_1
  6
CONTINUOUS
 48
0.5
100
AcDbCircle
 10
0.0
 20
0.0
 30
0.0
 40
8.812800407409699
100
AcDbArc
 50
355.2198199654955
 51
92.86229572901076
  0
ARC
  5
C43
330
C31
100
AcDbEntity
  8
PV0001_1
  6
CONTINUOUS
 48
0.5
100
AcDbCircle
 10
0.0
 20
0.0
 30
0.0
 40
9.1800003051758
100
AcDbArc
 50
92.75115489083434
 51
100.3697664571193
  0
CIRCLE
  5
C44
330
C31
100
AcDbEntity
  8
PV0001_1
  6
CONTINUOUS
100
AcDbCircle
 10
0.0
 20
0.0
 30
0.0
 40
9.1800003051758
  0
LINE
  5
C45
330
C31
100
AcDbEntity
  8
PV0001_1
  6
CONTINUOUS
 48
0.5
100
AcDbLine
 10
-1.652404785160001
 20
9.030059814453
 30
0.0
 11
-1.652404785160001
 21
8.220062255860002
 31
0.0
  0
LINE
  5
C46
330
C31
100
AcDbEntity
  8
PV0001_1
  6
CONTINUOUS
 48
0.5
100
AcDbLine
 10
1.652404785160001
 20
-8.220058441161999
 30
0.0
 11
1.652404785160001
 21
-9.030055999755997
 31
0.0
  0
LINE
  5
C47
330
C31
100
AcDbEntity
  8
PV0001_1
  6
CONTINUOUS
 48
0.5
100
AcDbLine
 10
-8.78217315674
 20
0.7343807220460015
 30
0.0
 11
-8.070594787600001
 21
0.7343997955320028
 31
0.0
  0
LINE
  5
C48
330
C31
100
AcDbEntity
  8
PV0001_1
  6
CONTINUOUS
 48
0.5
100
AcDbLine
 10
8.07057952881
 20
-0.7343864440919994
 30
0.0
 11
8.78215789795
 21
-0.7343654632569994
 31
0.0
  0
LINE
  5
C49
330
C31
100
AcDbEntity
  8
PV0001_1
  6
CONTINUOUS
 48
0.5
100
AcDbLine
 10
0.4406127929700006
 20
-9.169414520263
 30
0.0
 11
0.4406127929700006
 21
-8.812801361083998
 31
0.0
  0
LINE
  5
C4A
330
C31
100
AcDbEntity
  8
PV0001_1
  6
CONTINUOUS
 48
0.5
100
AcDbLine
 10
-0.4406127929700006
 20
9.169418334961001
 30
0.0
 11
-0.4406127929700006
 21
8.812805175781001
 31
0.0
  0
ENDBLK
  5
C4C
330
C31
100
AcDbEntity
  8
0
100
AcDbBlockEnd
  0
BLOCK
  5
245D
330
2453
100
AcDbEntity
  8
0
100
AcDbBlockBegin
  2
*D6
 70
     1
 10
0.0
 20
0.0
 30
0.0
  3
*D6
  1

  0
LINE
  5
2454
330
2453
100
AcDbEntity
  8
AM_5
 62
     3
100
AcDbLine
 10
-137.574381722344
 20
-5.00000294019065
 30
0.0
 11
-152.8199008769066
 21
-5.000002940190694
 31
0.0
  0
LINE
  5
2455
330
2453
100
AcDbEntity
  8
AM_5
 62
     3
100
AcDbLine
 10
-137.5743817223442
 20
5.00002461040103
 30
0.0
 11
-152.8199008769066
 21
5.000024610400987
 31
0.0
  0
LINE
  5
2456
330
2453
100
AcDbEntity
  8
AM_5
 62
     3
100
AcDbLine
 10
-151.8199008769066
 20
-2.500002940190691
 30
0.0
 11
-151.8199008769066
 21
2.50002461040099
 31
0.0
  0
INSERT
  5
2457
330
2453
100
AcDbEntity
  8
AM_5
 62
     3
100
AcDbBlockReference
  2
_OPEN30
 10
-151.8199008769066
 20
-5.00000294019069
 30
0.0
 41
2.5
 42
2.5
 43
2.5
 50
270.0000000000001
  0
INSERT
  5
2458
330
2453
100
AcDbEntity
  8
AM_5
 62
     3
100
AcDbBlockReference
  2
_OPEN30
 10
-151.8199008769066
 20
5.00002461040099
 30
0.0
 41
2.5
 42
2.5
 43
2.5
 50
90.00000000000015
  0
MTEXT
  5
2459
330
2453
100
AcDbEntity
  8
AM_5
 62
     2
100
AcDbMText
 10
-155.2199008769066
 20
0.000010835105146
 30
0.0
 40
3.799999999999999
 41
0.0
 71
     5
 72
     1
  1
%%c10
 11
-0.0000000000000028
 21
1.0
 31
0.0
1001
ACAD
1000
MTEXTBEGIN
1070
    73
1070
     1
1070
    44
1040
1.0
1070
    74
1070
     0
1000
MTEXTEND
  0
POINT
  5
245A
330
2453
100
AcDbEntity
  8
DEFPOINTS
 62
     0
100
AcDbPoint
 10
-137.5743817223441
 20
-5.000002940190223
 30
0.0
  0
POINT
  5
245B
330
2453
100
AcDbEntity
  8
DEFPOINTS
 62
     0
100
AcDbPoint
 10
-137.5743817223441
 20
5.000024610401458
 30
0.0
  0
POINT
  5
245C
330
2453
100
AcDbEntity
  8
DEFPOINTS
 62
     0
100
AcDbPoint
 10
-151.8199008769066
 20
5.000024610401462
 30
0.0
  0
ENDBLK
  5
245E
330
2453
100
AcDbEntity
  8
0
100
AcDbBlockEnd
  0
BLOCK
  5
246B
330
245F
100
AcDbEntity
  8
0
100
AcDbBlockBegin
  2
A$C4FFC6CC0
 70
     0
 10
0.0
 20
0.0
 30
0.0
  3
A$C4FFC6CC0
  1

  0
DIMENSION
  5
2460
330
245F
100
AcDbEntity
  8
AM_5
100
AcDbDimension
  2
*D6
 10
-70.00000100000002
 20
5.000008477104842
 30
0.0
 11
-70.00000100000002
 21
-0.0000052981910228
 31
0.0
 12
81.81989987690661
 22
-0.0000161332966199
 32
0.0
 70
   128
  1
%%c<>
 51
359.9999999999998
  3
AM_JIS$0
100
AcDbAlignedDimension
 13
-55.75448184543748
 23
-5.000019073486843
 33
0.0
 14
-55.75448184543756
 24
5.000008477104838
 34
0.0
 50
270.0
100
AcDbRotatedDimension
1001
ACAD
1000
DSTYLE
1002
{
1070
   271
1070
     0
1002
}
1001
GENIUS_GENDTOL_13
1000

1000
h7
1000

1040
0.0
  0
LINE
  5
2461
330
245F
100
AcDbEntity
  8
AM_0
 48
0.5
100
AcDbLine
 10
-56.0
 20
-4.754495620727796
 30
0.0
 11
-56.00000000000003
 21
4.754485024345811
 31
0.0
  0
LINE
  5
2462
330
245F
100
AcDbEntity
  8
AM_0
 48
0.5
100
AcDbLine
 10
-55.75448184543751
 20
-5.000019073486843
 30
0.0
 11
-55.75448184543754
 21
5.000008477104838
 31
0.0
  0
LINE
  5
2463
330
245F
100
AcDbEntity
  8
AM_0
100
AcDbLine
 10
-0.0000000000000142
 20
4.999995231627903
 30
0.0
 11
-55.75448184543754
 21
4.999995231627746
 31
0.0
  0
LINE
  5
2464
330
245F
100
AcDbEntity
  8
AM_0
 48
0.5
100
AcDbLine
 10
-55.99996821086117
 20
4.754439989725671
 30
0.0
 11
-55.75443945990975
 21
4.999963442484006
 31
0.0
  0
LINE
  5
2465
330
245F
100
AcDbEntity
  8
AM_0
100
AcDbLine
 10
-55.75448184543751
 20
-5.000008477105588
 30
0.0
 11
0.0000000000000142
 21
-5.00000847710543
 31
0.0
  0
LINE
  5
2466
330
245F
100
AcDbEntity
  8
AM_0
 48
0.5
100
AcDbLine
 10
-55.99996821086114
 20
-4.754474427965309
 30
0.0
 11
-55.75443945990972
 21
-4.999997880724334
 31
0.0
  0
LINE
  5
2467
330
245F
100
AcDbEntity
  8
AM_0
100
AcDbLine
 10
0.7794201296714505
 20
4.549985867772141
 30
0.0
 11
0.7794201296714789
 21
-4.550003370497427
 31
0.0
  0
LINE
  5
2468
330
245F
100
AcDbEntity
  8
AM_0
 48
0.5
100
AcDbLine
 10
0.0000000000000142
 20
-5.00000847710543
 30
0.0
 11
-0.0000000000000142
 21
5.000008477104995
 31
0.0
  0
LINE
  5
2469
330
245F
100
AcDbEntity
  8
AM_0
 48
0.5
100
AcDbLine
 10
0.7794201296714647
 20
-4.550003370497435
 30
0.0
 11
-0.0000105963812445
 21
-5.00000847710543
 31
0.0
  0
LINE
  5
246A
330
245F
100
AcDbEntity
  8
AM_0
 48
0.5
100
AcDbLine
 10
0.7794201296714647
 20
4.549985867772141
 30
0.0
 11
-0.0000000000000142
 21
4.999984635246652
 31
0.0
  0
ENDBLK
  5
246C
330
245F
100
AcDbEntity
  8
0
100
AcDbBlockEnd
  0
BLOCK
  5
36C9
330
36BB
100
AcDbEntity
  8
0
100
AcDbBlockBegin
  2
*D8
 70
     1
 10
0.0
 20
0.0
 30
0.0
  3
*D8
  1

  0
LINE
  5
4777
330
36BB
100
AcDbEntity
  8
AM_5
100
AcDbLine
 10
0.3420201408161528
 20
-0.93969262169946
 30
0.0
 11
9.913724210696399
 21
-27.23773363791928
 31
0.0
  0
LINE
  5
4778
330
36BB
100
AcDbEntity
  8
AM_5
100
AcDbLine
 10
0.3420201408161419
 20
0.9396926216991598
 30
0.0
 11
9.913724210696084
 21
27.23773363791909
 31
0.0
  0
ARC
  5
4779
330
36BB
100
AcDbEntity
  8
AM_5
100
AcDbCircle
 10
0.0000000000000289
 20
-0.0000000000001521
 30
0.0
 40
27.98579068191825
100
AcDbArc
 50
295.1199952243451
 51
64.88000477565556
  0
INSERT
  5
477A
330
36BB
100
AcDbEntity
  8
AM_5
100
AcDbBlockReference
  2
_OPEN30
 10
9.571704069880276
 20
-26.29804101621997
 30
0.0
 41
2.5
 42
2.5
 43
2.5
 50
202.5599975356654
  0
INSERT
  5
477B
330
36BB
100
AcDbEntity
  8
AM_5
100
AcDbBlockReference
  2
_OPEN30
 10
9.57170406987997
 20
26.29804101621978
 30
0.0
 41
2.5
 42
2.5
 43
2.5
 50
157.4400024643352
  0
MTEXT
  5
477C
330
36BB
100
AcDbEntity
  8
AM_5
 62
     2
100
AcDbMText
 10
24.88579068191827
 20
0.0000000000000133
 30
0.0
 40
3.2
 41
0.0
 71
     5
 72
     1
  1
140°
  7
ASAMI
 11
-0.0000000000000028
 21
1.0
 31
0.0
1001
ACAD
1000
MTEXTBEGIN
1070
    73
1070
     1
1070
    44
1040
1.0
1070
    74
1070
     0
1000
MTEXTEND
  0
POINT
  5
477D
330
36BB
100
AcDbEntity
  8
DEFPOINTS
 62
     0
100
AcDbPoint
 10
25.69700375804973
 20
-11.08460544859062
 30
0.0
  0
POINT
  5
477E
330
36BB
100
AcDbEntity
  8
DEFPOINTS
 62
     0
100
AcDbPoint
 10
0.0
 20
-0.0000000000002316
 30
0.0
  0
POINT
  5
477F
330
36BB
100
AcDbEntity
  8
DEFPOINTS
 62
     0
100
AcDbPoint
 10
0.0
 20
-0.0000000000000725
 30
0.0
  0
POINT
  5
4780
330
36BB
100
AcDbEntity
  8
DEFPOINTS
 62
     0
100
AcDbPoint
 10
-2.800374408476802
 20
7.693965517241139
 30
0.0
  0
POINT
  5
4781
330
36BB
100
AcDbEntity
  8
DEFPOINTS
 62
     0
100
AcDbPoint
 10
-2.800374408476762
 20
-7.693965517241461
 30
0.0
  0
ENDBLK
  5
36CA
330
36BB
100
AcDbEntity
  8
0
100
AcDbBlockEnd
  0
BLOCK
  5
3B18
330
3B0E
100
AcDbEntity
  8
0
100
AcDbBlockBegin
  2
*D9
 70
     1
 10
0.0
 20
0.0
 30
0.0
  3
*D9
  1

  0
LINE
  5
47F7
330
3B0E
100
AcDbEntity
  8
AM_5
 62
     3
100
AcDbLine
 10
-3.093746965555341
 20
9.299999999999865
 30
0.0
 11
-3.093746965555391
 21
27.21853770586005
 31
0.0
  0
LINE
  5
47F8
330
3B0E
100
AcDbEntity
  8
AM_5
 62
     3
100
AcDbLine
 10
-99.09374696555531
 20
9.300000000000776
 30
0.0
 11
-99.09374696555538
 21
27.21853770585978
 31
0.0
  0
LINE
  5
47F9
330
3B0E
100
AcDbEntity
  8
AM_5
 62
     3
100
AcDbLine
 10
-5.593746965555389
 20
26.21853770586005
 30
0.0
 11
-96.59374696555536
 21
26.21853770585978
 31
0.0
  0
INSERT
  5
47FA
330
3B0E
100
AcDbEntity
  8
AM_5
 62
     3
100
AcDbBlockReference
  2
_OPEN30
 10
-3.093746965555389
 20
26.21853770586005
 30
0.0
 41
2.5
 42
2.5
 43
2.5
 50
0.0000000000001527
  0
INSERT
  5
47FB
330
3B0E
100
AcDbEntity
  8
AM_5
 62
     3
100
AcDbBlockReference
  2
_OPEN30
 10
-99.09374696555536
 20
26.21853770585978
 30
0.0
 41
2.5
 42
2.5
 43
2.5
 50
180.0000000000001
  0
MTEXT
  5
47FC
330
3B0E
100
AcDbEntity
  8
AM_5
 62
     2
100
AcDbMText
 10
-51.09374696555538
 20
29.61853770585992
 30
0.0
 40
3.799999999999999
 41
0.0
 71
     5
 72
     1
  1
96
1001
ACAD
1000
MTEXTBEGIN
1070
    73
1070
     1
1070
    44
1040
1.0
1070
    74
1070
     0
1000
MTEXTEND
  0
POINT
  5
47FD
330
3B0E
100
AcDbEntity
  8
DEFPOINTS
 62
     0
100
AcDbPoint
 10
-3.093746965555314
 20
8.499999999999873
 30
0.0
  0
POINT
  5
47FE
330
3B0E
100
AcDbEntity
  8
DEFPOINTS
 62
     0
100
AcDbPoint
 10
-99.09374696555529
 20
8.500000000001064
 30
0.0
  0
POINT
  5
47FF
330
3B0E
100
AcDbEntity
  8
DEFPOINTS
 62
     0
100
AcDbPoint
 10
-99.09374696555529
 20
26.21853770586007
 30
0.0
  0
ENDBLK
  5
3B19
330
3B0E
100
AcDbEntity
  8
0
100
AcDbBlockEnd
  0
BLOCK
  5
3BC3
330
3BB9
100
AcDbEntity
  8
0
100
AcDbBlockBegin
  2
*D10
 70
     1
 10
0.0
 20
0.0
 30
0.0
  3
*D10
  1

  0
LINE
  5
47D5
330
3BB9
100
AcDbEntity
  8
AM_5
 62
     3
100
AcDbLine
 10
-3.093746965555213
 20
-10.00184978190087
 30
0.0
 11
-3.093746965555139
 21
-36.06377102797438
 31
0.0
  0
LINE
  5
47D6
330
3BB9
100
AcDbEntity
  8
AM_5
 62
     3
100
AcDbLine
 10
-123.0937469655552
 20
-10.80000686645623
 30
0.0
 11
-123.0937469655551
 21
-36.06377102797473
 31
0.0
  0
LINE
  5
47D7
330
3BB9
100
AcDbEntity
  8
AM_5
 62
     3
100
AcDbLine
 10
-5.593746965555141
 20
-35.06377102797439
 30
0.0
 11
-120.5937469655551
 21
-35.06377102797472
 31
0.0
  0
INSERT
  5
47D8
330
3BB9
100
AcDbEntity
  8
AM_5
 62
     3
100
AcDbBlockReference
  2
_OPEN30
 10
-3.093746965555141
 20
-35.06377102797438
 30
0.0
 41
2.5
 42
2.5
 43
2.5
 50
0.0000000000001527
  0
INSERT
  5
47D9
330
3BB9
100
AcDbEntity
  8
AM_5
 62
     3
100
AcDbBlockReference
  2
_OPEN30
 10
-123.0937469655551
 20
-35.06377102797473
 30
0.0
 41
2.5
 42
2.5
 43
2.5
 50
180.0000000000001
  0
MTEXT
  5
47DA
330
3BB9
100
AcDbEntity
  8
AM_5
 62
     2
100
AcDbMText
 10
-63.09374696555515
 20
-31.66377102797456
 30
0.0
 40
3.799999999999999
 41
0.0
 71
     5
 72
     1
  1
120
1001
ACAD
1000
MTEXTBEGIN
1070
    73
1070
     1
1070
    44
1040
1.0
1070
    74
1070
     0
1000
MTEXTEND
  0
POINT
  5
47DB
330
3BB9
100
AcDbEntity
  8
DEFPOINTS
 62
     0
100
AcDbPoint
 10
-3.093746965555242
 20
-9.201849781900868
 30
0.0
  0
POINT
  5
47DC
330
3BB9
100
AcDbEntity
  8
DEFPOINTS
 62
     0
100
AcDbPoint
 10
-123.0937469655552
 20
-10.00000686645588
 30
0.0
  0
POINT
  5
47DD
330
3BB9
100
AcDbEntity
  8
DEFPOINTS
 62
     0
100
AcDbPoint
 10
-123.0937469655552
 20
-35.06377102797437
 30
0.0
  0
ENDBLK
  5
3BC4
330
3BB9
100
AcDbEntity
  8
0
100
AcDbBlockEnd
  0
BLOCK
  5
3CD6
330
3CCC
100
AcDbEntity
  8
0
100
AcDbBlockBegin
  2
*D11
 70
     1
 10
0.0
 20
0.0
 30
0.0
  3
*D11
  1

  0
LINE
  5
47DE
330
3CCC
100
AcDbEntity
  8
AM_5
 62
     3
100
AcDbLine
 10
-3.093746965555216
 20
-9.300000000000128
 30
0.0
 11
-3.093746965555109
 21
-47.04100792062207
 31
0.0
  0
LINE
  5
47DF
330
3CCC
100
AcDbEntity
  8
AM_5
 62
     3
100
AcDbLine
 10
-173.0937469655551
 20
-10.26969909668051
 30
0.0
 11
-173.093746965555
 21
-47.04100792062257
 31
0.0
  0
LINE
  5
47E0
330
3CCC
100
AcDbEntity
  8
AM_5
 62
     3
100
AcDbLine
 10
-5.593746965555111
 20
-46.04100792062207
 30
0.0
 11
-170.593746965555
 21
-46.04100792062256
 31
0.0
  0
INSERT
  5
47E1
330
3CCC
100
AcDbEntity
  8
AM_5
 62
     3
100
AcDbBlockReference
  2
_OPEN30
 10
-3.093746965555112
 20
-46.04100792062207
 30
0.0
 41
2.5
 42
2.5
 43
2.5
 50
0.0000000000001527
  0
INSERT
  5
47E2
330
3CCC
100
AcDbEntity
  8
AM_5
 62
     3
100
AcDbBlockReference
  2
_OPEN30
 10
-173.093746965555
 20
-46.04100792062257
 30
0.0
 41
2.5
 42
2.5
 43
2.5
 50
180.0000000000001
  0
MTEXT
  5
47E3
330
3CCC
100
AcDbEntity
  8
AM_5
 62
     2
100
AcDbMText
 10
-88.0937469655551
 20
-42.64100792062232
 30
0.0
 40
3.799999999999999
 41
0.0
 71
     5
 72
     1
  1
170
1001
ACAD
1000
MTEXTBEGIN
1070
    73
1070
     1
1070
    44
1040
1.0
1070
    74
1070
     0
1000
MTEXTEND
  0
POINT
  5
47E4
330
3CCC
100
AcDbEntity
  8
DEFPOINTS
 62
     0
100
AcDbPoint
 10
-3.093746965555244
 20
-8.500000000000119
 30
0.0
  0
POINT
  5
47E5
330
3CCC
100
AcDbEntity
  8
DEFPOINTS
 62
     0
100
AcDbPoint
 10
-173.0937469655551
 20
-9.469699096680006
 30
0.0
  0
POINT
  5
47E6
330
3CCC
100
AcDbEntity
  8
DEFPOINTS
 62
     0
100
AcDbPoint
 10
-173.0937469655551
 20
-46.04100792062206
 30
0.0
  0
ENDBLK
  5
3CD7
330
3CCC
100
AcDbEntity
  8
0
100
AcDbBlockEnd
  0
BLOCK
  5
43BF
330
43B5
100
AcDbEntity
  8
0
100
AcDbBlockBegin
  2
*D12
 70
     1
 10
0.0
 20
0.0
 30
0.0
  3
*D12
  1

  0
LINE
  5
4794
330
43B5
100
AcDbEntity
  8
AM_5
 62
     3
100
AcDbLine
 10
-173.3634277517003
 20
10.00002975463835
 30
0.0
 11
-187.6694183522791
 21
10.00002975463836
 31
0.0
  0
LINE
  5
4795
330
43B5
100
AcDbEntity
  8
AM_5
 62
     3
100
AcDbLine
 10
-173.3634277517002
 20
-9.999892427508118
 30
0.0
 11
-187.6694183522791
 21
-9.999892427508115
 31
0.0
  0
LINE
  5
4796
330
43B5
100
AcDbEntity
  8
AM_5
 62
     3
100
AcDbLine
 10
-186.6694183522792
 20
7.500029754638361
 30
0.0
 11
-186.6694183522792
 21
-7.499892427508116
 31
0.0
  0
INSERT
  5
4797
330
43B5
100
AcDbEntity
  8
AM_5
 62
     3
100
AcDbBlockReference
  2
_OPEN30
 10
-186.6694183522792
 20
10.00002975463835
 30
0.0
 41
2.5
 42
2.5
 43
2.5
 50
90.0
  0
INSERT
  5
4798
330
43B5
100
AcDbEntity
  8
AM_5
 62
     3
100
AcDbBlockReference
  2
_OPEN30
 10
-186.6694183522792
 20
-9.999892427508116
 30
0.0
 41
2.5
 42
2.5
 43
2.5
 50
270.0
  0
MTEXT
  5
4799
330
43B5
100
AcDbEntity
  8
AM_5
 62
     2
100
AcDbMText
 10
-190.0694183522792
 20
0.0000686635650927
 30
0.0
 40
3.799999999999999
 41
0.0
 71
     5
 72
     1
  1
%%C20
 11
0.0000000000000001
 21
1.0
 31
0.0
1001
ACAD
1000
MTEXTBEGIN
1070
    73
1070
     1
1070
    44
1040
1.0
1070
    74
1070
     0
1000
MTEXTEND
  0
POINT
  5
479A
330
43B5
100
AcDbEntity
  8
DEFPOINTS
 62
     0
100
AcDbPoint
 10
-172.5634277517003
 20
10.00002975463835
 30
0.0
  0
POINT
  5
479B
330
43B5
100
AcDbEntity
  8
DEFPOINTS
 62
     0
100
AcDbPoint
 10
-172.5634277517002
 20
-9.999892427508118
 30
0.0
  0
POINT
  5
479C
330
43B5
100
AcDbEntity
  8
DEFPOINTS
 62
     0
100
AcDbPoint
 10
-186.6694183522792
 20
-9.999892427508116
 30
0.0
  0
ENDBLK
  5
43C0
330
43B5
100
AcDbEntity
  8
0
100
AcDbBlockEnd
  0
BLOCK
  5
43CB
330
43C1
100
AcDbEntity
  8
0
100
AcDbBlockBegin
  2
*D13
 70
     1
 10
0.0
 20
0.0
 30
0.0
  3
*D13
  1

  0
LINE
  5
47A8
330
43C1
100
AcDbEntity
  8
AM_5
 62
     3
100
AcDbLine
 10
-167.0937469655552
 20
-0.8000000000005293
 30
0.0
 11
-167.0937469655552
 21
-24.9535696777515
 31
0.0
  0
LINE
  5
47A9
330
43C1
100
AcDbEntity
  8
AM_5
 62
     3
100
AcDbLine
 10
-127.0937469655552
 20
-0.8000000000003019
 30
0.0
 11
-127.0937469655552
 21
-24.9535696777515
 31
0.0
  0
LINE
  5
47AA
330
43C1
100
AcDbEntity
  8
AM_5
 62
     3
100
AcDbLine
 10
-164.5937469655552
 20
-23.9535696777515
 30
0.0
 11
-129.5937469655552
 21
-23.9535696777515
 31
0.0
  0
INSERT
  5
47AB
330
43C1
100
AcDbEntity
  8
AM_5
 62
     3
100
AcDbBlockReference
  2
_OPEN30
 10
-167.0937469655552
 20
-23.9535696777515
 30
0.0
 41
2.5
 42
2.5
 43
2.5
 50
180.0
  0
INSERT
  5
47AC
330
43C1
100
AcDbEntity
  8
AM_5
 62
     3
100
AcDbBlockReference
  2
_OPEN30
 10
-127.0937469655552
 20
-23.9535696777515
 30
0.0
 41
2.5
 42
2.5
 43
2.5
  0
MTEXT
  5
47AD
330
43C1
100
AcDbEntity
  8
AM_5
 62
     2
100
AcDbMText
 10
-147.0937469655552
 20
-20.5535696777515
 30
0.0
 40
3.799999999999999
 41
0.0
 71
     5
 72
     1
  1
40
1001
ACAD
1000
MTEXTBEGIN
1070
    73
1070
     1
1070
    44
1040
1.0
1070
    74
1070
     0
1000
MTEXTEND
  0
POINT
  5
47AE
330
43C1
100
AcDbEntity
  8
DEFPOINTS
 62
     0
100
AcDbPoint
 10
-167.0937469655552
 20
-0.0000000000005294
 30
0.0
  0
POINT
  5
47AF
330
43C1
100
AcDbEntity
  8
DEFPOINTS
 62
     0
100
AcDbPoint
 10
-127.0937469655552
 20
-0.000000000000302
 30
0.0
  0
POINT
  5
47B0
330
43C1
100
AcDbEntity
  8
DEFPOINTS
 62
     0
100
AcDbPoint
 10
-127.0937469655552
 20
-23.9535696777515
 30
0.0
  0
ENDBLK
  5
43CC
330
43C1
100
AcDbEntity
  8
0
100
AcDbBlockEnd
  0
BLOCK
  5
43D9
330
43CD
100
AcDbEntity
  8
0
100
AcDbBlockBegin
  2
*D14
 70
     1
 10
0.0
 20
0.0
 30
0.0
  3
*D14
  1

  0
LINE
  5
479D
330
43CD
100
AcDbEntity
  8
AM_5
 62
     3
100
AcDbLine
 10
-173.0937469655552
 20
-0.8000000000005435
 30
0.0
 11
-173.0937469655552
 21
-24.9535696777519
 31
0.0
  0
LINE
  5
479E
330
43CD
100
AcDbEntity
  8
AM_5
 62
     3
100
AcDbLine
 10
-167.0937469655552
 20
-0.8000000000005009
 30
0.0
 11
-167.0937469655552
 21
-24.9535696777519
 31
0.0
  0
LINE
  5
479F
330
43CD
100
AcDbEntity
  8
AM_5
 62
     3
100
AcDbLine
 10
-175.5937469655552
 20
-23.9535696777519
 30
0.0
 11
-178.0937469655552
 21
-23.9535696777519
 31
0.0
  0
LINE
  5
47A0
330
43CD
100
AcDbEntity
  8
AM_5
 62
     3
100
AcDbLine
 10
-164.5937469655552
 20
-23.9535696777519
 30
0.0
 11
-162.0937469655553
 21
-23.9535696777519
 31
0.0
  0
LINE
  5
47A1
330
43CD
100
AcDbEntity
  8
AM_5
 62
     3
100
AcDbLine
 10
-173.0937469655552
 20
-23.9535696777519
 30
0.0
 11
-167.0937469655552
 21
-23.9535696777519
 31
0.0
  0
INSERT
  5
47A2
330
43CD
100
AcDbEntity
  8
AM_5
 62
     3
100
AcDbBlockReference
  2
_OPEN30
 10
-173.0937469655552
 20
-23.9535696777519
 30
0.0
 41
2.5
 42
2.5
 43
2.5
  0
INSERT
  5
47A3
330
43CD
100
AcDbEntity
  8
AM_5
 62
     3
100
AcDbBlockReference
  2
_OPEN30
 10
-167.0937469655552
 20
-23.9535696777519
 30
0.0
 41
2.5
 42
2.5
 43
2.5
 50
180.0
  0
MTEXT
  5
47A4
330
43CD
100
AcDbEntity
  8
AM_5
 62
     2
100
AcDbMText
 10
-170.0937469655552
 20
-20.5535696777519
 30
0.0
 40
3.799999999999999
 41
0.0
 71
     5
 72
     1
  1
6
1001
ACAD
1000
MTEXTBEGIN
1070
    73
1070
     1
1070
    44
1040
1.0
1070
    74
1070
     0
1000
MTEXTEND
  0
POINT
  5
47A5
330
43CD
100
AcDbEntity
  8
DEFPOINTS
 62
     0
100
AcDbPoint
 10
-173.0937469655552
 20
-0.0000000000005436
 30
0.0
  0
POINT
  5
47A6
330
43CD
100
AcDbEntity
  8
DEFPOINTS
 62
     0
100
AcDbPoint
 10
-167.0937469655552
 20
-0.0000000000005009
 30
0.0
  0
POINT
  5
47A7
330
43CD
100
AcDbEntity
  8
DEFPOINTS
 62
     0
100
AcDbPoint
 10
-167.0937469655552
 20
-23.9535696777519
 30
0.0
  0
ENDBLK
  5
43DA
330
43CD
100
AcDbEntity
  8
0
100
AcDbBlockEnd
  0
BLOCK
  5
43E5
330
43DB
100
AcDbEntity
  8
0
100
AcDbBlockBegin
  2
*D15
 70
     1
 10
0.0
 20
0.0
 30
0.0
  3
*D15
  1

  0
LINE
  5
47B1
330
43DB
100
AcDbEntity
  8
AM_5
 62
     3
100
AcDbLine
 10
-123.0937469655552
 20
-10.80000686645588
 30
0.0
 11
-123.0937469655552
 21
-36.06377102797508
 31
0.0
  0
LINE
  5
47B2
330
43DB
100
AcDbEntity
  8
AM_5
 62
     3
100
AcDbLine
 10
-173.0937469655551
 20
-10.26969909668
 30
0.0
 11
-173.0937469655551
 21
-36.06377102797508
 31
0.0
  0
LINE
  5
47B3
330
43DB
100
AcDbEntity
  8
AM_5
 62
     3
100
AcDbLine
 10
-125.5937469655552
 20
-35.06377102797508
 30
0.0
 11
-170.5937469655552
 21
-35.06377102797508
 31
0.0
  0
INSERT
  5
47B4
330
43DB
100
AcDbEntity
  8
AM_5
 62
     3
100
AcDbBlockReference
  2
_OPEN30
 10
-123.0937469655552
 20
-35.06377102797508
 30
0.0
 41
2.5
 42
2.5
 43
2.5
  0
INSERT
  5
47B5
330
43DB
100
AcDbEntity
  8
AM_5
 62
     3
100
AcDbBlockReference
  2
_OPEN30
 10
-173.0937469655551
 20
-35.06377102797508
 30
0.0
 41
2.5
 42
2.5
 43
2.5
 50
180.0
  0
MTEXT
  5
47B6
330
43DB
100
AcDbEntity
  8
AM_5
 62
     2
100
AcDbMText
 10
-148.0937469655552
 20
-31.66377102797508
 30
0.0
 40
3.799999999999999
 41
0.0
 71
     5
 72
     1
  1
50
1001
ACAD
1000
MTEXTBEGIN
1070
    73
1070
     1
1070
    44
1040
1.0
1070
    74
1070
     0
1000
MTEXTEND
  0
POINT
  5
47B7
330
43DB
100
AcDbEntity
  8
DEFPOINTS
 62
     0
100
AcDbPoint
 10
-123.0937469655552
 20
-10.00000686645588
 30
0.0
  0
POINT
  5
47B8
330
43DB
100
AcDbEntity
  8
DEFPOINTS
 62
     0
100
AcDbPoint
 10
-173.0937469655551
 20
-9.469699096680006
 30
0.0
  0
POINT
  5
47B9
330
43DB
100
AcDbEntity
  8
DEFPOINTS
 62
     0
100
AcDbPoint
 10
-173.0937469655551
 20
-35.06377102797508
 30
0.0
  0
ENDBLK
  5
43E6
330
43DB
100
AcDbEntity
  8
0
100
AcDbBlockEnd
  0
BLOCK
  5
4520
330
4516
100
AcDbEntity
  8
0
100
AcDbBlockBegin
  2
*D16
 70
     1
 10
0.0
 20
0.0
 30
0.0
  3
*D16
  1

  0
LINE
  5
4819
330
4516
100
AcDbEntity
  8
AM_5
 62
     3
100
AcDbLine
 10
-2.282005990354079
 20
8.749999999999886
 30
0.0
 11
16.46513954824191
 21
8.749999999999939
 31
0.0
  0
LINE
  5
481A
330
4516
100
AcDbEntity
  8
AM_5
 62
     3
100
AcDbLine
 10
-2.384739523365664
 20
-8.750000000000111
 30
0.0
 11
16.46513954824196
 21
-8.750000000000058
 31
0.0
  0
LINE
  5
481B
330
4516
100
AcDbEntity
  8
AM_5
 62
     3
100
AcDbLine
 10
15.46513954824191
 20
11.24999999999993
 30
0.0
 11
15.4651395482419
 21
13.74999999999993
 31
0.0
  0
LINE
  5
481C
330
4516
100
AcDbEntity
  8
AM_5
 62
     3
100
AcDbLine
 10
15.46513954824197
 20
-11.25000000000006
 30
0.0
 11
15.46513954824198
 21
-13.75000000000006
 31
0.0
  0
LINE
  5
481D
330
4516
100
AcDbEntity
  8
AM_5
 62
     3
100
AcDbLine
 10
15.46513954824192
 20
8.749999999999936
 30
0.0
 11
15.46513954824196
 21
-8.750000000000062
 31
0.0
  0
INSERT
  5
481E
330
4516
100
AcDbEntity
  8
AM_5
 62
     3
100
AcDbBlockReference
  2
_OPEN30
 10
15.46513954824192
 20
8.749999999999936
 30
0.0
 41
2.5
 42
2.5
 43
2.5
 50
270.0000000000001
  0
INSERT
  5
481F
330
4516
100
AcDbEntity
  8
AM_5
 62
     3
100
AcDbBlockReference
  2
_OPEN30
 10
15.46513954824196
 20
-8.750000000000062
 30
0.0
 41
2.5
 42
2.5
 43
2.5
 50
90.00000000000015
  0
MTEXT
  5
4820
330
4516
100
AcDbEntity
  8
AM_5
 62
     2
100
AcDbMText
 10
12.06513954824194
 20
-0.0000000000000293
 30
0.0
 40
3.799999999999999
 41
0.0
 71
     5
 72
     1
  1
%%C17.5
 11
-0.0000000000000028
 21
1.0
 31
0.0
1001
ACAD
1000
MTEXTBEGIN
1070
    73
1070
     1
1070
    44
1040
1.0
1070
    74
1070
     0
1000
MTEXTEND
  0
POINT
  5
4821
330
4516
100
AcDbEntity
  8
DEFPOINTS
 62
     0
100
AcDbPoint
 10
-3.082005990354051
 20
8.749999999999893
 30
0.0
  0
POINT
  5
4822
330
4516
100
AcDbEntity
  8
DEFPOINTS
 62
     0
100
AcDbPoint
 10
-3.184739523365691
 20
-8.750000000000104
 30
0.0
  0
POINT
  5
4823
330
4516
100
AcDbEntity
  8
DEFPOINTS
 62
     0
100
AcDbPoint
 10
15.46513954824194
 20
-8.75000000000011
 30
0.0
  0
ENDBLK
  5
4521
330
4516
100
AcDbEntity
  8
0
100
AcDbBlockEnd
  0
BLOCK
  5
4725
330
471B
100
AcDbEntity
  8
0
100
AcDbBlockBegin
  2
*D17
 70
     1
 10
0.0
 20
0.0
 30
0.0
  3
*D17
  1

  0
LINE
  5
4800
330
471B
100
AcDbEntity
  8
AM_5
 62
     3
100
AcDbLine
 10
-3.093746965555402
 20
19.85325564338154
 30
0.0
 11
-3.093746965555455
 21
38.48353338517953
 31
0.0
  0
LINE
  5
4801
330
471B
100
AcDbEntity
  8
AM_5
 62
     3
100
AcDbLine
 10
-101.0937469655553
 20
9.466666762034719
 30
0.0
 11
-101.0937469655553
 21
38.48353338517925
 31
0.0
  0
LINE
  5
4802
330
471B
100
AcDbEntity
  8
AM_5
 62
     3
100
AcDbLine
 10
-5.593746965555452
 20
37.48353338517953
 30
0.0
 11
-98.59374696555541
 21
37.48353338517925
 31
0.0
  0
INSERT
  5
4803
330
471B
100
AcDbEntity
  8
AM_5
 62
     3
100
AcDbBlockReference
  2
_OPEN30
 10
-3.093746965555452
 20
37.48353338517953
 30
0.0
 41
2.5
 42
2.5
 43
2.5
 50
0.0000000000001527
  0
INSERT
  5
4804
330
471B
100
AcDbEntity
  8
AM_5
 62
     3
100
AcDbBlockReference
  2
_OPEN30
 10
-101.0937469655553
 20
37.48353338517925
 30
0.0
 41
2.5
 42
2.5
 43
2.5
 50
180.0000000000001
  0
MTEXT
  5
4805
330
471B
100
AcDbEntity
  8
AM_5
 62
     2
100
AcDbMText
 10
-52.09374696555543
 20
40.88353338517939
 30
0.0
 40
3.799999999999999
 41
0.0
 71
     5
 72
     1
  1
98
1001
ACAD
1000
MTEXTBEGIN
1070
    73
1070
     1
1070
    44
1040
1.0
1070
    74
1070
     0
1000
MTEXTEND
  0
POINT
  5
4806
330
471B
100
AcDbEntity
  8
DEFPOINTS
 62
     0
100
AcDbPoint
 10
-3.093746965555344
 20
19.05325564338155
 30
0.0
  0
POINT
  5
4807
330
471B
100
AcDbEntity
  8
DEFPOINTS
 62
     0
100
AcDbPoint
 10
-101.0937469655552
 20
8.666666762035013
 30
0.0
  0
POINT
  5
4808
330
471B
100
AcDbEntity
  8
DEFPOINTS
 62
     0
100
AcDbPoint
 10
-101.0937469655552
 20
37.48353338517954
 30
0.0
  0
ENDBLK
  5
4726
330
471B
100
AcDbEntity
  8
0
100
AcDbBlockEnd
  0
ENDSEC
  0
SECTION
  2
ENTITIES
  0
TEXT
  5
19BD
330
1F
100
AcDbEntity
  8
AM_6
100
AcDbText
 10
-108.4508898226978
 20
-68.54100792062237
 30
0.0
 40
5.0
  1
KDS175LAK
 50
0.0000000000001527
 72
     4
 11
-88.09374696555503
 21
-66.04100792062232
 31
0.0
100
AcDbText
  0
LINE
  5
35D1
330
1F
100
AcDbEntity
  8
AM_7
100
AcDbLine
 10
4.909002595337891
 20
-0.0000000000001046
 30
0.0
 11
-176.8847083927962
 21
-0.0000000000005524
 31
0.0
  0
LINE
  5
35F4
330
1F
100
AcDbEntity
  8
PV0001_1
  6
CONTINUOUS
 48
0.5
100
AcDbLine
 10
-99.09374696555529
 20
8.75000000000108
 30
0.0
 11
-123.0937469655553
 21
10.00000114440801
 31
0.0
  0
LINE
  5
35F5
330
1F
100
AcDbEntity
  8
PV0001_1
  6
CONTINUOUS
 48
0.5
100
AcDbLine
 10
-99.09374696555524
 20
-8.749025578676031
 30
0.0
 11
-123.0937469655552
 21
-10.00000686645588
 31
0.0
  0
DIMENSION
  5
36BA
330
1F
100
AcDbEntity
  8
AM_5
100
AcDbDimension
  2
*D8
 10
-2.800374408476762
 20
-7.693965517241461
 30
0.0
 11
24.88579068191827
 21
-0.0000000000000631
 31
0.0
 70
    34
  1
<>
 51
359.9999999999998
  3
AM_JIS$2
100
AcDb2LineAngularDimension
 13
0.0
 23
-0.0000000000000725
 33
0.0
 14
-2.800374408476802
 24
7.693965517241139
 34
0.0
 15
0.0
 25
-0.0000000000002316
 35
0.0
 16
25.69700375804973
 26
-11.08460544859062
 36
0.0
1001
ACAD
1000
DSTYLE
1002
{
1070
   179
1070
     3
1002
}
1001
GENIUS_GENDTOL_13
1000

1000
h7
1000

1040
0.0
  0
DIMENSION
  5
3B0D
330
1F
100
AcDbEntity
  8
AM_5
100
AcDbDimension
  2
*D9
 10
-99.09374696555529
 20
26.21853770586007
 30
0.0
 11
-51.0937469655553
 21
29.61853770586007
 31
0.0
 70
    32
  1
<>
 51
359.9999999999998
  3
AM_JIS$0
100
AcDbAlignedDimension
 13
-3.093746965555314
 23
8.499999999999873
 33
0.0
 14
-99.09374696555529
 24
8.500000000001064
 34
0.0
 50
180.0000000000001
100
AcDbRotatedDimension
1001
ACAD
1000
DSTYLE
1002
{
1070
   271
1070
     3
1002
}
1001
GENIUS_GENDTOL_13
1000

1000
h7
1000

1040
0.0
  0
DIMENSION
  5
3BB8
330
1F
100
AcDbEntity
  8
AM_5
100
AcDbDimension
  2
*D10
 10
-123.0937469655552
 20
-35.06377102797437
 30
0.0
 11
-63.09374696555524
 21
-31.66377102797437
 31
0.0
 70
    32
  1
<>
 51
359.9999999999998
  3
AM_JIS$0
100
AcDbAlignedDimension
 13
-3.093746965555242
 23
-9.201849781900868
 33
0.0
 14
-123.0937469655552
 24
-10.00000686645588
 34
0.0
 50
0.0000000000001641
100
AcDbRotatedDimension
1001
ACAD
1000
DSTYLE
1002
{
1070
   271
1070
     3
1002
}
1001
GENIUS_GENDTOL_13
1000

1000
h7
1000

1040
0.0
  0
DIMENSION
  5
3CCB
330
1F
100
AcDbEntity
  8
AM_5
100
AcDbDimension
  2
*D11
 10
-173.0937469655551
 20
-46.04100792062206
 30
0.0
 11
-88.09374696555522
 21
-42.64100792062206
 31
0.0
 70
    32
  1
<>
 51
359.9999999999998
  3
AM_JIS$0
100
AcDbAlignedDimension
 13
-3.093746965555244
 23
-8.500000000000119
 33
0.0
 14
-173.0937469655551
 24
-9.469699096680006
 34
0.0
 50
0.0000000000002659
100
AcDbRotatedDimension
1001
ACAD
1000
DSTYLE
1002
{
1070
   271
1070
     3
1002
}
1001
GENIUS_GENDTOL_13
1000

1000
h7
1000

1040
0.0
  0
DIMENSION
  5
43A4
330
1F
100
AcDbEntity
  8
AM_5
100
AcDbDimension
  2
*D15
 10
-173.0937469655551
 20
-35.06377102797508
 30
0.0
 11
-148.0937469655552
 21
-31.66377102797508
 31
0.0
 70
    32
  1
<>
  3
AM_JIS$0
100
AcDbAlignedDimension
 13
-123.0937469655552
 23
-10.00000686645588
 33
0.0
 14
-173.0937469655551
 24
-9.469699096680006
 34
0.0
 50
0.0000000000008142
100
AcDbRotatedDimension
1001
ACAD
1000
DSTYLE
1002
{
1070
   271
1070
     3
1002
}
1001
GENIUS_GENDTOL_13
1000

1000
h7
1000

1040
0.0
  0
DIMENSION
  5
43A5
330
1F
100
AcDbEntity
  8
AM_5
100
AcDbDimension
  2
*D13
 10
-127.0937469655552
 20
-23.9535696777515
 30
0.0
 11
-147.0937469655552
 21
-20.5535696777515
 31
0.0
 70
    32
  1
<>
  3
AM_JIS$0
100
AcDbAlignedDimension
 13
-167.0937469655552
 23
-0.0000000000005294
 33
0.0
 14
-127.0937469655552
 24
-0.000000000000302
 34
0.0
 50
0.0000000000008142
100
AcDbRotatedDimension
1001
ACAD
1000
DSTYLE
1002
{
1070
   271
1070
     3
1002
}
1001
GENIUS_GENDTOL_13
1000

1000
h7
1000

1040
0.0
  0
LINE
  5
43A6
330
1F
100
AcDbEntity
  8
PV0001_1
  6
CONTINUOUS
100
AcDbLine
 10
-172.5634277517002
 20
-10.00000686645612
 30
0.0
 11
-123.0937469655552
 21
-10.00000686645588
 31
0.0
  0
LINE
  5
43A7
330
1F
100
AcDbEntity
  8
PV0001_1
  6
CONTINUOUS
100
AcDbLine
 10
-123.0937469655553
 20
10.00000114440801
 30
0.0
 11
-172.5634277517003
 21
10.00000114440778
 31
0.0
  0
LINE
  5
43A8
330
1F
100
AcDbEntity
  8
AM_0
100
AcDbLine
 10
-130.8934180039479
 20
3.799671038392329
 30
0.0
 11
-163.2940759271626
 21
3.799671038392158
 31
0.0
  0
LINE
  5
43A9
330
1F
100
AcDbEntity
  8
AM_0
100
AcDbLine
 10
-130.8934180039478
 20
-3.79967103839299
 30
0.0
 11
-163.2940759271626
 21
-3.79967103839316
 31
0.0
  0
LINE
  5
43AA
330
1F
100
AcDbEntity
  8
PV0001_1
  6
CONTINUOUS
 48
0.5
100
AcDbLine
 10
-173.0936783010152
 20
9.46960182189947
 30
0.0
 11
-172.5633361989602
 21
9.999932479857346
 31
0.0
  0
LINE
  5
43AB
330
1F
100
AcDbEntity
  8
PV0001_1
  6
CONTINUOUS
 48
0.5
100
AcDbLine
 10
-172.5634277517002
 20
-0.0000000000006857
 30
0.0
 11
-172.5634277517003
 21
10.00002975463835
 31
0.0
  0
DIMENSION
  5
43AC
330
1F
100
AcDbEntity
  8
AM_5
100
AcDbDimension
  2
*D12
 10
-186.6694183522792
 20
-9.999892427508116
 30
0.0
 11
-190.0694183522792
 21
0.0000686635650927
 31
0.0
 70
    32
  1
%%C<>
  3
AM_JIS$0
100
AcDbAlignedDimension
 13
-172.5634277517003
 23
10.00002975463835
 33
0.0
 14
-172.5634277517002
 24
-9.999892427508118
 34
0.0
 50
270.0
100
AcDbRotatedDimension
1001
ACAD
1000
DSTYLE
1002
{
1070
   271
1070
     3
1002
}
1001
GENIUS_GENDTOL_13
1000

1000
h7
1000

1040
0.0
  0
DIMENSION
  5
43AD
330
1F
100
AcDbEntity
  8
AM_5
100
AcDbDimension
  2
*D14
 10
-167.0937469655552
 20
-23.9535696777519
 30
0.0
 11
-170.0937469655552
 21
-23.9535696777519
 31
0.0
 70
   160
  1
<>
  3
AM_JIS$0
100
AcDbAlignedDimension
 13
-173.0937469655552
 23
-0.0000000000005436
 33
0.0
 14
-167.0937469655552
 24
-0.0000000000005009
 34
0.0
 50
0.0000000000008142
100
AcDbRotatedDimension
1001
ACAD
1000
DSTYLE
1002
{
1070
   271
1070
     3
1002
}
1001
GENIUS_GENDTOL_13
1000

1000
h7
1000

1040
0.0
  0
LINE
  5
43AE
330
1F
100
AcDbEntity
  8
PV0001_1
  6
CONTINUOUS
 48
0.5
100
AcDbLine
 10
-173.0937469655552
 20
-0.0000000000006857
 30
0.0
 11
-173.0937469655551
 21
-9.469699096680006
 31
0.0
  0
LINE
  5
43AF
330
1F
100
AcDbEntity
  8
PV0001_1
  6
CONTINUOUS
 48
0.5
100
AcDbLine
 10
-172.5634277517002
 20
-0.0000000000006857
 30
0.0
 11
-172.5634277517002
 21
-10.00002975463971
 31
0.0
  0
LINE
  5
43B0
330
1F
100
AcDbEntity
  8
PV0001_1
  6
CONTINUOUS
 48
0.5
100
AcDbLine
 10
-173.0936783010151
 20
-9.469653320313188
 30
0.0
 11
-172.5633361989602
 21
-9.999983978272528
 31
0.0
  0
LINE
  5
43B1
330
1F
100
AcDbEntity
  8
PV0001_1
  6
CONTINUOUS
 48
0.5
100
AcDbLine
 10
-173.0937469655552
 20
-0.0000000000006857
 30
0.0
 11
-173.0937469655553
 21
9.469699096679004
 31
0.0
  0
ARC
  5
43B2
330
1F
100
AcDbEntity
  8
AM_0
100
AcDbCircle
 10
-163.2940759271626
 20
-0.0000000000004867
 30
0.0
 40
3.799671038392649
100
AcDbArc
 50
90.0
 51
270.0
  0
LINE
  5
43B3
330
1F
100
AcDbEntity
  8
PV0001_1
  6
CONTINUOUS
100
AcDbLine
 10
-123.0937469655552
 20
-10.00000686645588
 30
0.0
 11
-123.0937469655553
 21
10.00000114440801
 31
0.0
  0
ARC
  5
43B4
330
1F
100
AcDbEntity
  8
AM_0
100
AcDbCircle
 10
-130.8934180039478
 20
-0.0000000000003406
 30
0.0
 40
3.799671038392649
100
AcDbArc
 50
270.0
 51
90.0
  0
LINE
  5
44E2
330
1F
100
AcDbEntity
  8
PV0001_1
  6
CONTINUOUS
 48
0.5
100
AcDbLine
 10
-0.0000000000000302
 20
-0.0000000000003021
 30
0.0
 11
-3.184739523365946
 21
8.749999999999889
 31
0.0
  0
LINE
  5
44E3
330
1F
100
AcDbEntity
  8
PV0001_1
  6
CONTINUOUS
 48
0.5
100
AcDbLine
 10
-0.0000000000000302
 20
-0.0000000000004786
 30
0.0
 11
-3.184739523365691
 21
-8.750000000000108
 31
0.0
  0
DIMENSION
  5
4515
330
1F
100
AcDbEntity
  8
AM_5
100
AcDbDimension
  2
*D16
 10
15.46513954824194
 20
-8.75000000000011
 30
0.0
 11
15.46513954824194
 21
-0.0000000000000648
 31
0.0
 70
   160
  1
%%C<>
 51
359.9999999999998
  3
AM_JIS$0
100
AcDbAlignedDimension
 13
-3.082005990354051
 23
8.749999999999893
 33
0.0
 14
-3.184739523365691
 24
-8.750000000000104
 34
0.0
 50
89.99999999999962
100
AcDbRotatedDimension
1001
GENIUS_GENDTOL_13
1000

1000
h7
1000

1040
0.0
1001
ACAD
1000
DSTYLE
1002
{
1070
   271
1070
     3
1002
}
  0
LINE
  5
4522
330
1F
100
AcDbEntity
  8
PV0001_1
  6
CONTINUOUS
 48
0.5
100
AcDbLine
 10
-12.20949263710659
 20
8.749999999999953
 30
0.0
 11
-3.184739523365946
 21
8.749999999999889
 31
0.0
  0
LINE
  5
4523
330
1F
100
AcDbEntity
  8
PV0001_1
  6
CONTINUOUS
 48
0.5
100
AcDbLine
 10
-2.760107991877506
 20
7.583334445952624
 30
0.0
 11
-12.22497195984512
 21
7.583334445952683
 31
0.0
  0
ELLIPSE
  5
4524
330
1F
100
AcDbEntity
  8
AM_0
100
AcDbEllipse
 10
-4.906706312031701
 20
3.285076080638191
 30
0.0
 11
-3.886035538545664
 21
0.6290072573178718
 31
0.0
210
0.0
220
0.0
230
0.9999999999999998
 40
0.7120968213481037
 41
1.167492770510405
 42
3.180582709969868
  0
LINE
  5
4525
330
1F
100
AcDbEntity
  8
PV0001_1
  6
CONTINUOUS
 48
0.5
100
AcDbLine
 10
-9.362408878758463
 20
2.529573368986365
 30
0.0
 11
-6.843793590448559
 21
0.9867185960853534
 31
0.0
  0
LINE
  5
4527
330
1F
100
AcDbEntity
  8
AM_0
100
AcDbLine
 10
-2.312391046887554
 20
-2.165322996749765
 30
0.0
 11
-5.145639043050344
 21
-3.57338295323513
 31
0.0
  0
LINE
  5
4528
330
1F
100
AcDbEntity
  8
PV0001_1
  6
CONTINUOUS
 48
0.5
100
AcDbLine
 10
-13.09804151214658
 20
-8.750000000000039
 30
0.0
 11
-3.184739523365691
 21
-8.750000000000108
 31
0.0
  0
LINE
  5
4529
330
1F
100
AcDbEntity
  8
PV0001_1
  6
CONTINUOUS
 48
0.5
100
AcDbLine
 10
-13.29374696555527
 20
-7.556818181818238
 30
0.0
 11
-3.662231585009694
 21
-7.556818181818285
 31
0.0
  0
LINE
  5
452A
330
1F
100
AcDbEntity
  8
PV0001_1
  6
CONTINUOUS
 48
0.5
100
AcDbLine
 10
-2.312391046887554
 20
-2.165322996749765
 30
0.0
 11
-3.662231585009694
 21
-7.556818181818285
 31
0.0
  0
LINE
  5
452D
330
1F
100
AcDbEntity
  8
AM_0
100
AcDbLine
 10
-3.006921651600364
 20
0.655311348620592
 30
0.0
 11
-2.312391046887554
 21
-2.165322996749765
 31
0.0
  0
LINE
  5
452E
330
1F
100
AcDbEntity
  8
PV0001_1
  6
CONTINUOUS
 48
0.5
100
AcDbLine
 10
-6.843793590448512
 20
0.9867185960852278
 30
0.0
 11
-3.662231585009694
 21
-7.556818181818285
 31
0.0
  0
LINE
  5
4534
330
1F
100
AcDbEntity
  8
PV0001_1
  6
CONTINUOUS
100
AcDbLine
 10
-99.09374696555529
 20
1.590387376818552
 30
0.0
 11
-99.09374696555529
 21
8.75000000000108
 31
0.0
  0
LINE
  5
4536
330
1F
100
AcDbEntity
  8
PV0001_1
  6
CONTINUOUS
100
AcDbLine
 10
-99.09374696555524
 20
-8.749999999999108
 30
0.0
 11
-99.09374696555525
 21
-7.977334898063402
 31
0.0
  0
LINE
  5
4539
330
1F
100
AcDbEntity
  8
AM_11
 48
0.5
100
AcDbLine
 10
-9.295945252779782
 20
-8.750000000000079
 30
0.0
 11
-91.57726745669354
 21
-8.749999999999577
 31
0.0
  0
LINE
  5
453A
330
1F
100
AcDbEntity
  8
AM_11
 48
0.5
100
AcDbLine
 10
-88.4588832615902
 20
8.750000000000381
 30
0.0
 11
-8.185065101866705
 21
8.749999999999925
 31
0.0
  0
LINE
  5
46A3
330
1F
100
AcDbEntity
  8
PV0001_1
  6
CONTINUOUS
 48
0.5
100
AcDbLine
 10
-99.09374696555529
 20
8.75000000000108
 30
0.0
 11
-88.45882732626765
 21
8.750000000000973
 31
0.0
  0
LINE
  5
46A4
330
1F
100
AcDbEntity
  8
AM_0
100
AcDbLine
 10
-99.09374696555522
 20
-8.749999999999108
 30
0.0
 11
-91.57727133251224
 21
-8.749999999999184
 31
0.0
  0
LINE
  5
46A5
330
1F
100
AcDbEntity
  8
AM_11
 48
0.5
100
AcDbLine
 10
-101.0937469655553
 20
-8.626291522964608
 30
0.0
 11
-101.0937469655552
 21
8.609375062585639
 31
0.0
  0
SPLINE
  5
46A6
330
1F
100
AcDbEntity
  8
PV0001_1
  6
CONTINUOUS
100
AcDbSpline
210
0.0
220
0.0
230
1.0
 70
     8
 71
     3
 72
    16
 73
    12
 74
     0
 42
0.0000000001
 43
0.0000000001
 40
2.625839846755727
 40
2.625839846755727
 40
2.625839846755727
 40
2.625839846755727
 40
3.082371838836284
 40
4.126290986361125
 40
5.162752068350215
 40
6.192395305374981
 40
7.216039564037012
 40
8.234688489606833
 40
9.249433870634691
 40
10.26152376260694
 40
11.27226744710342
 40
11.27226744710342
 40
11.27226744710342
 40
11.27226744710352
 10
-79.8053595715891
 20
-6.899531690206982
 30
0.0
 10
-80.00741224259904
 20
-6.960605937823976
 30
0.0
 10
-80.67268788761595
 20
-7.156967702929781
 30
0.0
 10
-81.8030896925701
 20
-7.467109941044779
 30
0.0
 10
-83.19912633368664
 20
-7.803260767819356
 30
0.0
 10
-84.59522694071482
 20
-8.091515934739293
 30
0.0
 10
-85.99147965040208
 20
-8.329778659800073
 30
0.0
 10
-87.38782882318234
 20
-8.516689282688544
 30
0.0
 10
-88.78426494383985
 20
-8.651036560027563
 30
0.0
 10
-90.18075360780489
 20
-8.731955682790887
 30
0.0
 10
-91.11197201036723
 20
-8.750000050067058
 30
0.0
 10
-91.57727133251222
 20
-8.749999999998799
 30
0.0
  0
SPLINE
  5
46AA
330
1F
100
AcDbEntity
  8
AM_0
100
AcDbSpline
210
0.0
220
0.0
230
1.0
 70
     8
 71
     3
 72
    12
 73
     8
 74
     0
 42
0.0000000001
 43
0.0000000001
 40
0.0
 40
0.0
 40
0.0
 40
0.0
 40
3.550288329958888
 40
5.110699985623471
 40
6.310592039948465
 40
8.859663010396623
 40
10.65155104271494
 40
10.65155104271494
 40
10.65155104271494
 40
10.65155104271494
 10
-110.0847868590931
 20
6.250274140439207
 30
0.0
 10
-113.7509523667623
 20
7.372167328451474
 30
0.0
 10
-117.788003599893
 20
6.696817943208477
 30
0.0
 10
-120.1577850305768
 20
5.651934150364783
 30
0.0
 10
-121.6262281971639
 20
3.713191004588248
 30
0.0
 10
-120.6941185240323
 20
1.41234790877623
 30
0.0
 10
-119.4890259601856
 20
-0.000000000000411
 30
0.0
 10
-117.9186346420222
 20
-0.7722926262780597
 30
0.0
  0
SPLINE
  5
46AB
330
1F
100
AcDbEntity
  8
PV0001_1
  6
CONTINUOUS
100
AcDbSpline
210
0.0
220
0.0
230
1.0
 70
     8
 71
     3
 72
    26
 73
    22
 74
     0
 42
0.0000000001
 43
0.0000000001
 40
0.0
 40
0.0
 40
0.0
 40
0.0
 40
1.010743684496582
 40
2.022833576467832
 40
3.037578957496688
 40
4.056212745003489
 40
5.079857003664532
 40
6.109500240690281
 40
7.145961322679372
 40
8.189895241603872
 40
9.241717795325891
 40
10.30168407291828
 40
11.36983447792315
 40
12.44600489715814
 40
13.52984294512926
 40
14.62081576220742
 40
15.7182257034828
 40
16.82123173843959
 40
17.92886860250316
 40
19.0400688939571
 40
20.0141096415786
 40
20.0141096415786
 40
20.0141096415786
 40
20.0141096415786
 10
-91.57726745671196
 20
-8.749999999999008
 30
0.0
 10
-92.04256678499572
 20
-8.744793961980727
 30
0.0
 10
-92.9737851728
 20
-8.734374952032624
 30
0.0
 10
-94.37027386638524
 20
-8.65038603504408
 30
0.0
 10
-95.76670294913354
 20
-8.516865597385212
 30
0.0
 10
-97.16304560663138
 20
-8.329731625842228
 30
0.0
 10
-98.55928790557705
 20
-8.091520144512655
 30
0.0
 10
-99.95540230123188
 20
-7.803290441893231
 30
0.0
 10
-101.3513934635365
 20
-7.466984135994434
 30
0.0
 10
-102.7472490128706
 20
-7.084660605723463
 30
0.0
 10
-104.1429594409139
 20
-6.658667294362626
 30
0.0
 10
-105.5385317045114
 20
-6.191678117892037
 30
0.0
 10
-106.9339695412838
 20
-5.686551082086169
 30
0.0
 10
-108.3292903861092
 20
-5.146430731054525
 30
0.0
 10
-109.7245006272863
 20
-4.574636220077704
 30
0.0
 10
-111.1196132022336
 20
-3.974693862456823
 30
0.0
 10
-112.5146435829387
 20
-3.350304823433258
 30
0.0
 10
-113.9096040129327
 20
-2.705308800176416
 30
0.0
 10
-115.3045080304659
 20
-2.043672769139712
 30
0.0
 10
-116.6409474159096
 20
-1.397707720927089
 30
0.0
 10
-117.5119828690398
 20
-0.9717571081840834
 30
0.0
 10
-117.9186346420222
 20
-0.7722926262780641
 30
0.0
  0
SPLINE
  5
46AC
330
1F
100
AcDbEntity
  8
PV0001_1
  6
CONTINUOUS
100
AcDbSpline
210
0.0
220
0.0
230
1.0
 70
     8
 71
     3
 72
    38
 73
    34
 74
     0
 42
0.0000000001
 43
0.0000000001
 40
0.0
 40
0.0
 40
0.0
 40
0.0
 40
1.010743684496582
 40
2.022833576467832
 40
3.037578957496688
 40
4.056212745003489
 40
5.079857003664532
 40
6.109500240690281
 40
7.145961322679372
 40
8.189895241603872
 40
9.241717795325891
 40
10.30168407291828
 40
11.36983447792315
 40
12.44600489715814
 40
13.52984294512926
 40
14.62081576220742
 40
15.7182257034828
 40
16.82123173843959
 40
17.92886860250316
 40
19.0400688939571
 40
20.15368796660465
 40
21.26852814259644
 40
22.38336992938901
 40
23.49698739941135
 40
24.6081876908653
 40
25.71582455492886
 40
26.81883757994213
 40
27.91624752121713
 40
29.00722033829659
 40
30.09105838626677
 40
31.16722880550176
 40
32.23537921050758
 40
32.37416951031202
 40
32.37416951031202
 40
32.37416951031202
 40
32.37416951031202
 10
-68.03502593043839
 20
-8.749999999999252
 30
0.0
 10
-68.50032525872214
 20
-8.744793961980969
 30
0.0
 10
-69.43154364652638
 20
-8.734374952032865
 30
0.0
 10
-70.82803234011166
 20
-8.650386035044327
 30
0.0
 10
-72.22446142285999
 20
-8.516865597385457
 30
0.0
 10
-73.6208040803578
 20
-8.32973162584247
 30
0.0
 10
-75.01704637930346
 20
-8.0915201445129
 30
0.0
 10
-76.41316077495827
 20
-7.803290441893476
 30
0.0
 10
-77.80915193726293
 20
-7.466984135994679
 30
0.0
 10
-79.20500748659705
 20
-7.084660605723705
 30
0.0
 10
-80.60071791464038
 20
-6.658667294362867
 30
0.0
 10
-81.99629017823783
 20
-6.191678117892279
 30
0.0
 10
-83.39172801501026
 20
-5.686551082086412
 30
0.0
 10
-84.78704885983564
 20
-5.146430731054767
 30
0.0
 10
-86.18225910101267
 20
-4.574636220077947
 30
0.0
 10
-87.57737167595999
 20
-3.974693862457065
 30
0.0
 10
-88.97240205666507
 20
-3.350304823433501
 30
0.0
 10
-90.36736248665919
 20
-2.705308800176658
 30
0.0
 10
-91.76226650419231
 20
-2.043672769139955
 30
0.0
 10
-93.15712903533023
 20
-1.369469021487479
 30
0.0
 10
-94.55196231434515
 20
-0.6868422847868869
 30
0.0
 10
-95.94678603844331
 20
-0.0000017853168512
 30
0.0
 10
-97.34160350095013
 20
0.6868510777102263
 30
0.0
 10
-98.73644145514218
 20
1.369467184107026
 30
0.0
 10
-100.1313022643036
 20
2.0436729725357
 30
0.0
 10
-101.5262087689351
 20
2.705311524110777
 30
0.0
 10
-102.9211749858941
 20
3.350302042857961
 30
0.0
 10
-104.3162075683258
 20
3.974694248402814
 30
0.0
 10
-105.711320344681
 20
4.574636119532244
 30
0.0
 10
-107.1065305350907
 20
5.146430750755283
 30
0.0
 10
-108.501851383489
 20
5.686551102577658
 30
0.0
 10
-109.4961255006162
 20
6.046462946332859
 30
0.0
 10
-110.0240485221519
 20
6.229343131130294
 30
0.0
 10
-110.0847868590931
 20
6.250274140439207
 30
0.0
  0
DIMENSION
  5
471A
330
1F
100
AcDbEntity
  8
AM_5
100
AcDbDimension
  2
*D17
 10
-101.0937469655552
 20
37.48353338517954
 30
0.0
 11
-52.09374696555531
 21
40.88353338517953
 31
0.0
 70
    32
  1
<>
 51
359.9999999999998
  3
AM_JIS$0
100
AcDbAlignedDimension
 13
-3.093746965555344
 23
19.05325564338155
 33
0.0
 14
-101.0937469655552
 24
8.666666762035013
 34
0.0
 50
180.0000000000002
100
AcDbRotatedDimension
1001
ACAD
1000
DSTYLE
1002
{
1070
   271
1070
     3
1002
}
1001
GENIUS_GENDTOL_13
1000

1000
h7
1000

1040
0.0
  0
SPLINE
  5
4888
330
1F
100
AcDbEntity
  8
PV0001_1
  6
CONTINUOUS
100
AcDbSpline
210
0.0
220
0.0
230
1.0
 70
     8
 71
     3
 72
    47
 73
    43
 74
     0
 42
0.0000000001
 43
0.0000000001
 40
0.0
 40
0.0
 40
0.0
 40
0.0
 40
1.010743684496582
 40
2.022833576467832
 40
3.037578957496688
 40
4.056212745003489
 40
5.079857003664532
 40
6.109500240690281
 40
7.145961322679372
 40
8.189895241603872
 40
9.241717795325891
 40
10.30168407291828
 40
11.36983447792315
 40
12.44600489715814
 40
13.52984294512926
 40
14.62081576220742
 40
15.7182257034828
 40
16.82123173843959
 40
17.92886860250316
 40
19.0400688939571
 40
20.15368796660465
 40
21.26852814259644
 40
22.38336992938901
 40
23.49698739941135
 40
24.6081876908653
 40
25.71582455492886
 40
26.81883757994213
 40
27.91624752121713
 40
29.00722033829659
 40
30.09105838626677
 40
31.16722880550176
 40
32.23537921050758
 40
33.29534548809967
 40
34.347168041821
 40
35.39108718934584
 40
36.42754827133493
 40
37.45720575381954
 40
38.48085062012849
 40
39.49948440763516
 40
40.51422944315121
 40
41.52631975251916
 40
42.53706336679711
 40
42.53706336679711
 40
42.53706336679711
 40
42.53706336679711
 10
-35.81322652168833
 20
-8.749999999999857
 30
0.0
 10
-36.26217953727032
 20
-8.744793961981569
 30
0.0
 10
-37.16068352805022
 20
-8.734374952033466
 30
0.0
 10
-38.50811253149157
 20
-8.65038603504492
 30
0.0
 10
-39.85548401826916
 20
-8.51686559738605
 30
0.0
 10
-41.20277211597985
 20
-8.329731625843059
 30
0.0
 10
-42.54996338080923
 20
-8.091520144513483
 30
0.0
 10
-43.89703123568581
 20
-7.803290441894056
 30
0.0
 10
-45.24398018649178
 20
-7.466984135995256
 30
0.0
 10
-46.59079828851209
 20
-7.084660605724278
 30
0.0
 10
-47.9374763674609
 20
-6.658667294363437
 30
0.0
 10
-49.28402113578392
 20
-6.191678117892846
 30
0.0
 10
-50.63043619979665
 20
-5.686551082086975
 30
0.0
 10
-51.97673838187675
 20
-5.146430731055327
 30
0.0
 10
-53.3229338458972
 20
-4.574636220078504
 30
0.0
 10
-54.66903507477546
 20
-3.974693862457618
 30
0.0
 10
-56.01505699695659
 20
-3.350304823434048
 30
0.0
 10
-57.36101142584752
 20
-2.705308800177203
 30
0.0
 10
-58.70691142408922
 20
-2.043672769140495
 30
0.0
 10
-60.05277139338378
 20
-1.369469021488015
 30
0.0
 10
-61.39860313820419
 20
-0.6868422847874197
 30
0.0
 10
-62.74442566377931
 20
-0.0000017853173801
 30
0.0
 10
-64.0902421477374
 20
0.6868510777097013
 30
0.0
 10
-65.4360784034925
 20
1.369467184106505
 30
0.0
 10
-66.78193671130486
 20
2.043672972535182
 30
0.0
 10
-68.12783910927137
 20
2.705311524110263
 30
0.0
 10
-69.47379912182684
 20
3.350302042857451
 30
0.0
 10
-70.81982316838619
 20
3.974694248402307
 30
0.0
 10
-72.16592459159679
 20
4.57463611953174
 30
0.0
 10
-73.51212000663338
 20
5.146430750754786
 30
0.0
 10
-74.85842219216085
 20
5.686551102577164
 30
0.0
 10
-76.20483729046782
 20
6.191678017599297
 30
0.0
 10
-77.5513819198128
 20
6.658667670908568
 30
0.0
 10
-78.89805421123393
 20
7.084657220754031
 30
0.0
 10
-80.24486398473991
 20
7.466985758509253
 30
0.0
 10
-81.59181243589769
 20
7.803298827105161
 30
0.0
 10
-82.93888990929023
 20
8.091495609891543
 30
0.0
 10
-84.28608562485884
 20
8.329780822709761
 30
0.0
 10
-85.63337412196602
 20
8.5166929710838
 30
0.0
 10
-86.98074654493828
 20
8.651024229721393
 30
0.0
 10
-88.32817440574331
 20
8.731968742923323
 30
0.0
 10
-89.22667877755348
 20
8.750000000000799
 30
0.0
 10
-89.67563187495036
 20
8.75000000000087
 30
0.0
  0
SPLINE
  5
4889
330
1F
100
AcDbEntity
  8
PV0001_1
  6
CONTINUOUS
100
AcDbSpline
210
0.0
220
0.0
230
1.0
 70
     8
 71
     3
 72
    25
 73
    21
 74
     0
 42
0.0000000001
 43
0.0000000001
 40
24.56499986022253
 40
24.56499986022253
 40
24.56499986022253
 40
24.56499986022253
 40
24.6081876908653
 40
25.71582455492886
 40
26.81883757994213
 40
27.91624752121713
 40
29.00722033829659
 40
30.09105838626677
 40
31.16722880550176
 40
32.23537921050758
 40
33.29534548809967
 40
34.347168041821
 40
35.39108718934584
 40
36.42754827133493
 40
37.45720575381954
 40
38.48085062012849
 40
39.49948440763516
 40
40.51422944315121
 40
41.52631975251916
 40
42.53706336680078
 40
42.53706336680078
 40
42.53706336680078
 40
42.53706336680078
 10
-9.362408878758463
 20
2.529573368986365
 30
0.0
 10
-9.38006336757374
 20
2.53786219598767
 30
0.0
 10
-9.850529220498456
 20
2.758664326134643
 30
0.0
 10
-10.77335680206344
 20
3.187395158547578
 30
0.0
 10
-12.13317073081003
 20
3.802640803683559
 30
0.0
 10
-13.49259585371666
 20
4.397291705870092
 30
0.0
 10
-14.85156082904548
 20
4.967496481484543
 30
0.0
 10
-16.2100009967915
 20
5.509558753198068
 30
0.0
 10
-17.56785159562747
 20
6.019952052967624
 30
0.0
 10
-18.92504579944327
 20
6.49535789049759
 30
0.0
 10
-20.28153111000009
 20
6.932632835307971
 30
0.0
 10
-21.63724272331871
 20
7.328914778590863
 30
0.0
 10
-22.9921319607752
 20
7.681543238896924
 30
0.0
 10
-24.3461482582863
 20
7.988164301870653
 30
0.0
 10
-25.69923577932773
 20
8.246677870822033
 30
0.0
 10
-27.05134427969911
 20
8.455289332438884
 30
0.0
 10
-28.40241617605606
 20
8.612538105156916
 30
0.0
 10
-29.75241606255894
 20
8.71721685025559
 30
0.0
 10
-31.10129774248008
 20
8.76852053305369
 30
0.0
 10
-31.99998136605805
 20
8.766795102788345
 30
0.0
 10
-32.44882596595857
 20
8.756925512935717
 30
0.0
  0
LINE
  5
488A
330
1F
100
AcDbEntity
  8
AM_0
100
AcDbLine
 10
-12.27503001485379
 20
3.862243093418635
 30
0.0
 11
-12.21020271547269
 21
8.749999999999797
 31
0.0
  0
SPLINE
  5
488B
330
1F
100
AcDbEntity
  8
PV0001_1
  6
CONTINUOUS
 48
0.5
100
AcDbSpline
210
0.0
220
0.0
230
1.0
 70
     8
 71
     3
 72
    15
 73
    11
 74
     0
 42
0.0000000001
 43
0.0000000001
 40
0.0
 40
0.0
 40
0.0
 40
0.0
 40
1.010743614677189
 40
2.022833924044153
 40
3.037578959561199
 40
4.056212747067873
 40
5.079857613375832
 40
6.109500119648989
 40
7.14596120163808
 40
7.414139197351939
 40
7.414139197351939
 40
7.414139197351939
 40
7.414139197351939
 10
-12.21029566032196
 20
8.742990705279638
 30
0.0
 10
-12.63897427586964
 20
8.742938125223497
 30
0.0
 10
-13.49698527909792
 20
8.724983890877231
 30
0.0
 10
-14.78362148773167
 20
8.644008334366144
 30
0.0
 10
-16.07022262638101
 20
8.509685564181328
 30
0.0
 10
-17.35673869538357
 20
8.32277060560574
 30
0.0
 10
-18.64316168379819
 20
8.084489279713571
 30
0.0
 10
-19.92946964583727
 20
7.796286105728426
 30
0.0
 10
-20.89483986687684
 20
7.543864219902316
 30
0.0
 10
-21.4319590955842
 20
7.391388645377865
 30
0.0
 10
-21.64300164326772
 20
7.323268473134204
 30
0.0
  0
LINE
  5
488C
330
1F
100
AcDbEntity
  8
PV0001_1
  6
CONTINUOUS
 48
0.5
100
AcDbLine
 10
-66.96043670000912
 20
8.750000000000389
 30
0.0
 11
-32.76378121021008
 21
8.749999999999937
 31
0.0
  0
LINE
  5
488D
330
1F
100
AcDbEntity
  8
PV0001_1
  6
CONTINUOUS
 48
0.5
100
AcDbLine
 10
-69.75020724939276
 20
-8.749999999999573
 30
0.0
 11
-38.48013423753512
 21
-8.749999999999985
 31
0.0
  0
LINE
  5
488E
330
1F
100
AcDbEntity
  8
AM_0
100
AcDbLine
 10
-13.29374696555528
 20
-8.731102502183412
 30
0.0
 11
-13.29374696555519
 21
4.307783449011916
 31
0.0
  0
SPLINE
  5
488F
330
1F
100
AcDbEntity
  8
PV0001_1
  6
CONTINUOUS
100
AcDbSpline
210
0.0
220
0.0
230
1.0
 70
     8
 71
     3
 72
    55
 73
    51
 74
     0
 42
0.0000000001
 43
0.0000000001
 40
0.0
 40
0.0
 40
0.0
 40
0.0
 40
1.010743684496582
 40
2.022833576467832
 40
3.037578957496688
 40
4.056212745003489
 40
5.079857003664532
 40
6.109500240690281
 40
7.145961322679372
 40
8.189895241603872
 40
9.241717795325891
 40
10.30168407291828
 40
11.36983447792315
 40
12.44600489715814
 40
13.52984294512926
 40
14.62081576220742
 40
15.7182257034828
 40
16.82123173843959
 40
17.92886860250316
 40
19.0400688939571
 40
20.15368796660465
 40
21.26852814259644
 40
22.38336992938901
 40
23.49698739941135
 40
24.6081876908653
 40
25.71582455492886
 40
26.81883757994213
 40
27.91624752121713
 40
29.00722033829659
 40
30.09105838626677
 40
31.16722880550176
 40
32.23537921050758
 40
33.29534548809967
 40
34.347168041821
 40
35.39108718934584
 40
36.42754827133493
 40
37.45720575381954
 40
38.48085062012849
 40
39.49948440763516
 40
40.51422944315121
 40
41.52631975251916
 40
42.53706336719636
 40
43.54780698187354
 40
44.55989729124051
 40
45.57464232675757
 40
46.59327611426424
 40
47.6169209805722
 40
48.64656348684535
 40
49.68302456883444
 40
50.58557219878025
 40
50.58557219878025
 40
50.58557219878025
 40
50.58557219878025
 10
-13.09804151214658
 20
-8.750000000000158
 30
0.0
 10
-13.54699452772858
 20
-8.744793961981878
 30
0.0
 10
-14.44549851850848
 20
-8.734374952033771
 30
0.0
 10
-15.79292752194983
 20
-8.650386035045228
 30
0.0
 10
-17.14029900872742
 20
-8.516865597386354
 30
0.0
 10
-18.48758710643809
 20
-8.329731625843363
 30
0.0
 10
-19.83477837126747
 20
-8.09152014451379
 30
0.0
 10
-21.18184622614403
 20
-7.803290441894363
 30
0.0
 10
-22.52879517695004
 20
-7.466984135995559
 30
0.0
 10
-23.87561327897036
 20
-7.084660605724583
 30
0.0
 10
-25.22229135791916
 20
-6.658667294363744
 30
0.0
 10
-26.56883612624216
 20
-6.191678117893151
 30
0.0
 10
-27.91525119025488
 20
-5.686551082087278
 30
0.0
 10
-29.26155337233497
 20
-5.14643073105563
 30
0.0
 10
-30.60774883635545
 20
-4.574636220078808
 30
0.0
 10
-31.95385006523373
 20
-3.974693862457923
 30
0.0
 10
-33.29987198741484
 20
-3.350304823434354
 30
0.0
 10
-34.64582641630576
 20
-2.705308800177508
 30
0.0
 10
-35.99172641454747
 20
-2.043672769140801
 30
0.0
 10
-37.33758638384206
 20
-1.369469021488321
 30
0.0
 10
-38.68341812866244
 20
-0.6868422847877247
 30
0.0
 10
-40.02924065423755
 20
-0.0000017853176856
 30
0.0
 10
-41.37505713819564
 20
0.6868510777093956
 30
0.0
 10
-42.72089339395072
 20
1.3694671841062
 30
0.0
 10
-44.06675170176311
 20
2.043672972534877
 30
0.0
 10
-45.41265409972965
 20
2.705311524109957
 30
0.0
 10
-46.75861411228507
 20
3.350302042857144
 30
0.0
 10
-48.10463815884443
 20
3.974694248402002
 30
0.0
 10
-49.45073958205504
 20
4.574636119531435
 30
0.0
 10
-50.79693499709164
 20
5.146430750754478
 30
0.0
 10
-52.14323718261908
 20
5.68655110257686
 30
0.0
 10
-53.48965228092608
 20
6.191678017598992
 30
0.0
 10
-54.83619691027101
 20
6.658667670908261
 30
0.0
 10
-56.18286920169214
 20
7.084657220753722
 30
0.0
 10
-57.52967897519813
 20
7.466985758508948
 30
0.0
 10
-58.8766274263559
 20
7.803298827104858
 30
0.0
 10
-60.22370489974845
 20
8.091495609891238
 30
0.0
 10
-61.57090061531707
 20
8.329780822709453
 30
0.0
 10
-62.91818911242422
 20
8.516692971083495
 30
0.0
 10
-64.26556153539649
 20
8.651024229721089
 30
0.0
 10
-65.61298939637861
 20
8.731968742933656
 30
0.0
 10
-66.96044686627079
 20
8.759009626421063
 30
0.0
 10
-68.30790433418041
 20
8.731968742891364
 30
0.0
 10
-69.65533220112188
 20
8.65102422989117
 30
0.0
 10
-71.00270460215355
 20
8.516692970442615
 30
0.0
 10
-72.34999318152126
 20
8.329780825118367
 30
0.0
 10
-73.69718202000552
 20
8.091496762512399
 30
0.0
 10
-75.04425418642554
 20
7.803301773761293
 30
0.0
 10
-76.3299598146195
 20
7.48225224261258
 30
0.0
 10
-77.16414026822352
 20
7.2474656853861
 30
0.0
 10
-78.23586281116394
 20
6.873418868414209
 30
0.0
  0
SPLINE
  5
4890
330
1F
100
AcDbEntity
  8
PV0001_1
  6
CONTINUOUS
100
AcDbSpline
210
0.0
220
0.0
230
1.0
 70
     8
 71
     3
 72
    17
 73
    13
 74
     0
 42
0.0000000001
 43
0.0000000001
 40
1.580019955310467
 40
1.580019955310467
 40
1.580019955310467
 40
1.580019955310467
 40
2.030549285115227
 40
3.082371838836284
 40
4.126290986361125
 40
5.162752068350215
 40
6.192395305374981
 40
7.216039564037012
 40
8.234688489606833
 40
9.249433870634691
 40
10.26152376260694
 40
11.27226744710342
 40
11.27226744710342
 40
11.27226744710342
 40
11.27226744710352
 10
-25.78809772700835
 20
-6.457757657665589
 30
0.0
 10
-25.97873644036082
 20
-6.524267196835705
 30
0.0
 10
-26.61553379035862
 20
-6.742261095083803
 30
0.0
 10
-27.70270478593903
 20
-7.084192324443384
 30
0.0
 10
-29.04932689404684
 20
-7.467109941045809
 30
0.0
 10
-30.39631972596014
 20
-7.803260767820382
 30
0.0
 10
-31.74337427661481
 20
-8.091515934740312
 30
0.0
 10
-33.09057558644863
 20
-8.329778659801087
 30
0.0
 10
-34.43786997055501
 20
-8.516689282689558
 30
0.0
 10
-35.78524824799481
 20
-8.651036560028574
 30
0.0
 10
-37.13267722285648
 20
-8.731955682791893
 30
0.0
 10
-38.031181227876
 20
-8.750000050068065
 30
0.0
 10
-38.48013423753495
 20
-8.749999999999801
 30
0.0
  0
VIEWPORT
  5
110
330
101
100
AcDbEntity
 67
     1
  8
0
100
AcDbViewport
 10
420.5
 20
297.0
 30
0.0
 40
948.9782706766916
 41
628.452
 68
     1
 69
     1
1001
ACAD
1000
MVIEW
1002
{
1070
    16
1010
0.0
1020
0.0
1030
0.0
1010
0.0
1020
0.0
1030
1.0
1040
0.0
1040
628.452
1040
420.5
1040
297.0
1040
50.0
1040
0.0
1040
0.0
1070
     0
1070
   100
1070
     1
1070
     1
1070
     0
1070
     0
1070
     0
1070
     0
1040
0.0
1040
0.0
1040
0.0
1040
10.0
1040
10.0
1040
10.0
1040
10.0
1070
     0
1002
{
1002
}
1002
}
  0
ENDSEC
  0
SECTION
  2
OBJECTS
  0
DICTIONARY
  5
C
330
0
100
AcDbDictionary
  3
ACAD_GROUP
350
D
  3
ACAD_LAYOUT
350
1A
  3
ACAD_MLINESTYLE
350
17
  3
ACAD_PLOTSETTINGS
350
19
  3
ACAD_PLOTSTYLENAME
350
E
  3
ACDBVARIABLEDICTIONARY
350
34
  3
ACMDICTIONARY
350
43
  3
AMG
350
2B
  3
AMGSNAPSETTINGS
350
6E
  3
DWGPROPS
350
48AD
  3
ACDBHEADERROUNDTRIPXREC
350
48BD
  0
DICTIONARY
  5
74
330
1F
100
AcDbDictionary
280
     1
  3
ACAD_INDEX
360
48AF
  3
ACAD_LAYOUTSELFREF
360
48E0
  0
DICTIONARY
  5
48E5
330
101
100
AcDbDictionary
280
     1
  3
ACAD_LAYOUTSELFREF
360
48E6
  0
DICTIONARY
  5
D
102
{ACAD_REACTORS
330
C
102
}
330
C
100
AcDbDictionary
  0
DICTIONARY
  5
1A
102
{ACAD_REACTORS
330
C
102
}
330
C
100
AcDbDictionary
  0
DICTIONARY
  5
17
102
{ACAD_REACTORS
330
C
102
}
330
C
100
AcDbDictionary
  3
STANDARD
350
18
  0
DICTIONARY
  5
19
102
{ACAD_REACTORS
330
C
102
}
330
C
100
AcDbDictionary
  0
ACDBDICTIONARYWDFLT
  5
E
102
{ACAD_REACTORS
330
C
102
}
330
C
100
AcDbDictionary
281
     1
  3
Normal
350
F
100
AcDbDictionaryWithDefault
340
F
  0
DICTIONARY
  5
34
102
{ACAD_REACTORS
330
C
102
}
330
C
100
AcDbDictionary
  3
INDEXCTL
350
35
  3
SORTENTS
350
B5E
  0
DICTIONARY
  5
43
102
{ACAD_REACTORS
330
C
102
}
330
C
100
AcDbDictionary
  3
ACMSTDDICTIONARY
350
260
  0
DICTIONARY
  5
2B
102
{ACAD_REACTORS
330
C
102
}
330
C
100
AcDbDictionary
  3
ACMGSETTINGS
350
2C
  0
DICTIONARY
  5
6E
102
{ACAD_REACTORS
330
C
102
}
330
C
100
AcDbDictionary
  0
XRECORD
  5
48AD
102
{ACAD_REACTORS
330
C
102
}
330
C
100
AcDbXrecord
  1
DWGPROPS COOKIE
  2

  3

  4

  6

  7

  8

  9

300
AmdtFileType=82
301
=
302
=
303
=
304
=
305
=
306
=
307
=
308
=
309
=
 40
0.340398587962963
 41
2452800.443498622
 42
2453002.204350347
  1

 90
        1
  0
DICTIONARY
  5
48BD
102
{ACAD_REACTORS
330
C
102
}
330
C
100
AcDbDictionary
  3
TSTACKALIGN
350
48BE
  3
TSTACKSIZE
350
48BF
  3
HYPERLINKBASE
350
48C0
  3
STYLESHEET
350
48C1
  3
LAYOUTDICT
350
48C2
  3
PLOTSETDICT
350
48C3
  3
PLOTSTYLNAMDICT
350
48C4
  3
LWETCUNION
350
48C5
  3
INSUNITS
350
48C6
  3
CEPSNTYPE
350
48C7
  3
FINGERPRINTGUID
350
48C8
  3
VERSIONGUID
350
48C9
  3
PSVPSCALE
350
48CA
  3
DIMSTYLEDATA
350
48CB
  3
PUCSORTHOREF
350
48CC
  3
PUCSORTHOVIEW
350
48CD
  3
PUCSBASE
350
48CE
  3
PUCSORGTOP
350
48CF
  3
PUCSORGBOTTOM
350
48D0
  3
PUCSORGLEFT
350
48D1
  3
PUCSORGRIGHT
350
48D2
  3
PUCSORGFRONT
350
48D3
  3
PUCSORGBACK
350
48D4
  3
UCSORTHOREF
350
48D5
  3
UCSORTHOVIEW
350
48D6
  3
UCSBASE
350
48D7
  3
UCSORGTOP
350
48D8
  3
UCSORGBOTTOM
350
48D9
  3
UCSORGLEFT
350
48DA
  3
UCSORGRIGHT
350
48DB
  3
UCSORGFRONT
350
48DC
  3
UCSORGBACK
350
48DD
  0
DICTIONARY
  5
48AF
102
{ACAD_REACTORS
330
74
102
}
330
74
100
AcDbDictionary
  3
*A1
350
48B0
  0
XRECORD
  5
48E0
102
{ACAD_REACTORS
330
74
102
}
330
74
100
AcDbXrecord
340
1F
  0
XRECORD
  5
48E6
102
{ACAD_REACTORS
330
48E5
102
}
330
48E5
100
AcDbXrecord
340
101
  0
MLINESTYLE
  5
18
102
{ACAD_REACTORS
330
17
102
}
330
17
100
AcDbMlineStyle
  2
STANDARD
 70
     0
  3

 62
   256
 51
90.0
 52
90.0
 71
     2
 49
0.5
 62
   256
  6
BYLAYER
 49
-0.5
 62
   256
  6
BYLAYER
  0
ACDBPLACEHOLDER
  5
F
102
{ACAD_REACTORS
330
E
102
}
330
E
100
AcDbPlaceHolder
280
     0
  0
DICTIONARYVAR
  5
35
102
{ACAD_REACTORS
330
34
102
}
330
34
100
DictionaryVariables
280
     0
  1
1
  0
DICTIONARYVAR
  5
B5E
102
{ACAD_REACTORS
330
34
102
}
330
34
100
DictionaryVariables
280
     0
  1
96
  0
DICTIONARY
  5
260
102
{ACAD_REACTORS
330
43
102
}
330
43
100
AcDbDictionary
  0
DICTIONARY
  5
2C
102
{ACAD_REACTORS
330
2B
102
}
330
2B
100
AcDbDictionary
  3
DWGSETTINGS
350
2D
  0
XRECORD
  5
48BE
102
{ACAD_REACTORS
330
48BD
102
}
330
48BD
100
AcDbXrecord
 90
        1
  0
XRECORD
  5
48BF
102
{ACAD_REACTORS
330
48BD
102
}
330
48BD
100
AcDbXrecord
 90
       70
  0
XRECORD
  5
48C0
102
{ACAD_REACTORS
330
48BD
102
}
330
48BD
100
AcDbXrecord
  1

  0
XRECORD
  5
48C1
102
{ACAD_REACTORS
330
48BD
102
}
330
48BD
100
AcDbXrecord
  1
ASAMI.ctb
  0
XRECORD
  5
48C2
102
{ACAD_REACTORS
330
48BD
102
}
330
48BD
100
AcDbXrecord
340
1A
  0
XRECORD
  5
48C3
102
{ACAD_REACTORS
330
48BD
102
}
330
48BD
100
AcDbXrecord
340
19
  0
XRECORD
  5
48C4
102
{ACAD_REACTORS
330
48BD
102
}
330
48BD
100
AcDbXrecord
340
E
  0
XRECORD
  5
48C5
102
{ACAD_REACTORS
330
48BD
102
}
330
48BD
100
AcDbXrecord
 90
    10781
  0
XRECORD
  5
48C6
102
{ACAD_REACTORS
330
48BD
102
}
330
48BD
100
AcDbXrecord
 90
        4
  0
XRECORD
  5
48C7
102
{ACAD_REACTORS
330
48BD
102
}
330
48BD
100
AcDbXrecord
 90
        0
  0
XRECORD
  5
48C8
102
{ACAD_REACTORS
330
48BD
102
}
330
48BD
100
AcDbXrecord
  1
{AFB28963-8C59-40AE-9337-C84526B81ACE}
  0
XRECORD
  5
48C9
102
{ACAD_REACTORS
330
48BD
102
}
330
48BD
100
AcDbXrecord
  1
{184D7884-481B-4B6C-86FF-77A5E2606433}
  0
XRECORD
  5
48CA
102
{ACAD_REACTORS
330
48BD
102
}
330
48BD
100
AcDbXrecord
 40
0.0
  0
XRECORD
  5
48CB
102
{ACAD_REACTORS
330
48BD
102
}
330
48BD
100
AcDbXrecord
1000
DSTYLE
1002
{
1070
    79
 70
     2
1070
   341
340
59
1070
   342
340
59
1070
   371
 70
    -1
1070
   372
 70
    -1
1002
}
  0
XRECORD
  5
48CC
102
{ACAD_REACTORS
330
48BD
102
}
330
48BD
100
AcDbXrecord
340
0
  0
XRECORD
  5
48CD
102
{ACAD_REACTORS
330
48BD
102
}
330
48BD
100
AcDbXrecord
 70
     0
  0
XRECORD
  5
48CE
102
{ACAD_REACTORS
330
48BD
102
}
330
48BD
100
AcDbXrecord
340
0
  0
XRECORD
  5
48CF
102
{ACAD_REACTORS
330
48BD
102
}
330
48BD
100
AcDbXrecord
 10
0.0
 20
0.0
 30
0.0
  0
XRECORD
  5
48D0
102
{ACAD_REACTORS
330
48BD
102
}
330
48BD
100
AcDbXrecord
 10
0.0
 20
0.0
 30
0.0
  0
XRECORD
  5
48D1
102
{ACAD_REACTORS
330
48BD
102
}
330
48BD
100
AcDbXrecord
 10
0.0
 20
0.0
 30
0.0
  0
XRECORD
  5
48D2
102
{ACAD_REACTORS
330
48BD
102
}
330
48BD
100
AcDbXrecord
 10
0.0
 20
0.0
 30
0.0
  0
XRECORD
  5
48D3
102
{ACAD_REACTORS
330
48BD
102
}
330
48BD
100
AcDbXrecord
 10
0.0
 20
0.0
 30
0.0
  0
XRECORD
  5
48D4
102
{ACAD_REACTORS
330
48BD
102
}
330
48BD
100
AcDbXrecord
 10
0.0
 20
0.0
 30
0.0
  0
XRECORD
  5
48D5
102
{ACAD_REACTORS
330
48BD
102
}
330
48BD
100
AcDbXrecord
340
0
  0
XRECORD
  5
48D6
102
{ACAD_REACTORS
330
48BD
102
}
330
48BD
100
AcDbXrecord
 70
     0
  0
XRECORD
  5
48D7
102
{ACAD_REACTORS
330
48BD
102
}
330
48BD
100
AcDbXrecord
340
0
  0
XRECORD
  5
48D8
102
{ACAD_REACTORS
330
48BD
102
}
330
48BD
100
AcDbXrecord
 10
0.0
 20
0.0
 30
0.0
  0
XRECORD
  5
48D9
102
{ACAD_REACTORS
330
48BD
102
}
330
48BD
100
AcDbXrecord
 10
0.0
 20
0.0
 30
0.0
  0
XRECORD
  5
48DA
102
{ACAD_REACTORS
330
48BD
102
}
330
48BD
100
AcDbXrecord
 10
0.0
 20
0.0
 30
0.0
  0
XRECORD
  5
48DB
102
{ACAD_REACTORS
330
48BD
102
}
330
48BD
100
AcDbXrecord
 10
0.0
 20
0.0
 30
0.0
  0
XRECORD
  5
48DC
102
{ACAD_REACTORS
330
48BD
102
}
330
48BD
100
AcDbXrecord
 10
0.0
 20
0.0
 30
0.0
  0
XRECORD
  5
48DD
102
{ACAD_REACTORS
330
48BD
102
}
330
48BD
100
AcDbXrecord
 10
0.0
 20
0.0
 30
0.0
  0
LAYER_INDEX
  5
48B0
102
{ACAD_REACTORS
330
48AF
102
}
330
48AF
100
AcDbIndex
 40
2453151.705970035
100
AcDbLayerIndex
  8
0
360
48B1
 90
        0
  8
AM_0
360
48B2
 90
       11
  8
PV0001_1
360
48B3
 90
       33
  8
AM_CL
360
48B4
 90
        0
  8
AM_7
360
48B5
 90
        1
  8
AM_11
360
48B6
 90
        3
  8
AM_5
360
48B7
 90
       10
  8
Defpoints
360
48B8
 90
        0
  8
AM_6
360
48B9
 90
        1
  8
AM_4
360
48BA
 90
        0
  8
AM_3
360
48BB
 90
        0
  0
XRECORD
  5
2D
102
{ACAD_REACTORS
330
2C
102
}
330
2C
100
AcDbXrecord
  1
VERSION
140
15.0
  1
PRODUCT
  2
AutoCAD Mechanical 2000
  0
IDBUFFER
  5
48B1
330
0
100
AcDbIdBuffer
  0
IDBUFFER
  5
48B2
330
0
100
AcDbIdBuffer
330
43A8
330
43A9
330
43B2
330
43B4
330
4524
330
4527
330
452D
330
46A4
330
46AA
330
488A
330
488E
  0
IDBUFFER
  5
48B3
330
0
100
AcDbIdBuffer
330
4528
330
4529
330
452A
330
452E
330
4534
330
4536
330
46A3
330
46A6
330
46AB
330
46AC
330
4888
330
4889
330
488B
330
488C
330
488D
330
488F
330
4890
330
35F4
330
35F5
330
43A6
330
43A7
330
43AA
330
43AB
330
43AE
330
43AF
330
43B0
330
43B1
330
43B3
330
44E2
330
44E3
330
4522
330
4523
330
4525
  0
IDBUFFER
  5
48B4
330
0
100
AcDbIdBuffer
  0
IDBUFFER
  5
48B5
330
0
100
AcDbIdBuffer
330
35D1
  0
IDBUFFER
  5
48B6
330
0
100
AcDbIdBuffer
330
4539
330
453A
330
46A5
  0
IDBUFFER
  5
48B7
330
0
100
AcDbIdBuffer
330
36BA
330
3B0D
330
3BB8
330
3CCB
330
43A4
330
43A5
330
43AC
330
43AD
330
4515
330
471A
  0
IDBUFFER
  5
48B8
330
0
100
AcDbIdBuffer
  0
IDBUFFER
  5
48B9
330
0
100
AcDbIdBuffer
330
19BD
  0
IDBUFFER
  5
48BA
330
0
100
AcDbIdBuffer
  0
IDBUFFER
  5
48BB
330
0
100
AcDbIdBuffer
  0
ENDSEC
  0
EOF
