  0
SECTION
  2
HEADER
  9
$ACADVER
  1
AC1014
  9
$ACADMAINTVER
 70
     9
  9
$DWGCODEPAGE
  3
ANSI_932
  9
$INSBASE
 10
0.0
 20
0.0
 30
0.0
  9
$EXTMIN
 10
-589.2017441852486
 20
-70.91391186861649
 30
-0.00000001
  9
$EXTMAX
 10
24.62049714148563
 20
28.2978209208689
 30
0.00000001
  9
$LIMMIN
 10
-172.2714140857317
 20
-87.53512927596251
  9
$LIMMAX
 10
51.86868127632397
 20
56.20724875114615
  9
$ORTHOMODE
 70
     0
  9
$REGENMODE
 70
     1
  9
$FILLMODE
 70
     1
  9
$QTEXTMODE
 70
     0
  9
$MIRRTEXT
 70
     0
  9
$DRAGMODE
 70
     2
  9
$LTSCALE
 40
1.0
  9
$OSMODE
 70
    55
  9
$ATTMODE
 70
     1
  9
$TEXTSIZE
 40
2.5
  9
$TRACEWID
 40
1.0
  9
$TEXTSTYLE
  7
STANDARD
  9
$CLAYER
  8
AM_0
  9
$CELTYPE
  6
BYLAYER
  9
$CECOLOR
 62
   256
  9
$CELTSCALE
 40
1.0
  9
$DELOBJ
 70
     1
  9
$DISPSILH
 70
     0
  9
$DIMSCALE
 40
1.0
  9
$DIMASZ
 40
2.5
  9
$DIMEXO
 40
1.0
  9
$DIMDLI
 40
12.0
  9
$DIMRND
 40
0.0
  9
$DIMDLE
 40
0.0
  9
$DIMEXE
 40
1.0
  9
$DIMTP
 40
0.1
  9
$DIMTM
 40
0.1
  9
$DIMTXT
 40
3.2
  9
$DIMCEN
 40
0.0
  9
$DIMTSZ
 40
0.0
  9
$DIMTOL
 70
     0
  9
$DIMLIM
 70
     0
  9
$DIMTIH
 70
     0
  9
$DIMTOH
 70
     0
  9
$DIMSE1
 70
     0
  9
$DIMSE2
 70
     0
  9
$DIMTAD
 70
     3
  9
$DIMZIN
 70
     8
  9
$DIMBLK
  1
OPEN30
  9
$DIMASO
 70
     1
  9
$DIMSHO
 70
     1
  9
$DIMPOST
  1

  9
$DIMAPOST
  1
"
  9
$DIMALT
 70
     0
  9
$DIMALTD
 70
     2
  9
$DIMALTF
 40
0.0393701
  9
$DIMLFAC
 40
1.0
  9
$DIMTOFL
 70
     1
  9
$DIMTVP
 40
0.0
  9
$DIMTIX
 70
     0
  9
$DIMSOXD
 70
     0
  9
$DIMSAH
 70
     0
  9
$DIMBLK1
  1

  9
$DIMBLK2
  1

  9
$DIMSTYLE
  2
AM_JIS
  9
$DIMCLRD
 70
   256
  9
$DIMCLRE
 70
   256
  9
$DIMCLRT
 70
     2
  9
$DIMTFAC
 40
0.71
  9
$DIMGAP
 40
1.5
  9
$DIMJUST
 70
     0
  9
$DIMSD1
 70
     0
  9
$DIMSD2
 70
     0
  9
$DIMTOLJ
 70
     0
  9
$DIMTZIN
 70
     0
  9
$DIMALTZ
 70
     0
  9
$DIMALTTZ
 70
     0
  9
$DIMFIT
 70
     3
  9
$DIMUPT
 70
     0
  9
$DIMUNIT
 70
     2
  9
$DIMDEC
 70
     3
  9
$DIMTDEC
 70
     3
  9
$DIMALTU
 70
     2
  9
$DIMALTTD
 70
     2
  9
$DIMTXSTY
  7
ASAMI
  9
$DIMAUNIT
 70
     0
  9
$LUNITS
 70
     2
  9
$LUPREC
 70
     2
  9
$SKETCHINC
 40
1.0
  9
$FILLETRAD
 40
2.5
  9
$AUNITS
 70
     0
  9
$AUPREC
 70
     0
  9
$MENU
  1
.
  9
$ELEVATION
 40
0.0
  9
$PELEVATION
 40
0.0
  9
$THICKNESS
 40
0.0
  9
$LIMCHECK
 70
     0
  9
$BLIPMODE
 70
     0
  9
$CHAMFERA
 40
2.5
  9
$CHAMFERB
 40
2.5
  9
$CHAMFERC
 40
20.0
  9
$CHAMFERD
 40
0.0
  9
$SKPOLY
 70
     0
  9
$TDCREATE
 40
2452800.443498622
  9
$TDUPDATE
 40
2453151.718809120
  9
$TDINDWG
 40
0.4628578009
  9
$TDUSRTIMER
 40
0.4628578009
  9
$USRTIMER
 70
     1
  9
$ANGBASE
 50
0.0
  9
$ANGDIR
 70
     0
  9
$PDMODE
 70
     0
  9
$PDSIZE
 40
0.0
  9
$PLINEWID
 40
0.0
  9
$COORDS
 70
     1
  9
$SPLFRAME
 70
     0
  9
$SPLINETYPE
 70
     6
  9
$SPLINESEGS
 70
     8
  9
$ATTDIA
 70
     1
  9
$ATTREQ
 70
     1
  9
$HANDLING
 70
 12289
  9
$HANDSEED
  5
51DE
  9
$SURFTAB1
 70
     6
  9
$SURFTAB2
 70
     6
  9
$SURFTYPE
 70
     6
  9
$SURFU
 70
     6
  9
$SURFV
 70
     6
  9
$UCSNAME
  2

  9
$UCSORG
 10
-0.0000000000000524
 20
-0.0000000000002132
 30
0.0
  9
$UCSXDIR
 10
1.0
 20
0.0000000000000027
 30
0.0
  9
$UCSYDIR
 10
-0.0000000000000027
 20
1.0
 30
0.0
  9
$PUCSNAME
  2

  9
$PUCSORG
 10
0.0
 20
0.0
 30
0.0
  9
$PUCSXDIR
 10
1.0
 20
0.0
 30
0.0
  9
$PUCSYDIR
 10
0.0
 20
1.0
 30
0.0
  9
$USERI1
 70
     0
  9
$USERI2
 70
     0
  9
$USERI3
 70
     0
  9
$USERI4
 70
     0
  9
$USERI5
 70
     0
  9
$USERR1
 40
0.0
  9
$USERR2
 40
0.0
  9
$USERR3
 40
0.0
  9
$USERR4
 40
0.0
  9
$USERR5
 40
0.0
  9
$WORLDVIEW
 70
     1
  9
$SHADEDGE
 70
     3
  9
$SHADEDIF
 70
    70
  9
$TILEMODE
 70
     1
  9
$MAXACTVP
 70
    64
  9
$PINSBASE
 10
0.0
 20
0.0
 30
0.0
  9
$PLIMCHECK
 70
     0
  9
$PEXTMIN
 10
1.000000000000000E+20
 20
1.000000000000000E+20
 30
1.000000000000000E+20
  9
$PEXTMAX
 10
-1.000000000000000E+20
 20
-1.000000000000000E+20
 30
-1.000000000000000E+20
  9
$PLIMMIN
 10
0.0
 20
0.0
  9
$PLIMMAX
 10
841.0
 20
594.0
  9
$UNITMODE
 70
     0
  9
$VISRETAIN
 70
     1
  9
$PLINEGEN
 70
     0
  9
$PSLTSCALE
 70
     0
  9
$TREEDEPTH
 70
  3020
  9
$PICKSTYLE
 70
     0
  9
$CMLSTYLE
  2
STANDARD
  9
$CMLJUST
 70
     0
  9
$CMLSCALE
 40
20.0
  9
$PROXYGRAPHICS
 70
     1
  9
$MEASUREMENT
 70
     1
  0
ENDSEC
  0
SECTION
  2
CLASSES
  0
CLASS
  1
ACDBDICTIONARYWDFLT
  2
AcDbDictionaryWithDefault
  3
AutoCAD 2000
 90
        0
280
     0
281
     0
  0
CLASS
  1
ACDBPLACEHOLDER
  2
AcDbPlaceHolder
  3
AutoCAD 2000
 90
        0
280
     0
281
     0
  0
CLASS
  1
LAYOUT
  2
AcDbLayout
  3
AutoCAD 2000
 90
        0
280
     0
281
     0
  0
CLASS
  1
AMGSETTINGSOBJ
  2
AmgSettingsObj
  3
"AcadM|Product Description: AutoCAD Mechanical 2000|Company: Autodesk"
 90
        0
280
     0
281
     0
  0
CLASS
  1
ACME_DOCUMENT
  2
AcMeDbDoc
  3
AcMeServices
 90
        0
280
     0
281
     0
  0
CLASS
  1
ACMESCOPE
  2
AcMeScope
  3
AcMeServices
 90
        0
280
     0
281
     0
  0
CLASS
  1
ACMECOMMANDHISTORY
  2
AcMeCommandHistory
  3
AcMeServices
 90
        0
280
     0
281
     0
  0
CLASS
  1
DICTIONARYVAR
  2
AcDbDictionaryVar
  3
AutoCAD 2000
 90
        0
280
     0
281
     0
  0
CLASS
  1
ACIMSYSVARMAN
  2
AcImSysVarManager
  3
AcMeServices
 90
        0
280
     0
281
     0
  0
CLASS
  1
ACIMREALSYSVAR
  2
AcImRealSysVar
  3
AcMeServices
 90
        0
280
     0
281
     0
  0
CLASS
  1
ACIMINTSYSVAR
  2
AcImIntSysVar
  3
AcMeServices
 90
        0
280
     0
281
     0
  0
CLASS
  1
ACMEDRAWINGMAN
  2
AcMeDrawingMan
  3
AcMeServices
 90
        0
280
     0
281
     0
  0
CLASS
  1
ACMEVIEW
  2
AcMeView
  3
AcMeServices
 90
        0
280
     0
281
     0
  0
CLASS
  1
ACDBENTITYCACHE
  2
AcMeEntityCache
  3
AcMeServices
 90
        0
280
     0
281
     0
  0
CLASS
  1
GSMANAGER
  2
AcMeGSManager
  3
AcMeServices
 90
        0
280
     0
281
     0
  0
CLASS
  1
AmdtInternalReactor
  2
AmdtInternalReactor
  3
AcMeServices
 90
        0
280
     0
281
     0
  0
CLASS
  1
ACMESTATEMGR
  2
AcMeStateMgr
  3
AcMeServices
 90
        0
280
     0
281
     0
  0
CLASS
  1
ACME_DATABASE
  2
AcMeDbDatabase
  3
AcMeServices
 90
        0
280
     0
281
     0
  0
CLASS
  1
ACRFINSADJUSTERMGR
  2
AcRfInsAdjusterMgr
  3
AcMeServices
 90
        0
280
     0
281
     0
  0
CLASS
  1
ACMDATADICTIONARY
  2
AcmDataDictionary
  3
"AcmSymBB|Product Description: AutoCAD Mechanical 2000|Company: Autodesk"
 90
        0
280
     0
281
     0
  0
CLASS
  1
ACMDATAENTRYBLOCK
  2
AcmDataEntryBlock
  3
"AcmSymBB|Product Description: AutoCAD Mechanical 2000|Company: Autodesk"
 90
        0
280
     0
281
     0
  0
CLASS
  1
AMGOBJPROPCFG
  2
AmgObjPropCfg
  3
"AmgLay|Product Description: AutoCAD Mechanical 2000|Company: Autodesk"
 90
        1
280
     0
281
     0
  0
CLASS
  1
ACAMGFILTERDAT
  2
AcAmgFilterDat
  3
"AcadM|Product Description: AutoCAD Mechanical 2000|Company: Autodesk"
 90
        0
280
     0
281
     0
  0
CLASS
  1
LAYER_INDEX
  2
AcDbLayerIndex
  3
AutoCAD 2000
 90
        0
280
     0
281
     0
  0
CLASS
  1
IDBUFFER
  2
AcDbIdBuffer
  3
AutoCAD 2000
 90
        0
280
     0
281
     0
  0
CLASS
  1
ACIMSTRSYSVAR
  2
AcImStrSysVar
  3
AcMeServices
 90
        0
280
     0
281
     0
  0
CLASS
  1
ACMSTANDARDJIS
  2
AcmStandardJIS
  3
"AcmSymBB|Product Description: AutoCAD Mechanical 2000|Company: Autodesk"
 90
        0
280
     0
281
     0
  0
CLASS
  1
ACMSURFSTANDARDJIS
  2
AcmSurfTextStdJIS
  3
"AcmSymBB|Product Description: AutoCAD Mechanical 2000|Company: Autodesk"
 90
        0
280
     0
281
     0
  0
CLASS
  1
ACMFCFSTANDARDJIS
  2
AcmFCFStdJIS
  3
"AcmSymBB|Product Description: AutoCAD Mechanical 2000|Company: Autodesk"
 90
        0
280
     0
281
     0
  0
CLASS
  1
ACMWELDSTANDARDJIS
  2
AcmWeldingStdJIS
  3
"AcmSymBB|Product Description: AutoCAD Mechanical 2000|Company: Autodesk"
 90
        0
280
     0
281
     0
  0
CLASS
  1
ACMIDSTANDARDJIS
  2
AcmIdStdJIS
  3
"AcmSymBB|Product Description: AutoCAD Mechanical 2000|Company: Autodesk"
 90
        0
280
     0
281
     0
  0
CLASS
  1
ACMDATUMSTANDARDJIS
  2
AcmDatumStdJIS
  3
"AcmSymBB|Product Description: AutoCAD Mechanical 2000|Company: Autodesk"
 90
        0
280
     0
281
     0
  0
CLASS
  1
ACMBOMSTANDARDJIS
  2
AcmBOMStdJIS
  3
"AcmSymBB|Product Description: AutoCAD Mechanical 2000|Company: Autodesk"
 90
        0
280
     0
281
     0
  0
CLASS
  1
ACMSTANDARDANSI
  2
AcmStandardANSI
  3
"AcmSymBB|Product Description: AutoCAD Mechanical 2000|Company: Autodesk"
 90
        0
280
     0
281
     0
  0
CLASS
  1
ACMSURFSTANDARDANSI
  2
AcmSurfTextStdANSI
  3
"AcmSymBB|Product Description: AutoCAD Mechanical 2000|Company: Autodesk"
 90
        0
280
     0
281
     0
  0
CLASS
  1
ACMFCFSTANDARDANSI
  2
AcmFCFStdANSI
  3
"AcmSymBB|Product Description: AutoCAD Mechanical 2000|Company: Autodesk"
 90
        0
280
     0
281
     0
  0
CLASS
  1
ACMWELDSTANDARDANSI
  2
AcmWeldingStdANSI
  3
"AcmSymBB|Product Description: AutoCAD Mechanical 2000|Company: Autodesk"
 90
        0
280
     0
281
     0
  0
CLASS
  1
ACMIDSTANDARDANSI
  2
AcmIdStdANSI
  3
"AcmSymBB|Product Description: AutoCAD Mechanical 2000|Company: Autodesk"
 90
        0
280
     0
281
     0
  0
CLASS
  1
ACMDATUMSTANDARDANSI
  2
AcmDatumStdANSI
  3
"AcmSymBB|Product Description: AutoCAD Mechanical 2000|Company: Autodesk"
 90
        0
280
     0
281
     0
  0
CLASS
  1
ACMBOMSTANDARDANSI
  2
AcmBOMStdANSI
  3
"AcmSymBB|Product Description: AutoCAD Mechanical 2000|Company: Autodesk"
 90
        0
280
     0
281
     0
  0
CLASS
  1
ACMSTANDARDBSI
  2
AcmStandardBSI
  3
"AcmSymBB|Product Description: AutoCAD Mechanical 2000|Company: Autodesk"
 90
        0
280
     0
281
     0
  0
CLASS
  1
ACMSURFSTANDARDBSI
  2
AcmSurfTextStdBSI
  3
"AcmSymBB|Product Description: AutoCAD Mechanical 2000|Company: Autodesk"
 90
        0
280
     0
281
     0
  0
CLASS
  1
ACMFCFSTANDARDBSI
  2
AcmFCFStdBSI
  3
"AcmSymBB|Product Description: AutoCAD Mechanical 2000|Company: Autodesk"
 90
        0
280
     0
281
     0
  0
CLASS
  1
ACMWELDSTANDARDBSI
  2
AcmWeldingStdBSI
  3
"AcmSymBB|Product Description: AutoCAD Mechanical 2000|Company: Autodesk"
 90
        0
280
     0
281
     0
  0
CLASS
  1
ACMIDSTANDARDBSI
  2
AcmIdStdBSI
  3
"AcmSymBB|Product Description: AutoCAD Mechanical 2000|Company: Autodesk"
 90
        0
280
     0
281
     0
  0
CLASS
  1
ACMDATUMSTANDARDBSI
  2
AcmDatumStdBSI
  3
"AcmSymBB|Product Description: AutoCAD Mechanical 2000|Company: Autodesk"
 90
        0
280
     0
281
     0
  0
CLASS
  1
ACMBOMSTANDARDBSI
  2
AcmBOMStdBSI
  3
"AcmSymBB|Product Description: AutoCAD Mechanical 2000|Company: Autodesk"
 90
        0
280
     0
281
     0
  0
CLASS
  1
LONG_TRANSACTION
  2
AcDbLongTransaction
  3
AutoCAD 2000
 90
        0
280
     0
281
     0
  0
CLASS
  1
LWPOLYLINE
  2
AcDbPolyline
  3
AutoCAD 2000
 90
        0
280
     0
281
     1
  0
CLASS
  1
HATCH
  2
AcDbHatch
  3
AutoCAD 2000
 90
        0
280
     0
281
     1
  0
CLASS
  1
XRECORD
  2
AcDbXrecord
  3
AutoCAD 2000
 90
        0
280
     0
281
     0
  0
ENDSEC
  0
SECTION
  2
TABLES
  0
TABLE
  2
VPORT
  5
8
330
0
100
AcDbSymbolTable
 70
     3
  0
VPORT
  5
51B3
330
8
100
AcDbSymbolTableRecord
100
AcDbViewportTableRecord
  2
*ACTIVE
 70
     0
 10
0.0
 20
0.0
 11
1.0
 21
1.0
 12
-59.61887966224421
 22
-16.96329544150258
 13
0.0
 23
0.0
 14
2.5
 24
2.5
 15
10.0
 25
10.0
 16
0.0
 26
0.0
 36
1.0
 17
0.0
 27
0.0
 37
0.0
 40
171.8554885895831
 41
1.56570841889117
 42
50.0
 43
0.0
 44
0.0
 50
0.0
 51
0.0
 71
     0
 72
   100
 73
     1
 74
     1
 75
     0
 76
     0
 77
     0
 78
     0
  0
ENDTAB
  0
TABLE
  2
LTYPE
  5
5
330
0
100
AcDbSymbolTable
 70
    10
  0
LTYPE
  5
14
330
5
100
AcDbSymbolTableRecord
100
AcDbLinetypeTableRecord
  2
BYBLOCK
 70
     0
  3

 72
    65
 73
     0
 40
0.0
  0
LTYPE
  5
15
330
5
100
AcDbSymbolTableRecord
100
AcDbLinetypeTableRecord
  2
BYLAYER
 70
     0
  3

 72
    65
 73
     0
 40
0.0
  0
LTYPE
  5
16
330
5
100
AcDbSymbolTableRecord
100
AcDbLinetypeTableRecord
  2
CONTINUOUS
 70
     0
  3
Solid line
 72
    65
 73
     0
 40
0.0
  0
LTYPE
  5
4B
330
5
100
AcDbSymbolTableRecord
100
AcDbLinetypeTableRecord
  2
AM_ISO02W050
 70
     0
  3
__ __ __ __ __ __ __ __ __ __ __ __ __ __ __
 72
    65
 73
     2
 40
7.5
 49
6.0
 74
     0
 49
-1.5
 74
     0
  0
LTYPE
  5
4C
330
5
100
AcDbSymbolTableRecord
100
AcDbLinetypeTableRecord
  2
AM_ISO08W050
 70
     0
  3
____ . ____ . ____ . ____ . ____ . ____ . ____
 72
    65
 73
     4
 40
18.0
 49
12.0
 74
     0
 49
-1.5
 74
     0
 49
3.0
 74
     0
 49
-1.5
 74
     0
  0
LTYPE
  5
4D
330
5
100
AcDbSymbolTableRecord
100
AcDbLinetypeTableRecord
  2
AM_ISO09W050
 70
     0
  3
_____ . . _____ . . _____ . . ____ .. ____
 72
    65
 73
     6
 40
22.5
 49
12.0
 74
     0
 49
-1.5
 74
     0
 49
3.0
 74
     0
 49
-1.5
 74
     0
 49
3.0
 74
     0
 49
-1.5
 74
     0
  0
LTYPE
  5
4E
330
5
100
AcDbSymbolTableRecord
100
AcDbLinetypeTableRecord
  2
AMCONSTR
 70
     0
  3
_______________________
 72
    65
 73
     2
 40
9999.0
 49
9999.0
 74
     0
 49
0.0
 74
     0
  0
LTYPE
  5
4F
330
5
100
AcDbSymbolTableRecord
100
AcDbLinetypeTableRecord
  2
AM_ISO02W050X2
 70
     0
  3
 _ _ _ _ _ _ _ _ _ _ _ _
 72
    65
 73
     2
 40
3.75
 49
3.0
 74
     0
 49
-0.75
 74
     0
  0
LTYPE
  5
50
330
5
100
AcDbSymbolTableRecord
100
AcDbLinetypeTableRecord
  2
AM_ISO08W050X2
 70
     0
  3
__ . __ . __ . __ . __ . __
 72
    65
 73
     4
 40
9.0
 49
6.0
 74
     0
 49
-0.75
 74
     0
 49
1.5
 74
     0
 49
-0.75
 74
     0
  0
LTYPE
  5
53
330
5
100
AcDbSymbolTableRecord
100
AcDbLinetypeTableRecord
  2
AMZIGZAG
 70
     0
  3
/\/-/\/-/\/-/\/-/\/-/\/
 72
    65
 73
     2
 40
11.00009999999999
 49
0.0001
 74
     4
 75
   135
340
52
 46
0.04
 50
0.0
 44
0.0
 45
0.0
 49
-11.0
 74
     0
  0
LTYPE
  5
166
330
5
100
AcDbSymbolTableRecord
100
AcDbLinetypeTableRecord
  2
ACJISTGL
 70
     0
  3
_ _ _ _ _
 72
    65
 73
     2
 40
3.0
 49
2.0
 74
     0
 49
-1.0
 74
     0
  0
LTYPE
  5
26A
330
5
100
AcDbSymbolTableRecord
100
AcDbLinetypeTableRecord
  2
ACJISTGB
 70
     0
  3
__ . . __ . .
 72
    65
 73
     6
 40
9.0
 49
4.0
 74
     0
 49
-1.0
 74
     0
 49
1.0
 74
     0
 49
-1.0
 74
     0
 49
1.0
 74
     0
 49
-1.0
 74
     0
  0
ENDTAB
  0
TABLE
  2
LAYER
  5
2
330
0
100
AcDbSymbolTable
 70
    11
  0
LAYER
  5
10
330
2
100
AcDbSymbolTableRecord
100
AcDbLayerTableRecord
  2
0
 70
     0
 62
     7
  6
CONTINUOUS
  0
LAYER
  5
3F9
330
2
100
AcDbSymbolTableRecord
100
AcDbLayerTableRecord
  2
AM_0
 70
     0
 62
     7
  6
CONTINUOUS
  0
LAYER
  5
BA4
330
2
100
AcDbSymbolTableRecord
100
AcDbLayerTableRecord
  2
PV0001_1
 70
     0
 62
     7
  6
CONTINUOUS
  0
LAYER
  5
C6C
330
2
100
AcDbSymbolTableRecord
100
AcDbLayerTableRecord
  2
AM_CL
 70
     0
 62
     1
  6
AMCONSTR
  0
LAYER
  5
C7C
330
2
100
AcDbSymbolTableRecord
100
AcDbLayerTableRecord
  2
AM_7
 70
     0
 62
     4
  6
AM_ISO08W050
  0
LAYER
  5
C97
330
2
100
AcDbSymbolTableRecord
100
AcDbLayerTableRecord
  2
AM_11
 70
     0
 62
     3
  6
AM_ISO09W050
  0
LAYER
  5
CC5
330
2
100
AcDbSymbolTableRecord
100
AcDbLayerTableRecord
  2
AM_5
 70
     0
 62
     3
  6
CONTINUOUS
  0
LAYER
  5
CC7
330
2
100
AcDbSymbolTableRecord
100
AcDbLayerTableRecord
  2
DEFPOINTS
 70
     0
 62
     7
  6
CONTINUOUS
  0
LAYER
  5
19BC
330
2
100
AcDbSymbolTableRecord
100
AcDbLayerTableRecord
  2
AM_6
 70
     0
 62
     2
  6
CONTINUOUS
  0
LAYER
  5
1F8E
330
2
100
AcDbSymbolTableRecord
100
AcDbLayerTableRecord
  2
AM_4
 70
     0
 62
     3
  6
CONTINUOUS
  0
LAYER
  5
3588
330
2
100
AcDbSymbolTableRecord
100
AcDbLayerTableRecord
  2
AM_3
 70
     0
 62
     6
  6
ACJISTGL
  0
ENDTAB
  0
TABLE
  2
STYLE
  5
3
330
0
100
AcDbSymbolTable
 70
     5
  0
STYLE
  5
11
330
3
100
AcDbSymbolTableRecord
100
AcDbTextStyleTableRecord
  2
STANDARD
 70
     0
 40
0.0
 41
1.0
 50
0.0
 71
     0
 42
2.5
  3
simplex.shx
  4
EXTFONT.SHX
  0
STYLE
  5
52
330
3
100
AcDbSymbolTableRecord
100
AcDbTextStyleTableRecord
  2

 70
     1
 40
0.0
 41
1.0
 50
0.0
 71
     0
 42
2.5
  3
ltypeshp.shx
  4

  0
STYLE
  5
6B
330
3
100
AcDbSymbolTableRecord
100
AcDbTextStyleTableRecord
  2
ASAMI
 70
     0
 40
0.0
 41
1.0
 50
0.0
 71
     0
 42
2.5
  3
simplex.shx
  4
EXTFONT.SHX
  0
STYLE
  5
262
330
3
100
AcDbSymbolTableRecord
100
AcDbTextStyleTableRecord
  2
ACJISTS
 70
     0
 40
1.0
 41
1.0
 50
0.0
 71
     0
 42
2.5
  3
simplex.shx
  4
bigfont.shx
  0
STYLE
  5
269
330
3
100
AcDbSymbolTableRecord
100
AcDbTextStyleTableRecord
  2
ACJISGDT
 70
     0
 40
0.0
 41
1.0
 50
0.0
 71
     0
 42
2.5
  3
amgdtans.shx
  4

  0
ENDTAB
  0
TABLE
  2
VIEW
  5
6
330
0
100
AcDbSymbolTable
 70
     0
  0
ENDTAB
  0
TABLE
  2
UCS
  5
7
330
0
100
AcDbSymbolTable
 70
     0
  0
ENDTAB
  0
TABLE
  2
APPID
  5
9
330
0
100
AcDbSymbolTable
 70
    14
  0
APPID
  5
12
330
9
100
AcDbSymbolTableRecord
100
AcDbRegAppTableRecord
  2
ACAD
 70
     0
  0
APPID
  5
30
330
9
100
AcDbSymbolTableRecord
100
AcDbRegAppTableRecord
  2
MCAD_NO_VIS
 70
     0
  0
APPID
  5
31
330
9
100
AcDbSymbolTableRecord
100
AcDbRegAppTableRecord
  2
ACAD_TEMP_GRAPHIC
 70
     0
  0
APPID
  5
2C2
330
9
100
AcDbSymbolTableRecord
100
AcDbRegAppTableRecord
  2
GENIUS_GENDTOL_13
 70
     0
  0
APPID
  5
339
330
9
100
AcDbSymbolTableRecord
100
AcDbRegAppTableRecord
  2
GENIUS_GENODEF_13
 70
     0
  0
APPID
  5
33A
330
9
100
AcDbSymbolTableRecord
100
AcDbRegAppTableRecord
  2
GENIUS_GENOBJ-N-RSBK_13
 70
     0
  0
APPID
  5
33B
330
9
100
AcDbSymbolTableRecord
100
AcDbRegAppTableRecord
  2
GENIUS_GENOBJ-N-LIB_13
 70
     0
  0
APPID
  5
33C
330
9
100
AcDbSymbolTableRecord
100
AcDbRegAppTableRecord
  2
GENIUS_GENSCALE_13
 70
     0
  0
APPID
  5
378
330
9
100
AcDbSymbolTableRecord
100
AcDbRegAppTableRecord
  2
GENIUS_GENDIMSH_14
 70
     0
  0
APPID
  5
C82
330
9
100
AcDbSymbolTableRecord
100
AcDbRegAppTableRecord
  2
GENIUS_GENOBJ-N-CRS_13
 70
     0
  0
APPID
  5
C83
330
9
100
AcDbSymbolTableRecord
100
AcDbRegAppTableRecord
  2
GENIUS_GENOENT_13
 70
     0
  0
APPID
  5
C84
330
9
100
AcDbSymbolTableRecord
100
AcDbRegAppTableRecord
  2
GENIUS_GENOREF_13
 70
     0
  0
APPID
  5
C85
330
9
100
AcDbSymbolTableRecord
100
AcDbRegAppTableRecord
  2
GENIUS_GENOLIS_13
 70
     0
  0
APPID
  5
CA0
330
9
100
AcDbSymbolTableRecord
100
AcDbRegAppTableRecord
  2
GENIUS_GENOBJ-N-CEN_13
 70
     0
  0
ENDTAB
  0
TABLE
  2
DIMSTYLE
  5
A
330
0
100
AcDbSymbolTable
 70
    10
  0
DIMSTYLE
105
58
330
A
100
AcDbSymbolTableRecord
100
AcDbDimStyleTableRecord
  2
AM_JIS
 70
     0
  3

  4
"
  5
OPEN30
  6

  7

 40
1.0
 41
2.5
 42
1.0
 43
12.0
 44
1.0
 45
0.0
 46
0.0
 47
0.1
 48
0.1
140
3.2
141
0.0
142
0.0
143
0.0393701
144
1.0
145
0.0
146
0.71
147
1.5
 71
     0
 72
     0
 73
     0
 74
     0
 75
     0
 76
     0
 77
     3
 78
     8
170
     0
171
     2
172
     1
173
     0
174
     0
175
     0
176
   256
177
   256
178
     2
270
     2
271
     3
272
     3
273
     2
274
     2
340
6B
275
     0
280
     0
281
     0
282
     0
283
     0
284
     0
285
     0
286
     0
287
     3
288
     0
  0
DIMSTYLE
105
5F
330
A
100
AcDbSymbolTableRecord
100
AcDbDimStyleTableRecord
  2
AM_JIS$3
 70
     0
  3

  4
"
  5
OPEN30
  6

  7

 40
1.0
 41
2.5
 42
1.0
 43
10.0
 44
1.0
 45
0.0
 46
0.0
 47
0.1
 48
0.1
140
3.2
141
0.0
142
0.0
143
0.0393701
144
1.0
145
0.0
146
0.71
147
1.5
 71
     0
 72
     0
 73
     0
 74
     1
 75
     0
 76
     0
 77
     3
 78
     8
170
     0
171
     2
172
     0
173
     0
174
     0
175
     0
176
   256
177
   256
178
     2
270
     2
271
     2
272
     3
273
     2
274
     2
340
6B
275
     0
280
     0
281
     0
282
     0
283
     0
284
     0
285
     0
286
     0
287
     0
288
     1
  0
DIMSTYLE
105
60
330
A
100
AcDbSymbolTableRecord
100
AcDbDimStyleTableRecord
  2
AM_JIS$4
 70
     0
  3

  4
"
  5
OPEN30
  6

  7

 40
1.0
 41
2.5
 42
1.0
 43
10.0
 44
1.0
 45
0.0
 46
0.0
 47
0.1
 48
0.1
140
3.2
141
0.0
142
0.0
143
0.0393701
144
1.0
145
0.0
146
0.71
147
1.5
 71
     0
 72
     0
 73
     0
 74
     1
 75
     0
 76
     0
 77
     3
 78
     8
170
     0
171
     2
172
     0
173
     0
174
     0
175
     0
176
   256
177
   256
178
     2
270
     2
271
     2
272
     3
273
     2
274
     2
340
6B
275
     0
280
     0
281
     0
282
     0
283
     0
284
     0
285
     0
286
     0
287
     0
288
     1
  0
DIMSTYLE
105
61
330
A
100
AcDbSymbolTableRecord
100
AcDbDimStyleTableRecord
  2
AM_JIS$6
 70
     0
  3

  4
"
  5
OPEN30
  6

  7

 40
1.0
 41
2.5
 42
1.0
 43
10.0
 44
1.0
 45
0.0
 46
0.0
 47
0.1
 48
0.1
140
3.2
141
0.0
142
0.0
143
0.0393701
144
1.0
145
0.0
146
0.71
147
1.5
 71
     0
 72
     0
 73
     0
 74
     0
 75
     0
 76
     0
 77
     0
 78
     8
170
     0
171
     2
172
     1
173
     0
174
     0
175
     0
176
   256
177
   256
178
     2
270
     2
271
     2
272
     2
273
     2
274
     2
340
6B
275
     0
280
     0
281
     0
282
     0
283
     0
284
     0
285
     0
286
     0
287
     3
288
     0
  0
DIMSTYLE
105
62
330
A
100
AcDbSymbolTableRecord
100
AcDbDimStyleTableRecord
  2
AM_JIS$7
 70
     0
  3

  4
"
  5
OPEN30
  6

  7

 40
1.0
 41
2.5
 42
1.0
 43
10.0
 44
1.0
 45
0.0
 46
0.0
 47
0.1
 48
0.1
140
3.2
141
0.0
142
0.0
143
0.0393701
144
1.0
145
0.0
146
0.71
147
1.5
 71
     0
 72
     0
 73
     0
 74
     0
 75
     0
 76
     0
 77
     3
 78
     8
170
     0
171
     2
172
     1
173
     0
174
     0
175
     0
176
   256
177
   256
178
     2
270
     2
271
     2
272
     3
273
     2
274
     2
340
6B
275
     0
280
     0
281
     0
282
     0
283
     0
284
     0
285
     0
286
     0
287
     3
288
     0
  0
DIMSTYLE
105
63
330
A
100
AcDbSymbolTableRecord
100
AcDbDimStyleTableRecord
  2
AM_JIS$SF
 70
     0
  3

  4
"
  5
OPEN30
  6

  7

 40
1.0
 41
2.5
 42
1.0
 43
10.0
 44
1.0
 45
0.0
 46
0.0
 47
0.1
 48
0.1
140
3.2
141
0.0
142
0.0
143
0.0393701
144
1.0
145
0.0
146
0.71
147
1.5
 71
     0
 72
     0
 73
     0
 74
     0
 75
     1
 76
     1
 77
     3
 78
     8
170
     0
171
     2
172
     1
173
     0
174
     0
175
     0
176
   256
177
   256
178
     2
270
     2
271
     2
272
     2
273
     2
274
     2
340
6B
275
     0
280
     0
281
     0
282
     0
283
     0
284
     0
285
     0
286
     0
287
     3
288
     0
  0
DIMSTYLE
105
68
330
A
100
AcDbSymbolTableRecord
100
AcDbDimStyleTableRecord
  2
AM_JIS$SH
 70
     0
  3

  4
"
  5

  6
GENAXEH
  7
OPEN30
 40
1.0
 41
2.5
 42
1.0
 43
10.0
 44
1.0
 45
0.0
 46
0.0
 47
0.1
 48
0.1
140
3.2
141
0.0
142
0.0
143
0.0393701
144
2.0
145
0.0
146
0.71
147
1.5
 71
     0
 72
     0
 73
     0
 74
     0
 75
     1
 76
     1
 77
     3
 78
     8
170
     0
171
     2
172
     1
173
     1
174
     0
175
     0
176
   256
177
   256
178
     2
270
     2
271
     2
272
     2
273
     2
274
     2
340
6B
275
     0
280
     0
281
     0
282
     0
283
     0
284
     0
285
     0
286
     0
287
     3
288
     0
  0
DIMSTYLE
105
B34
102
{ACAD_REACTORS
330
4E35
102
}
330
A
100
AcDbSymbolTableRecord
100
AcDbDimStyleTableRecord
  2
AM_JIS$2
 70
     0
  3

  4
"
  5
OPEN30
  6

  7

 40
1.0
 41
2.5
 42
1.0
 43
12.0
 44
1.0
 45
0.0
 46
0.0
 47
0.1
 48
0.1
140
3.2
141
0.0
142
0.0
143
0.0393701
144
1.0
145
0.0
146
0.71
147
1.5
 71
     0
 72
     0
 73
     0
 74
     0
 75
     0
 76
     0
 77
     3
 78
     8
170
     0
171
     2
172
     1
173
     0
174
     0
175
     0
176
   256
177
   256
178
     2
270
     2
271
     3
272
     3
273
     2
274
     2
340
6B
275
     0
280
     0
281
     0
282
     0
283
     0
284
     0
285
     0
286
     0
287
     3
288
     0
  0
DIMSTYLE
105
BA5
102
{ACAD_REACTORS
330
4E34
330
4E55
330
4F59
330
4F6A
330
4F69
330
4F5B
330
4F5A
330
503D
102
}
330
A
100
AcDbSymbolTableRecord
100
AcDbDimStyleTableRecord
  2
AM_JIS$0
 70
     0
  3

  4
"
  5
OPEN30
  6

  7

 40
1.0
 41
2.5
 42
0.8
 43
10.0
 44
1.0
 45
0.0
 46
0.0
 47
0.1
 48
0.1000000001
140
3.799999999999999
141
0.0
142
0.0
143
0.0393701
144
1.0
145
0.0
146
0.71
147
1.5
 71
     0
 72
     0
 73
     0
 74
     0
 75
     0
 76
     0
 77
     3
 78
     9
170
     0
171
     2
172
     1
173
     0
174
     0
175
     0
176
     3
177
     3
178
     2
270
     2
271
     2
272
     2
273
     2
274
     2
340
11
275
     1
280
     0
281
     0
282
     0
283
     0
284
     8
285
     0
286
     0
287
     0
288
     0
  0
DIMSTYLE
105
BA6
330
A
100
AcDbSymbolTableRecord
100
AcDbDimStyleTableRecord
  2
AM_JISORG-1P0$2
 70
     0
  3

  4
"
  5
OPEN30
  6

  7

 40
1.0
 41
2.5
 42
0.0
 43
10.0
 44
1.0
 45
0.0
 46
0.0
 47
0.1
 48
0.1000000001
140
3.799999999999999
141
0.0
142
0.0
143
0.0393701
144
-0.999999980146674
145
0.0
146
0.71
147
1.5
 71
     0
 72
     0
 73
     0
 74
     0
 75
     0
 76
     0
 77
     3
 78
     1
170
     0
171
     2
172
     1
173
     0
174
     0
175
     0
176
     3
177
     3
178
     2
270
     2
271
     2
272
     2
273
     2
274
     2
340
11
275
     1
280
     0
281
     0
282
     0
283
     0
284
     8
285
     0
286
     0
287
     0
288
     0
  0
ENDTAB
  0
TABLE
  2
BLOCK_RECORD
  5
1
330
0
100
AcDbSymbolTable
 70
    18
  0
BLOCK_RECORD
  5
1F
102
{ACAD_XDICTIONARY
360
74
102
}
330
1
100
AcDbSymbolTableRecord
100
AcDbBlockTableRecord
  2
*MODEL_SPACE
  0
BLOCK_RECORD
  5
101
102
{ACAD_XDICTIONARY
360
51DC
102
}
330
1
100
AcDbSymbolTableRecord
100
AcDbBlockTableRecord
  2
*PAPER_SPACE
  0
BLOCK_RECORD
  5
59
330
1
100
AcDbSymbolTableRecord
100
AcDbBlockTableRecord
  2
_OPEN30
  0
BLOCK_RECORD
  5
64
330
1
100
AcDbSymbolTableRecord
100
AcDbBlockTableRecord
  2
GENAXEH
  0
BLOCK_RECORD
  5
C31
330
1
100
AcDbSymbolTableRecord
100
AcDbBlockTableRecord
  2
A$C36D02A34
  0
BLOCK_RECORD
  5
2453
330
1
100
AcDbSymbolTableRecord
100
AcDbBlockTableRecord
  2
*D6
  0
BLOCK_RECORD
  5
245F
330
1
100
AcDbSymbolTableRecord
100
AcDbBlockTableRecord
  2
A$C4FFC6CC0
  0
BLOCK_RECORD
  5
4E8F
330
1
100
AcDbSymbolTableRecord
100
AcDbBlockTableRecord
  2
*D8
  0
BLOCK_RECORD
  5
4E9B
330
1
100
AcDbSymbolTableRecord
100
AcDbBlockTableRecord
  2
*D9
  0
BLOCK_RECORD
  5
4EB5
330
1
100
AcDbSymbolTableRecord
100
AcDbBlockTableRecord
  2
*D10
  0
BLOCK_RECORD
  5
4F6B
330
1
100
AcDbSymbolTableRecord
100
AcDbBlockTableRecord
  2
*D11
  0
BLOCK_RECORD
  5
4F77
330
1
100
AcDbSymbolTableRecord
100
AcDbBlockTableRecord
  2
*D12
  0
BLOCK_RECORD
  5
4F83
330
1
100
AcDbSymbolTableRecord
100
AcDbBlockTableRecord
  2
*D13
  0
BLOCK_RECORD
  5
4F8F
330
1
100
AcDbSymbolTableRecord
100
AcDbBlockTableRecord
  2
*D14
  0
BLOCK_RECORD
  5
4F9D
330
1
100
AcDbSymbolTableRecord
100
AcDbBlockTableRecord
  2
*D15
  0
BLOCK_RECORD
  5
503E
330
1
100
AcDbSymbolTableRecord
100
AcDbBlockTableRecord
  2
*D16
  0
ENDTAB
  0
ENDSEC
  0
SECTION
  2
BLOCKS
  0
BLOCK
  5
20
330
1F
100
AcDbEntity
  8
0
100
AcDbBlockBegin
  2
*MODEL_SPACE
 70
     0
 10
0.0
 20
0.0
 30
0.0
  3
*MODEL_SPACE
  1

  0
ENDBLK
  5
21
330
1F
100
AcDbEntity
  8
0
100
AcDbBlockEnd
  0
BLOCK
  5
103
330
101
100
AcDbEntity
 67
     1
  8
0
100
AcDbBlockBegin
  2
*PAPER_SPACE
 70
     0
 10
0.0
 20
0.0
 30
0.0
  3
*PAPER_SPACE
  1

  0
ENDBLK
  5
104
330
101
100
AcDbEntity
 67
     1
  8
0
100
AcDbBlockEnd
  0
BLOCK
  5
5D
330
59
100
AcDbEntity
  8
0
100
AcDbBlockBegin
  2
_OPEN30
 70
     0
 10
0.0
 20
0.0
 30
0.0
  3
_OPEN30
  1

  0
LINE
  5
5A
330
59
100
AcDbEntity
  8
0
 62
     0
100
AcDbLine
 10
-1.0
 20
0.26794919
 30
0.0
 11
0.0
 21
0.0
 31
0.0
  0
LINE
  5
5B
330
59
100
AcDbEntity
  8
0
 62
     0
100
AcDbLine
 10
0.0
 20
0.0
 30
0.0
 11
-1.0
 21
-0.26794919
 31
0.0
  0
LINE
  5
5C
330
59
100
AcDbEntity
  8
0
 62
     0
100
AcDbLine
 10
0.0
 20
0.0
 30
0.0
 11
-1.0
 21
0.0
 31
0.0
  0
ENDBLK
  5
5E
330
59
100
AcDbEntity
  8
0
100
AcDbBlockEnd
  0
BLOCK
  5
66
330
64
100
AcDbEntity
  8
0
100
AcDbBlockBegin
  2
GENAXEH
 70
     0
 10
0.0
 20
0.0
 30
0.0
  3
GENAXEH
  1

  0
LINE
  5
65
330
64
100
AcDbEntity
  8
0
100
AcDbLine
 10
-1.0
 20
0.0
 30
0.0
 11
1.0
 21
0.0
 31
0.0
  0
ENDBLK
  5
67
330
64
100
AcDbEntity
  8
0
100
AcDbBlockEnd
  0
BLOCK
  5
C4B
330
C31
100
AcDbEntity
  8
0
100
AcDbBlockBegin
  2
A$C36D02A34
 70
     0
 10
0.0
 20
0.0
 30
0.0
  3
A$C36D02A34
  1

  0
ARC
  5
C32
330
C31
100
AcDbEntity
  8
PV0001_1
  6
CONTINUOUS
 48
0.5
100
AcDbCircle
 10
18.06811523436999
 20
-11.83651161193799
 30
0.0
 40
21.600000381469
100
AcDbArc
 50
123.2290435713209
 51
126.6341524197568
  0
ARC
  5
C33
330
C31
100
AcDbEntity
  8
PV0001_1
  6
CONTINUOUS
 48
0.5
100
AcDbCircle
 10
18.06811523436999
 20
-11.83651161193799
 30
0.0
 40
21.600000381469
100
AcDbArc
 50
135.0736707620117
 51
146.7709980930592
  0
ARC
  5
C34
330
C31
100
AcDbEntity
  8
PV0001_1
  6
CONTINUOUS
 48
0.5
100
AcDbCircle
 10
-18.0680770874
 20
11.8365631103514
 30
0.0
 40
21.600000381469
100
AcDbArc
 50
315.0734847530392
 51
326.770781348241
  0
ARC
  5
C35
330
C31
100
AcDbEntity
  8
PV0001_1
  6
CONTINUOUS
 48
0.5
100
AcDbCircle
 10
-18.0680770874
 20
11.8365631103514
 30
0.0
 40
21.600000381469
100
AcDbArc
 50
303.2288882981993
 51
306.633986901359
  0
ARC
  5
C36
330
C31
100
AcDbEntity
  8
PV0001_1
  6
CONTINUOUS
 48
0.5
100
AcDbCircle
 10
-0.6269836425800009
 20
-2.044216156005997
 30
0.0
 40
2.0
100
AcDbArc
 50
337.4067997351092
 51
43.42231293132884
  0
ARC
  5
C37
330
C31
100
AcDbEntity
  8
PV0001_1
  6
CONTINUOUS
 48
0.5
100
AcDbCircle
 10
0.626953125
 20
2.044223785401001
 30
0.0
 40
2.0
100
AcDbArc
 50
157.4068184044407
 51
223.4222769591536
  0
CIRCLE
  5
C38
330
C31
100
AcDbEntity
  8
PV0001_1
  6
CONTINUOUS
 48
0.5
100
AcDbCircle
 10
3.856727600100001
 20
4.596265792847002
 30
0.0
 40
1.6000000238419
  0
CIRCLE
  5
C39
330
C31
100
AcDbEntity
  8
PV0001_1
  6
CONTINUOUS
 48
0.5
100
AcDbCircle
 10
-3.856727600100001
 20
-4.596265792845997
 30
0.0
 40
1.6000000238419
  0
ARC
  5
C3A
330
C31
100
AcDbEntity
  8
PV0001_1
  6
CONTINUOUS
 48
0.5
100
AcDbCircle
 10
-5.58123779297
 20
5.092639923096001
 30
0.0
 40
5.019082546234099
100
AcDbArc
 50
240.2658959250867
 51
321.5156269706421
  0
ARC
  5
C3B
330
C31
100
AcDbEntity
  8
PV0001_1
  6
CONTINUOUS
 48
0.5
100
AcDbCircle
 10
5.486755371089998
 20
-4.601703643798998
 30
0.0
 40
4.651036739349399
100
AcDbArc
 50
56.25271400417071
 51
145.528859890601
  0
ARC
  5
C3C
330
C31
100
AcDbEntity
  8
PV0001_1
  6
CONTINUOUS
 48
0.5
100
AcDbCircle
 10
-2.11590576172
 20
-3.453323364257997
 30
0.0
 40
4.050000190734899
100
AcDbArc
 50
43.42230610113921
 51
58.50391703385149
  0
ARC
  5
C3D
330
C31
100
AcDbEntity
  8
PV0001_1
  6
CONTINUOUS
 48
0.5
100
AcDbCircle
 10
2.115875244139999
 20
3.453330993653001
 30
0.0
 40
4.050000190734899
100
AcDbArc
 50
223.4222942619974
 51
238.5038164022482
  0
ARC
  5
C3E
330
C31
100
AcDbEntity
  8
PV0001_1
  6
CONTINUOUS
 48
0.5
100
AcDbCircle
 10
-6.70369720459
 20
5.094657897949002
 30
0.0
 40
5.940000057220499
100
AcDbArc
 50
328.2536768887549
 51
31.74641873389623
  0
ARC
  5
C3F
330
C31
100
AcDbEntity
  8
PV0001_1
  6
CONTINUOUS
 48
0.5
100
AcDbCircle
 10
6.703674316410001
 20
-5.094650268553998
 30
0.0
 40
5.940000057220499
100
AcDbArc
 50
148.2533403882529
 51
211.7466423089037
  0
ARC
  5
C40
330
C31
100
AcDbEntity
  8
PV0001_1
  6
CONTINUOUS
 48
0.5
100
AcDbCircle
 10
0.0
 20
0.0
 30
0.0
 40
8.812800407409699
100
AcDbArc
 50
175.2198288164333
 51
272.8622597568298
  0
ARC
  5
C41
330
C31
100
AcDbEntity
  8
PV0001_1
  6
CONTINUOUS
 48
0.5
100
AcDbCircle
 10
0.0
 20
0.0
 30
0.0
 40
9.1800003051758
100
AcDbArc
 50
272.7511362215027
 51
280.3697477877874
  0
ARC
  5
C42
330
C31
100
AcDbEntity
  8
PV0001_1
  6
CONTINUOUS
 48
0.5
100
AcDbCircle
 10
0.0
 20
0.0
 30
0.0
 40
8.812800407409699
100
AcDbArc
 50
355.2198199654955
 51
92.86229572901076
  0
ARC
  5
C43
330
C31
100
AcDbEntity
  8
PV0001_1
  6
CONTINUOUS
 48
0.5
100
AcDbCircle
 10
0.0
 20
0.0
 30
0.0
 40
9.1800003051758
100
AcDbArc
 50
92.75115489083434
 51
100.3697664571193
  0
CIRCLE
  5
C44
330
C31
100
AcDbEntity
  8
PV0001_1
  6
CONTINUOUS
100
AcDbCircle
 10
0.0
 20
0.0
 30
0.0
 40
9.1800003051758
  0
LINE
  5
C45
330
C31
100
AcDbEntity
  8
PV0001_1
  6
CONTINUOUS
 48
0.5
100
AcDbLine
 10
-1.652404785160001
 20
9.030059814453
 30
0.0
 11
-1.652404785160001
 21
8.220062255860002
 31
0.0
  0
LINE
  5
C46
330
C31
100
AcDbEntity
  8
PV0001_1
  6
CONTINUOUS
 48
0.5
100
AcDbLine
 10
1.652404785160001
 20
-8.220058441161999
 30
0.0
 11
1.652404785160001
 21
-9.030055999755997
 31
0.0
  0
LINE
  5
C47
330
C31
100
AcDbEntity
  8
PV0001_1
  6
CONTINUOUS
 48
0.5
100
AcDbLine
 10
-8.78217315674
 20
0.7343807220460015
 30
0.0
 11
-8.070594787600001
 21
0.7343997955320028
 31
0.0
  0
LINE
  5
C48
330
C31
100
AcDbEntity
  8
PV0001_1
  6
CONTINUOUS
 48
0.5
100
AcDbLine
 10
8.07057952881
 20
-0.7343864440919994
 30
0.0
 11
8.78215789795
 21
-0.7343654632569994
 31
0.0
  0
LINE
  5
C49
330
C31
100
AcDbEntity
  8
PV0001_1
  6
CONTINUOUS
 48
0.5
100
AcDbLine
 10
0.4406127929700006
 20
-9.169414520263
 30
0.0
 11
0.4406127929700006
 21
-8.812801361083998
 31
0.0
  0
LINE
  5
C4A
330
C31
100
AcDbEntity
  8
PV0001_1
  6
CONTINUOUS
 48
0.5
100
AcDbLine
 10
-0.4406127929700006
 20
9.169418334961001
 30
0.0
 11
-0.4406127929700006
 21
8.812805175781001
 31
0.0
  0
ENDBLK
  5
C4C
330
C31
100
AcDbEntity
  8
0
100
AcDbBlockEnd
  0
BLOCK
  5
245D
330
2453
100
AcDbEntity
  8
0
100
AcDbBlockBegin
  2
*D6
 70
     1
 10
0.0
 20
0.0
 30
0.0
  3
*D6
  1

  0
LINE
  5
2454
330
2453
100
AcDbEntity
  8
AM_5
 62
     3
100
AcDbLine
 10
-137.574381722344
 20
-5.00000294019065
 30
0.0
 11
-152.8199008769066
 21
-5.000002940190694
 31
0.0
  0
LINE
  5
2455
330
2453
100
AcDbEntity
  8
AM_5
 62
     3
100
AcDbLine
 10
-137.5743817223442
 20
5.00002461040103
 30
0.0
 11
-152.8199008769066
 21
5.000024610400987
 31
0.0
  0
LINE
  5
2456
330
2453
100
AcDbEntity
  8
AM_5
 62
     3
100
AcDbLine
 10
-151.8199008769066
 20
-2.500002940190691
 30
0.0
 11
-151.8199008769066
 21
2.50002461040099
 31
0.0
  0
INSERT
  5
2457
330
2453
100
AcDbEntity
  8
AM_5
 62
     3
100
AcDbBlockReference
  2
_OPEN30
 10
-151.8199008769066
 20
-5.00000294019069
 30
0.0
 41
2.5
 42
2.5
 43
2.5
 50
270.0000000000001
  0
INSERT
  5
2458
330
2453
100
AcDbEntity
  8
AM_5
 62
     3
100
AcDbBlockReference
  2
_OPEN30
 10
-151.8199008769066
 20
5.00002461040099
 30
0.0
 41
2.5
 42
2.5
 43
2.5
 50
90.00000000000015
  0
MTEXT
  5
2459
330
2453
100
AcDbEntity
  8
AM_5
 62
     2
100
AcDbMText
 10
-155.2199008769066
 20
0.000010835105146
 30
0.0
 40
3.799999999999999
 41
0.0
 71
     5
 72
     1
  1
%%c10
 11
-0.0000000000000028
 21
1.0
 31
0.0
1001
ACAD
1000
MTEXTBEGIN
1070
    73
1070
     1
1070
    44
1040
1.0
1070
    74
1070
     0
1000
MTEXTEND
  0
POINT
  5
245A
330
2453
100
AcDbEntity
  8
DEFPOINTS
 62
     0
100
AcDbPoint
 10
-137.5743817223441
 20
-5.000002940190223
 30
0.0
  0
POINT
  5
245B
330
2453
100
AcDbEntity
  8
DEFPOINTS
 62
     0
100
AcDbPoint
 10
-137.5743817223441
 20
5.000024610401458
 30
0.0
  0
POINT
  5
245C
330
2453
100
AcDbEntity
  8
DEFPOINTS
 62
     0
100
AcDbPoint
 10
-151.8199008769066
 20
5.000024610401462
 30
0.0
  0
ENDBLK
  5
245E
330
2453
100
AcDbEntity
  8
0
100
AcDbBlockEnd
  0
BLOCK
  5
246B
330
245F
100
AcDbEntity
  8
0
100
AcDbBlockBegin
  2
A$C4FFC6CC0
 70
     0
 10
0.0
 20
0.0
 30
0.0
  3
A$C4FFC6CC0
  1

  0
DIMENSION
  5
2460
330
245F
100
AcDbEntity
  8
AM_5
100
AcDbDimension
  2
*D6
 10
-70.00000100000002
 20
5.000008477104842
 30
0.0
 11
-70.00000100000002
 21
-0.0000052981910228
 31
0.0
 12
81.81989987690661
 22
-0.0000161332966199
 32
0.0
 70
   128
  1
%%c<>
 51
359.9999999999998
  3
AM_JIS$0
100
AcDbAlignedDimension
 13
-55.75448184543748
 23
-5.000019073486843
 33
0.0
 14
-55.75448184543756
 24
5.000008477104838
 34
0.0
 50
270.0
100
AcDbRotatedDimension
1001
ACAD
1000
DSTYLE
1002
{
1070
   271
1070
     0
1002
}
1001
GENIUS_GENDTOL_13
1000

1000
h7
1000

1040
0.0
  0
LINE
  5
2461
330
245F
100
AcDbEntity
  8
AM_0
 48
0.5
100
AcDbLine
 10
-56.0
 20
-4.754495620727796
 30
0.0
 11
-56.00000000000003
 21
4.754485024345811
 31
0.0
  0
LINE
  5
2462
330
245F
100
AcDbEntity
  8
AM_0
 48
0.5
100
AcDbLine
 10
-55.75448184543751
 20
-5.000019073486843
 30
0.0
 11
-55.75448184543754
 21
5.000008477104838
 31
0.0
  0
LINE
  5
2463
330
245F
100
AcDbEntity
  8
AM_0
100
AcDbLine
 10
-0.0000000000000142
 20
4.999995231627903
 30
0.0
 11
-55.75448184543754
 21
4.999995231627746
 31
0.0
  0
LINE
  5
2464
330
245F
100
AcDbEntity
  8
AM_0
 48
0.5
100
AcDbLine
 10
-55.99996821086117
 20
4.754439989725671
 30
0.0
 11
-55.75443945990975
 21
4.999963442484006
 31
0.0
  0
LINE
  5
2465
330
245F
100
AcDbEntity
  8
AM_0
100
AcDbLine
 10
-55.75448184543751
 20
-5.000008477105588
 30
0.0
 11
0.0000000000000142
 21
-5.00000847710543
 31
0.0
  0
LINE
  5
2466
330
245F
100
AcDbEntity
  8
AM_0
 48
0.5
100
AcDbLine
 10
-55.99996821086114
 20
-4.754474427965309
 30
0.0
 11
-55.75443945990972
 21
-4.999997880724334
 31
0.0
  0
LINE
  5
2467
330
245F
100
AcDbEntity
  8
AM_0
100
AcDbLine
 10
0.7794201296714505
 20
4.549985867772141
 30
0.0
 11
0.7794201296714789
 21
-4.550003370497427
 31
0.0
  0
LINE
  5
2468
330
245F
100
AcDbEntity
  8
AM_0
 48
0.5
100
AcDbLine
 10
0.0000000000000142
 20
-5.00000847710543
 30
0.0
 11
-0.0000000000000142
 21
5.000008477104995
 31
0.0
  0
LINE
  5
2469
330
245F
100
AcDbEntity
  8
AM_0
 48
0.5
100
AcDbLine
 10
0.7794201296714647
 20
-4.550003370497435
 30
0.0
 11
-0.0000105963812445
 21
-5.00000847710543
 31
0.0
  0
LINE
  5
246A
330
245F
100
AcDbEntity
  8
AM_0
 48
0.5
100
AcDbLine
 10
0.7794201296714647
 20
4.549985867772141
 30
0.0
 11
-0.0000000000000142
 21
4.999984635246652
 31
0.0
  0
ENDBLK
  5
246C
330
245F
100
AcDbEntity
  8
0
100
AcDbBlockEnd
  0
BLOCK
  5
4E99
330
4E8F
100
AcDbEntity
  8
0
100
AcDbBlockBegin
  2
*D8
 70
     1
 10
0.0
 20
0.0
 30
0.0
  3
*D8
  1

  0
LINE
  5
50D9
330
4E8F
100
AcDbEntity
  8
AM_5
 62
     3
100
AcDbLine
 10
-2.410970446151342
 20
-9.802179079131281
 30
0.0
 11
-2.410970446151345
 21
-49.41391186861642
 31
0.0
  0
LINE
  5
50DA
330
4E8F
100
AcDbEntity
  8
AM_5
 62
     3
100
AcDbLine
 10
-142.4109017816113
 20
-10.24468112898997
 30
0.0
 11
-142.4109017816113
 21
-49.41391186861642
 31
0.0
  0
LINE
  5
50DB
330
4E8F
100
AcDbEntity
  8
AM_5
 62
     3
100
AcDbLine
 10
-4.910970446151344
 20
-48.41391186861642
 30
0.0
 11
-139.9109017816113
 21
-48.41391186861642
 31
0.0
  0
INSERT
  5
50DC
330
4E8F
100
AcDbEntity
  8
AM_5
 62
     3
100
AcDbBlockReference
  2
_OPEN30
 10
-2.410970446151344
 20
-48.41391186861642
 30
0.0
 41
2.5
 42
2.5
 43
2.5
  0
INSERT
  5
50DD
330
4E8F
100
AcDbEntity
  8
AM_5
 62
     3
100
AcDbBlockReference
  2
_OPEN30
 10
-142.4109017816113
 20
-48.41391186861642
 30
0.0
 41
2.5
 42
2.5
 43
2.5
 50
180.0
  0
MTEXT
  5
50DE
330
4E8F
100
AcDbEntity
  8
AM_5
 62
     2
100
AcDbMText
 10
-72.41093611388134
 20
-45.01391186861642
 30
0.0
 40
3.799999999999999
 41
0.0
 71
     5
 72
     1
  1
140
1001
ACAD
1000
MTEXTBEGIN
1070
    73
1070
     1
1070
    44
1040
1.0
1070
    74
1070
     0
1000
MTEXTEND
  0
POINT
  5
50DF
330
4E8F
100
AcDbEntity
  8
DEFPOINTS
 62
     0
100
AcDbPoint
 10
-2.410970446151342
 20
-9.002179079131281
 30
0.0
  0
POINT
  5
50E0
330
4E8F
100
AcDbEntity
  8
DEFPOINTS
 62
     0
100
AcDbPoint
 10
-142.4109017816113
 20
-9.444681128989969
 30
0.0
  0
POINT
  5
50E1
330
4E8F
100
AcDbEntity
  8
DEFPOINTS
 62
     0
100
AcDbPoint
 10
-142.4109017816113
 20
-48.41391186861642
 30
0.0
  0
ENDBLK
  5
4E9A
330
4E8F
100
AcDbEntity
  8
0
100
AcDbBlockEnd
  0
BLOCK
  5
4EA7
330
4E9B
100
AcDbEntity
  8
0
100
AcDbBlockBegin
  2
*D9
 70
     1
 10
0.0
 20
0.0
 30
0.0
  3
*D9
  1

  0
LINE
  5
50CE
330
4E9B
100
AcDbEntity
  8
AM_5
100
AcDbLine
 10
0.2594029250100482
 20
-0.968104906111551
 30
0.0
 11
6.652213797019354
 21
-24.8264001384927
 31
0.0
  0
LINE
  5
50CF
330
4E9B
100
AcDbEntity
  8
AM_5
100
AcDbLine
 10
0.2594011219629173
 20
0.9637557936682556
 30
0.0
 11
6.652230984873916
 21
24.82205582479447
 31
0.0
  0
ARC
  5
50D0
330
4E9B
100
AcDbEntity
  8
AM_5
100
AcDbCircle
 10
0.0005814106501716
 20
-0.0021698541100745
 30
0.0
 40
24.69993429204547
100
AcDbArc
 50
290.8016614905966
 51
69.1982988388233
  0
INSERT
  5
50D1
330
4E9B
100
AcDbEntity
  8
AM_5
100
AcDbBlockReference
  2
_OPEN30
 10
6.393394754496433
 20
-23.86047431151243
 30
0.0
 41
2.5
 42
2.5
 43
2.5
 50
197.9008306687913
  0
INSERT
  5
50D2
330
4E9B
100
AcDbEntity
  8
AM_5
100
AcDbBlockReference
  2
_OPEN30
 10
6.39341127356117
 20
23.85613017701614
 30
0.0
 41
2.5
 42
2.5
 43
2.5
 50
162.0991296606285
  0
MTEXT
  5
50D3
330
4E9B
100
AcDbEntity
  8
AM_5
 62
     2
100
AcDbMText
 10
21.60051570269416
 20
-0.0021784050079801
 30
0.0
 40
3.2
 41
0.0
 71
     5
 72
     1
  1
150°
  7
ASAMI
 11
0.0000000000000001
 21
1.0
 31
0.0
1001
ACAD
1000
MTEXTBEGIN
1070
    73
1070
     1
1070
    44
1040
1.0
1070
    74
1070
     0
1000
MTEXTEND
  0
POINT
  5
50D4
330
4E9B
100
AcDbEntity
  8
DEFPOINTS
 62
     0
100
AcDbPoint
 10
22.38632900788386
 20
10.43646312843651
 30
0.0
  0
POINT
  5
50D5
330
4E9B
100
AcDbEntity
  8
DEFPOINTS
 62
     0
100
AcDbPoint
 10
0.0005805148308298
 20
-0.002173197344149
 30
0.0
  0
POINT
  5
50D6
330
4E9B
100
AcDbEntity
  8
DEFPOINTS
 62
     0
100
AcDbPoint
 10
0.0005838824871276
 20
-0.002179079131281
 30
0.0
  0
POINT
  5
50D7
330
4E9B
100
AcDbEntity
  8
DEFPOINTS
 62
     0
100
AcDbPoint
 10
-2.410958823631911
 20
8.997820920868662
 30
0.0
  0
POINT
  5
50D8
330
4E9B
100
AcDbEntity
  8
DEFPOINTS
 62
     0
100
AcDbPoint
 10
-2.410970446151342
 20
-9.002179079131281
 30
0.0
  0
ENDBLK
  5
4EA8
330
4E9B
100
AcDbEntity
  8
0
100
AcDbBlockEnd
  0
BLOCK
  5
4EBF
330
4EB5
100
AcDbEntity
  8
0
100
AcDbBlockBegin
  2
*D10
 70
     1
 10
0.0
 20
0.0
 30
0.0
  3
*D10
  1

  0
LINE
  5
5111
330
4EB5
100
AcDbEntity
  8
AM_5
 62
     3
100
AcDbLine
 10
-0.9745873895254469
 20
8.997820920868633
 30
0.0
 11
12.70325988128526
 21
8.99782092086863
 31
0.0
  0
LINE
  5
5112
330
4EB5
100
AcDbEntity
  8
AM_5
 62
     3
100
AcDbLine
 10
-0.9745990120448844
 20
-9.002179079131281
 30
0.0
 11
12.70325988128526
 21
-9.002179079131284
 31
0.0
  0
LINE
  5
5113
330
4EB5
100
AcDbEntity
  8
AM_5
 62
     3
100
AcDbLine
 10
11.70325988128526
 20
6.497820920868631
 30
0.0
 11
11.70325988128526
 21
-6.502179079131283
 31
0.0
  0
INSERT
  5
5114
330
4EB5
100
AcDbEntity
  8
AM_5
 62
     3
100
AcDbBlockReference
  2
_OPEN30
 10
11.70325988128526
 20
8.997820920868631
 30
0.0
 41
2.5
 42
2.5
 43
2.5
 50
90.0
  0
INSERT
  5
5115
330
4EB5
100
AcDbEntity
  8
AM_5
 62
     3
100
AcDbBlockReference
  2
_OPEN30
 10
11.70325988128526
 20
-9.002179079131282
 30
0.0
 41
2.5
 42
2.5
 43
2.5
 50
270.0
  0
MTEXT
  5
5116
330
4EB5
100
AcDbEntity
  8
AM_5
 62
     2
100
AcDbMText
 10
8.303259881285265
 20
-0.0021790791313239
 30
0.0
 40
3.799999999999999
 41
0.0
 71
     5
 72
     1
  1
%%c18
 11
0.0000000000000001
 21
1.0
 31
0.0
1001
ACAD
1000
MTEXTBEGIN
1070
    73
1070
     1
1070
    44
1040
1.0
1070
    74
1070
     0
1000
MTEXTEND
  0
POINT
  5
5117
330
4EB5
100
AcDbEntity
  8
DEFPOINTS
 62
     0
100
AcDbPoint
 10
-1.774587389525446
 20
8.997820920868633
 30
0.0
  0
POINT
  5
5118
330
4EB5
100
AcDbEntity
  8
DEFPOINTS
 62
     0
100
AcDbPoint
 10
-1.774599012044884
 20
-9.002179079131281
 30
0.0
  0
POINT
  5
5119
330
4EB5
100
AcDbEntity
  8
DEFPOINTS
 62
     0
100
AcDbPoint
 10
11.70325988128526
 20
-9.002179079131282
 30
0.0
  0
ENDBLK
  5
4EC0
330
4EB5
100
AcDbEntity
  8
0
100
AcDbBlockEnd
  0
BLOCK
  5
4F75
330
4F6B
100
AcDbEntity
  8
0
100
AcDbBlockBegin
  2
*D11
 70
     1
 10
0.0
 20
0.0
 30
0.0
  3
*D11
  1

  0
LINE
  5
5108
330
4F6B
100
AcDbEntity
  8
AM_5
 62
     3
100
AcDbLine
 10
-142.6624527207343
 20
10.02500194596113
 30
0.0
 11
-156.9684433213132
 21
10.02500194596109
 31
0.0
  0
LINE
  5
5109
330
4F6B
100
AcDbEntity
  8
AM_5
 62
     3
100
AcDbLine
 10
-142.6624527207342
 20
-9.974920236185329
 30
0.0
 11
-156.9684433213132
 21
-9.974920236185369
 31
0.0
  0
LINE
  5
510A
330
4F6B
100
AcDbEntity
  8
AM_5
 62
     3
100
AcDbLine
 10
-155.9684433213132
 20
7.525001945961094
 30
0.0
 11
-155.9684433213132
 21
-7.474920236185368
 31
0.0
  0
INSERT
  5
510B
330
4F6B
100
AcDbEntity
  8
AM_5
 62
     3
100
AcDbBlockReference
  2
_OPEN30
 10
-155.9684433213132
 20
10.02500194596109
 30
0.0
 41
2.5
 42
2.5
 43
2.5
 50
90.00000000000017
  0
INSERT
  5
510C
330
4F6B
100
AcDbEntity
  8
AM_5
 62
     3
100
AcDbBlockReference
  2
_OPEN30
 10
-155.9684433213132
 20
-9.974920236185367
 30
0.0
 41
2.5
 42
2.5
 43
2.5
 50
270.0000000000001
  0
MTEXT
  5
510D
330
4F6B
100
AcDbEntity
  8
AM_5
 62
     2
100
AcDbMText
 10
-159.3684433213132
 20
0.02504085488786
 30
0.0
 40
3.799999999999999
 41
0.0
 71
     5
 72
     1
  1
%%C20
 11
-0.0000000000000028
 21
1.0
 31
0.0
1001
ACAD
1000
MTEXTBEGIN
1070
    73
1070
     1
1070
    44
1040
1.0
1070
    74
1070
     0
1000
MTEXTEND
  0
POINT
  5
510E
330
4F6B
100
AcDbEntity
  8
DEFPOINTS
 62
     0
100
AcDbPoint
 10
-141.8624527207343
 20
10.02500194596157
 30
0.0
  0
POINT
  5
510F
330
4F6B
100
AcDbEntity
  8
DEFPOINTS
 62
     0
100
AcDbPoint
 10
-141.8624527207342
 20
-9.974920236184885
 30
0.0
  0
POINT
  5
5110
330
4F6B
100
AcDbEntity
  8
DEFPOINTS
 62
     0
100
AcDbPoint
 10
-155.9684433213132
 20
-9.974920236184884
 30
0.0
  0
ENDBLK
  5
4F76
330
4F6B
100
AcDbEntity
  8
0
100
AcDbBlockEnd
  0
BLOCK
  5
4F81
330
4F77
100
AcDbEntity
  8
0
100
AcDbBlockBegin
  2
*D12
 70
     1
 10
0.0
 20
0.0
 30
0.0
  3
*D12
  1

  0
LINE
  5
50E2
330
4F77
100
AcDbEntity
  8
AM_5
 62
     3
100
AcDbLine
 10
-2.410970446151379
 20
-9.800000000000604
 30
0.0
 11
-2.410970446151303
 21
-36.5086865772578
 31
0.0
  0
LINE
  5
50E3
330
4F77
100
AcDbEntity
  8
AM_5
 62
     3
100
AcDbLine
 10
-92.41097044615123
 20
-10.83203487327665
 30
0.0
 11
-92.41097044615116
 21
-36.50868657725806
 31
0.0
  0
LINE
  5
50E4
330
4F77
100
AcDbEntity
  8
AM_5
 62
     3
100
AcDbLine
 10
-4.910970446151306
 20
-35.5086865772578
 30
0.0
 11
-89.91097044615116
 21
-35.50868657725805
 31
0.0
  0
INSERT
  5
50E5
330
4F77
100
AcDbEntity
  8
AM_5
 62
     3
100
AcDbBlockReference
  2
_OPEN30
 10
-2.410970446151306
 20
-35.50868657725779
 30
0.0
 41
2.5
 42
2.5
 43
2.5
 50
0.0000000000001527
  0
INSERT
  5
50E6
330
4F77
100
AcDbEntity
  8
AM_5
 62
     3
100
AcDbBlockReference
  2
_OPEN30
 10
-92.41097044615116
 20
-35.50868657725806
 30
0.0
 41
2.5
 42
2.5
 43
2.5
 50
180.0000000000001
  0
MTEXT
  5
50E7
330
4F77
100
AcDbEntity
  8
AM_5
 62
     2
100
AcDbMText
 10
-47.41097044615124
 20
-32.10868657725792
 30
0.0
 40
3.799999999999999
 41
0.0
 71
     5
 72
     1
  1
90
1001
ACAD
1000
MTEXTBEGIN
1070
    73
1070
     1
1070
    44
1040
1.0
1070
    74
1070
     0
1000
MTEXTEND
  0
POINT
  5
50E8
330
4F77
100
AcDbEntity
  8
DEFPOINTS
 62
     0
100
AcDbPoint
 10
-2.410970446151408
 20
-9.000000000000596
 30
0.0
  0
POINT
  5
50E9
330
4F77
100
AcDbEntity
  8
DEFPOINTS
 62
     0
100
AcDbPoint
 10
-92.41097044615127
 20
-10.03203487327638
 30
0.0
  0
POINT
  5
50EA
330
4F77
100
AcDbEntity
  8
DEFPOINTS
 62
     0
100
AcDbPoint
 10
-92.41097044615127
 20
-35.50868657725779
 30
0.0
  0
ENDBLK
  5
4F82
330
4F77
100
AcDbEntity
  8
0
100
AcDbBlockEnd
  0
BLOCK
  5
4F8D
330
4F83
100
AcDbEntity
  8
0
100
AcDbBlockBegin
  2
*D13
 70
     1
 10
0.0
 20
0.0
 30
0.0
  3
*D13
  1

  0
LINE
  5
50EB
330
4F83
100
AcDbEntity
  8
AM_5
 62
     3
100
AcDbLine
 10
-92.41097044615136
 20
-10.77593358690072
 30
0.0
 11
-92.41097044615129
 21
-36.44085551687187
 31
0.0
  0
LINE
  5
50EC
330
4F83
100
AcDbEntity
  8
AM_5
 62
     3
100
AcDbLine
 10
-142.4109017816113
 20
-10.24468112899038
 30
0.0
 11
-142.4109017816112
 21
-36.44085551687202
 31
0.0
  0
LINE
  5
50ED
330
4F83
100
AcDbEntity
  8
AM_5
 62
     3
100
AcDbLine
 10
-94.91097044615129
 20
-35.44085551687188
 30
0.0
 11
-139.9109017816112
 21
-35.44085551687201
 31
0.0
  0
INSERT
  5
50EE
330
4F83
100
AcDbEntity
  8
AM_5
 62
     3
100
AcDbBlockReference
  2
_OPEN30
 10
-92.41097044615129
 20
-35.44085551687187
 30
0.0
 41
2.5
 42
2.5
 43
2.5
 50
0.0000000000001527
  0
INSERT
  5
50EF
330
4F83
100
AcDbEntity
  8
AM_5
 62
     3
100
AcDbBlockReference
  2
_OPEN30
 10
-142.4109017816112
 20
-35.44085551687202
 30
0.0
 41
2.5
 42
2.5
 43
2.5
 50
180.0000000000001
  0
MTEXT
  5
50F0
330
4F83
100
AcDbEntity
  8
AM_5
 62
     2
100
AcDbMText
 10
-117.4109361138812
 20
-32.04085551687195
 30
0.0
 40
3.799999999999999
 41
0.0
 71
     5
 72
     1
  1
50
1001
ACAD
1000
MTEXTBEGIN
1070
    73
1070
     1
1070
    44
1040
1.0
1070
    74
1070
     0
1000
MTEXTEND
  0
POINT
  5
50F1
330
4F83
100
AcDbEntity
  8
DEFPOINTS
 62
     0
100
AcDbPoint
 10
-92.41097044615139
 20
-9.975933586900453
 30
0.0
  0
POINT
  5
50F2
330
4F83
100
AcDbEntity
  8
DEFPOINTS
 62
     0
100
AcDbPoint
 10
-142.4109017816113
 20
-9.444681128989969
 30
0.0
  0
POINT
  5
50F3
330
4F83
100
AcDbEntity
  8
DEFPOINTS
 62
     0
100
AcDbPoint
 10
-142.4109017816113
 20
-35.4408555168716
 30
0.0
  0
ENDBLK
  5
4F8E
330
4F83
100
AcDbEntity
  8
0
100
AcDbBlockEnd
  0
BLOCK
  5
4F9B
330
4F8F
100
AcDbEntity
  8
0
100
AcDbBlockBegin
  2
*D14
 70
     1
 10
0.0
 20
0.0
 30
0.0
  3
*D14
  1

  0
LINE
  5
50F4
330
4F8F
100
AcDbEntity
  8
AM_5
 62
     3
100
AcDbLine
 10
-142.4109017816113
 20
-10.24468112899038
 30
0.0
 11
-142.4109017816112
 21
-24.95356967775276
 31
0.0
  0
LINE
  5
50F5
330
4F8F
100
AcDbEntity
  8
AM_5
 62
     3
100
AcDbLine
 10
-136.4109704461514
 20
-0.7750278086777077
 30
0.0
 11
-136.4109704461513
 21
-24.95356967775274
 31
0.0
  0
LINE
  5
50F6
330
4F8F
100
AcDbEntity
  8
AM_5
 62
     3
100
AcDbLine
 10
-144.9109017816112
 20
-23.95356967775276
 30
0.0
 11
-147.4109017816112
 21
-23.95356967775277
 31
0.0
  0
LINE
  5
50F7
330
4F8F
100
AcDbEntity
  8
AM_5
 62
     3
100
AcDbLine
 10
-133.9109704461513
 20
-23.95356967775273
 30
0.0
 11
-131.4109704461513
 21
-23.95356967775272
 31
0.0
  0
LINE
  5
50F8
330
4F8F
100
AcDbEntity
  8
AM_5
 62
     3
100
AcDbLine
 10
-142.4109017816112
 20
-23.95356967775275
 30
0.0
 11
-136.4109704461514
 21
-23.95356967775274
 31
0.0
  0
INSERT
  5
50F9
330
4F8F
100
AcDbEntity
  8
AM_5
 62
     3
100
AcDbBlockReference
  2
_OPEN30
 10
-142.4109017816112
 20
-23.95356967775275
 30
0.0
 41
2.5
 42
2.5
 43
2.5
 50
0.0000000000001527
  0
INSERT
  5
50FA
330
4F8F
100
AcDbEntity
  8
AM_5
 62
     3
100
AcDbBlockReference
  2
_OPEN30
 10
-136.4109704461514
 20
-23.95356967775274
 30
0.0
 41
2.5
 42
2.5
 43
2.5
 50
180.0000000000001
  0
MTEXT
  5
50FB
330
4F8F
100
AcDbEntity
  8
AM_5
 62
     2
100
AcDbMText
 10
-139.4109361138813
 20
-20.55356967775274
 30
0.0
 40
3.799999999999999
 41
0.0
 71
     5
 72
     1
  1
6
1001
ACAD
1000
MTEXTBEGIN
1070
    73
1070
     1
1070
    44
1040
1.0
1070
    74
1070
     0
1000
MTEXTEND
  0
POINT
  5
50FC
330
4F8F
100
AcDbEntity
  8
DEFPOINTS
 62
     0
100
AcDbPoint
 10
-142.4109017816113
 20
-9.444681128989969
 30
0.0
  0
POINT
  5
50FD
330
4F8F
100
AcDbEntity
  8
DEFPOINTS
 62
     0
100
AcDbPoint
 10
-136.4109704461514
 20
0.0249721913226893
 30
0.0
  0
POINT
  5
50FE
330
4F8F
100
AcDbEntity
  8
DEFPOINTS
 62
     0
100
AcDbPoint
 10
-136.4109704461514
 20
-23.95356967775234
 30
0.0
  0
ENDBLK
  5
4F9C
330
4F8F
100
AcDbEntity
  8
0
100
AcDbBlockEnd
  0
BLOCK
  5
4FA7
330
4F9D
100
AcDbEntity
  8
0
100
AcDbBlockBegin
  2
*D15
 70
     1
 10
0.0
 20
0.0
 30
0.0
  3
*D15
  1

  0
LINE
  5
50FF
330
4F9D
100
AcDbEntity
  8
AM_5
 62
     3
100
AcDbLine
 10
-136.4109704461514
 20
-0.7750278086777077
 30
0.0
 11
-136.4109704461513
 21
-24.9285974864288
 31
0.0
  0
LINE
  5
5100
330
4F9D
100
AcDbEntity
  8
AM_5
 62
     3
100
AcDbLine
 10
-96.41097044615143
 20
-0.7750278086774777
 30
0.0
 11
-96.41097044615136
 21
-24.92859748642868
 31
0.0
  0
LINE
  5
5101
330
4F9D
100
AcDbEntity
  8
AM_5
 62
     3
100
AcDbLine
 10
-133.9109704461513
 20
-23.92859748642879
 30
0.0
 11
-98.91097044615136
 21
-23.92859748642869
 31
0.0
  0
INSERT
  5
5102
330
4F9D
100
AcDbEntity
  8
AM_5
 62
     3
100
AcDbBlockReference
  2
_OPEN30
 10
-136.4109704461514
 20
-23.9285974864288
 30
0.0
 41
2.5
 42
2.5
 43
2.5
 50
180.0000000000001
  0
INSERT
  5
5103
330
4F9D
100
AcDbEntity
  8
AM_5
 62
     3
100
AcDbBlockReference
  2
_OPEN30
 10
-96.41097044615136
 20
-23.92859748642868
 30
0.0
 41
2.5
 42
2.5
 43
2.5
 50
0.0000000000001527
  0
MTEXT
  5
5104
330
4F9D
100
AcDbEntity
  8
AM_5
 62
     2
100
AcDbMText
 10
-116.4109704461514
 20
-20.52859748642874
 30
0.0
 40
3.799999999999999
 41
0.0
 71
     5
 72
     1
  1
40
1001
ACAD
1000
MTEXTBEGIN
1070
    73
1070
     1
1070
    44
1040
1.0
1070
    74
1070
     0
1000
MTEXTEND
  0
POINT
  5
5105
330
4F9D
100
AcDbEntity
  8
DEFPOINTS
 62
     0
100
AcDbPoint
 10
-136.4109704461514
 20
0.0249721913226893
 30
0.0
  0
POINT
  5
5106
330
4F9D
100
AcDbEntity
  8
DEFPOINTS
 62
     0
100
AcDbPoint
 10
-96.41097044615143
 20
0.0249721913228029
 30
0.0
  0
POINT
  5
5107
330
4F9D
100
AcDbEntity
  8
DEFPOINTS
 62
     0
100
AcDbPoint
 10
-96.41097044615143
 20
-23.9285974864284
 30
0.0
  0
ENDBLK
  5
4FA8
330
4F9D
100
AcDbEntity
  8
0
100
AcDbBlockEnd
  0
BLOCK
  5
5048
330
503E
100
AcDbEntity
  8
0
100
AcDbBlockBegin
  2
*D16
 70
     1
 10
0.0
 20
0.0
 30
0.0
  3
*D16
  1

  0
LINE
  5
50C5
330
503E
100
AcDbEntity
  8
AM_5
 62
     3
100
AcDbLine
 10
-2.410958823631935
 20
9.797820920868655
 30
0.0
 11
-2.410958823631912
 21
23.99782092086884
 31
0.0
  0
LINE
  5
50C6
330
503E
100
AcDbEntity
  8
AM_5
 62
     3
100
AcDbLine
 10
-74.41097044615161
 20
6.790633812000975
 30
0.0
 11
-74.41097044615158
 21
23.99782092086895
 31
0.0
  0
LINE
  5
50C7
330
503E
100
AcDbEntity
  8
AM_5
 62
     3
100
AcDbLine
 10
-4.910958823631913
 20
22.99782092086885
 30
0.0
 11
-71.91097044615159
 21
22.99782092086895
 31
0.0
  0
INSERT
  5
50C8
330
503E
100
AcDbEntity
  8
AM_5
 62
     3
100
AcDbBlockReference
  2
_OPEN30
 10
-2.410958823631914
 20
22.99782092086884
 30
0.0
 41
2.5
 42
2.5
 43
2.5
 50
359.9999999999998
  0
INSERT
  5
50C9
330
503E
100
AcDbEntity
  8
AM_5
 62
     3
100
AcDbBlockReference
  2
_OPEN30
 10
-74.41097044615159
 20
22.99782092086895
 30
0.0
 41
2.5
 42
2.5
 43
2.5
 50
179.9999999999998
  0
MTEXT
  5
50CA
330
503E
100
AcDbEntity
  8
AM_5
 62
     2
100
AcDbMText
 10
-38.41096463489174
 20
26.3978209208689
 30
0.0
 40
3.799999999999999
 41
0.0
 71
     5
 72
     1
  1
72
1001
ACAD
1000
MTEXTBEGIN
1070
    73
1070
     1
1070
    44
1040
1.0
1070
    74
1070
     0
1000
MTEXTEND
  0
POINT
  5
50CB
330
503E
100
AcDbEntity
  8
DEFPOINTS
 62
     0
100
AcDbPoint
 10
-2.41095882363191
 20
8.997820920868662
 30
0.0
  0
POINT
  5
50CC
330
503E
100
AcDbEntity
  8
DEFPOINTS
 62
     0
100
AcDbPoint
 10
-74.41097044615159
 20
5.990633812001192
 30
0.0
  0
POINT
  5
50CD
330
503E
100
AcDbEntity
  8
DEFPOINTS
 62
     0
100
AcDbPoint
 10
-74.41097044615152
 20
22.99782092086917
 30
0.0
  0
ENDBLK
  5
5049
330
503E
100
AcDbEntity
  8
0
100
AcDbBlockEnd
  0
ENDSEC
  0
SECTION
  2
ENTITIES
  0
TEXT
  5
19BD
330
1F
100
AcDbEntity
  8
AM_6
100
AcDbText
 10
-93.2442694472146
 20
-70.91391186861648
 30
0.0
 40
5.0
  1
KDS180BAK
 50
0.0000000000001527
 72
     4
 11
-72.41093611388127
 21
-68.41391186861642
 31
0.0
100
AcDbText
  0
LINE
  5
35CA
330
1F
100
AcDbEntity
  8
PV0001_1
  6
CONTINUOUS
 48
0.5
100
AcDbLine
 10
-589.2017441852486
 20
-57.69694534177202
 30
0.0
 11
-567.9171279738763
 21
-62.69376548307545
 31
0.0
  0
DIMENSION
  5
4E34
330
1F
100
AcDbEntity
  8
AM_5
100
AcDbDimension
  2
*D8
 10
-142.4109017816113
 20
-48.41391186861642
 30
0.0
 11
-72.41093611388134
 21
-45.01391186861642
 31
0.0
 70
    32
  1
<>
  3
AM_JIS$0
100
AcDbAlignedDimension
 13
-2.410970446151342
 23
-9.002179079131281
 33
0.0
 14
-142.4109017816113
 24
-9.444681128989969
 34
0.0
100
AcDbRotatedDimension
1001
ACAD
1000
DSTYLE
1002
{
1070
   271
1070
     3
1002
}
1001
GENIUS_GENDTOL_13
1000

1000
h7
1000

1040
0.0
  0
DIMENSION
  5
4E35
330
1F
100
AcDbEntity
  8
AM_5
100
AcDbDimension
  2
*D9
 10
-2.410970446151342
 20
-9.002179079131281
 30
0.0
 11
21.60051570269416
 21
-0.0021784050079835
 31
0.0
 70
    34
  1
<>
  3
AM_JIS$2
100
AcDb2LineAngularDimension
 13
0.0005838824871276
 23
-0.002179079131281
 33
0.0
 14
-2.410958823631911
 24
8.997820920868662
 34
0.0
 15
0.0005805148308298
 25
-0.002173197344149
 35
0.0
 16
22.38632900788386
 26
10.43646312843651
 36
0.0
1001
ACAD
1000
DSTYLE
1002
{
1070
   179
1070
     3
1002
}
1001
GENIUS_GENDTOL_13
1000

1000
h7
1000

1040
0.0
  0
LINE
  5
4E36
330
1F
100
AcDbEntity
  8
AM_7
  6
AM_ISO08W050
100
AcDbLine
 10
4.182199804328748
 20
-0.0000000000001705
 30
0.0
 11
-148.9279035854247
 21
-0.0000000000009948
 31
0.0
  0
LINE
  5
4E4B
330
1F
100
AcDbEntity
  8
AM_0
  6
CONTINUOUS
100
AcDbLine
 10
-74.41097044615152
 20
-7.647095785799081
 30
0.0
 11
-74.41097044615158
 21
6.037040609817552
 31
0.0
  0
ELLIPSE
  5
4E4C
330
1F
100
AcDbEntity
  8
AM_0
  6
CONTINUOUS
 48
0.5
100
AcDbEllipse
 10
-87.64404360874577
 20
-7.050702185292408
 30
0.0
 11
-2.513653287377158
 21
4.14518192929987
 31
0.0
210
0.0
220
0.0
230
1.0
 40
0.7485857412965416
 41
-0.9130829837259193
 42
1.057047899569738
  0
LINE
  5
4E4D
330
1F
100
AcDbEntity
  8
AM_0
  6
CONTINUOUS
 48
0.5
100
AcDbLine
 10
-86.7898204101028
 20
-9.710425210255067
 30
0.0
 11
-92.41097044615127
 21
-10.03203487327638
 31
0.0
  0
ELLIPSE
  5
4E4E
330
1F
100
AcDbEntity
  8
AM_0
  6
CONTINUOUS
 48
0.5
100
AcDbEllipse
 10
-88.65601928958454
 20
-6.568210410455009
 30
0.0
 11
-1.85924850434136
 21
2.714933185887313
 31
0.0
210
0.0
220
0.0
230
1.0
 40
0.8534115241873919
 41
1.06865906864796
 42
2.528863906355169
  0
SPLINE
  5
4E4F
330
1F
100
AcDbEntity
  8
AM_0
  6
CONTINUOUS
 48
0.5
100
AcDbSpline
210
0.0
220
0.0
230
1.0
 70
     8
 71
     3
 72
    23
 73
    19
 74
     0
 42
0.0000000001
 43
0.0000000001
 40
0.0
 40
0.0
 40
0.0
 40
0.0
 40
1.010743684496582
 40
2.022833576468826
 40
3.037578957496683
 40
4.056212745003485
 40
5.079857003665509
 40
6.109500240690275
 40
7.145961322679365
 40
8.189880470204213
 40
9.241703023925269
 40
10.30166930151765
 40
11.3698269246763
 40
12.44598301520777
 40
13.52983529054051
 40
14.62080810761866
 40
15.71821804889404
 40
16.41798914862032
 40
16.41798914862032
 40
16.41798914862032
 40
16.41798914862032
 10
-63.60162807504273
 20
-9.002179079131252
 30
0.0
 10
-64.09472116311942
 20
-8.996824297402895
 30
0.0
 10
-65.08156408896279
 20
-8.986107601923237
 30
0.0
 10
-66.56146934570617
 20
-8.899718998083216
 30
0.0
 10
-68.04131143516994
 20
-8.762383704166524
 30
0.0
 10
-69.52106192073864
 20
-8.569902997392972
 30
0.0
 10
-71.00070611393864
 20
-8.324885662996649
 30
0.0
 10
-72.48021453451781
 20
-8.028420113419116
 30
0.0
 10
-73.95958619822501
 20
-7.682509384942193
 30
0.0
 10
-75.43881101577813
 20
-7.289254365115823
 30
0.0
 10
-76.9178854901465
 20
-6.851095135633158
 30
0.0
 10
-78.39682179416816
 20
-6.370758835982911
 30
0.0
 10
-79.87561379961426
 20
-5.85121138798641
 30
0.0
 10
-81.35427826161444
 20
-5.295639824523902
 30
0.0
 10
-82.83283495093202
 20
-4.707525292998695
 30
0.0
 10
-84.31128706217201
 20
-4.090435447717766
 30
0.0
 10
-85.6085288133592
 20
-3.526885231002552
 30
0.0
 10
-86.41239914722147
 20
-3.168256047076454
 30
0.0
 10
-86.72495309436389
 20
-3.027565204736475
 30
0.0
  0
ARC
  5
4E50
330
1F
100
AcDbEntity
  8
AM_0
100
AcDbCircle
 10
-87.6434187396655
 20
5.428895956239614
 30
0.0
 40
15.15308449757402
100
AcDbArc
 50
266.8825512358784
 51
291.9806339603502
  0
ARC
  5
4E51
330
1F
100
AcDbEntity
  8
AM_0
100
AcDbCircle
 10
-90.63570034538454
 20
13.17406058346532
 30
0.0
 40
23.45557572747851
100
AcDbArc
 50
291.6772730417028
 51
302.8648202184368
  0
DIMENSION
  5
4E55
330
1F
100
AcDbEntity
  8
AM_5
100
AcDbDimension
  2
*D10
 10
11.70325988128526
 20
-9.002179079131282
 30
0.0
 11
8.303259881285265
 21
-0.0021790791313239
 31
0.0
 70
    32
  1
%%c<>
  3
AM_JIS$0
100
AcDbAlignedDimension
 13
-1.774587389525446
 23
8.997820920868633
 33
0.0
 14
-1.774599012044884
 24
-9.002179079131281
 34
0.0
 50
90.00000000000019
100
AcDbRotatedDimension
1001
ACAD
1000
DSTYLE
1002
{
1070
   271
1070
     0
1002
}
1001
GENIUS_GENDTOL_13
1000

1000
h7
1000

1040
0.0
  0
LINE
  5
4E56
330
1F
100
AcDbEntity
  8
AM_0
  6
CONTINUOUS
 48
0.5
100
AcDbLine
 10
0.0005838824871276
 20
-0.002179079131281
 30
0.0
 11
-2.41095882363191
 21
8.997820920868662
 31
0.0
  0
LINE
  5
4E5B
330
1F
100
AcDbEntity
  8
AM_0
  6
CONTINUOUS
 48
0.5
100
AcDbLine
 10
-1.680744560192691
 20
-2.2293684472167
 30
0.0
 11
-3.166671062770344
 21
-7.774906351858618
 31
0.0
  0
LINE
  5
4E5C
330
1F
100
AcDbEntity
  8
AM_0
  6
CONTINUOUS
 48
0.5
100
AcDbLine
 10
0.0005805148308298
 20
-0.002173197344149
 30
0.0
 11
-2.410970446151344
 21
-9.002179079131281
 31
0.0
  0
LINE
  5
4E5D
330
1F
100
AcDbEntity
  8
AM_0
  6
CONTINUOUS
 48
0.5
100
AcDbLine
 10
-6.464845875802666
 20
1.346965030879459
 30
0.0
 11
-3.166671062770344
 21
-7.774906351858618
 31
0.0
  0
LINE
  5
4E5E
330
1F
100
AcDbEntity
  8
AM_0
  6
CONTINUOUS
 48
0.5
100
AcDbLine
 10
-13.21097044615147
 20
-9.002179079131334
 30
0.0
 11
-2.410970446151344
 21
-9.002179079131281
 31
0.0
  0
LINE
  5
4E5F
330
1F
100
AcDbEntity
  8
AM_0
  6
CONTINUOUS
 48
0.5
100
AcDbLine
 10
-13.21097044615147
 20
-7.774906351858618
 30
0.0
 11
-3.166671062770344
 21
-7.774906351858618
 31
0.0
  0
LINE
  5
4E60
330
1F
100
AcDbEntity
  8
AM_0
100
AcDbLine
 10
-2.445295189135764
 20
0.6718554508785815
 30
0.0
 11
-1.680744560192691
 21
-2.229368447216614
 31
0.0
  0
LINE
  5
4E61
330
1F
100
AcDbEntity
  8
AM_0
100
AcDbLine
 10
-1.680744560192691
 20
-2.229368447216614
 30
0.0
 11
-4.669887394420249
 21
-3.617411126450926
 31
0.0
  0
LINE
  5
4E62
330
1F
100
AcDbEntity
  8
AM_0
  6
CONTINUOUS
 48
0.5
100
AcDbLine
 10
-8.704130929233988
 20
2.38156220384027
 30
0.0
 11
-6.464845875802671
 21
1.3469650308795
 31
0.0
  0
ARC
  5
4E63
330
1F
100
AcDbEntity
  8
AM_0
100
AcDbCircle
 10
-3.934941813410309
 20
3.982922752428829
 30
0.0
 40
3.653585591539481
100
AcDbArc
 50
226.176100690668
 51
334.3023322537293
  0
LINE
  5
4E67
330
1F
100
AcDbEntity
  8
AM_0
  6
CONTINUOUS
 48
0.5
100
AcDbLine
 10
-2.089420102792708
 20
7.797822065277244
 30
0.0
 11
-12.04781949752484
 21
7.797822065277198
 31
0.0
  0
LINE
  5
4E68
330
1F
100
AcDbEntity
  8
AM_0
  6
CONTINUOUS
 48
0.5
100
AcDbLine
 10
-12.03196120426493
 20
8.99782092086871
 30
0.0
 11
-2.41095882363191
 21
8.997820920868662
 31
0.0
  0
DIMENSION
  5
4F59
330
1F
100
AcDbEntity
  8
AM_5
100
AcDbDimension
  2
*D11
 10
-155.9684433213132
 20
-9.974920236184884
 30
0.0
 11
-159.3684433213132
 21
0.0250408548883236
 31
0.0
 70
    32
  1
%%C<>
 51
359.9999999999998
  3
AM_JIS$0
100
AcDbAlignedDimension
 13
-141.8624527207343
 23
10.02500194596157
 33
0.0
 14
-141.8624527207342
 24
-9.974920236184885
 34
0.0
 50
270.0000000000002
100
AcDbRotatedDimension
1001
ACAD
1000
DSTYLE
1002
{
1070
   271
1070
     3
1002
}
1001
GENIUS_GENDTOL_13
1000

1000
h7
1000

1040
0.0
  0
DIMENSION
  5
4F5A
330
1F
100
AcDbEntity
  8
AM_5
100
AcDbDimension
  2
*D15
 10
-96.41097044615143
 20
-23.9285974864284
 30
0.0
 11
-116.4109704461514
 21
-20.5285974864284
 31
0.0
 70
    32
  1
<>
 51
359.9999999999998
  3
AM_JIS$0
100
AcDbAlignedDimension
 13
-136.4109704461514
 23
0.0249721913226893
 33
0.0
 14
-96.41097044615143
 24
0.0249721913228029
 34
0.0
100
AcDbRotatedDimension
1001
ACAD
1000
DSTYLE
1002
{
1070
   271
1070
     3
1002
}
1001
GENIUS_GENDTOL_13
1000

1000
h7
1000

1040
0.0
  0
DIMENSION
  5
4F5B
330
1F
100
AcDbEntity
  8
AM_5
100
AcDbDimension
  2
*D14
 10
-136.4109704461514
 20
-23.95356967775234
 30
0.0
 11
-139.4109361138814
 21
-23.95356967775234
 31
0.0
 70
   160
  1
<>
 51
359.9999999999998
  3
AM_JIS$0
100
AcDbAlignedDimension
 13
-142.4109017816113
 23
-9.444681128989969
 33
0.0
 14
-136.4109704461514
 24
0.0249721913226893
 34
0.0
100
AcDbRotatedDimension
1001
ACAD
1000
DSTYLE
1002
{
1070
   271
1070
     3
1002
}
1001
GENIUS_GENDTOL_13
1000

1000
h7
1000

1040
0.0
  0
LINE
  5
4F5C
330
1F
100
AcDbEntity
  8
PV0001_1
  6
CONTINUOUS
100
AcDbLine
 10
-92.41097044615127
 20
-10.03203487327638
 30
0.0
 11
-92.41097044615132
 21
10.02512678872298
 31
0.0
  0
LINE
  5
4F5D
330
1F
100
AcDbEntity
  8
PV0001_1
  6
CONTINUOUS
 48
0.5
100
AcDbLine
 10
-142.4109704461514
 20
0.0249721913225471
 30
0.0
 11
-142.4109704461514
 21
9.494671288002223
 31
0.0
  0
LINE
  5
4F5E
330
1F
100
AcDbEntity
  8
PV0001_1
  6
CONTINUOUS
 48
0.5
100
AcDbLine
 10
-141.8806512322964
 20
0.0249721913225471
 30
0.0
 11
-141.8806512322964
 21
10.02500194596157
 31
0.0
  0
LINE
  5
4F5F
330
1F
100
AcDbEntity
  8
AM_0
100
AcDbLine
 10
-100.210641484544
 20
-3.774698847069885
 30
0.0
 11
-132.6112994077587
 21
-3.77469884706997
 31
0.0
  0
LINE
  5
4F60
330
1F
100
AcDbEntity
  8
AM_0
100
AcDbLine
 10
-100.2106414845441
 20
3.824643229715462
 30
0.0
 11
-132.6112994077587
 21
3.824643229715377
 31
0.0
  0
LINE
  5
4F61
330
1F
100
AcDbEntity
  8
PV0001_1
  6
CONTINUOUS
100
AcDbLine
 10
-141.8806512322963
 20
-9.975034675132889
 30
0.0
 11
-92.41097044615127
 21
-9.975034675132775
 31
0.0
  0
LINE
  5
4F62
330
1F
100
AcDbEntity
  8
PV0001_1
  6
CONTINUOUS
 48
0.5
100
AcDbLine
 10
-141.8806512322964
 20
0.0249721913225471
 30
0.0
 11
-141.8806512322963
 21
-9.975057563316482
 31
0.0
  0
LINE
  5
4F63
330
1F
100
AcDbEntity
  8
PV0001_1
  6
CONTINUOUS
 48
0.5
100
AcDbLine
 10
-142.4109704461514
 20
0.0249721913225471
 30
0.0
 11
-142.4109704461513
 21
-9.444726905356787
 31
0.0
  0
LINE
  5
4F64
330
1F
100
AcDbEntity
  8
PV0001_1
  6
CONTINUOUS
 48
0.5
100
AcDbLine
 10
-142.4109017816113
 20
-9.444681128989969
 30
0.0
 11
-141.8805596795563
 21
-9.975011786949295
 31
0.0
  0
ARC
  5
4F65
330
1F
100
AcDbEntity
  8
AM_0
100
AcDbCircle
 10
-132.6112994077587
 20
0.0249721913227177
 30
0.0
 40
3.799671038392649
100
AcDbArc
 50
90.00000000000021
 51
270.0000000000002
  0
ARC
  5
4F66
330
1F
100
AcDbEntity
  8
AM_0
100
AcDbCircle
 10
-100.210641484544
 20
0.0249721913228029
 30
0.0
 40
3.799671038392649
100
AcDbArc
 50
270.0000000000002
 51
90.00000000000021
  0
LINE
  5
4F67
330
1F
100
AcDbEntity
  8
PV0001_1
  6
CONTINUOUS
100
AcDbLine
 10
-92.41097044615129
 20
10.02497333573111
 30
0.0
 11
-141.8806512322964
 21
10.024973335731
 31
0.0
  0
LINE
  5
4F68
330
1F
100
AcDbEntity
  8
PV0001_1
  6
CONTINUOUS
 48
0.5
100
AcDbLine
 10
-142.4109017816114
 20
9.494574013222688
 30
0.0
 11
-141.8805596795563
 21
10.02490467118056
 31
0.0
  0
DIMENSION
  5
4F69
330
1F
100
AcDbEntity
  8
AM_5
100
AcDbDimension
  2
*D13
 10
-142.4109017816113
 20
-35.4408555168716
 30
0.0
 11
-117.4109361138813
 21
-32.0408555168716
 31
0.0
 70
    32
  1
<>
 51
359.9999999999998
  3
AM_JIS$0
100
AcDbAlignedDimension
 13
-92.41097044615139
 23
-9.975933586900453
 33
0.0
 14
-142.4109017816113
 24
-9.444681128989969
 34
0.0
100
AcDbRotatedDimension
1001
ACAD
1000
DSTYLE
1002
{
1070
   271
1070
     3
1002
}
1001
GENIUS_GENDTOL_13
1000

1000
h7
1000

1040
0.0
  0
DIMENSION
  5
4F6A
330
1F
100
AcDbEntity
  8
AM_5
100
AcDbDimension
  2
*D12
 10
-92.41097044615127
 20
-35.50868657725779
 30
0.0
 11
-47.41097044615133
 21
-32.10868657725779
 31
0.0
 70
    32
  1
<>
 51
359.9999999999998
  3
AM_JIS$0
100
AcDbAlignedDimension
 13
-2.410970446151408
 23
-9.000000000000596
 33
0.0
 14
-92.41097044615127
 24
-10.03203487327638
 34
0.0
100
AcDbRotatedDimension
1001
ACAD
1000
DSTYLE
1002
{
1070
   271
1070
     3
1002
}
1001
GENIUS_GENDTOL_13
1000

1000
h7
1000

1040
0.0
  0
LINE
  5
5023
330
1F
100
AcDbEntity
  8
AM_0
  6
CONTINUOUS
 48
0.5
100
AcDbLine
 10
-88.65116204817622
 20
9.820755490378902
 30
0.0
 11
-92.41097044615132
 21
10.02497333573111
 31
0.0
  0
DIMENSION
  5
503D
330
1F
100
AcDbEntity
  8
AM_5
100
AcDbDimension
  2
*D16
 10
-74.41097044615152
 20
22.99782092086917
 30
0.0
 11
-38.41096463489167
 21
26.39782092086901
 31
0.0
 70
    32
  1
<>
 51
359.9999999999998
  3
AM_JIS$0
100
AcDbAlignedDimension
 13
-2.41095882363191
 23
8.997820920868662
 33
0.0
 14
-74.41097044615159
 24
5.990633812001192
 34
0.0
 50
180.0
100
AcDbRotatedDimension
1001
ACAD
1000
DSTYLE
1002
{
1070
   271
1070
     3
1002
}
1001
GENIUS_GENDTOL_13
1000

1000
h7
1000

1040
0.0
  0
ELLIPSE
  5
517B
330
1F
100
AcDbEntity
  8
AM_0
100
AcDbEllipse
 10
-96.87344237146568
 20
-49.68989506011258
 30
0.0
 11
-0.0000000000002038
 21
60.12202175768779
 31
0.0
210
0.0
220
0.0
230
1.0
 40
0.9537271871744062
 41
-0.5979685097554245
 42
-0.1438817440786784
  0
SPLINE
  5
517C
330
1F
100
AcDbEntity
  8
AM_0
  6
CONTINUOUS
100
AcDbSpline
210
0.0
220
0.0
230
1.0
 70
     8
 71
     3
 72
    54
 73
    50
 74
     0
 42
0.0000000001
 43
0.0000000001
 40
0.0
 40
0.0
 40
0.0
 40
0.0
 40
1.010743684496582
 40
2.022833576467832
 40
3.037578957496688
 40
4.056212745003489
 40
5.079857003664532
 40
6.109500240690281
 40
7.145961322679372
 40
8.189895241603872
 40
9.241717795325891
 40
10.30168407291828
 40
11.36983447792315
 40
12.44600489715814
 40
13.52984294512926
 40
14.62081576220742
 40
15.7182257034828
 40
16.82123173843959
 40
17.92886860250316
 40
19.0400688939571
 40
20.15368796660465
 40
21.26852814259644
 40
22.38336992938901
 40
23.49698739941135
 40
24.6081876908653
 40
25.71582455492886
 40
26.81883757994213
 40
27.91624752121713
 40
29.00722033829659
 40
30.09105838626677
 40
31.16722880550176
 40
32.23537921050758
 40
33.29534548809967
 40
34.347168041821
 40
35.39108718934584
 40
36.42754827133493
 40
37.45720575381954
 40
38.48085062012849
 40
39.49948440763516
 40
40.51422944315121
 40
41.52631975251916
 40
42.53706336719636
 40
43.54780698187354
 40
44.55989729124051
 40
45.57464232675757
 40
46.59327611426424
 40
47.6169209805722
 40
48.64656348684535
 40
49.31777037190953
 40
49.31777037190953
 40
49.31777037190953
 40
49.31777037190953
 10
-12.58446974471587
 20
-9.002179079131334
 30
0.0
 10
-13.05474602856581
 20
-8.996824297169689
 30
0.0
 10
-13.99592495629971
 20
-8.986107601223089
 30
0.0
 10
-15.40735083494898
 20
-8.899719000892035
 30
0.0
 10
-16.81871646514925
 20
-8.762383693585787
 30
0.0
 10
-18.22999474567332
 20
-8.569903037141566
 30
0.0
 10
-19.64117159418566
 20
-8.324885513488316
 30
0.0
 10
-21.05221917132216
 20
-8.028420676508348
 30
0.0
 10
-22.46314219697444
 20
-7.682505619012456
 30
0.0
 10
-23.87392815910664
 20
-7.289258559305173
 30
0.0
 10
-25.28456744769515
 20
-6.85109401047693
 30
0.0
 10
-26.69506709399708
 20
-6.370762286107192
 30
0.0
 10
-28.10543087561173
 20
-5.851203049278305
 30
0.0
 10
-29.51567641390484
 20
-5.295650688217198
 30
0.0
 10
-30.92581016550584
 20
-4.70751919121247
 30
0.0
 10
-32.33584520621527
 20
-4.090435623373847
 30
0.0
 10
-33.7457971735126
 20
-3.448206897521083
 30
0.0
 10
-35.1556784418892
 20
-2.78478241645691
 30
0.0
 10
-36.5655026944032
 20
-2.104242498819175
 30
0.0
 10
-37.97528501677343
 20
-1.410775786948089
 30
0.0
 10
-39.38503777413266
 20
-0.7086454291989019
 30
0.0
 10
-40.79478087437357
 20
-0.0021809154582989
 30
0.0
 10
-42.20451764604749
 20
0.7042963150838109
 30
0.0
 10
-43.61427512859069
 20
1.406415738806265
 30
0.0
 10
-45.02405571056572
 20
2.099884549761422
 30
0.0
 10
-46.43388247678082
 20
2.780427059952912
 30
0.0
 10
-47.84376959402112
 20
3.443845879235726
 30
0.0
 10
-49.25372378659524
 20
4.086077862081843
 30
0.0
 10
-50.66375903086683
 20
4.703160929529215
 30
0.0
 10
-52.07389273115754
 20
5.291292550215787
 30
0.0
 10
-53.48413827306172
 20
5.846844912090181
 30
0.0
 10
-54.89450209059949
 20
6.366404024684365
 30
0.0
 10
-56.30500159132241
 20
6.846736239516771
 30
0.0
 10
-57.71563481750149
 20
7.284896919357794
 30
0.0
 10
-59.12641205555201
 20
7.678149129620287
 30
0.0
 10
-60.53733455782506
 20
8.024071143033177
 30
0.0
 10
-61.94839221031418
 20
8.32050211961345
 30
0.0
 10
-63.35957372095606
 20
8.565595481369317
 30
0.0
 10
-64.77085241984622
 20
8.75784797683972
 30
0.0
 10
-66.18221903070618
 20
8.896017271438392
 30
0.0
 10
-67.59364371263453
 20
8.979274485028428
 30
0.0
 10
-69.00509940976427
 20
9.007087965186903
 30
0.0
 10
-70.41655510481724
 20
8.979274484984893
 30
0.0
 10
-71.82797979298797
 20
8.89601727161323
 30
0.0
 10
-73.23934638086534
 20
8.757847976180444
 30
0.0
 10
-74.65062516592299
 20
8.565595483846898
 30
0.0
 10
-76.06179947284964
 20
8.320503305166464
 30
0.0
 10
-77.30604423335144
 20
8.059116503663162
 30
0.0
 10
-78.07856808468786
 20
7.8745194972217
 30
0.0
 10
-79.02830818374572
 20
7.453579600213222
 30
0.0
  0
SPLINE
  5
517D
330
1F
100
AcDbEntity
  8
AM_0
  6
CONTINUOUS
100
AcDbSpline
210
0.0
220
0.0
230
1.0
 70
     8
 71
     3
 72
    25
 73
    21
 74
     0
 42
0.0000000001
 43
0.0000000001
 40
24.56499986022253
 40
24.56499986022253
 40
24.56499986022253
 40
24.56499986022253
 40
24.6081876908653
 40
25.71582455492886
 40
26.81883757994213
 40
27.91624752121713
 40
29.00722033829659
 40
30.09105838626677
 40
31.16722880550176
 40
32.23537921050758
 40
33.29534548809967
 40
34.347168041821
 40
35.39108718934584
 40
36.42754827133493
 40
37.45720575381954
 40
38.48085062012849
 40
39.49948440763516
 40
40.51422944315121
 40
41.52631975251916
 40
42.53706336680078
 40
42.53706336680078
 40
42.53706336680078
 40
42.53706336680078
 10
-8.704130929233988
 20
2.38156220384027
 30
0.0
 10
-8.722541764607639
 20
2.390249063000355
 30
0.0
 10
-9.213163939544761
 20
2.62165579595586
 30
0.0
 10
-10.17557145114937
 20
3.071062871627686
 30
0.0
 10
-11.59386943903332
 20
3.716304710555629
 30
0.0
 10
-13.01196216884728
 20
4.340360601158787
 30
0.0
 10
-14.42981268868352
 20
4.939268612140867
 30
0.0
 10
-15.84738952507554
 20
5.509226302563292
 30
0.0
 10
-17.26465943194003
 20
6.046605988019809
 30
0.0
 10
-18.68158496057799
 20
6.547993877376214
 30
0.0
 10
-20.09814195296575
 20
7.010156365536784
 30
0.0
 10
-21.51429060224382
 20
7.430149083696445
 30
0.0
 10
-22.93000601441937
 20
7.805235191152139
 30
0.0
 10
-24.34525831374168
 20
8.132993144597785
 30
0.0
 10
-25.76000961239147
 20
8.411262412561995
 30
0.0
 10
-27.17422488399857
 20
8.638196714745484
 30
0.0
 10
-28.58785813861621
 20
8.812293266678091
 30
0.0
 10
-30.00088413221689
 20
8.932309955638331
 30
0.0
 10
-31.41326237205774
 20
8.997418353519936
 30
0.0
 10
-32.35460233591615
 20
9.003865681677114
 30
0.0
 10
-32.82483985528926
 20
8.997820920868671
 30
0.0
  0
LINE
  5
517E
330
1F
100
AcDbEntity
  8
AM_0
  6
CONTINUOUS
 48
0.5
100
AcDbLine
 10
-69.00508876065043
 20
8.997820920868482
 30
0.0
 11
-32.82483985529406
 21
8.99782092086852
 31
0.0
  0
SPLINE
  5
517F
330
1F
100
AcDbEntity
  8
AM_0
  6
CONTINUOUS
 48
0.5
100
AcDbSpline
210
0.0
220
0.0
230
1.0
 70
     8
 71
     3
 72
    15
 73
    11
 74
     0
 42
0.0000000001
 43
0.0000000001
 40
0.0
 40
0.0
 40
0.0
 40
0.0
 40
1.010743614677189
 40
2.022833924044153
 40
3.037578959561199
 40
4.056212747067873
 40
5.079857613375832
 40
6.109500119648989
 40
7.14596120163808
 40
7.431514489688654
 40
7.431514489688654
 40
7.431514489688654
 40
7.431514489688654
 10
-12.0446813055131
 20
8.997820920868663
 30
0.0
 10
-12.48438172298578
 20
8.997766838525169
 30
0.0
 10
-13.36445313926965
 20
8.979299626054716
 30
0.0
 10
-14.68417018965004
 20
8.896010482214714
 30
0.0
 10
-16.0038512683579
 20
8.757849918596049
 30
0.0
 10
-17.32344509018416
 20
8.565594532632548
 30
0.0
 10
-18.6429434382175
 20
8.320505168857742
 30
0.0
 10
-19.96232380241981
 20
8.024067618472994
 30
0.0
 10
-20.95988527587049
 20
7.762501086043009
 30
0.0
 10
-21.5181181189117
 20
7.603422176277828
 30
0.0
 10
-21.79887536775149
 20
7.501677918322216
 30
0.0
  0
LINE
  5
5180
330
1F
100
AcDbEntity
  8
AM_11
  6
AM_ISO09W050
 48
0.5
100
AcDbLine
 10
-39.17209880375501
 20
8.997820920868512
 30
0.0
 11
-12.58446974471584
 21
8.997820920868495
 31
0.0
  0
LINE
  5
5181
330
1F
100
AcDbEntity
  8
AM_0
100
AcDbLine
 10
-13.21097044615147
 20
-8.982741652805566
 30
0.0
 11
-13.21097044615147
 21
4.421757081658329
 31
0.0
  0
SPLINE
  5
5182
330
1F
100
AcDbEntity
  8
AM_0
  6
CONTINUOUS
100
AcDbSpline
210
0.0
220
0.0
230
1.0
 70
     8
 71
     3
 72
    11
 73
     7
 74
     0
 42
0.0000000001
 43
0.0000000001
 40
11.27226913003534
 40
11.27226913003534
 40
11.27226913003534
 40
11.2722691300354
 40
12.28301561507924
 40
13.29510212255852
 40
14.30984805882082
 40
15.18258238371378
 40
15.18258238371378
 40
15.18258238371378
 40
15.18258238371378
 10
-39.17209880375498
 20
-9.002179079131344
 30
0.0
 10
-39.64058685947081
 20
-8.958130463748465
 30
0.0
 10
-40.57667931334335
 20
-8.851490682980315
 30
0.0
 10
-41.97598418723305
 20
-8.636371867884236
 30
0.0
 10
-43.30394918614146
 20
-8.379436030109754
 30
0.0
 10
-44.16279899745386
 20
-8.181921804711372
 30
0.0
 10
-44.55858144623259
 20
-8.084355232904151
 30
0.0
  0
SPLINE
  5
5183
330
1F
100
AcDbEntity
  8
AM_0
  6
CONTINUOUS
100
AcDbSpline
210
0.0
220
0.0
230
1.0
 70
     8
 71
     3
 72
    17
 73
    13
 74
     0
 42
0.0000000001
 43
0.0000000001
 40
1.580019955310467
 40
1.580019955310467
 40
1.580019955310467
 40
1.580019955310467
 40
2.030549285115227
 40
3.082371838836284
 40
4.126290986361125
 40
5.162752068350215
 40
6.192395305374981
 40
7.216039564037012
 40
8.234688489606833
 40
9.249433870634691
 40
10.26152376260694
 40
11.27226744710342
 40
11.27226744710342
 40
11.27226744710342
 40
11.27226744710352
 10
-25.87724709879178
 20
-6.644444098444538
 30
0.0
 10
-26.07694030178122
 20
-6.712853910162365
 30
0.0
 10
-26.74398268913273
 20
-6.937076205503258
 30
0.0
 10
-27.88278946393129
 20
-7.288776898558846
 30
0.0
 10
-29.29337012331325
 20
-7.682635018492822
 30
0.0
 10
-30.70433911422991
 20
-8.028390154603785
 30
0.0
 10
-32.11537275525329
 20
-8.324881183435762
 30
0.0
 10
-33.52656012586299
 20
-8.569951414926856
 30
0.0
 10
-34.93784499135866
 20
-8.762202341326448
 30
0.0
 10
-36.34921773474729
 20
-8.90038811230376
 30
0.0
 10
-37.76064358345946
 20
-8.983619210003165
 30
0.0
 10
-38.70182252610925
 20
-9.002179130630119
 30
0.0
 10
-39.17209880375487
 20
-9.002179079131344
 30
0.0
  0
LINE
  5
5184
330
1F
100
AcDbEntity
  8
AM_0
  6
CONTINUOUS
 48
0.5
100
AcDbLine
 10
-63.60162807504273
 20
-9.002179079131499
 30
0.0
 11
-39.17209880375503
 21
-9.002179079131487
 31
0.0
  0
SPLINE
  5
5185
330
1F
100
AcDbEntity
  8
AM_0
  6
CONTINUOUS
100
AcDbSpline
210
0.0
220
0.0
230
1.0
 70
     8
 71
     3
 72
    22
 73
    18
 74
     0
 42
0.0000000001
 43
0.0000000001
 40
17.17441611292
 40
17.17441611292
 40
17.17441611292
 40
17.17441611292
 40
17.38177636558528
 40
18.41823744757437
 40
19.46215659509824
 40
20.51397914882054
 40
21.57394542641293
 40
22.64209583141747
 40
23.71826625065247
 40
24.80210429862395
 40
25.8930771157021
 40
26.99048705697709
 40
28.09349309193389
 40
29.20112995599786
 40
30.31233024745139
 40
31.42594771747373
 40
32.5407895042663
 40
32.54078950426994
 40
32.54078950426994
 40
32.54078950426994
 10
-44.55919871141778
 20
-8.084244217972774
 30
0.0
 10
-44.65370979836823
 20
-8.06341010070894
 30
0.0
 10
-45.22025214912537
 20
-7.936507215228392
 30
0.0
 10
-46.25812581117804
 20
-7.682050413061277
 30
0.0
 10
-47.66890284749549
 20
-7.288797072981975
 30
0.0
 10
-49.0795361285944
 20
-6.850636699918318
 30
0.0
 10
-50.49003561346658
 20
-6.370304399561721
 30
0.0
 10
-51.90039943894026
 20
-5.850745319094726
 30
0.0
 10
-53.31064496495878
 20
-5.295192914760117
 30
0.0
 10
-54.7207787213553
 20
-4.707061432885089
 30
0.0
 10
-56.13081375522028
 20
-4.089977848092518
 30
0.0
 10
-57.54076574524929
 20
-3.44774917523385
 30
0.0
 10
-58.95064692897495
 20
-2.784324497839386
 30
0.0
 10
-60.36047149913086
 20
-2.103785316630397
 30
0.0
 10
-61.77025195258467
 20
-1.410316177245107
 30
0.0
 10
-63.18000917400781
 20
-0.7081961590985167
 30
0.0
 10
-64.11966284264988
 20
-0.2372991563864212
 30
0.0
 10
-64.58974780659878
 20
-0.0017213154580911
 30
0.0
  0
LINE
  5
5186
330
1F
100
AcDbEntity
  8
AM_11
  6
AM_ISO09W050
 48
0.5
100
AcDbLine
 10
-36.90504494197933
 20
-9.002179079131607
 30
0.0
 11
-12.04468130551308
 21
-9.002179079131535
 31
0.0
  0
LINE
  5
5187
330
1F
100
AcDbEntity
  8
AM_0
100
AcDbLine
 10
-12.10193391006014
 20
3.938765540486646
 30
0.0
 11
-12.03196120426493
 21
8.997820920868663
 31
0.0
  0
VIEWPORT
  5
110
330
101
100
AcDbEntity
 67
     1
  8
0
100
AcDbViewport
 10
420.5
 20
297.0
 30
0.0
 40
948.9782706766916
 41
628.452
 68
     1
 69
     1
1001
ACAD
1000
MVIEW
1002
{
1070
    16
1010
0.0
1020
0.0
1030
0.0
1010
0.0
1020
0.0
1030
1.0
1040
0.0
1040
628.452
1040
420.5
1040
297.0
1040
50.0
1040
0.0
1040
0.0
1070
     0
1070
   100
1070
     1
1070
     1
1070
     0
1070
     0
1070
     0
1070
     0
1040
0.0
1040
0.0
1040
0.0
1040
10.0
1040
10.0
1040
10.0
1040
10.0
1070
     0
1002
{
1002
}
1002
}
  0
ENDSEC
  0
SECTION
  2
OBJECTS
  0
DICTIONARY
  5
C
330
0
100
AcDbDictionary
  3
ACAD_GROUP
350
D
  3
ACAD_LAYOUT
350
1A
  3
ACAD_MLINESTYLE
350
17
  3
ACAD_PLOTSETTINGS
350
19
  3
ACAD_PLOTSTYLENAME
350
E
  3
ACDBVARIABLEDICTIONARY
350
34
  3
ACMDICTIONARY
350
43
  3
AMG
350
2B
  3
AMGSNAPSETTINGS
350
6E
  3
DWGPROPS
350
51A4
  3
ACDBHEADERROUNDTRIPXREC
350
51B4
  0
DICTIONARY
  5
74
330
1F
100
AcDbDictionary
280
     1
  3
ACAD_INDEX
360
51A6
  3
ACAD_LAYOUTSELFREF
360
51D7
  0
DICTIONARY
  5
51DC
330
101
100
AcDbDictionary
280
     1
  3
ACAD_LAYOUTSELFREF
360
51DD
  0
DICTIONARY
  5
D
102
{ACAD_REACTORS
330
C
102
}
330
C
100
AcDbDictionary
  0
DICTIONARY
  5
1A
102
{ACAD_REACTORS
330
C
102
}
330
C
100
AcDbDictionary
  0
DICTIONARY
  5
17
102
{ACAD_REACTORS
330
C
102
}
330
C
100
AcDbDictionary
  3
STANDARD
350
18
  0
DICTIONARY
  5
19
102
{ACAD_REACTORS
330
C
102
}
330
C
100
AcDbDictionary
  0
ACDBDICTIONARYWDFLT
  5
E
102
{ACAD_REACTORS
330
C
102
}
330
C
100
AcDbDictionary
281
     1
  3
Normal
350
F
100
AcDbDictionaryWithDefault
340
F
  0
DICTIONARY
  5
34
102
{ACAD_REACTORS
330
C
102
}
330
C
100
AcDbDictionary
  3
INDEXCTL
350
35
  3
SORTENTS
350
B5E
  0
DICTIONARY
  5
43
102
{ACAD_REACTORS
330
C
102
}
330
C
100
AcDbDictionary
  3
ACMSTDDICTIONARY
350
260
  0
DICTIONARY
  5
2B
102
{ACAD_REACTORS
330
C
102
}
330
C
100
AcDbDictionary
  3
ACMGSETTINGS
350
2C
  0
DICTIONARY
  5
6E
102
{ACAD_REACTORS
330
C
102
}
330
C
100
AcDbDictionary
  0
XRECORD
  5
51A4
102
{ACAD_REACTORS
330
C
102
}
330
C
100
AcDbXrecord
  1
DWGPROPS COOKIE
  2

  3

  4

  6

  7

  8

  9

300
AmdtFileType=82
301
=
302
=
303
=
304
=
305
=
306
=
307
=
308
=
309
=
 40
0.4626814814814815
 41
2452800.443498622
 42
2453002.637884398
  1

 90
        1
  0
DICTIONARY
  5
51B4
102
{ACAD_REACTORS
330
C
102
}
330
C
100
AcDbDictionary
  3
TSTACKALIGN
350
51B5
  3
TSTACKSIZE
350
51B6
  3
HYPERLINKBASE
350
51B7
  3
STYLESHEET
350
51B8
  3
LAYOUTDICT
350
51B9
  3
PLOTSETDICT
350
51BA
  3
PLOTSTYLNAMDICT
350
51BB
  3
LWETCUNION
350
51BC
  3
INSUNITS
350
51BD
  3
CEPSNTYPE
350
51BE
  3
FINGERPRINTGUID
350
51BF
  3
VERSIONGUID
350
51C0
  3
PSVPSCALE
350
51C1
  3
DIMSTYLEDATA
350
51C2
  3
PUCSORTHOREF
350
51C3
  3
PUCSORTHOVIEW
350
51C4
  3
PUCSBASE
350
51C5
  3
PUCSORGTOP
350
51C6
  3
PUCSORGBOTTOM
350
51C7
  3
PUCSORGLEFT
350
51C8
  3
PUCSORGRIGHT
350
51C9
  3
PUCSORGFRONT
350
51CA
  3
PUCSORGBACK
350
51CB
  3
UCSORTHOREF
350
51CC
  3
UCSORTHOVIEW
350
51CD
  3
UCSBASE
350
51CE
  3
UCSORGTOP
350
51CF
  3
UCSORGBOTTOM
350
51D0
  3
UCSORGLEFT
350
51D1
  3
UCSORGRIGHT
350
51D2
  3
UCSORGFRONT
350
51D3
  3
UCSORGBACK
350
51D4
  0
DICTIONARY
  5
51A6
102
{ACAD_REACTORS
330
74
102
}
330
74
100
AcDbDictionary
  3
*A1
350
51A7
  0
XRECORD
  5
51D7
102
{ACAD_REACTORS
330
74
102
}
330
74
100
AcDbXrecord
340
1F
  0
XRECORD
  5
51DD
102
{ACAD_REACTORS
330
51DC
102
}
330
51DC
100
AcDbXrecord
340
101
  0
MLINESTYLE
  5
18
102
{ACAD_REACTORS
330
17
102
}
330
17
100
AcDbMlineStyle
  2
STANDARD
 70
     0
  3

 62
   256
 51
90.0
 52
90.0
 71
     2
 49
0.5
 62
   256
  6
BYLAYER
 49
-0.5
 62
   256
  6
BYLAYER
  0
ACDBPLACEHOLDER
  5
F
102
{ACAD_REACTORS
330
E
102
}
330
E
100
AcDbPlaceHolder
280
     0
  0
DICTIONARYVAR
  5
35
102
{ACAD_REACTORS
330
34
102
}
330
34
100
DictionaryVariables
280
     0
  1
1
  0
DICTIONARYVAR
  5
B5E
102
{ACAD_REACTORS
330
34
102
}
330
34
100
DictionaryVariables
280
     0
  1
96
  0
DICTIONARY
  5
260
102
{ACAD_REACTORS
330
43
102
}
330
43
100
AcDbDictionary
  0
DICTIONARY
  5
2C
102
{ACAD_REACTORS
330
2B
102
}
330
2B
100
AcDbDictionary
  3
DWGSETTINGS
350
2D
  0
XRECORD
  5
51B5
102
{ACAD_REACTORS
330
51B4
102
}
330
51B4
100
AcDbXrecord
 90
        1
  0
XRECORD
  5
51B6
102
{ACAD_REACTORS
330
51B4
102
}
330
51B4
100
AcDbXrecord
 90
       70
  0
XRECORD
  5
51B7
102
{ACAD_REACTORS
330
51B4
102
}
330
51B4
100
AcDbXrecord
  1

  0
XRECORD
  5
51B8
102
{ACAD_REACTORS
330
51B4
102
}
330
51B4
100
AcDbXrecord
  1
ASAMI.ctb
  0
XRECORD
  5
51B9
102
{ACAD_REACTORS
330
51B4
102
}
330
51B4
100
AcDbXrecord
340
1A
  0
XRECORD
  5
51BA
102
{ACAD_REACTORS
330
51B4
102
}
330
51B4
100
AcDbXrecord
340
19
  0
XRECORD
  5
51BB
102
{ACAD_REACTORS
330
51B4
102
}
330
51B4
100
AcDbXrecord
340
E
  0
XRECORD
  5
51BC
102
{ACAD_REACTORS
330
51B4
102
}
330
51B4
100
AcDbXrecord
 90
    10781
  0
XRECORD
  5
51BD
102
{ACAD_REACTORS
330
51B4
102
}
330
51B4
100
AcDbXrecord
 90
        4
  0
XRECORD
  5
51BE
102
{ACAD_REACTORS
330
51B4
102
}
330
51B4
100
AcDbXrecord
 90
        0
  0
XRECORD
  5
51BF
102
{ACAD_REACTORS
330
51B4
102
}
330
51B4
100
AcDbXrecord
  1
{AFB28963-8C59-40AE-9337-C84526B81ACE}
  0
XRECORD
  5
51C0
102
{ACAD_REACTORS
330
51B4
102
}
330
51B4
100
AcDbXrecord
  1
{A8AFCAA0-950B-48C2-BBF1-445DC38A3A4D}
  0
XRECORD
  5
51C1
102
{ACAD_REACTORS
330
51B4
102
}
330
51B4
100
AcDbXrecord
 40
0.0
  0
XRECORD
  5
51C2
102
{ACAD_REACTORS
330
51B4
102
}
330
51B4
100
AcDbXrecord
1000
DSTYLE
1002
{
1070
    79
 70
     2
1070
   341
340
59
1070
   342
340
59
1070
   371
 70
    -1
1070
   372
 70
    -1
1002
}
  0
XRECORD
  5
51C3
102
{ACAD_REACTORS
330
51B4
102
}
330
51B4
100
AcDbXrecord
340
0
  0
XRECORD
  5
51C4
102
{ACAD_REACTORS
330
51B4
102
}
330
51B4
100
AcDbXrecord
 70
     0
  0
XRECORD
  5
51C5
102
{ACAD_REACTORS
330
51B4
102
}
330
51B4
100
AcDbXrecord
340
0
  0
XRECORD
  5
51C6
102
{ACAD_REACTORS
330
51B4
102
}
330
51B4
100
AcDbXrecord
 10
0.0
 20
0.0
 30
0.0
  0
XRECORD
  5
51C7
102
{ACAD_REACTORS
330
51B4
102
}
330
51B4
100
AcDbXrecord
 10
0.0
 20
0.0
 30
0.0
  0
XRECORD
  5
51C8
102
{ACAD_REACTORS
330
51B4
102
}
330
51B4
100
AcDbXrecord
 10
0.0
 20
0.0
 30
0.0
  0
XRECORD
  5
51C9
102
{ACAD_REACTORS
330
51B4
102
}
330
51B4
100
AcDbXrecord
 10
0.0
 20
0.0
 30
0.0
  0
XRECORD
  5
51CA
102
{ACAD_REACTORS
330
51B4
102
}
330
51B4
100
AcDbXrecord
 10
0.0
 20
0.0
 30
0.0
  0
XRECORD
  5
51CB
102
{ACAD_REACTORS
330
51B4
102
}
330
51B4
100
AcDbXrecord
 10
0.0
 20
0.0
 30
0.0
  0
XRECORD
  5
51CC
102
{ACAD_REACTORS
330
51B4
102
}
330
51B4
100
AcDbXrecord
340
0
  0
XRECORD
  5
51CD
102
{ACAD_REACTORS
330
51B4
102
}
330
51B4
100
AcDbXrecord
 70
     0
  0
XRECORD
  5
51CE
102
{ACAD_REACTORS
330
51B4
102
}
330
51B4
100
AcDbXrecord
340
0
  0
XRECORD
  5
51CF
102
{ACAD_REACTORS
330
51B4
102
}
330
51B4
100
AcDbXrecord
 10
0.0
 20
0.0
 30
0.0
  0
XRECORD
  5
51D0
102
{ACAD_REACTORS
330
51B4
102
}
330
51B4
100
AcDbXrecord
 10
0.0
 20
0.0
 30
0.0
  0
XRECORD
  5
51D1
102
{ACAD_REACTORS
330
51B4
102
}
330
51B4
100
AcDbXrecord
 10
0.0
 20
0.0
 30
0.0
  0
XRECORD
  5
51D2
102
{ACAD_REACTORS
330
51B4
102
}
330
51B4
100
AcDbXrecord
 10
0.0
 20
0.0
 30
0.0
  0
XRECORD
  5
51D3
102
{ACAD_REACTORS
330
51B4
102
}
330
51B4
100
AcDbXrecord
 10
0.0
 20
0.0
 30
0.0
  0
XRECORD
  5
51D4
102
{ACAD_REACTORS
330
51B4
102
}
330
51B4
100
AcDbXrecord
 10
0.0
 20
0.0
 30
0.0
  0
LAYER_INDEX
  5
51A7
102
{ACAD_REACTORS
330
51A6
102
}
330
51A6
100
AcDbIndex
 40
2453151.71880912
100
AcDbLayerIndex
  8
0
360
51A8
 90
        0
  8
AM_0
360
51A9
 90
       35
  8
PV0001_1
360
51AA
 90
       10
  8
AM_CL
360
51AB
 90
        0
  8
AM_7
360
51AC
 90
        1
  8
AM_11
360
51AD
 90
        2
  8
AM_5
360
51AE
 90
        9
  8
Defpoints
360
51AF
 90
        0
  8
AM_6
360
51B0
 90
        1
  8
AM_4
360
51B1
 90
        0
  8
AM_3
360
51B2
 90
        0
  0
XRECORD
  5
2D
102
{ACAD_REACTORS
330
2C
102
}
330
2C
100
AcDbXrecord
  1
VERSION
140
15.0
  1
PRODUCT
  2
AutoCAD Mechanical 2000
  0
IDBUFFER
  5
51A8
330
0
100
AcDbIdBuffer
  0
IDBUFFER
  5
51A9
330
0
100
AcDbIdBuffer
330
4E63
330
4E67
330
4E68
330
4F5F
330
4F60
330
4F65
330
4F66
330
5023
330
517B
330
517C
330
517D
330
517E
330
517F
330
5181
330
5182
330
5183
330
5184
330
5185
330
5187
330
4E4B
330
4E4C
330
4E4D
330
4E4E
330
4E4F
330
4E50
330
4E51
330
4E56
330
4E5B
330
4E5C
330
4E5D
330
4E5E
330
4E5F
330
4E60
330
4E61
330
4E62
  0
IDBUFFER
  5
51AA
330
0
100
AcDbIdBuffer
330
35CA
330
4F5C
330
4F5D
330
4F5E
330
4F61
330
4F62
330
4F63
330
4F64
330
4F67
330
4F68
  0
IDBUFFER
  5
51AB
330
0
100
AcDbIdBuffer
  0
IDBUFFER
  5
51AC
330
0
100
AcDbIdBuffer
330
4E36
  0
IDBUFFER
  5
51AD
330
0
100
AcDbIdBuffer
330
5180
330
5186
  0
IDBUFFER
  5
51AE
330
0
100
AcDbIdBuffer
330
4E34
330
4E35
330
4E55
330
4F59
330
4F5A
330
4F5B
330
4F69
330
4F6A
330
503D
  0
IDBUFFER
  5
51AF
330
0
100
AcDbIdBuffer
  0
IDBUFFER
  5
51B0
330
0
100
AcDbIdBuffer
330
19BD
  0
IDBUFFER
  5
51B1
330
0
100
AcDbIdBuffer
  0
IDBUFFER
  5
51B2
330
0
100
AcDbIdBuffer
  0
ENDSEC
  0
EOF
