  0
SECTION
  2
HEADER
  9
$ACADVER
  1
AC1014
  9
$ACADMAINTVER
 70
     9
  9
$DWGCODEPAGE
  3
ANSI_932
  9
$INSBASE
 10
0.0
 20
0.0
 30
0.0
  9
$EXTMIN
 10
-215.7045582907493
 20
-73.06584636158118
 30
-0.00000001
  9
$EXTMAX
 10
30.91670195021685
 20
44.23656301910681
 30
0.00000001
  9
$LIMMIN
 10
-243.2133242275694
 20
-112.155906035466
  9
$LIMMAX
 10
57.217975346907
 20
75.86273536098372
  9
$ORTHOMODE
 70
     0
  9
$REGENMODE
 70
     1
  9
$FILLMODE
 70
     1
  9
$QTEXTMODE
 70
     0
  9
$MIRRTEXT
 70
     0
  9
$DRAGMODE
 70
     2
  9
$LTSCALE
 40
1.0
  9
$OSMODE
 70
    55
  9
$ATTMODE
 70
     1
  9
$TEXTSIZE
 40
2.5
  9
$TRACEWID
 40
1.0
  9
$TEXTSTYLE
  7
STANDARD
  9
$CLAYER
  8
AM_0
  9
$CELTYPE
  6
BYLAYER
  9
$CECOLOR
 62
   256
  9
$CELTSCALE
 40
1.0
  9
$DELOBJ
 70
     1
  9
$DISPSILH
 70
     0
  9
$DIMSCALE
 40
1.0
  9
$DIMASZ
 40
2.5
  9
$DIMEXO
 40
1.0
  9
$DIMDLI
 40
12.0
  9
$DIMRND
 40
0.0
  9
$DIMDLE
 40
0.0
  9
$DIMEXE
 40
1.0
  9
$DIMTP
 40
0.1
  9
$DIMTM
 40
0.1
  9
$DIMTXT
 40
3.2
  9
$DIMCEN
 40
0.0
  9
$DIMTSZ
 40
0.0
  9
$DIMTOL
 70
     0
  9
$DIMLIM
 70
     0
  9
$DIMTIH
 70
     0
  9
$DIMTOH
 70
     0
  9
$DIMSE1
 70
     0
  9
$DIMSE2
 70
     0
  9
$DIMTAD
 70
     3
  9
$DIMZIN
 70
     8
  9
$DIMBLK
  1
OPEN30
  9
$DIMASO
 70
     1
  9
$DIMSHO
 70
     1
  9
$DIMPOST
  1

  9
$DIMAPOST
  1
"
  9
$DIMALT
 70
     0
  9
$DIMALTD
 70
     2
  9
$DIMALTF
 40
0.0393701
  9
$DIMLFAC
 40
1.0
  9
$DIMTOFL
 70
     1
  9
$DIMTVP
 40
0.0
  9
$DIMTIX
 70
     0
  9
$DIMSOXD
 70
     0
  9
$DIMSAH
 70
     0
  9
$DIMBLK1
  1

  9
$DIMBLK2
  1

  9
$DIMSTYLE
  2
AM_JIS
  9
$DIMCLRD
 70
   256
  9
$DIMCLRE
 70
   256
  9
$DIMCLRT
 70
     2
  9
$DIMTFAC
 40
0.71
  9
$DIMGAP
 40
1.5
  9
$DIMJUST
 70
     0
  9
$DIMSD1
 70
     0
  9
$DIMSD2
 70
     0
  9
$DIMTOLJ
 70
     0
  9
$DIMTZIN
 70
     0
  9
$DIMALTZ
 70
     0
  9
$DIMALTTZ
 70
     0
  9
$DIMFIT
 70
     3
  9
$DIMUPT
 70
     0
  9
$DIMUNIT
 70
     2
  9
$DIMDEC
 70
     3
  9
$DIMTDEC
 70
     3
  9
$DIMALTU
 70
     2
  9
$DIMALTTD
 70
     2
  9
$DIMTXSTY
  7
ASAMI
  9
$DIMAUNIT
 70
     0
  9
$LUNITS
 70
     2
  9
$LUPREC
 70
     2
  9
$SKETCHINC
 40
1.0
  9
$FILLETRAD
 40
2.5
  9
$AUNITS
 70
     0
  9
$AUPREC
 70
     0
  9
$MENU
  1
.
  9
$ELEVATION
 40
0.0
  9
$PELEVATION
 40
0.0
  9
$THICKNESS
 40
0.0
  9
$LIMCHECK
 70
     0
  9
$BLIPMODE
 70
     0
  9
$CHAMFERA
 40
2.5
  9
$CHAMFERB
 40
2.5
  9
$CHAMFERC
 40
20.0
  9
$CHAMFERD
 40
0.0
  9
$SKPOLY
 70
     0
  9
$TDCREATE
 40
2452800.443498622
  9
$TDUPDATE
 40
2453151.706783472
  9
$TDINDWG
 40
0.3750791088
  9
$TDUSRTIMER
 40
0.3750791088
  9
$USRTIMER
 70
     1
  9
$ANGBASE
 50
0.0
  9
$ANGDIR
 70
     0
  9
$PDMODE
 70
     0
  9
$PDSIZE
 40
0.0
  9
$PLINEWID
 40
0.0
  9
$COORDS
 70
     1
  9
$SPLFRAME
 70
     0
  9
$SPLINETYPE
 70
     6
  9
$SPLINESEGS
 70
     8
  9
$ATTDIA
 70
     1
  9
$ATTREQ
 70
     1
  9
$HANDLING
 70
 12289
  9
$HANDSEED
  5
4CC4
  9
$SURFTAB1
 70
     6
  9
$SURFTAB2
 70
     6
  9
$SURFTYPE
 70
     6
  9
$SURFU
 70
     6
  9
$SURFV
 70
     6
  9
$UCSNAME
  2

  9
$UCSORG
 10
0.0
 20
-0.0000000000000725
 30
0.0
  9
$UCSXDIR
 10
1.0
 20
0.0000000000000027
 30
0.0
  9
$UCSYDIR
 10
-0.0000000000000027
 20
1.0
 30
0.0
  9
$PUCSNAME
  2

  9
$PUCSORG
 10
0.0
 20
0.0
 30
0.0
  9
$PUCSXDIR
 10
1.0
 20
0.0
 30
0.0
  9
$PUCSYDIR
 10
0.0
 20
1.0
 30
0.0
  9
$USERI1
 70
     0
  9
$USERI2
 70
     0
  9
$USERI3
 70
     0
  9
$USERI4
 70
     0
  9
$USERI5
 70
     0
  9
$USERR1
 40
0.0
  9
$USERR2
 40
0.0
  9
$USERR3
 40
0.0
  9
$USERR4
 40
0.0
  9
$USERR5
 40
0.0
  9
$WORLDVIEW
 70
     1
  9
$SHADEDGE
 70
     3
  9
$SHADEDIF
 70
    70
  9
$TILEMODE
 70
     1
  9
$MAXACTVP
 70
    64
  9
$PINSBASE
 10
0.0
 20
0.0
 30
0.0
  9
$PLIMCHECK
 70
     0
  9
$PEXTMIN
 10
1.000000000000000E+20
 20
1.000000000000000E+20
 30
1.000000000000000E+20
  9
$PEXTMAX
 10
-1.000000000000000E+20
 20
-1.000000000000000E+20
 30
-1.000000000000000E+20
  9
$PLIMMIN
 10
0.0
 20
0.0
  9
$PLIMMAX
 10
841.0
 20
594.0
  9
$UNITMODE
 70
     0
  9
$VISRETAIN
 70
     1
  9
$PLINEGEN
 70
     0
  9
$PSLTSCALE
 70
     0
  9
$TREEDEPTH
 70
  3020
  9
$PICKSTYLE
 70
     0
  9
$CMLSTYLE
  2
STANDARD
  9
$CMLJUST
 70
     0
  9
$CMLSCALE
 40
20.0
  9
$PROXYGRAPHICS
 70
     1
  9
$MEASUREMENT
 70
     1
  0
ENDSEC
  0
SECTION
  2
CLASSES
  0
CLASS
  1
ACDBDICTIONARYWDFLT
  2
AcDbDictionaryWithDefault
  3
AutoCAD 2000
 90
        0
280
     0
281
     0
  0
CLASS
  1
ACDBPLACEHOLDER
  2
AcDbPlaceHolder
  3
AutoCAD 2000
 90
        0
280
     0
281
     0
  0
CLASS
  1
LAYOUT
  2
AcDbLayout
  3
AutoCAD 2000
 90
        0
280
     0
281
     0
  0
CLASS
  1
AMGSETTINGSOBJ
  2
AmgSettingsObj
  3
"AcadM|Product Description: AutoCAD Mechanical 2000|Company: Autodesk"
 90
        0
280
     0
281
     0
  0
CLASS
  1
ACME_DOCUMENT
  2
AcMeDbDoc
  3
AcMeServices
 90
        0
280
     0
281
     0
  0
CLASS
  1
ACMESCOPE
  2
AcMeScope
  3
AcMeServices
 90
        0
280
     0
281
     0
  0
CLASS
  1
ACMECOMMANDHISTORY
  2
AcMeCommandHistory
  3
AcMeServices
 90
        0
280
     0
281
     0
  0
CLASS
  1
DICTIONARYVAR
  2
AcDbDictionaryVar
  3
AutoCAD 2000
 90
        0
280
     0
281
     0
  0
CLASS
  1
ACIMSYSVARMAN
  2
AcImSysVarManager
  3
AcMeServices
 90
        0
280
     0
281
     0
  0
CLASS
  1
ACIMREALSYSVAR
  2
AcImRealSysVar
  3
AcMeServices
 90
        0
280
     0
281
     0
  0
CLASS
  1
ACIMINTSYSVAR
  2
AcImIntSysVar
  3
AcMeServices
 90
        0
280
     0
281
     0
  0
CLASS
  1
ACMEDRAWINGMAN
  2
AcMeDrawingMan
  3
AcMeServices
 90
        0
280
     0
281
     0
  0
CLASS
  1
ACMEVIEW
  2
AcMeView
  3
AcMeServices
 90
        0
280
     0
281
     0
  0
CLASS
  1
ACDBENTITYCACHE
  2
AcMeEntityCache
  3
AcMeServices
 90
        0
280
     0
281
     0
  0
CLASS
  1
GSMANAGER
  2
AcMeGSManager
  3
AcMeServices
 90
        0
280
     0
281
     0
  0
CLASS
  1
AmdtInternalReactor
  2
AmdtInternalReactor
  3
AcMeServices
 90
        0
280
     0
281
     0
  0
CLASS
  1
ACMESTATEMGR
  2
AcMeStateMgr
  3
AcMeServices
 90
        0
280
     0
281
     0
  0
CLASS
  1
ACME_DATABASE
  2
AcMeDbDatabase
  3
AcMeServices
 90
        0
280
     0
281
     0
  0
CLASS
  1
ACRFINSADJUSTERMGR
  2
AcRfInsAdjusterMgr
  3
AcMeServices
 90
        0
280
     0
281
     0
  0
CLASS
  1
ACMDATADICTIONARY
  2
AcmDataDictionary
  3
"AcmSymBB|Product Description: AutoCAD Mechanical 2000|Company: Autodesk"
 90
        0
280
     0
281
     0
  0
CLASS
  1
ACMDATAENTRYBLOCK
  2
AcmDataEntryBlock
  3
"AcmSymBB|Product Description: AutoCAD Mechanical 2000|Company: Autodesk"
 90
        0
280
     0
281
     0
  0
CLASS
  1
AMGOBJPROPCFG
  2
AmgObjPropCfg
  3
"AmgLay|Product Description: AutoCAD Mechanical 2000|Company: Autodesk"
 90
        1
280
     0
281
     0
  0
CLASS
  1
ACAMGFILTERDAT
  2
AcAmgFilterDat
  3
"AcadM|Product Description: AutoCAD Mechanical 2000|Company: Autodesk"
 90
        0
280
     0
281
     0
  0
CLASS
  1
LAYER_INDEX
  2
AcDbLayerIndex
  3
AutoCAD 2000
 90
        0
280
     0
281
     0
  0
CLASS
  1
IDBUFFER
  2
AcDbIdBuffer
  3
AutoCAD 2000
 90
        0
280
     0
281
     0
  0
CLASS
  1
ACIMSTRSYSVAR
  2
AcImStrSysVar
  3
AcMeServices
 90
        0
280
     0
281
     0
  0
CLASS
  1
ACMSTANDARDJIS
  2
AcmStandardJIS
  3
"AcmSymBB|Product Description: AutoCAD Mechanical 2000|Company: Autodesk"
 90
        0
280
     0
281
     0
  0
CLASS
  1
ACMSURFSTANDARDJIS
  2
AcmSurfTextStdJIS
  3
"AcmSymBB|Product Description: AutoCAD Mechanical 2000|Company: Autodesk"
 90
        0
280
     0
281
     0
  0
CLASS
  1
ACMFCFSTANDARDJIS
  2
AcmFCFStdJIS
  3
"AcmSymBB|Product Description: AutoCAD Mechanical 2000|Company: Autodesk"
 90
        0
280
     0
281
     0
  0
CLASS
  1
ACMWELDSTANDARDJIS
  2
AcmWeldingStdJIS
  3
"AcmSymBB|Product Description: AutoCAD Mechanical 2000|Company: Autodesk"
 90
        0
280
     0
281
     0
  0
CLASS
  1
ACMIDSTANDARDJIS
  2
AcmIdStdJIS
  3
"AcmSymBB|Product Description: AutoCAD Mechanical 2000|Company: Autodesk"
 90
        0
280
     0
281
     0
  0
CLASS
  1
ACMDATUMSTANDARDJIS
  2
AcmDatumStdJIS
  3
"AcmSymBB|Product Description: AutoCAD Mechanical 2000|Company: Autodesk"
 90
        0
280
     0
281
     0
  0
CLASS
  1
ACMBOMSTANDARDJIS
  2
AcmBOMStdJIS
  3
"AcmSymBB|Product Description: AutoCAD Mechanical 2000|Company: Autodesk"
 90
        0
280
     0
281
     0
  0
CLASS
  1
ACMSTANDARDANSI
  2
AcmStandardANSI
  3
"AcmSymBB|Product Description: AutoCAD Mechanical 2000|Company: Autodesk"
 90
        0
280
     0
281
     0
  0
CLASS
  1
ACMSURFSTANDARDANSI
  2
AcmSurfTextStdANSI
  3
"AcmSymBB|Product Description: AutoCAD Mechanical 2000|Company: Autodesk"
 90
        0
280
     0
281
     0
  0
CLASS
  1
ACMFCFSTANDARDANSI
  2
AcmFCFStdANSI
  3
"AcmSymBB|Product Description: AutoCAD Mechanical 2000|Company: Autodesk"
 90
        0
280
     0
281
     0
  0
CLASS
  1
ACMWELDSTANDARDANSI
  2
AcmWeldingStdANSI
  3
"AcmSymBB|Product Description: AutoCAD Mechanical 2000|Company: Autodesk"
 90
        0
280
     0
281
     0
  0
CLASS
  1
ACMIDSTANDARDANSI
  2
AcmIdStdANSI
  3
"AcmSymBB|Product Description: AutoCAD Mechanical 2000|Company: Autodesk"
 90
        0
280
     0
281
     0
  0
CLASS
  1
ACMDATUMSTANDARDANSI
  2
AcmDatumStdANSI
  3
"AcmSymBB|Product Description: AutoCAD Mechanical 2000|Company: Autodesk"
 90
        0
280
     0
281
     0
  0
CLASS
  1
ACMBOMSTANDARDANSI
  2
AcmBOMStdANSI
  3
"AcmSymBB|Product Description: AutoCAD Mechanical 2000|Company: Autodesk"
 90
        0
280
     0
281
     0
  0
CLASS
  1
ACMSTANDARDBSI
  2
AcmStandardBSI
  3
"AcmSymBB|Product Description: AutoCAD Mechanical 2000|Company: Autodesk"
 90
        0
280
     0
281
     0
  0
CLASS
  1
ACMSURFSTANDARDBSI
  2
AcmSurfTextStdBSI
  3
"AcmSymBB|Product Description: AutoCAD Mechanical 2000|Company: Autodesk"
 90
        0
280
     0
281
     0
  0
CLASS
  1
ACMFCFSTANDARDBSI
  2
AcmFCFStdBSI
  3
"AcmSymBB|Product Description: AutoCAD Mechanical 2000|Company: Autodesk"
 90
        0
280
     0
281
     0
  0
CLASS
  1
ACMWELDSTANDARDBSI
  2
AcmWeldingStdBSI
  3
"AcmSymBB|Product Description: AutoCAD Mechanical 2000|Company: Autodesk"
 90
        0
280
     0
281
     0
  0
CLASS
  1
ACMIDSTANDARDBSI
  2
AcmIdStdBSI
  3
"AcmSymBB|Product Description: AutoCAD Mechanical 2000|Company: Autodesk"
 90
        0
280
     0
281
     0
  0
CLASS
  1
ACMDATUMSTANDARDBSI
  2
AcmDatumStdBSI
  3
"AcmSymBB|Product Description: AutoCAD Mechanical 2000|Company: Autodesk"
 90
        0
280
     0
281
     0
  0
CLASS
  1
ACMBOMSTANDARDBSI
  2
AcmBOMStdBSI
  3
"AcmSymBB|Product Description: AutoCAD Mechanical 2000|Company: Autodesk"
 90
        0
280
     0
281
     0
  0
CLASS
  1
LONG_TRANSACTION
  2
AcDbLongTransaction
  3
AutoCAD 2000
 90
        0
280
     0
281
     0
  0
CLASS
  1
LWPOLYLINE
  2
AcDbPolyline
  3
AutoCAD 2000
 90
        0
280
     0
281
     1
  0
CLASS
  1
HATCH
  2
AcDbHatch
  3
AutoCAD 2000
 90
        0
280
     0
281
     1
  0
CLASS
  1
XRECORD
  2
AcDbXrecord
  3
AutoCAD 2000
 90
        0
280
     0
281
     0
  0
ENDSEC
  0
SECTION
  2
TABLES
  0
TABLE
  2
VPORT
  5
8
330
0
100
AcDbSymbolTable
 70
     3
  0
VPORT
  5
4C99
330
8
100
AcDbSymbolTableRecord
100
AcDbViewportTableRecord
  2
*ACTIVE
 70
     0
 10
0.0
 20
0.0
 11
1.0
 21
1.0
 12
-95.78429712896852
 22
-5.792825478763788
 13
0.0
 23
0.0
 14
2.5
 24
2.5
 15
10.0
 25
10.0
 16
0.0
 26
0.0
 36
1.0
 17
0.0
 27
0.0
 37
0.0
 40
237.8078122838267
 41
1.56570841889117
 42
50.0
 43
0.0
 44
0.0
 50
0.0
 51
0.0
 71
     0
 72
   100
 73
     1
 74
     1
 75
     0
 76
     0
 77
     0
 78
     0
  0
ENDTAB
  0
TABLE
  2
LTYPE
  5
5
330
0
100
AcDbSymbolTable
 70
    10
  0
LTYPE
  5
14
330
5
100
AcDbSymbolTableRecord
100
AcDbLinetypeTableRecord
  2
BYBLOCK
 70
     0
  3

 72
    65
 73
     0
 40
0.0
  0
LTYPE
  5
15
330
5
100
AcDbSymbolTableRecord
100
AcDbLinetypeTableRecord
  2
BYLAYER
 70
     0
  3

 72
    65
 73
     0
 40
0.0
  0
LTYPE
  5
16
330
5
100
AcDbSymbolTableRecord
100
AcDbLinetypeTableRecord
  2
CONTINUOUS
 70
     0
  3
Solid line
 72
    65
 73
     0
 40
0.0
  0
LTYPE
  5
4B
330
5
100
AcDbSymbolTableRecord
100
AcDbLinetypeTableRecord
  2
AM_ISO02W050
 70
     0
  3
__ __ __ __ __ __ __ __ __ __ __ __ __ __ __
 72
    65
 73
     2
 40
7.5
 49
6.0
 74
     0
 49
-1.5
 74
     0
  0
LTYPE
  5
4C
330
5
100
AcDbSymbolTableRecord
100
AcDbLinetypeTableRecord
  2
AM_ISO08W050
 70
     0
  3
____ . ____ . ____ . ____ . ____ . ____ . ____
 72
    65
 73
     4
 40
18.0
 49
12.0
 74
     0
 49
-1.5
 74
     0
 49
3.0
 74
     0
 49
-1.5
 74
     0
  0
LTYPE
  5
4D
330
5
100
AcDbSymbolTableRecord
100
AcDbLinetypeTableRecord
  2
AM_ISO09W050
 70
     0
  3
_____ . . _____ . . _____ . . ____ .. ____
 72
    65
 73
     6
 40
22.5
 49
12.0
 74
     0
 49
-1.5
 74
     0
 49
3.0
 74
     0
 49
-1.5
 74
     0
 49
3.0
 74
     0
 49
-1.5
 74
     0
  0
LTYPE
  5
4E
330
5
100
AcDbSymbolTableRecord
100
AcDbLinetypeTableRecord
  2
AMCONSTR
 70
     0
  3
_______________________
 72
    65
 73
     2
 40
9999.0
 49
9999.0
 74
     0
 49
0.0
 74
     0
  0
LTYPE
  5
4F
330
5
100
AcDbSymbolTableRecord
100
AcDbLinetypeTableRecord
  2
AM_ISO02W050X2
 70
     0
  3
 _ _ _ _ _ _ _ _ _ _ _ _
 72
    65
 73
     2
 40
3.75
 49
3.0
 74
     0
 49
-0.75
 74
     0
  0
LTYPE
  5
50
330
5
100
AcDbSymbolTableRecord
100
AcDbLinetypeTableRecord
  2
AM_ISO08W050X2
 70
     0
  3
__ . __ . __ . __ . __ . __
 72
    65
 73
     4
 40
9.0
 49
6.0
 74
     0
 49
-0.75
 74
     0
 49
1.5
 74
     0
 49
-0.75
 74
     0
  0
LTYPE
  5
53
330
5
100
AcDbSymbolTableRecord
100
AcDbLinetypeTableRecord
  2
AMZIGZAG
 70
     0
  3
/\/-/\/-/\/-/\/-/\/-/\/
 72
    65
 73
     2
 40
11.00009999999999
 49
0.0001
 74
     4
 75
   135
340
52
 46
0.04
 50
0.0
 44
0.0
 45
0.0
 49
-11.0
 74
     0
  0
LTYPE
  5
166
330
5
100
AcDbSymbolTableRecord
100
AcDbLinetypeTableRecord
  2
ACJISTGL
 70
     0
  3
_ _ _ _ _
 72
    65
 73
     2
 40
3.0
 49
2.0
 74
     0
 49
-1.0
 74
     0
  0
LTYPE
  5
26A
330
5
100
AcDbSymbolTableRecord
100
AcDbLinetypeTableRecord
  2
ACJISTGB
 70
     0
  3
__ . . __ . .
 72
    65
 73
     6
 40
9.0
 49
4.0
 74
     0
 49
-1.0
 74
     0
 49
1.0
 74
     0
 49
-1.0
 74
     0
 49
1.0
 74
     0
 49
-1.0
 74
     0
  0
ENDTAB
  0
TABLE
  2
LAYER
  5
2
330
0
100
AcDbSymbolTable
 70
    11
  0
LAYER
  5
10
330
2
100
AcDbSymbolTableRecord
100
AcDbLayerTableRecord
  2
0
 70
     0
 62
     7
  6
CONTINUOUS
  0
LAYER
  5
3F9
330
2
100
AcDbSymbolTableRecord
100
AcDbLayerTableRecord
  2
AM_0
 70
     0
 62
     7
  6
CONTINUOUS
  0
LAYER
  5
BA4
330
2
100
AcDbSymbolTableRecord
100
AcDbLayerTableRecord
  2
PV0001_1
 70
     0
 62
     7
  6
CONTINUOUS
  0
LAYER
  5
C6C
330
2
100
AcDbSymbolTableRecord
100
AcDbLayerTableRecord
  2
AM_CL
 70
     0
 62
     1
  6
AMCONSTR
  0
LAYER
  5
C7C
330
2
100
AcDbSymbolTableRecord
100
AcDbLayerTableRecord
  2
AM_7
 70
     0
 62
     4
  6
AM_ISO08W050
  0
LAYER
  5
C97
330
2
100
AcDbSymbolTableRecord
100
AcDbLayerTableRecord
  2
AM_11
 70
     0
 62
     3
  6
AM_ISO09W050
  0
LAYER
  5
CC5
330
2
100
AcDbSymbolTableRecord
100
AcDbLayerTableRecord
  2
AM_5
 70
     0
 62
     3
  6
CONTINUOUS
  0
LAYER
  5
CC7
330
2
100
AcDbSymbolTableRecord
100
AcDbLayerTableRecord
  2
DEFPOINTS
 70
     0
 62
     7
  6
CONTINUOUS
  0
LAYER
  5
19BC
330
2
100
AcDbSymbolTableRecord
100
AcDbLayerTableRecord
  2
AM_6
 70
     0
 62
     2
  6
CONTINUOUS
  0
LAYER
  5
1F8E
330
2
100
AcDbSymbolTableRecord
100
AcDbLayerTableRecord
  2
AM_4
 70
     0
 62
     3
  6
CONTINUOUS
  0
LAYER
  5
3588
330
2
100
AcDbSymbolTableRecord
100
AcDbLayerTableRecord
  2
AM_3
 70
     0
 62
     6
  6
ACJISTGL
  0
ENDTAB
  0
TABLE
  2
STYLE
  5
3
330
0
100
AcDbSymbolTable
 70
     5
  0
STYLE
  5
11
330
3
100
AcDbSymbolTableRecord
100
AcDbTextStyleTableRecord
  2
STANDARD
 70
     0
 40
0.0
 41
1.0
 50
0.0
 71
     0
 42
2.5
  3
simplex.shx
  4
EXTFONT.SHX
  0
STYLE
  5
52
330
3
100
AcDbSymbolTableRecord
100
AcDbTextStyleTableRecord
  2

 70
     1
 40
0.0
 41
1.0
 50
0.0
 71
     0
 42
2.5
  3
ltypeshp.shx
  4

  0
STYLE
  5
6B
330
3
100
AcDbSymbolTableRecord
100
AcDbTextStyleTableRecord
  2
ASAMI
 70
     0
 40
0.0
 41
1.0
 50
0.0
 71
     0
 42
2.5
  3
simplex.shx
  4
EXTFONT.SHX
  0
STYLE
  5
262
330
3
100
AcDbSymbolTableRecord
100
AcDbTextStyleTableRecord
  2
ACJISTS
 70
     0
 40
1.0
 41
1.0
 50
0.0
 71
     0
 42
2.5
  3
simplex.shx
  4
bigfont.shx
  0
STYLE
  5
269
330
3
100
AcDbSymbolTableRecord
100
AcDbTextStyleTableRecord
  2
ACJISGDT
 70
     0
 40
0.0
 41
1.0
 50
0.0
 71
     0
 42
2.5
  3
amgdtans.shx
  4

  0
ENDTAB
  0
TABLE
  2
VIEW
  5
6
330
0
100
AcDbSymbolTable
 70
     0
  0
ENDTAB
  0
TABLE
  2
UCS
  5
7
330
0
100
AcDbSymbolTable
 70
     0
  0
ENDTAB
  0
TABLE
  2
APPID
  5
9
330
0
100
AcDbSymbolTable
 70
    14
  0
APPID
  5
12
330
9
100
AcDbSymbolTableRecord
100
AcDbRegAppTableRecord
  2
ACAD
 70
     0
  0
APPID
  5
30
330
9
100
AcDbSymbolTableRecord
100
AcDbRegAppTableRecord
  2
MCAD_NO_VIS
 70
     0
  0
APPID
  5
31
330
9
100
AcDbSymbolTableRecord
100
AcDbRegAppTableRecord
  2
ACAD_TEMP_GRAPHIC
 70
     0
  0
APPID
  5
2C2
330
9
100
AcDbSymbolTableRecord
100
AcDbRegAppTableRecord
  2
GENIUS_GENDTOL_13
 70
     0
  0
APPID
  5
339
330
9
100
AcDbSymbolTableRecord
100
AcDbRegAppTableRecord
  2
GENIUS_GENODEF_13
 70
     0
  0
APPID
  5
33A
330
9
100
AcDbSymbolTableRecord
100
AcDbRegAppTableRecord
  2
GENIUS_GENOBJ-N-RSBK_13
 70
     0
  0
APPID
  5
33B
330
9
100
AcDbSymbolTableRecord
100
AcDbRegAppTableRecord
  2
GENIUS_GENOBJ-N-LIB_13
 70
     0
  0
APPID
  5
33C
330
9
100
AcDbSymbolTableRecord
100
AcDbRegAppTableRecord
  2
GENIUS_GENSCALE_13
 70
     0
  0
APPID
  5
378
330
9
100
AcDbSymbolTableRecord
100
AcDbRegAppTableRecord
  2
GENIUS_GENDIMSH_14
 70
     0
  0
APPID
  5
C82
330
9
100
AcDbSymbolTableRecord
100
AcDbRegAppTableRecord
  2
GENIUS_GENOBJ-N-CRS_13
 70
     0
  0
APPID
  5
C83
330
9
100
AcDbSymbolTableRecord
100
AcDbRegAppTableRecord
  2
GENIUS_GENOENT_13
 70
     0
  0
APPID
  5
C84
330
9
100
AcDbSymbolTableRecord
100
AcDbRegAppTableRecord
  2
GENIUS_GENOREF_13
 70
     0
  0
APPID
  5
C85
330
9
100
AcDbSymbolTableRecord
100
AcDbRegAppTableRecord
  2
GENIUS_GENOLIS_13
 70
     0
  0
APPID
  5
CA0
330
9
100
AcDbSymbolTableRecord
100
AcDbRegAppTableRecord
  2
GENIUS_GENOBJ-N-CEN_13
 70
     0
  0
ENDTAB
  0
TABLE
  2
DIMSTYLE
  5
A
330
0
100
AcDbSymbolTable
 70
    10
  0
DIMSTYLE
105
58
330
A
100
AcDbSymbolTableRecord
100
AcDbDimStyleTableRecord
  2
AM_JIS
 70
     0
  3

  4
"
  5
OPEN30
  6

  7

 40
1.0
 41
2.5
 42
1.0
 43
12.0
 44
1.0
 45
0.0
 46
0.0
 47
0.1
 48
0.1
140
3.2
141
0.0
142
0.0
143
0.0393701
144
1.0
145
0.0
146
0.71
147
1.5
 71
     0
 72
     0
 73
     0
 74
     0
 75
     0
 76
     0
 77
     3
 78
     8
170
     0
171
     2
172
     1
173
     0
174
     0
175
     0
176
   256
177
   256
178
     2
270
     2
271
     3
272
     3
273
     2
274
     2
340
6B
275
     0
280
     0
281
     0
282
     0
283
     0
284
     0
285
     0
286
     0
287
     3
288
     0
  0
DIMSTYLE
105
5F
330
A
100
AcDbSymbolTableRecord
100
AcDbDimStyleTableRecord
  2
AM_JIS$3
 70
     0
  3

  4
"
  5
OPEN30
  6

  7

 40
1.0
 41
2.5
 42
1.0
 43
10.0
 44
1.0
 45
0.0
 46
0.0
 47
0.1
 48
0.1
140
3.2
141
0.0
142
0.0
143
0.0393701
144
1.0
145
0.0
146
0.71
147
1.5
 71
     0
 72
     0
 73
     0
 74
     1
 75
     0
 76
     0
 77
     3
 78
     8
170
     0
171
     2
172
     0
173
     0
174
     0
175
     0
176
   256
177
   256
178
     2
270
     2
271
     2
272
     3
273
     2
274
     2
340
6B
275
     0
280
     0
281
     0
282
     0
283
     0
284
     0
285
     0
286
     0
287
     0
288
     1
  0
DIMSTYLE
105
60
330
A
100
AcDbSymbolTableRecord
100
AcDbDimStyleTableRecord
  2
AM_JIS$4
 70
     0
  3

  4
"
  5
OPEN30
  6

  7

 40
1.0
 41
2.5
 42
1.0
 43
10.0
 44
1.0
 45
0.0
 46
0.0
 47
0.1
 48
0.1
140
3.2
141
0.0
142
0.0
143
0.0393701
144
1.0
145
0.0
146
0.71
147
1.5
 71
     0
 72
     0
 73
     0
 74
     1
 75
     0
 76
     0
 77
     3
 78
     8
170
     0
171
     2
172
     0
173
     0
174
     0
175
     0
176
   256
177
   256
178
     2
270
     2
271
     2
272
     3
273
     2
274
     2
340
6B
275
     0
280
     0
281
     0
282
     0
283
     0
284
     0
285
     0
286
     0
287
     0
288
     1
  0
DIMSTYLE
105
61
330
A
100
AcDbSymbolTableRecord
100
AcDbDimStyleTableRecord
  2
AM_JIS$6
 70
     0
  3

  4
"
  5
OPEN30
  6

  7

 40
1.0
 41
2.5
 42
1.0
 43
10.0
 44
1.0
 45
0.0
 46
0.0
 47
0.1
 48
0.1
140
3.2
141
0.0
142
0.0
143
0.0393701
144
1.0
145
0.0
146
0.71
147
1.5
 71
     0
 72
     0
 73
     0
 74
     0
 75
     0
 76
     0
 77
     0
 78
     8
170
     0
171
     2
172
     1
173
     0
174
     0
175
     0
176
   256
177
   256
178
     2
270
     2
271
     2
272
     2
273
     2
274
     2
340
6B
275
     0
280
     0
281
     0
282
     0
283
     0
284
     0
285
     0
286
     0
287
     3
288
     0
  0
DIMSTYLE
105
62
330
A
100
AcDbSymbolTableRecord
100
AcDbDimStyleTableRecord
  2
AM_JIS$7
 70
     0
  3

  4
"
  5
OPEN30
  6

  7

 40
1.0
 41
2.5
 42
1.0
 43
10.0
 44
1.0
 45
0.0
 46
0.0
 47
0.1
 48
0.1
140
3.2
141
0.0
142
0.0
143
0.0393701
144
1.0
145
0.0
146
0.71
147
1.5
 71
     0
 72
     0
 73
     0
 74
     0
 75
     0
 76
     0
 77
     3
 78
     8
170
     0
171
     2
172
     1
173
     0
174
     0
175
     0
176
   256
177
   256
178
     2
270
     2
271
     2
272
     3
273
     2
274
     2
340
6B
275
     0
280
     0
281
     0
282
     0
283
     0
284
     0
285
     0
286
     0
287
     3
288
     0
  0
DIMSTYLE
105
63
330
A
100
AcDbSymbolTableRecord
100
AcDbDimStyleTableRecord
  2
AM_JIS$SF
 70
     0
  3

  4
"
  5
OPEN30
  6

  7

 40
1.0
 41
2.5
 42
1.0
 43
10.0
 44
1.0
 45
0.0
 46
0.0
 47
0.1
 48
0.1
140
3.2
141
0.0
142
0.0
143
0.0393701
144
1.0
145
0.0
146
0.71
147
1.5
 71
     0
 72
     0
 73
     0
 74
     0
 75
     1
 76
     1
 77
     3
 78
     8
170
     0
171
     2
172
     1
173
     0
174
     0
175
     0
176
   256
177
   256
178
     2
270
     2
271
     2
272
     2
273
     2
274
     2
340
6B
275
     0
280
     0
281
     0
282
     0
283
     0
284
     0
285
     0
286
     0
287
     3
288
     0
  0
DIMSTYLE
105
68
330
A
100
AcDbSymbolTableRecord
100
AcDbDimStyleTableRecord
  2
AM_JIS$SH
 70
     0
  3

  4
"
  5

  6
GENAXEH
  7
OPEN30
 40
1.0
 41
2.5
 42
1.0
 43
10.0
 44
1.0
 45
0.0
 46
0.0
 47
0.1
 48
0.1
140
3.2
141
0.0
142
0.0
143
0.0393701
144
2.0
145
0.0
146
0.71
147
1.5
 71
     0
 72
     0
 73
     0
 74
     0
 75
     1
 76
     1
 77
     3
 78
     8
170
     0
171
     2
172
     1
173
     1
174
     0
175
     0
176
   256
177
   256
178
     2
270
     2
271
     2
272
     2
273
     2
274
     2
340
6B
275
     0
280
     0
281
     0
282
     0
283
     0
284
     0
285
     0
286
     0
287
     3
288
     0
  0
DIMSTYLE
105
B34
102
{ACAD_REACTORS
330
36BA
102
}
330
A
100
AcDbSymbolTableRecord
100
AcDbDimStyleTableRecord
  2
AM_JIS$2
 70
     0
  3

  4
"
  5
OPEN30
  6

  7

 40
1.0
 41
2.5
 42
1.0
 43
12.0
 44
1.0
 45
0.0
 46
0.0
 47
0.1
 48
0.1
140
3.2
141
0.0
142
0.0
143
0.0393701
144
1.0
145
0.0
146
0.71
147
1.5
 71
     0
 72
     0
 73
     0
 74
     0
 75
     0
 76
     0
 77
     3
 78
     8
170
     0
171
     2
172
     1
173
     0
174
     0
175
     0
176
   256
177
   256
178
     2
270
     2
271
     3
272
     3
273
     2
274
     2
340
6B
275
     0
280
     0
281
     0
282
     0
283
     0
284
     0
285
     0
286
     0
287
     3
288
     0
  0
DIMSTYLE
105
BA5
102
{ACAD_REACTORS
330
3B0D
330
4515
330
471A
330
4A58
330
4A59
330
4A5A
330
4A5B
330
4A5C
330
4A5D
102
}
330
A
100
AcDbSymbolTableRecord
100
AcDbDimStyleTableRecord
  2
AM_JIS$0
 70
     0
  3

  4
"
  5
OPEN30
  6

  7

 40
1.0
 41
2.5
 42
0.8
 43
10.0
 44
1.0
 45
0.0
 46
0.0
 47
0.1
 48
0.1000000001
140
3.799999999999999
141
0.0
142
0.0
143
0.0393701
144
1.0
145
0.0
146
0.71
147
1.5
 71
     0
 72
     0
 73
     0
 74
     0
 75
     0
 76
     0
 77
     3
 78
     9
170
     0
171
     2
172
     1
173
     0
174
     0
175
     0
176
     3
177
     3
178
     2
270
     2
271
     2
272
     2
273
     2
274
     2
340
11
275
     1
280
     0
281
     0
282
     0
283
     0
284
     8
285
     0
286
     0
287
     0
288
     0
  0
DIMSTYLE
105
BA6
330
A
100
AcDbSymbolTableRecord
100
AcDbDimStyleTableRecord
  2
AM_JISORG-1P0$2
 70
     0
  3

  4
"
  5
OPEN30
  6

  7

 40
1.0
 41
2.5
 42
0.0
 43
10.0
 44
1.0
 45
0.0
 46
0.0
 47
0.1
 48
0.1000000001
140
3.799999999999999
141
0.0
142
0.0
143
0.0393701
144
-0.999999980146674
145
0.0
146
0.71
147
1.5
 71
     0
 72
     0
 73
     0
 74
     0
 75
     0
 76
     0
 77
     3
 78
     1
170
     0
171
     2
172
     1
173
     0
174
     0
175
     0
176
     3
177
     3
178
     2
270
     2
271
     2
272
     2
273
     2
274
     2
340
11
275
     1
280
     0
281
     0
282
     0
283
     0
284
     8
285
     0
286
     0
287
     0
288
     0
  0
ENDTAB
  0
TABLE
  2
BLOCK_RECORD
  5
1
330
0
100
AcDbSymbolTable
 70
    19
  0
BLOCK_RECORD
  5
1F
102
{ACAD_XDICTIONARY
360
74
102
}
330
1
100
AcDbSymbolTableRecord
100
AcDbBlockTableRecord
  2
*MODEL_SPACE
  0
BLOCK_RECORD
  5
101
102
{ACAD_XDICTIONARY
360
4CC2
102
}
330
1
100
AcDbSymbolTableRecord
100
AcDbBlockTableRecord
  2
*PAPER_SPACE
  0
BLOCK_RECORD
  5
59
330
1
100
AcDbSymbolTableRecord
100
AcDbBlockTableRecord
  2
_OPEN30
  0
BLOCK_RECORD
  5
64
330
1
100
AcDbSymbolTableRecord
100
AcDbBlockTableRecord
  2
GENAXEH
  0
BLOCK_RECORD
  5
C31
330
1
100
AcDbSymbolTableRecord
100
AcDbBlockTableRecord
  2
A$C36D02A34
  0
BLOCK_RECORD
  5
2453
330
1
100
AcDbSymbolTableRecord
100
AcDbBlockTableRecord
  2
*D6
  0
BLOCK_RECORD
  5
245F
330
1
100
AcDbSymbolTableRecord
100
AcDbBlockTableRecord
  2
A$C4FFC6CC0
  0
BLOCK_RECORD
  5
36BB
330
1
100
AcDbSymbolTableRecord
100
AcDbBlockTableRecord
  2
*D8
  0
BLOCK_RECORD
  5
3B0E
330
1
100
AcDbSymbolTableRecord
100
AcDbBlockTableRecord
  2
*D9
  0
BLOCK_RECORD
  5
4516
330
1
100
AcDbSymbolTableRecord
100
AcDbBlockTableRecord
  2
*D10
  0
BLOCK_RECORD
  5
471B
330
1
100
AcDbSymbolTableRecord
100
AcDbBlockTableRecord
  2
*D11
  0
BLOCK_RECORD
  5
4A5E
330
1
100
AcDbSymbolTableRecord
100
AcDbBlockTableRecord
  2
*D12
  0
BLOCK_RECORD
  5
4A6A
330
1
100
AcDbSymbolTableRecord
100
AcDbBlockTableRecord
  2
*D13
  0
BLOCK_RECORD
  5
4A78
330
1
100
AcDbSymbolTableRecord
100
AcDbBlockTableRecord
  2
*D14
  0
BLOCK_RECORD
  5
4A84
330
1
100
AcDbSymbolTableRecord
100
AcDbBlockTableRecord
  2
*D15
  0
BLOCK_RECORD
  5
4A90
330
1
100
AcDbSymbolTableRecord
100
AcDbBlockTableRecord
  2
*D16
  0
BLOCK_RECORD
  5
4A9C
330
1
100
AcDbSymbolTableRecord
100
AcDbBlockTableRecord
  2
*D17
  0
ENDTAB
  0
ENDSEC
  0
SECTION
  2
BLOCKS
  0
BLOCK
  5
20
330
1F
100
AcDbEntity
  8
0
100
AcDbBlockBegin
  2
*MODEL_SPACE
 70
     0
 10
0.0
 20
0.0
 30
0.0
  3
*MODEL_SPACE
  1

  0
ENDBLK
  5
21
330
1F
100
AcDbEntity
  8
0
100
AcDbBlockEnd
  0
BLOCK
  5
103
330
101
100
AcDbEntity
 67
     1
  8
0
100
AcDbBlockBegin
  2
*PAPER_SPACE
 70
     0
 10
0.0
 20
0.0
 30
0.0
  3
*PAPER_SPACE
  1

  0
ENDBLK
  5
104
330
101
100
AcDbEntity
 67
     1
  8
0
100
AcDbBlockEnd
  0
BLOCK
  5
5D
330
59
100
AcDbEntity
  8
0
100
AcDbBlockBegin
  2
_OPEN30
 70
     0
 10
0.0
 20
0.0
 30
0.0
  3
_OPEN30
  1

  0
LINE
  5
5A
330
59
100
AcDbEntity
  8
0
 62
     0
100
AcDbLine
 10
-1.0
 20
0.26794919
 30
0.0
 11
0.0
 21
0.0
 31
0.0
  0
LINE
  5
5B
330
59
100
AcDbEntity
  8
0
 62
     0
100
AcDbLine
 10
0.0
 20
0.0
 30
0.0
 11
-1.0
 21
-0.26794919
 31
0.0
  0
LINE
  5
5C
330
59
100
AcDbEntity
  8
0
 62
     0
100
AcDbLine
 10
0.0
 20
0.0
 30
0.0
 11
-1.0
 21
0.0
 31
0.0
  0
ENDBLK
  5
5E
330
59
100
AcDbEntity
  8
0
100
AcDbBlockEnd
  0
BLOCK
  5
66
330
64
100
AcDbEntity
  8
0
100
AcDbBlockBegin
  2
GENAXEH
 70
     0
 10
0.0
 20
0.0
 30
0.0
  3
GENAXEH
  1

  0
LINE
  5
65
330
64
100
AcDbEntity
  8
0
100
AcDbLine
 10
-1.0
 20
0.0
 30
0.0
 11
1.0
 21
0.0
 31
0.0
  0
ENDBLK
  5
67
330
64
100
AcDbEntity
  8
0
100
AcDbBlockEnd
  0
BLOCK
  5
C4B
330
C31
100
AcDbEntity
  8
0
100
AcDbBlockBegin
  2
A$C36D02A34
 70
     0
 10
0.0
 20
0.0
 30
0.0
  3
A$C36D02A34
  1

  0
ARC
  5
C32
330
C31
100
AcDbEntity
  8
PV0001_1
  6
CONTINUOUS
 48
0.5
100
AcDbCircle
 10
18.06811523436999
 20
-11.83651161193799
 30
0.0
 40
21.600000381469
100
AcDbArc
 50
123.2290435713209
 51
126.6341524197568
  0
ARC
  5
C33
330
C31
100
AcDbEntity
  8
PV0001_1
  6
CONTINUOUS
 48
0.5
100
AcDbCircle
 10
18.06811523436999
 20
-11.83651161193799
 30
0.0
 40
21.600000381469
100
AcDbArc
 50
135.0736707620117
 51
146.7709980930592
  0
ARC
  5
C34
330
C31
100
AcDbEntity
  8
PV0001_1
  6
CONTINUOUS
 48
0.5
100
AcDbCircle
 10
-18.0680770874
 20
11.8365631103514
 30
0.0
 40
21.600000381469
100
AcDbArc
 50
315.0734847530392
 51
326.770781348241
  0
ARC
  5
C35
330
C31
100
AcDbEntity
  8
PV0001_1
  6
CONTINUOUS
 48
0.5
100
AcDbCircle
 10
-18.0680770874
 20
11.8365631103514
 30
0.0
 40
21.600000381469
100
AcDbArc
 50
303.2288882981993
 51
306.633986901359
  0
ARC
  5
C36
330
C31
100
AcDbEntity
  8
PV0001_1
  6
CONTINUOUS
 48
0.5
100
AcDbCircle
 10
-0.6269836425800009
 20
-2.044216156005997
 30
0.0
 40
2.0
100
AcDbArc
 50
337.4067997351092
 51
43.42231293132884
  0
ARC
  5
C37
330
C31
100
AcDbEntity
  8
PV0001_1
  6
CONTINUOUS
 48
0.5
100
AcDbCircle
 10
0.626953125
 20
2.044223785401001
 30
0.0
 40
2.0
100
AcDbArc
 50
157.4068184044407
 51
223.4222769591536
  0
CIRCLE
  5
C38
330
C31
100
AcDbEntity
  8
PV0001_1
  6
CONTINUOUS
 48
0.5
100
AcDbCircle
 10
3.856727600100001
 20
4.596265792847002
 30
0.0
 40
1.6000000238419
  0
CIRCLE
  5
C39
330
C31
100
AcDbEntity
  8
PV0001_1
  6
CONTINUOUS
 48
0.5
100
AcDbCircle
 10
-3.856727600100001
 20
-4.596265792845997
 30
0.0
 40
1.6000000238419
  0
ARC
  5
C3A
330
C31
100
AcDbEntity
  8
PV0001_1
  6
CONTINUOUS
 48
0.5
100
AcDbCircle
 10
-5.58123779297
 20
5.092639923096001
 30
0.0
 40
5.019082546234099
100
AcDbArc
 50
240.2658959250867
 51
321.5156269706421
  0
ARC
  5
C3B
330
C31
100
AcDbEntity
  8
PV0001_1
  6
CONTINUOUS
 48
0.5
100
AcDbCircle
 10
5.486755371089998
 20
-4.601703643798998
 30
0.0
 40
4.651036739349399
100
AcDbArc
 50
56.25271400417071
 51
145.528859890601
  0
ARC
  5
C3C
330
C31
100
AcDbEntity
  8
PV0001_1
  6
CONTINUOUS
 48
0.5
100
AcDbCircle
 10
-2.11590576172
 20
-3.453323364257997
 30
0.0
 40
4.050000190734899
100
AcDbArc
 50
43.42230610113921
 51
58.50391703385149
  0
ARC
  5
C3D
330
C31
100
AcDbEntity
  8
PV0001_1
  6
CONTINUOUS
 48
0.5
100
AcDbCircle
 10
2.115875244139999
 20
3.453330993653001
 30
0.0
 40
4.050000190734899
100
AcDbArc
 50
223.4222942619974
 51
238.5038164022482
  0
ARC
  5
C3E
330
C31
100
AcDbEntity
  8
PV0001_1
  6
CONTINUOUS
 48
0.5
100
AcDbCircle
 10
-6.70369720459
 20
5.094657897949002
 30
0.0
 40
5.940000057220499
100
AcDbArc
 50
328.2536768887549
 51
31.74641873389623
  0
ARC
  5
C3F
330
C31
100
AcDbEntity
  8
PV0001_1
  6
CONTINUOUS
 48
0.5
100
AcDbCircle
 10
6.703674316410001
 20
-5.094650268553998
 30
0.0
 40
5.940000057220499
100
AcDbArc
 50
148.2533403882529
 51
211.7466423089037
  0
ARC
  5
C40
330
C31
100
AcDbEntity
  8
PV0001_1
  6
CONTINUOUS
 48
0.5
100
AcDbCircle
 10
0.0
 20
0.0
 30
0.0
 40
8.812800407409699
100
AcDbArc
 50
175.2198288164333
 51
272.8622597568298
  0
ARC
  5
C41
330
C31
100
AcDbEntity
  8
PV0001_1
  6
CONTINUOUS
 48
0.5
100
AcDbCircle
 10
0.0
 20
0.0
 30
0.0
 40
9.1800003051758
100
AcDbArc
 50
272.7511362215027
 51
280.3697477877874
  0
ARC
  5
C42
330
C31
100
AcDbEntity
  8
PV0001_1
  6
CONTINUOUS
 48
0.5
100
AcDbCircle
 10
0.0
 20
0.0
 30
0.0
 40
8.812800407409699
100
AcDbArc
 50
355.2198199654955
 51
92.86229572901076
  0
ARC
  5
C43
330
C31
100
AcDbEntity
  8
PV0001_1
  6
CONTINUOUS
 48
0.5
100
AcDbCircle
 10
0.0
 20
0.0
 30
0.0
 40
9.1800003051758
100
AcDbArc
 50
92.75115489083434
 51
100.3697664571193
  0
CIRCLE
  5
C44
330
C31
100
AcDbEntity
  8
PV0001_1
  6
CONTINUOUS
100
AcDbCircle
 10
0.0
 20
0.0
 30
0.0
 40
9.1800003051758
  0
LINE
  5
C45
330
C31
100
AcDbEntity
  8
PV0001_1
  6
CONTINUOUS
 48
0.5
100
AcDbLine
 10
-1.652404785160001
 20
9.030059814453
 30
0.0
 11
-1.652404785160001
 21
8.220062255860002
 31
0.0
  0
LINE
  5
C46
330
C31
100
AcDbEntity
  8
PV0001_1
  6
CONTINUOUS
 48
0.5
100
AcDbLine
 10
1.652404785160001
 20
-8.220058441161999
 30
0.0
 11
1.652404785160001
 21
-9.030055999755997
 31
0.0
  0
LINE
  5
C47
330
C31
100
AcDbEntity
  8
PV0001_1
  6
CONTINUOUS
 48
0.5
100
AcDbLine
 10
-8.78217315674
 20
0.7343807220460015
 30
0.0
 11
-8.070594787600001
 21
0.7343997955320028
 31
0.0
  0
LINE
  5
C48
330
C31
100
AcDbEntity
  8
PV0001_1
  6
CONTINUOUS
 48
0.5
100
AcDbLine
 10
8.07057952881
 20
-0.7343864440919994
 30
0.0
 11
8.78215789795
 21
-0.7343654632569994
 31
0.0
  0
LINE
  5
C49
330
C31
100
AcDbEntity
  8
PV0001_1
  6
CONTINUOUS
 48
0.5
100
AcDbLine
 10
0.4406127929700006
 20
-9.169414520263
 30
0.0
 11
0.4406127929700006
 21
-8.812801361083998
 31
0.0
  0
LINE
  5
C4A
330
C31
100
AcDbEntity
  8
PV0001_1
  6
CONTINUOUS
 48
0.5
100
AcDbLine
 10
-0.4406127929700006
 20
9.169418334961001
 30
0.0
 11
-0.4406127929700006
 21
8.812805175781001
 31
0.0
  0
ENDBLK
  5
C4C
330
C31
100
AcDbEntity
  8
0
100
AcDbBlockEnd
  0
BLOCK
  5
245D
330
2453
100
AcDbEntity
  8
0
100
AcDbBlockBegin
  2
*D6
 70
     1
 10
0.0
 20
0.0
 30
0.0
  3
*D6
  1

  0
LINE
  5
2454
330
2453
100
AcDbEntity
  8
AM_5
 62
     3
100
AcDbLine
 10
-137.574381722344
 20
-5.00000294019065
 30
0.0
 11
-152.8199008769066
 21
-5.000002940190694
 31
0.0
  0
LINE
  5
2455
330
2453
100
AcDbEntity
  8
AM_5
 62
     3
100
AcDbLine
 10
-137.5743817223442
 20
5.00002461040103
 30
0.0
 11
-152.8199008769066
 21
5.000024610400987
 31
0.0
  0
LINE
  5
2456
330
2453
100
AcDbEntity
  8
AM_5
 62
     3
100
AcDbLine
 10
-151.8199008769066
 20
-2.500002940190691
 30
0.0
 11
-151.8199008769066
 21
2.50002461040099
 31
0.0
  0
INSERT
  5
2457
330
2453
100
AcDbEntity
  8
AM_5
 62
     3
100
AcDbBlockReference
  2
_OPEN30
 10
-151.8199008769066
 20
-5.00000294019069
 30
0.0
 41
2.5
 42
2.5
 43
2.5
 50
270.0000000000001
  0
INSERT
  5
2458
330
2453
100
AcDbEntity
  8
AM_5
 62
     3
100
AcDbBlockReference
  2
_OPEN30
 10
-151.8199008769066
 20
5.00002461040099
 30
0.0
 41
2.5
 42
2.5
 43
2.5
 50
90.00000000000015
  0
MTEXT
  5
2459
330
2453
100
AcDbEntity
  8
AM_5
 62
     2
100
AcDbMText
 10
-155.2199008769066
 20
0.000010835105146
 30
0.0
 40
3.799999999999999
 41
0.0
 71
     5
 72
     1
  1
%%c10
 11
-0.0000000000000028
 21
1.0
 31
0.0
1001
ACAD
1000
MTEXTBEGIN
1070
    73
1070
     1
1070
    44
1040
1.0
1070
    74
1070
     0
1000
MTEXTEND
  0
POINT
  5
245A
330
2453
100
AcDbEntity
  8
DEFPOINTS
 62
     0
100
AcDbPoint
 10
-137.5743817223441
 20
-5.000002940190223
 30
0.0
  0
POINT
  5
245B
330
2453
100
AcDbEntity
  8
DEFPOINTS
 62
     0
100
AcDbPoint
 10
-137.5743817223441
 20
5.000024610401458
 30
0.0
  0
POINT
  5
245C
330
2453
100
AcDbEntity
  8
DEFPOINTS
 62
     0
100
AcDbPoint
 10
-151.8199008769066
 20
5.000024610401462
 30
0.0
  0
ENDBLK
  5
245E
330
2453
100
AcDbEntity
  8
0
100
AcDbBlockEnd
  0
BLOCK
  5
246B
330
245F
100
AcDbEntity
  8
0
100
AcDbBlockBegin
  2
A$C4FFC6CC0
 70
     0
 10
0.0
 20
0.0
 30
0.0
  3
A$C4FFC6CC0
  1

  0
DIMENSION
  5
2460
330
245F
100
AcDbEntity
  8
AM_5
100
AcDbDimension
  2
*D6
 10
-70.00000100000002
 20
5.000008477104842
 30
0.0
 11
-70.00000100000002
 21
-0.0000052981910228
 31
0.0
 12
81.81989987690661
 22
-0.0000161332966199
 32
0.0
 70
   128
  1
%%c<>
 51
359.9999999999998
  3
AM_JIS$0
100
AcDbAlignedDimension
 13
-55.75448184543748
 23
-5.000019073486843
 33
0.0
 14
-55.75448184543756
 24
5.000008477104838
 34
0.0
 50
270.0
100
AcDbRotatedDimension
1001
ACAD
1000
DSTYLE
1002
{
1070
   271
1070
     0
1002
}
1001
GENIUS_GENDTOL_13
1000

1000
h7
1000

1040
0.0
  0
LINE
  5
2461
330
245F
100
AcDbEntity
  8
AM_0
 48
0.5
100
AcDbLine
 10
-56.0
 20
-4.754495620727796
 30
0.0
 11
-56.00000000000003
 21
4.754485024345811
 31
0.0
  0
LINE
  5
2462
330
245F
100
AcDbEntity
  8
AM_0
 48
0.5
100
AcDbLine
 10
-55.75448184543751
 20
-5.000019073486843
 30
0.0
 11
-55.75448184543754
 21
5.000008477104838
 31
0.0
  0
LINE
  5
2463
330
245F
100
AcDbEntity
  8
AM_0
100
AcDbLine
 10
-0.0000000000000142
 20
4.999995231627903
 30
0.0
 11
-55.75448184543754
 21
4.999995231627746
 31
0.0
  0
LINE
  5
2464
330
245F
100
AcDbEntity
  8
AM_0
 48
0.5
100
AcDbLine
 10
-55.99996821086117
 20
4.754439989725671
 30
0.0
 11
-55.75443945990975
 21
4.999963442484006
 31
0.0
  0
LINE
  5
2465
330
245F
100
AcDbEntity
  8
AM_0
100
AcDbLine
 10
-55.75448184543751
 20
-5.000008477105588
 30
0.0
 11
0.0000000000000142
 21
-5.00000847710543
 31
0.0
  0
LINE
  5
2466
330
245F
100
AcDbEntity
  8
AM_0
 48
0.5
100
AcDbLine
 10
-55.99996821086114
 20
-4.754474427965309
 30
0.0
 11
-55.75443945990972
 21
-4.999997880724334
 31
0.0
  0
LINE
  5
2467
330
245F
100
AcDbEntity
  8
AM_0
100
AcDbLine
 10
0.7794201296714505
 20
4.549985867772141
 30
0.0
 11
0.7794201296714789
 21
-4.550003370497427
 31
0.0
  0
LINE
  5
2468
330
245F
100
AcDbEntity
  8
AM_0
 48
0.5
100
AcDbLine
 10
0.0000000000000142
 20
-5.00000847710543
 30
0.0
 11
-0.0000000000000142
 21
5.000008477104995
 31
0.0
  0
LINE
  5
2469
330
245F
100
AcDbEntity
  8
AM_0
 48
0.5
100
AcDbLine
 10
0.7794201296714647
 20
-4.550003370497435
 30
0.0
 11
-0.0000105963812445
 21
-5.00000847710543
 31
0.0
  0
LINE
  5
246A
330
245F
100
AcDbEntity
  8
AM_0
 48
0.5
100
AcDbLine
 10
0.7794201296714647
 20
4.549985867772141
 30
0.0
 11
-0.0000000000000142
 21
4.999984635246652
 31
0.0
  0
ENDBLK
  5
246C
330
245F
100
AcDbEntity
  8
0
100
AcDbBlockEnd
  0
BLOCK
  5
36C9
330
36BB
100
AcDbEntity
  8
0
100
AcDbBlockBegin
  2
*D8
 70
     1
 10
0.0
 20
0.0
 30
0.0
  3
*D8
  1

  0
LINE
  5
49CC
330
36BB
100
AcDbEntity
  8
AM_5
100
AcDbLine
 10
0.3420201408161528
 20
-0.93969262169946
 30
0.0
 11
10.95702595439389
 21
-30.10418164422436
 31
0.0
  0
LINE
  5
49CD
330
36BB
100
AcDbEntity
  8
AM_5
100
AcDbLine
 10
0.3420201408161419
 20
0.9396926216991598
 30
0.0
 11
10.95702595439354
 21
30.10418164422418
 31
0.0
  0
ARC
  5
49CE
330
36BB
100
AcDbEntity
  8
AM_5
100
AcDbCircle
 10
0.0000000000000289
 20
-0.0000000000001521
 30
0.0
 40
31.03620093322094
100
AcDbArc
 50
294.6164863378038
 51
65.3835136621968
  0
INSERT
  5
49CF
330
36BB
100
AcDbEntity
  8
AM_5
100
AcDbBlockReference
  2
_OPEN30
 10
10.61500581357777
 20
-29.16448902252505
 30
0.0
 41
2.5
 42
2.5
 43
2.5
 50
202.3082430923948
  0
INSERT
  5
49D0
330
36BB
100
AcDbEntity
  8
AM_5
100
AcDbBlockReference
  2
_OPEN30
 10
10.61500581357743
 20
29.16448902252487
 30
0.0
 41
2.5
 42
2.5
 43
2.5
 50
157.6917569076058
  0
MTEXT
  5
49D1
330
36BB
100
AcDbEntity
  8
AM_5
 62
     2
100
AcDbMText
 10
27.93620093322097
 20
0.0000000000000323
 30
0.0
 40
3.2
 41
0.0
 71
     5
 72
     1
  1
140°
  7
ASAMI
 11
-0.0000000000000028
 21
1.0
 31
0.0
1001
ACAD
1000
MTEXTBEGIN
1070
    73
1070
     1
1070
    44
1040
1.0
1070
    74
1070
     0
1000
MTEXTEND
  0
POINT
  5
49D2
330
36BB
100
AcDbEntity
  8
DEFPOINTS
 62
     0
100
AcDbPoint
 10
28.49793958231303
 20
-12.29281122974343
 30
0.0
  0
POINT
  5
49D3
330
36BB
100
AcDbEntity
  8
DEFPOINTS
 62
     0
100
AcDbPoint
 10
0.0
 20
-0.0000000000002316
 30
0.0
  0
POINT
  5
49D4
330
36BB
100
AcDbEntity
  8
DEFPOINTS
 62
     0
100
AcDbPoint
 10
0.0
 20
-0.0000000000000725
 30
0.0
  0
POINT
  5
49D5
330
36BB
100
AcDbEntity
  8
DEFPOINTS
 62
     0
100
AcDbPoint
 10
-2.800374408476802
 20
7.693965517241139
 30
0.0
  0
POINT
  5
49D6
330
36BB
100
AcDbEntity
  8
DEFPOINTS
 62
     0
100
AcDbPoint
 10
-2.800374408476762
 20
-7.693965517241461
 30
0.0
  0
ENDBLK
  5
36CA
330
36BB
100
AcDbEntity
  8
0
100
AcDbBlockEnd
  0
BLOCK
  5
3B18
330
3B0E
100
AcDbEntity
  8
0
100
AcDbBlockBegin
  2
*D9
 70
     1
 10
0.0
 20
0.0
 30
0.0
  3
*D9
  1

  0
LINE
  5
4B80
330
3B0E
100
AcDbEntity
  8
AM_5
 62
     3
100
AcDbLine
 10
-3.457717196797335
 20
10.29999999999988
 30
0.0
 11
-3.457717196797386
 21
28.23488565399456
 31
0.0
  0
LINE
  5
4B81
330
3B0E
100
AcDbEntity
  8
AM_5
 62
     3
100
AcDbLine
 10
-110.457717196797
 20
10.30000000000085
 30
0.0
 11
-110.4577171967971
 21
28.23488565399424
 31
0.0
  0
LINE
  5
4B82
330
3B0E
100
AcDbEntity
  8
AM_5
 62
     3
100
AcDbLine
 10
-5.957717196797383
 20
27.23488565399454
 30
0.0
 11
-107.9577171967971
 21
27.23488565399425
 31
0.0
  0
INSERT
  5
4B83
330
3B0E
100
AcDbEntity
  8
AM_5
 62
     3
100
AcDbBlockReference
  2
_OPEN30
 10
-3.457717196797383
 20
27.23488565399455
 30
0.0
 41
2.5
 42
2.5
 43
2.5
 50
0.0000000000001527
  0
INSERT
  5
4B84
330
3B0E
100
AcDbEntity
  8
AM_5
 62
     3
100
AcDbBlockReference
  2
_OPEN30
 10
-110.4577171967971
 20
27.23488565399424
 30
0.0
 41
2.5
 42
2.5
 43
2.5
 50
180.0000000000001
  0
MTEXT
  5
4B85
330
3B0E
100
AcDbEntity
  8
AM_5
 62
     2
100
AcDbMText
 10
-56.95771719679727
 20
30.6348856539944
 30
0.0
 40
3.799999999999999
 41
0.0
 71
     5
 72
     1
  1
107
1001
ACAD
1000
MTEXTBEGIN
1070
    73
1070
     1
1070
    44
1040
1.0
1070
    74
1070
     0
1000
MTEXTEND
  0
POINT
  5
4B86
330
3B0E
100
AcDbEntity
  8
DEFPOINTS
 62
     0
100
AcDbPoint
 10
-3.457717196797305
 20
9.499999999999889
 30
0.0
  0
POINT
  5
4B87
330
3B0E
100
AcDbEntity
  8
DEFPOINTS
 62
     0
100
AcDbPoint
 10
-110.457717196797
 20
9.500000000001175
 30
0.0
  0
POINT
  5
4B88
330
3B0E
100
AcDbEntity
  8
DEFPOINTS
 62
     0
100
AcDbPoint
 10
-110.457717196797
 20
27.23488565399456
 30
0.0
  0
ENDBLK
  5
3B19
330
3B0E
100
AcDbEntity
  8
0
100
AcDbBlockEnd
  0
BLOCK
  5
4520
330
4516
100
AcDbEntity
  8
0
100
AcDbBlockBegin
  2
*D10
 70
     1
 10
0.0
 20
0.0
 30
0.0
  3
*D10
  1

  0
LINE
  5
499F
330
4516
100
AcDbEntity
  8
AM_5
 62
     3
100
AcDbLine
 10
-2.546177932384421
 20
9.499999999999886
 30
0.0
 11
17.79072293809122
 21
9.499999999999943
 31
0.0
  0
LINE
  5
49A0
330
4516
100
AcDbEntity
  8
AM_5
 62
     3
100
AcDbLine
 10
-2.657717196796999
 20
-9.500000000000106
 30
0.0
 11
17.79072293809128
 21
-9.500000000000049
 31
0.0
  0
LINE
  5
49A1
330
4516
100
AcDbEntity
  8
AM_5
 62
     3
100
AcDbLine
 10
16.79072293809123
 20
6.99999999999994
 30
0.0
 11
16.79072293809127
 21
-7.000000000000052
 31
0.0
  0
INSERT
  5
49A2
330
4516
100
AcDbEntity
  8
AM_5
 62
     3
100
AcDbBlockReference
  2
_OPEN30
 10
16.79072293809122
 20
9.499999999999939
 30
0.0
 41
2.5
 42
2.5
 43
2.5
 50
90.00000000000017
  0
INSERT
  5
49A3
330
4516
100
AcDbEntity
  8
AM_5
 62
     3
100
AcDbBlockReference
  2
_OPEN30
 10
16.79072293809128
 20
-9.500000000000053
 30
0.0
 41
2.5
 42
2.5
 43
2.5
 50
270.0000000000001
  0
MTEXT
  5
49A4
330
4516
100
AcDbEntity
  8
AM_5
 62
     2
100
AcDbMText
 10
13.39072293809125
 20
-0.000000000000021
 30
0.0
 40
3.799999999999999
 41
0.0
 71
     5
 72
     1
  1
%%C19
 11
-0.0000000000000028
 21
1.0
 31
0.0
1001
ACAD
1000
MTEXTBEGIN
1070
    73
1070
     1
1070
    44
1040
1.0
1070
    74
1070
     0
1000
MTEXTEND
  0
POINT
  5
49A5
330
4516
100
AcDbEntity
  8
DEFPOINTS
 62
     0
100
AcDbPoint
 10
-3.346177932384391
 20
9.499999999999893
 30
0.0
  0
POINT
  5
49A6
330
4516
100
AcDbEntity
  8
DEFPOINTS
 62
     0
100
AcDbPoint
 10
-3.457717196797029
 20
-9.500000000000099
 30
0.0
  0
POINT
  5
49A7
330
4516
100
AcDbEntity
  8
DEFPOINTS
 62
     0
100
AcDbPoint
 10
16.79072293809125
 20
-9.500000000000104
 30
0.0
  0
ENDBLK
  5
4521
330
4516
100
AcDbEntity
  8
0
100
AcDbBlockEnd
  0
BLOCK
  5
4725
330
471B
100
AcDbEntity
  8
0
100
AcDbBlockBegin
  2
*D11
 70
     1
 10
0.0
 20
0.0
 30
0.0
  3
*D11
  1

  0
LINE
  5
4B92
330
471B
100
AcDbEntity
  8
AM_5
 62
     3
100
AcDbLine
 10
-3.457717196797335
 20
10.29999999999988
 30
0.0
 11
-3.45771719679742
 21
39.93656301910695
 31
0.0
  0
LINE
  5
4B93
330
471B
100
AcDbEntity
  8
AM_5
 62
     3
100
AcDbLine
 10
-112.457717196797
 20
10.52129441520872
 30
0.0
 11
-112.4577171967971
 21
39.93656301910663
 31
0.0
  0
LINE
  5
4B94
330
471B
100
AcDbEntity
  8
AM_5
 62
     3
100
AcDbLine
 10
-5.957717196797418
 20
38.93656301910695
 30
0.0
 11
-109.9577171967971
 21
38.93656301910664
 31
0.0
  0
INSERT
  5
4B95
330
471B
100
AcDbEntity
  8
AM_5
 62
     3
100
AcDbBlockReference
  2
_OPEN30
 10
-3.457717196797417
 20
38.93656301910695
 30
0.0
 41
2.5
 42
2.5
 43
2.5
 50
0.0000000000001527
  0
INSERT
  5
4B96
330
471B
100
AcDbEntity
  8
AM_5
 62
     3
100
AcDbBlockReference
  2
_OPEN30
 10
-112.4577171967971
 20
38.93656301910663
 30
0.0
 41
2.5
 42
2.5
 43
2.5
 50
180.0000000000001
  0
MTEXT
  5
4B97
330
471B
100
AcDbEntity
  8
AM_5
 62
     2
100
AcDbMText
 10
-57.95771719679729
 20
42.33656301910679
 30
0.0
 40
3.799999999999999
 41
0.0
 71
     5
 72
     1
  1
109
1001
ACAD
1000
MTEXTBEGIN
1070
    73
1070
     1
1070
    44
1040
1.0
1070
    74
1070
     0
1000
MTEXTEND
  0
POINT
  5
4B98
330
471B
100
AcDbEntity
  8
DEFPOINTS
 62
     0
100
AcDbPoint
 10
-3.457717196797305
 20
9.499999999999889
 30
0.0
  0
POINT
  5
4B99
330
471B
100
AcDbEntity
  8
DEFPOINTS
 62
     0
100
AcDbPoint
 10
-112.457717196797
 20
9.721294415209047
 30
0.0
  0
POINT
  5
4B9A
330
471B
100
AcDbEntity
  8
DEFPOINTS
 62
     0
100
AcDbPoint
 10
-112.457717196797
 20
38.93656301910696
 30
0.0
  0
ENDBLK
  5
4726
330
471B
100
AcDbEntity
  8
0
100
AcDbBlockEnd
  0
BLOCK
  5
4A68
330
4A5E
100
AcDbEntity
  8
0
100
AcDbBlockBegin
  2
*D12
 70
     1
 10
0.0
 20
0.0
 30
0.0
  3
*D12
  1

  0
LINE
  5
4B0C
330
4A5E
100
AcDbEntity
  8
AM_5
 62
     3
100
AcDbLine
 10
-187.4577285621995
 20
-0.8000000000011837
 30
0.0
 11
-187.4577285621995
 21
-29.47941722561771
 31
0.0
  0
LINE
  5
4B0D
330
4A5E
100
AcDbEntity
  8
AM_5
 62
     3
100
AcDbLine
 10
-142.457717196797
 20
-0.8000000000009753
 30
0.0
 11
-142.457717196797
 21
-29.47941722561771
 31
0.0
  0
LINE
  5
4B0E
330
4A5E
100
AcDbEntity
  8
AM_5
 62
     3
100
AcDbLine
 10
-184.9577285621996
 20
-28.47941722561771
 30
0.0
 11
-144.957717196797
 21
-28.47941722561771
 31
0.0
  0
INSERT
  5
4B0F
330
4A5E
100
AcDbEntity
  8
AM_5
 62
     3
100
AcDbBlockReference
  2
_OPEN30
 10
-187.4577285621995
 20
-28.47941722561771
 30
0.0
 41
2.5
 42
2.5
 43
2.5
 50
180.0
  0
INSERT
  5
4B10
330
4A5E
100
AcDbEntity
  8
AM_5
 62
     3
100
AcDbBlockReference
  2
_OPEN30
 10
-142.457717196797
 20
-28.47941722561771
 30
0.0
 41
2.5
 42
2.5
 43
2.5
  0
MTEXT
  5
4B11
330
4A5E
100
AcDbEntity
  8
AM_5
 62
     2
100
AcDbMText
 10
-164.9577228794983
 20
-25.07941722561771
 30
0.0
 40
3.799999999999999
 41
0.0
 71
     5
 72
     1
  1
45
1001
ACAD
1000
MTEXTBEGIN
1070
    73
1070
     1
1070
    44
1040
1.0
1070
    74
1070
     0
1000
MTEXTEND
  0
POINT
  5
4B12
330
4A5E
100
AcDbEntity
  8
DEFPOINTS
 62
     0
100
AcDbPoint
 10
-187.4577285621995
 20
-0.0000000000011837
 30
0.0
  0
POINT
  5
4B13
330
4A5E
100
AcDbEntity
  8
DEFPOINTS
 62
     0
100
AcDbPoint
 10
-142.457717196797
 20
-0.0000000000009754
 30
0.0
  0
POINT
  5
4B14
330
4A5E
100
AcDbEntity
  8
DEFPOINTS
 62
     0
100
AcDbPoint
 10
-142.457717196797
 20
-28.47941722561771
 30
0.0
  0
ENDBLK
  5
4A69
330
4A5E
100
AcDbEntity
  8
0
100
AcDbBlockEnd
  0
BLOCK
  5
4A76
330
4A6A
100
AcDbEntity
  8
0
100
AcDbBlockBegin
  2
*D13
 70
     1
 10
0.0
 20
0.0
 30
0.0
  3
*D13
  1

  0
LINE
  5
4B27
330
4A6A
100
AcDbEntity
  8
AM_5
 62
     3
100
AcDbLine
 10
-193.4576313661219
 20
-12.61209445906836
 30
0.0
 11
-193.4576313661219
 21
-29.47941722561805
 31
0.0
  0
LINE
  5
4B28
330
4A6A
100
AcDbEntity
  8
AM_5
 62
     3
100
AcDbLine
 10
-187.4577285621995
 20
-0.8000000000011837
 30
0.0
 11
-187.4577285621995
 21
-29.47941722561805
 31
0.0
  0
LINE
  5
4B29
330
4A6A
100
AcDbEntity
  8
AM_5
 62
     3
100
AcDbLine
 10
-195.9576313661219
 20
-28.47941722561805
 30
0.0
 11
-198.4576313661219
 21
-28.47941722561805
 31
0.0
  0
LINE
  5
4B2A
330
4A6A
100
AcDbEntity
  8
AM_5
 62
     3
100
AcDbLine
 10
-184.9577285621996
 20
-28.47941722561805
 30
0.0
 11
-182.4577285621996
 21
-28.47941722561805
 31
0.0
  0
LINE
  5
4B2B
330
4A6A
100
AcDbEntity
  8
AM_5
 62
     3
100
AcDbLine
 10
-193.4576313661219
 20
-28.47941722561805
 30
0.0
 11
-187.4577285621995
 21
-28.47941722561805
 31
0.0
  0
INSERT
  5
4B2C
330
4A6A
100
AcDbEntity
  8
AM_5
 62
     3
100
AcDbBlockReference
  2
_OPEN30
 10
-193.4576313661219
 20
-28.47941722561805
 30
0.0
 41
2.5
 42
2.5
 43
2.5
  0
INSERT
  5
4B2D
330
4A6A
100
AcDbEntity
  8
AM_5
 62
     3
100
AcDbBlockReference
  2
_OPEN30
 10
-187.4577285621995
 20
-28.47941722561805
 30
0.0
 41
2.5
 42
2.5
 43
2.5
 50
180.0
  0
MTEXT
  5
4B2E
330
4A6A
100
AcDbEntity
  8
AM_5
 62
     2
100
AcDbMText
 10
-190.4576799641607
 20
-25.07941722561805
 30
0.0
 40
3.799999999999999
 41
0.0
 71
     5
 72
     1
  1
6
1001
ACAD
1000
MTEXTBEGIN
1070
    73
1070
     1
1070
    44
1040
1.0
1070
    74
1070
     0
1000
MTEXTEND
  0
POINT
  5
4B2F
330
4A6A
100
AcDbEntity
  8
DEFPOINTS
 62
     0
100
AcDbPoint
 10
-193.4576313661219
 20
-11.81209445906836
 30
0.0
  0
POINT
  5
4B30
330
4A6A
100
AcDbEntity
  8
DEFPOINTS
 62
     0
100
AcDbPoint
 10
-187.4577285621995
 20
-0.0000000000011837
 30
0.0
  0
POINT
  5
4B31
330
4A6A
100
AcDbEntity
  8
DEFPOINTS
 62
     0
100
AcDbPoint
 10
-187.4577285621995
 20
-28.47941722561805
 30
0.0
  0
ENDBLK
  5
4A77
330
4A6A
100
AcDbEntity
  8
0
100
AcDbBlockEnd
  0
BLOCK
  5
4A82
330
4A78
100
AcDbEntity
  8
0
100
AcDbBlockBegin
  2
*D14
 70
     1
 10
0.0
 20
0.0
 30
0.0
  3
*D14
  1

  0
LINE
  5
4B4D
330
4A78
100
AcDbEntity
  8
AM_5
 62
     3
100
AcDbLine
 10
-3.457717196797029
 20
-10.3000000000001
 30
0.0
 11
-3.457717196797032
 21
-51.56584636158112
 31
0.0
  0
LINE
  5
4B4E
330
4A78
100
AcDbEntity
  8
AM_5
 62
     3
100
AcDbLine
 10
-193.4576313661219
 20
-12.61209445906836
 30
0.0
 11
-193.4576313661219
 21
-51.56584636158112
 31
0.0
  0
LINE
  5
4B4F
330
4A78
100
AcDbEntity
  8
AM_5
 62
     3
100
AcDbLine
 10
-5.957717196797032
 20
-50.56584636158112
 30
0.0
 11
-190.9576313661219
 21
-50.56584636158112
 31
0.0
  0
INSERT
  5
4B50
330
4A78
100
AcDbEntity
  8
AM_5
 62
     3
100
AcDbBlockReference
  2
_OPEN30
 10
-3.457717196797032
 20
-50.56584636158112
 30
0.0
 41
2.5
 42
2.5
 43
2.5
  0
INSERT
  5
4B51
330
4A78
100
AcDbEntity
  8
AM_5
 62
     3
100
AcDbBlockReference
  2
_OPEN30
 10
-193.4576313661219
 20
-50.56584636158112
 30
0.0
 41
2.5
 42
2.5
 43
2.5
 50
180.0
  0
MTEXT
  5
4B52
330
4A78
100
AcDbEntity
  8
AM_5
 62
     2
100
AcDbMText
 10
-98.45767428145947
 20
-47.16584636158112
 30
0.0
 40
3.799999999999999
 41
0.0
 71
     5
 72
     1
  1
190
1001
ACAD
1000
MTEXTBEGIN
1070
    73
1070
     1
1070
    44
1040
1.0
1070
    74
1070
     0
1000
MTEXTEND
  0
POINT
  5
4B53
330
4A78
100
AcDbEntity
  8
DEFPOINTS
 62
     0
100
AcDbPoint
 10
-3.457717196797029
 20
-9.500000000000099
 30
0.0
  0
POINT
  5
4B54
330
4A78
100
AcDbEntity
  8
DEFPOINTS
 62
     0
100
AcDbPoint
 10
-193.4576313661219
 20
-11.81209445906836
 30
0.0
  0
POINT
  5
4B55
330
4A78
100
AcDbEntity
  8
DEFPOINTS
 62
     0
100
AcDbPoint
 10
-193.4576313661219
 20
-50.56584636158112
 30
0.0
  0
ENDBLK
  5
4A83
330
4A78
100
AcDbEntity
  8
0
100
AcDbBlockEnd
  0
BLOCK
  5
4A8E
330
4A84
100
AcDbEntity
  8
0
100
AcDbBlockBegin
  2
*D15
 70
     1
 10
0.0
 20
0.0
 30
0.0
  3
*D15
  1

  0
LINE
  5
4B1E
330
4A84
100
AcDbEntity
  8
AM_5
 62
     3
100
AcDbLine
 10
-137.457717196797
 20
-13.27503639174675
 30
0.0
 11
-137.457717196797
 21
-40.40357476170143
 31
0.0
  0
LINE
  5
4B1F
330
4A84
100
AcDbEntity
  8
AM_5
 62
     3
100
AcDbLine
 10
-193.4576313661219
 20
-12.61209445906836
 30
0.0
 11
-193.4576313661219
 21
-40.40357476170143
 31
0.0
  0
LINE
  5
4B20
330
4A84
100
AcDbEntity
  8
AM_5
 62
     3
100
AcDbLine
 10
-139.957717196797
 20
-39.40357476170143
 30
0.0
 11
-190.9576313661219
 21
-39.40357476170143
 31
0.0
  0
INSERT
  5
4B21
330
4A84
100
AcDbEntity
  8
AM_5
 62
     3
100
AcDbBlockReference
  2
_OPEN30
 10
-137.457717196797
 20
-39.40357476170143
 30
0.0
 41
2.5
 42
2.5
 43
2.5
  0
INSERT
  5
4B22
330
4A84
100
AcDbEntity
  8
AM_5
 62
     3
100
AcDbBlockReference
  2
_OPEN30
 10
-193.4576313661219
 20
-39.40357476170143
 30
0.0
 41
2.5
 42
2.5
 43
2.5
 50
180.0
  0
MTEXT
  5
4B23
330
4A84
100
AcDbEntity
  8
AM_5
 62
     2
100
AcDbMText
 10
-165.4576742814594
 20
-36.00357476170144
 30
0.0
 40
3.799999999999999
 41
0.0
 71
     5
 72
     1
  1
56
1001
ACAD
1000
MTEXTBEGIN
1070
    73
1070
     1
1070
    44
1040
1.0
1070
    74
1070
     0
1000
MTEXTEND
  0
POINT
  5
4B24
330
4A84
100
AcDbEntity
  8
DEFPOINTS
 62
     0
100
AcDbPoint
 10
-137.457717196797
 20
-12.47503639174675
 30
0.0
  0
POINT
  5
4B25
330
4A84
100
AcDbEntity
  8
DEFPOINTS
 62
     0
100
AcDbPoint
 10
-193.4576313661219
 20
-11.81209445906836
 30
0.0
  0
POINT
  5
4B26
330
4A84
100
AcDbEntity
  8
DEFPOINTS
 62
     0
100
AcDbPoint
 10
-193.4576313661219
 20
-39.40357476170143
 30
0.0
  0
ENDBLK
  5
4A8F
330
4A84
100
AcDbEntity
  8
0
100
AcDbBlockEnd
  0
BLOCK
  5
4A9A
330
4A90
100
AcDbEntity
  8
0
100
AcDbBlockBegin
  2
*D16
 70
     1
 10
0.0
 20
0.0
 30
0.0
  3
*D16
  1

  0
LINE
  5
4B44
330
4A90
100
AcDbEntity
  8
AM_5
 62
     3
100
AcDbLine
 10
-3.457717196797029
 20
-10.30000000000009
 30
0.0
 11
-3.457717196797031
 21
-40.40357476170102
 31
0.0
  0
LINE
  5
4B45
330
4A90
100
AcDbEntity
  8
AM_5
 62
     3
100
AcDbLine
 10
-137.457717196797
 20
-13.27503639174675
 30
0.0
 11
-137.457717196797
 21
-40.40357476170102
 31
0.0
  0
LINE
  5
4B46
330
4A90
100
AcDbEntity
  8
AM_5
 62
     3
100
AcDbLine
 10
-5.957717196797031
 20
-39.40357476170102
 30
0.0
 11
-134.957717196797
 21
-39.40357476170102
 31
0.0
  0
INSERT
  5
4B47
330
4A90
100
AcDbEntity
  8
AM_5
 62
     3
100
AcDbBlockReference
  2
_OPEN30
 10
-3.457717196797031
 20
-39.40357476170102
 30
0.0
 41
2.5
 42
2.5
 43
2.5
  0
INSERT
  5
4B48
330
4A90
100
AcDbEntity
  8
AM_5
 62
     3
100
AcDbBlockReference
  2
_OPEN30
 10
-137.457717196797
 20
-39.40357476170102
 30
0.0
 41
2.5
 42
2.5
 43
2.5
 50
180.0
  0
MTEXT
  5
4B49
330
4A90
100
AcDbEntity
  8
AM_5
 62
     2
100
AcDbMText
 10
-70.45771719679702
 20
-36.00357476170102
 30
0.0
 40
3.799999999999999
 41
0.0
 71
     5
 72
     1
  1
134
1001
ACAD
1000
MTEXTBEGIN
1070
    73
1070
     1
1070
    44
1040
1.0
1070
    74
1070
     0
1000
MTEXTEND
  0
POINT
  5
4B4A
330
4A90
100
AcDbEntity
  8
DEFPOINTS
 62
     0
100
AcDbPoint
 10
-3.457717196797029
 20
-9.500000000000097
 30
0.0
  0
POINT
  5
4B4B
330
4A90
100
AcDbEntity
  8
DEFPOINTS
 62
     0
100
AcDbPoint
 10
-137.457717196797
 20
-12.47503639174675
 30
0.0
  0
POINT
  5
4B4C
330
4A90
100
AcDbEntity
  8
DEFPOINTS
 62
     0
100
AcDbPoint
 10
-137.457717196797
 20
-39.40357476170102
 30
0.0
  0
ENDBLK
  5
4A9B
330
4A90
100
AcDbEntity
  8
0
100
AcDbBlockEnd
  0
BLOCK
  5
4AA6
330
4A9C
100
AcDbEntity
  8
0
100
AcDbBlockBegin
  2
*D17
 70
     1
 10
0.0
 20
0.0
 30
0.0
  3
*D17
  1

  0
LINE
  5
4B3B
330
4A9C
100
AcDbEntity
  8
AM_5
 62
     3
100
AcDbLine
 10
-193.5720700400257
 20
12.52500938462106
 30
0.0
 11
-211.4045582907493
 21
12.52500938462106
 31
0.0
  0
LINE
  5
4B3C
330
4A9C
100
AcDbEntity
  8
AM_5
 62
     3
100
AcDbLine
 10
-193.5720700400255
 20
-12.47489334306202
 30
0.0
 11
-211.4045582907493
 21
-12.47489334306202
 31
0.0
  0
LINE
  5
4B3D
330
4A9C
100
AcDbEntity
  8
AM_5
 62
     3
100
AcDbLine
 10
-210.4045582907493
 20
10.02500938462106
 30
0.0
 11
-210.4045582907493
 21
-9.974893343062019
 31
0.0
  0
INSERT
  5
4B3E
330
4A9C
100
AcDbEntity
  8
AM_5
 62
     3
100
AcDbBlockReference
  2
_OPEN30
 10
-210.4045582907493
 20
12.52500938462106
 30
0.0
 41
2.5
 42
2.5
 43
2.5
 50
90.0
  0
INSERT
  5
4B3F
330
4A9C
100
AcDbEntity
  8
AM_5
 62
     3
100
AcDbBlockReference
  2
_OPEN30
 10
-210.4045582907493
 20
-12.47489334306202
 30
0.0
 41
2.5
 42
2.5
 43
2.5
 50
270.0
  0
MTEXT
  5
4B40
330
4A9C
100
AcDbEntity
  8
AM_5
 62
     2
100
AcDbMText
 10
-213.8045582907493
 20
0.0250580207794915
 30
0.0
 40
3.799999999999999
 41
0.0
 71
     5
 72
     1
  1
%%C25
 11
0.0000000000000001
 21
1.0
 31
0.0
1001
ACAD
1000
MTEXTBEGIN
1070
    73
1070
     1
1070
    44
1040
1.0
1070
    74
1070
     0
1000
MTEXTEND
  0
POINT
  5
4B41
330
4A9C
100
AcDbEntity
  8
DEFPOINTS
 62
     0
100
AcDbPoint
 10
-192.7720700400257
 20
12.52500938462106
 30
0.0
  0
POINT
  5
4B42
330
4A9C
100
AcDbEntity
  8
DEFPOINTS
 62
     0
100
AcDbPoint
 10
-192.7720700400255
 20
-12.47489334306202
 30
0.0
  0
POINT
  5
4B43
330
4A9C
100
AcDbEntity
  8
DEFPOINTS
 62
     0
100
AcDbPoint
 10
-210.4045582907493
 20
-12.47489334306202
 30
0.0
  0
ENDBLK
  5
4AA7
330
4A9C
100
AcDbEntity
  8
0
100
AcDbBlockEnd
  0
ENDSEC
  0
SECTION
  2
ENTITIES
  0
TEXT
  5
19BD
330
1F
100
AcDbEntity
  8
AM_6
100
AcDbText
 10
-118.8148171386022
 20
-73.06584636158118
 30
0.0
 40
5.0
  1
KDS190LAK
 50
0.0000000000001527
 72
     4
 11
-98.45767428145942
 21
-70.56584636158112
 31
0.0
100
AcDbText
  0
LINE
  5
35D1
330
1F
100
AcDbEntity
  8
AM_7
100
AcDbLine
 10
4.909002595337891
 20
-0.0000000000001046
 30
0.0
 11
-200.0207498297156
 21
-0.0000000000006094
 31
0.0
  0
LINE
  5
35F4
330
1F
100
AcDbEntity
  8
PV0001_1
  6
CONTINUOUS
 48
0.5
100
AcDbLine
 10
-110.457717196797
 20
9.500000000001206
 30
0.0
 11
-137.4577171967971
 21
12.5249736218331
 31
0.0
  0
LINE
  5
35F5
330
1F
100
AcDbEntity
  8
PV0001_1
  6
CONTINUOUS
 48
0.5
100
AcDbLine
 10
-110.457717196797
 20
-9.499999999998989
 30
0.0
 11
-137.457717196797
 21
-12.47503639174675
 31
0.0
  0
DIMENSION
  5
36BA
330
1F
100
AcDbEntity
  8
AM_5
100
AcDbDimension
  2
*D8
 10
-2.800374408476762
 20
-7.693965517241461
 30
0.0
 11
27.93620093322097
 21
-0.0000000000000535
 31
0.0
 70
    34
  1
<>
 51
359.9999999999998
  3
AM_JIS$2
100
AcDb2LineAngularDimension
 13
0.0
 23
-0.0000000000000725
 33
0.0
 14
-2.800374408476802
 24
7.693965517241139
 34
0.0
 15
0.0
 25
-0.0000000000002316
 35
0.0
 16
28.49793958231303
 26
-12.29281122974343
 36
0.0
1001
ACAD
1000
DSTYLE
1002
{
1070
   179
1070
     3
1002
}
1001
GENIUS_GENDTOL_13
1000

1000
h7
1000

1040
0.0
  0
DIMENSION
  5
3B0D
330
1F
100
AcDbEntity
  8
AM_5
100
AcDbDimension
  2
*D9
 10
-110.457717196797
 20
27.23488565399456
 30
0.0
 11
-56.95771719679719
 21
30.63488565399456
 31
0.0
 70
    32
  1
<>
 51
359.9999999999998
  3
AM_JIS$0
100
AcDbAlignedDimension
 13
-3.457717196797305
 23
9.499999999999889
 33
0.0
 14
-110.457717196797
 24
9.500000000001175
 34
0.0
 50
180.0000000000001
100
AcDbRotatedDimension
1001
ACAD
1000
DSTYLE
1002
{
1070
   271
1070
     3
1002
}
1001
GENIUS_GENDTOL_13
1000

1000
h7
1000

1040
0.0
  0
LINE
  5
44E2
330
1F
100
AcDbEntity
  8
PV0001_1
  6
CONTINUOUS
 48
0.5
100
AcDbLine
 10
-0.0000000000000267
 20
-0.000000000000318
 30
0.0
 11
-3.457717196797305
 21
9.499999999999889
 31
0.0
  0
LINE
  5
44E3
330
1F
100
AcDbEntity
  8
PV0001_1
  6
CONTINUOUS
 48
0.5
100
AcDbLine
 10
-0.0000000000000267
 20
-0.0000000000005097
 30
0.0
 11
-3.457717196797029
 21
-9.500000000000104
 31
0.0
  0
DIMENSION
  5
4515
330
1F
100
AcDbEntity
  8
AM_5
100
AcDbDimension
  2
*D10
 10
16.79072293809125
 20
-9.500000000000104
 30
0.0
 11
16.79072293809125
 21
-0.0000000000000603
 31
0.0
 70
   160
  1
%%C<>
 51
359.9999999999998
  3
AM_JIS$0
100
AcDbAlignedDimension
 13
-3.346177932384391
 23
9.499999999999893
 33
0.0
 14
-3.457717196797029
 24
-9.500000000000099
 34
0.0
 50
89.99999999999962
100
AcDbRotatedDimension
1001
GENIUS_GENDTOL_13
1000

1000
h7
1000

1040
0.0
1001
ACAD
1000
DSTYLE
1002
{
1070
   271
1070
     3
1002
}
  0
LINE
  5
4522
330
1F
100
AcDbEntity
  8
PV0001_1
  6
CONTINUOUS
 48
0.5
100
AcDbLine
 10
-13.71191253721744
 20
9.499999999999957
 30
0.0
 11
-3.457717196797305
 21
9.499999999999889
 31
0.0
  0
LINE
  5
4523
330
1F
100
AcDbEntity
  8
PV0001_1
  6
CONTINUOUS
 48
0.5
100
AcDbLine
 10
-2.996688676895571
 20
8.233334541319999
 30
0.0
 11
-13.72772793513798
 21
8.233334541320063
 31
0.0
  0
ELLIPSE
  5
4524
330
1F
100
AcDbEntity
  8
AM_0
100
AcDbEllipse
 10
-4.830647984314509
 20
3.334209213876079
 30
0.0
 11
3.779619440912432
 21
0.3893944510224143
 31
0.0
210
0.0
220
0.0
230
0.9999999999999998
 40
0.769245240222019
 41
3.88953587144012
 42
6.036336120213036
  0
LINE
  5
4525
330
1F
100
AcDbEntity
  8
PV0001_1
  6
CONTINUOUS
 48
0.5
100
AcDbLine
 10
-10.63140451500832
 20
2.730351876251726
 30
0.0
 11
-7.397719824071197
 21
1.071294475749823
 31
0.0
  0
LINE
  5
4527
330
1F
100
AcDbEntity
  8
AM_0
100
AcDbLine
 10
-2.510595993763624
 20
-2.350922110756877
 30
0.0
 11
-5.573815428439366
 21
-3.873272653221295
 31
0.0
  0
LINE
  5
4528
330
1F
100
AcDbEntity
  8
PV0001_1
  6
CONTINUOUS
 48
0.5
100
AcDbLine
 10
-14.88518698587964
 20
-9.500000000000024
 30
0.0
 11
-3.457717196797029
 21
-9.500000000000104
 31
0.0
  0
LINE
  5
4529
330
1F
100
AcDbEntity
  8
PV0001_1
  6
CONTINUOUS
 48
0.5
100
AcDbLine
 10
-14.88518698587963
 20
-8.204545454545502
 30
0.0
 11
-3.976137149439089
 21
-8.204545454545556
 31
0.0
  0
LINE
  5
452A
330
1F
100
AcDbEntity
  8
PV0001_1
  6
CONTINUOUS
 48
0.5
100
AcDbLine
 10
-2.510595993763624
 20
-2.350922110756877
 30
0.0
 11
-3.976137149439089
 21
-8.204545454545556
 31
0.0
  0
LINE
  5
452D
330
1F
100
AcDbEntity
  8
AM_0
100
AcDbLine
 10
-3.264657793166103
 20
0.7114808927880812
 30
0.0
 11
-2.510595993763624
 21
-2.350922110756877
 31
0.0
  0
LINE
  5
452E
330
1F
100
AcDbEntity
  8
PV0001_1
  6
CONTINUOUS
 48
0.5
100
AcDbLine
 10
-7.397719824071145
 20
1.071294475749685
 30
0.0
 11
-3.976137149439089
 21
-8.204545454545556
 31
0.0
  0
LINE
  5
4534
330
1F
100
AcDbEntity
  8
PV0001_1
  6
CONTINUOUS
100
AcDbLine
 10
-110.457717196797
 20
2.34235273228629
 30
0.0
 11
-110.457717196797
 21
9.500000000001175
 31
0.0
  0
LINE
  5
4536
330
1F
100
AcDbEntity
  8
PV0001_1
  6
CONTINUOUS
100
AcDbLine
 10
-110.457717196797
 20
-9.499999999999019
 30
0.0
 11
-110.457717196797
 21
-8.368424187439028
 31
0.0
  0
LINE
  5
4539
330
1F
100
AcDbEntity
  8
AM_11
 48
0.5
100
AcDbLine
 10
-10.09274056016089
 20
-9.500000000000074
 30
0.0
 11
-99.42674752441009
 21
-9.499999999999527
 31
0.0
  0
LINE
  5
453A
330
1F
100
AcDbEntity
  8
AM_11
 48
0.5
100
AcDbLine
 10
-96.04107325544077
 20
9.50000000000042
 30
0.0
 11
-8.886642110598128
 21
9.499999999999925
 31
0.0
  0
LINE
  5
46A3
330
1F
100
AcDbEntity
  8
PV0001_1
  6
CONTINUOUS
 48
0.5
100
AcDbLine
 10
-110.457717196797
 20
9.500000000001206
 30
0.0
 11
-96.04101273715681
 21
9.500000000001064
 31
0.0
  0
LINE
  5
46A4
330
1F
100
AcDbEntity
  8
AM_0
100
AcDbLine
 10
-110.457717196797
 20
-9.499999999998989
 30
0.0
 11
-99.42669874330629
 21
-9.499999999999106
 31
0.0
  0
LINE
  5
46A5
330
1F
100
AcDbEntity
  8
AM_11
 48
0.5
100
AcDbLine
 10
-112.457717196797
 20
-9.717729595347517
 30
0.0
 11
-112.457717196797
 21
9.721294415209047
 31
0.0
  0
SPLINE
  5
46A6
330
1F
100
AcDbEntity
  8
PV0001_1
  6
CONTINUOUS
100
AcDbSpline
210
0.0
220
0.0
230
1.0
 70
     8
 71
     3
 72
    16
 73
    12
 74
     0
 42
0.0000000001
 43
0.0000000001
 40
2.625839846755727
 40
2.625839846755727
 40
2.625839846755727
 40
2.625839846755727
 40
3.082371838836284
 40
4.126290986361125
 40
5.162752068350215
 40
6.192395305374981
 40
7.216039564037012
 40
8.234688489606833
 40
9.249433870634691
 40
10.26152376260694
 40
11.27226744710342
 40
11.27226744710342
 40
11.27226744710342
 40
11.27226744710352
 10
-85.93023957813898
 20
-7.159837740348156
 30
0.0
 10
-86.86519043482178
 20
-7.557229303923162
 30
0.0
 10
-87.58748970655444
 20
-7.770422077466607
 30
0.0
 10
-88.81478309479037
 20
-8.107147935991461
 30
0.0
 10
-90.3304800194312
 20
-8.472111690775287
 30
0.0
 10
-91.84624639277608
 20
-8.785074443431218
 30
0.0
 10
-93.3621779061508
 20
-9.043759687782923
 30
0.0
 10
-94.87821415088365
 20
-9.246691221204693
 30
0.0
 10
-96.39434479616895
 20
-9.392553979458485
 30
0.0
 10
-97.91053248847385
 20
-9.480409027030093
 30
0.0
 10
-98.92156961125586
 20
-9.500000054358505
 30
0.0
 10
-99.42675173244182
 20
-9.499999999998681
 30
0.0
  0
DIMENSION
  5
471A
330
1F
100
AcDbEntity
  8
AM_5
100
AcDbDimension
  2
*D11
 10
-112.457717196797
 20
38.93656301910696
 30
0.0
 11
-57.95771719679716
 21
42.33656301910696
 31
0.0
 70
    32
  1
<>
 51
359.9999999999998
  3
AM_JIS$0
100
AcDbAlignedDimension
 13
-3.457717196797305
 23
9.499999999999889
 33
0.0
 14
-112.457717196797
 24
9.721294415209047
 34
0.0
 50
180.0000000000002
100
AcDbRotatedDimension
1001
ACAD
1000
DSTYLE
1002
{
1070
   271
1070
     3
1002
}
1001
GENIUS_GENDTOL_13
1000

1000
h7
1000

1040
0.0
  0
SPLINE
  5
48F5
330
1F
100
AcDbEntity
  8
PV0001_1
  6
CONTINUOUS
100
AcDbSpline
210
0.0
220
0.0
230
1.0
 70
     8
 71
     3
 72
    33
 73
    29
 74
     0
 42
0.0000000001
 43
0.0000000001
 40
0.0
 40
0.0
 40
0.0
 40
0.0
 40
1.010743684496582
 40
2.022833576467832
 40
3.037578957496688
 40
4.056212745003489
 40
5.079857003664532
 40
6.109500240690281
 40
7.145961322679372
 40
8.189895241603872
 40
9.241717795325891
 40
10.30168407291828
 40
11.36983447792315
 40
12.44600489715814
 40
13.52984294512926
 40
14.62081576220742
 40
15.7182257034828
 40
16.82123173843959
 40
17.92886860250316
 40
19.0400688939571
 40
20.15368796660465
 40
21.26852814259644
 40
22.38336992938901
 40
23.49698739941135
 40
24.6081876908653
 40
25.71582455492886
 40
26.81883757994213
 40
27.60984405689107
 40
27.60984405689107
 40
27.60984405689107
 40
27.60984405689107
 10
-70.00292834505242
 20
-9.499999999999243
 30
0.0
 10
-70.5844737764192
 20
-9.494347730150819
 30
0.0
 10
-71.74833919833975
 20
-9.483035662207162
 30
0.0
 10
-73.4937137784093
 20
-9.391847695191032
 30
0.0
 10
-75.2390138550189
 20
-9.246882648589966
 30
0.0
 10
-76.98420591468854
 20
-9.043708622343292
 30
0.0
 10
-78.72927254314877
 20
-8.785079014042612
 30
0.0
 10
-80.47417931413669
 20
-8.472143908341518
 30
0.0
 10
-82.21893206428815
 20
-8.107011347651393
 30
0.0
 10
-83.96351532117225
 20
-7.691917229071473
 30
0.0
 10
-85.70791720099746
 20
-7.229410205308274
 30
0.0
 10
-87.45214639864292
 20
-6.722393385140204
 30
0.0
 10
-89.19620758550214
 20
-6.173969746265258
 30
0.0
 10
-90.94012255222271
 20
-5.587553365145184
 30
0.0
 10
-92.68389928309707
 20
-4.966747896084632
 30
0.0
 10
-94.42755394770946
 20
-4.315381907810527
 30
0.0
 10
-96.1711058834264
 20
-3.637473808299226
 30
0.0
 10
-97.91457039259034
 20
-2.937192411620365
 30
0.0
 10
-99.65796439572306
 20
-2.218844720780512
 30
0.0
 10
-101.4013065478813
 20
-1.486852080472105
 30
0.0
 10
-103.1446121398352
 20
-0.7457144806257442
 30
0.0
 10
-104.88790578976
 20
-0.0000019383439883
 30
0.0
 10
-106.631191613755
 20
0.7457240272282724
 30
0.0
 10
-108.3745030488893
 20
1.486850085601944
 30
0.0
 10
-110.1178430488683
 20
2.218844941610223
 30
0.0
 10
-111.8612401604533
 20
2.937195369034596
 30
0.0
 10
-113.4432257717825
 20
3.572608959257862
 30
0.0
 10
-114.445836404647
 20
3.964219570494259
 30
0.0
 10
-114.8654203360256
 20
4.125891877105028
 30
0.0
  0
LINE
  5
4A4B
330
1F
100
AcDbEntity
  8
PV0001_1
  6
CONTINUOUS
100
AcDbLine
 10
-137.457717196797
 20
-12.47503639174676
 30
0.0
 11
-137.4577171967971
 21
12.5249736218331
 31
0.0
  0
LINE
  5
4A4C
330
1F
100
AcDbEntity
  8
PV0001_1
  6
CONTINUOUS
 48
0.5
100
AcDbLine
 10
-192.7948181794782
 20
0.0249721913222635
 30
0.0
 11
-192.7948181794782
 21
-12.47506500197653
 31
0.0
  0
LINE
  5
4A4D
330
1F
100
AcDbEntity
  8
PV0001_1
  6
CONTINUOUS
 48
0.5
100
AcDbLine
 10
-193.4576313661219
 20
-11.81209445906836
 30
0.0
 11
-192.7947037385532
 21
-12.47500778151754
 31
0.0
  0
LINE
  5
4A4E
330
1F
100
AcDbEntity
  8
PV0001_1
  6
CONTINUOUS
100
AcDbLine
 10
-192.7720700400255
 20
-12.47503639174703
 30
0.0
 11
-137.457717196797
 21
-12.47503639174675
 31
0.0
  0
LINE
  5
4A4F
330
1F
100
AcDbEntity
  8
PV0001_1
  6
CONTINUOUS
 48
0.5
100
AcDbLine
 10
-193.457631366122
 20
11.86197446869743
 30
0.0
 11
-192.7947037385533
 21
12.5248877911448
 31
0.0
  0
LINE
  5
4A50
330
1F
100
AcDbEntity
  8
PV0001_1
  6
CONTINUOUS
 48
0.5
100
AcDbLine
 10
-192.7948181794782
 20
0.0249721913222635
 30
0.0
 11
-192.7948181794784
 21
12.52500938462105
 31
0.0
  0
LINE
  5
4A51
330
1F
100
AcDbEntity
  8
AM_0
100
AcDbLine
 10
-183.2001506945284
 20
-4.264680527309197
 30
0.0
 11
-146.722397724105
 21
-4.264680527309003
 31
0.0
  0
LINE
  5
4A52
330
1F
100
AcDbEntity
  8
AM_0
100
AcDbLine
 10
-146.722397724105
 20
4.264680527306992
 30
0.0
 11
-183.2001506945284
 21
4.264680527306798
 31
0.0
  0
ARC
  5
4A53
330
1F
100
AcDbEntity
  8
AM_0
100
AcDbCircle
 10
-183.1930480348916
 20
-0.0000000000011729
 30
0.0
 40
4.264680527307981
100
AcDbArc
 50
90.0
 51
270.0
  0
LINE
  5
4A54
330
1F
100
AcDbEntity
  8
PV0001_1
  6
CONTINUOUS
 48
0.5
100
AcDbLine
 10
-193.457717196797
 20
0.0249721913222617
 30
0.0
 11
-193.4577171967971
 21
11.86209606217186
 31
0.0
  0
LINE
  5
4A55
330
1F
100
AcDbEntity
  8
PV0001_1
  6
CONTINUOUS
 48
0.5
100
AcDbLine
 10
-193.457717196797
 20
0.0249721913222617
 30
0.0
 11
-193.4577171967969
 21
-11.81215167952689
 31
0.0
  0
ARC
  5
4A56
330
1F
100
AcDbEntity
  8
AM_0
100
AcDbCircle
 10
-146.722397724105
 20
-0.0000000000009973
 30
0.0
 40
4.264680527307981
100
AcDbArc
 50
270.0
 51
90.0
  0
LINE
  5
4A57
330
1F
100
AcDbEntity
  8
PV0001_1
  6
CONTINUOUS
100
AcDbLine
 10
-137.4577171967971
 20
12.5249736218331
 30
0.0
 11
-192.7720700400257
 21
12.52497362183283
 31
0.0
  0
DIMENSION
  5
4A58
330
1F
100
AcDbEntity
  8
AM_5
100
AcDbDimension
  2
*D12
 10
-142.457717196797
 20
-28.47941722561771
 30
0.0
 11
-164.9577228794983
 21
-25.07941722561771
 31
0.0
 70
    32
  1
<>
  3
AM_JIS$0
100
AcDbAlignedDimension
 13
-187.4577285621995
 23
-0.0000000000011837
 33
0.0
 14
-142.457717196797
 24
-0.0000000000009754
 34
0.0
 50
0.0000000000004184
100
AcDbRotatedDimension
1001
ACAD
1000
DSTYLE
1002
{
1070
   271
1070
     3
1002
}
1001
GENIUS_GENDTOL_13
1000

1000
h7
1000

1040
0.0
  0
DIMENSION
  5
4A59
330
1F
100
AcDbEntity
  8
AM_5
100
AcDbDimension
  2
*D13
 10
-187.4577285621995
 20
-28.47941722561805
 30
0.0
 11
-190.4576799641607
 21
-28.47941722561805
 31
0.0
 70
   160
  1
<>
  3
AM_JIS$0
100
AcDbAlignedDimension
 13
-193.4576313661219
 23
-11.81209445906836
 33
0.0
 14
-187.4577285621995
 24
-0.0000000000011837
 34
0.0
 50
0.0000000000004185
100
AcDbRotatedDimension
1001
ACAD
1000
DSTYLE
1002
{
1070
   271
1070
     3
1002
}
1001
GENIUS_GENDTOL_13
1000

1000
h7
1000

1040
0.0
  0
DIMENSION
  5
4A5A
330
1F
100
AcDbEntity
  8
AM_5
100
AcDbDimension
  2
*D14
 10
-193.4576313661219
 20
-50.56584636158112
 30
0.0
 11
-98.45767428145947
 21
-47.16584636158112
 31
0.0
 70
    32
  1
<>
  3
AM_JIS$0
100
AcDbAlignedDimension
 13
-3.457717196797029
 23
-9.500000000000099
 33
0.0
 14
-193.4576313661219
 24
-11.81209445906836
 34
0.0
 50
0.0000000000004184
100
AcDbRotatedDimension
1001
ACAD
1000
DSTYLE
1002
{
1070
   271
1070
     3
1002
}
1001
GENIUS_GENDTOL_13
1000

1000
h7
1000

1040
0.0
  0
DIMENSION
  5
4A5B
330
1F
100
AcDbEntity
  8
AM_5
100
AcDbDimension
  2
*D15
 10
-193.4576313661219
 20
-39.40357476170143
 30
0.0
 11
-165.4576742814594
 21
-36.00357476170144
 31
0.0
 70
    32
  1
<>
  3
AM_JIS$0
100
AcDbAlignedDimension
 13
-137.457717196797
 23
-12.47503639174675
 33
0.0
 14
-193.4576313661219
 24
-11.81209445906836
 34
0.0
 50
0.0000000000004184
100
AcDbRotatedDimension
1001
ACAD
1000
DSTYLE
1002
{
1070
   271
1070
     3
1002
}
1001
GENIUS_GENDTOL_13
1000

1000
h7
1000

1040
0.0
  0
DIMENSION
  5
4A5C
330
1F
100
AcDbEntity
  8
AM_5
100
AcDbDimension
  2
*D16
 10
-137.457717196797
 20
-39.40357476170102
 30
0.0
 11
-70.45771719679702
 21
-36.00357476170102
 31
0.0
 70
    32
  1
<>
  3
AM_JIS$0
100
AcDbAlignedDimension
 13
-3.457717196797029
 23
-9.500000000000097
 33
0.0
 14
-137.457717196797
 24
-12.47503639174675
 34
0.0
 50
0.0000000000003167
100
AcDbRotatedDimension
1001
ACAD
1000
DSTYLE
1002
{
1070
   271
1070
     3
1002
}
1001
GENIUS_GENDTOL_13
1000

1000
h7
1000

1040
0.0
  0
DIMENSION
  5
4A5D
330
1F
100
AcDbEntity
  8
AM_5
100
AcDbDimension
  2
*D17
 10
-210.4045582907493
 20
-12.47489334306202
 30
0.0
 11
-213.8045582907493
 21
0.0250580207794915
 31
0.0
 70
    32
  1
%%C<>
  3
AM_JIS$0
100
AcDbAlignedDimension
 13
-192.7720700400257
 23
12.52500938462106
 33
0.0
 14
-192.7720700400255
 24
-12.47489334306202
 34
0.0
 50
270.0
100
AcDbRotatedDimension
1001
ACAD
1000
DSTYLE
1002
{
1070
   271
1070
     3
1002
}
1001
GENIUS_GENDTOL_13
1000

1000
h7
1000

1040
0.0
  0
SPLINE
  5
4BDC
330
1F
100
AcDbEntity
  8
AM_0
100
AcDbSpline
210
0.0
220
0.0
230
1.0
 70
     8
 71
     3
 72
    12
 73
     8
 74
     0
 42
0.0000000001
 43
0.0000000001
 40
0.0
 40
0.0
 40
0.0
 40
0.0
 40
3.550288329958888
 40
5.110699985623471
 40
6.310592039948465
 40
8.859663010396623
 40
10.65155104271494
 40
10.65155104271494
 40
10.65155104271494
 40
10.65155104271494
 10
-114.8654203360256
 20
4.125891877105029
 30
0.0
 10
-121.7295382005533
 20
6.126219234933667
 30
0.0
 10
-129.9839558298985
 20
5.121309164274452
 30
0.0
 10
-133.8181739300074
 20
3.613094483532124
 30
0.0
 10
-136.1646101175668
 20
1.599196970251363
 30
0.0
 10
-134.6751851826587
 20
-0.7908371088886622
 30
0.0
 10
-132.866863586355
 20
-2.465281261701873
 30
0.0
 10
-128.6362449887373
 20
-4.145044334265591
 30
0.0
  0
SPLINE
  5
4C00
330
1F
100
AcDbEntity
  8
PV0001_1
  6
CONTINUOUS
100
AcDbSpline
210
0.0
220
0.0
230
1.0
 70
     8
 71
     3
 72
    22
 73
    18
 74
     0
 42
0.0000000001
 43
0.0000000001
 40
0.0
 40
0.0
 40
0.0
 40
0.0
 40
1.010743684496582
 40
2.022833576467832
 40
3.037578957496688
 40
4.056212745003489
 40
5.079857003664532
 40
6.109500240690281
 40
7.145961322679372
 40
8.189895241603872
 40
9.241717795325891
 40
10.30168407291828
 40
11.36983447792315
 40
12.44600489715814
 40
13.52984294512926
 40
14.62081576220742
 40
14.89596980028333
 40
14.89596980028333
 40
14.89596980028333
 40
14.89596980028333
 10
-99.4267460403083
 20
-9.499999999998909
 30
0.0
 10
-100.1101006277255
 20
-9.494347730150487
 30
0.0
 10
-101.4777199611566
 20
-9.483035662206827
 30
0.0
 10
-103.5286512585597
 20
-9.391847695190687
 30
0.0
 10
-105.5794950094387
 20
-9.246882648589622
 30
0.0
 10
-107.6302118332241
 20
-9.043708622342943
 30
0.0
 10
-109.6807812669901
 20
-8.785079014042253
 30
0.0
 10
-111.7311628575867
 20
-8.472143908341157
 30
0.0
 10
-113.7813634634494
 20
-8.107011347651026
 30
0.0
 10
-115.831364903442
 20
-7.691917229071105
 30
0.0
 10
-117.8811532133186
 20
-7.229410205307903
 30
0.0
 10
-119.930738610141
 20
-6.722393385139826
 30
0.0
 10
-121.9801265831073
 20
-6.173969746264876
 30
0.0
 10
-124.0293427376788
 20
-5.587553365144796
 30
0.0
 10
-126.0783964559306
 20
-4.96674789608424
 30
0.0
 10
-127.6124488864728
 20
-4.479059593608882
 30
0.0
 10
-128.4647119617946
 20
-4.201230723063393
 30
0.0
 10
-128.6362449887373
 20
-4.145044334265591
 30
0.0
  0
SPLINE
  5
4C65
330
1F
100
AcDbEntity
  8
PV0001_1
  6
CONTINUOUS
100
AcDbSpline
210
0.0
220
0.0
230
1.0
 70
     8
 71
     3
 72
    47
 73
    43
 74
     0
 42
0.0000000001
 43
0.0000000001
 40
0.0
 40
0.0
 40
0.0
 40
0.0
 40
1.010743684496582
 40
2.022833576467832
 40
3.037578957496688
 40
4.056212745003489
 40
5.079857003664532
 40
6.109500240690281
 40
7.145961322679372
 40
8.189895241603872
 40
9.241717795325891
 40
10.30168407291828
 40
11.36983447792315
 40
12.44600489715814
 40
13.52984294512926
 40
14.62081576220742
 40
15.7182257034828
 40
16.82123173843959
 40
17.92886860250316
 40
19.0400688939571
 40
20.15368796660465
 40
21.26852814259644
 40
22.38336992938901
 40
23.49698739941135
 40
24.6081876908653
 40
25.71582455492886
 40
26.81883757994213
 40
27.91624752121713
 40
29.00722033829659
 40
30.09105838626677
 40
31.16722880550176
 40
32.23537921050758
 40
33.29534548809967
 40
34.347168041821
 40
35.39108718934584
 40
36.42754827133493
 40
37.45720575381954
 40
38.48085062012849
 40
39.49948440763516
 40
40.51422944315121
 40
41.52631975251916
 40
42.53706336679711
 40
42.53706336679711
 40
42.53706336679711
 40
42.53706336679711
 10
-39.27163595018409
 20
-9.49999999999984
 30
0.0
 10
-39.75780925514749
 20
-9.494347730151412
 30
0.0
 10
-40.73080339831856
 20
-9.483035662207761
 30
0.0
 10
-42.18994052196035
 20
-9.391847695191623
 30
0.0
 10
-43.64901536053992
 20
-9.246882648590563
 30
0.0
 10
-45.10799989671176
 20
-9.043708622343888
 30
0.0
 10
-46.56687957210691
 20
-8.785079014043203
 30
0.0
 10
-48.02562560629116
 20
-8.472143908342115
 30
0.0
 10
-49.4842428787053
 20
-8.107011347651988
 30
0.0
 10
-50.942718454362
 20
-7.69191722907207
 30
0.0
 10
-52.40104239838443
 20
-7.229410205308873
 30
0.0
 10
-53.85922197971128
 20
-6.722393385140803
 30
0.0
 10
-55.3172611036383
 20
-6.173969746265857
 30
0.0
 10
-56.77517798719643
 20
-5.587553365145782
 30
0.0
 10
-58.23297930527225
 20
-4.966747896085232
 30
0.0
 10
-59.69067857567513
 20
-4.315381907811126
 30
0.0
 10
-61.14829196448744
 20
-3.637473808299823
 30
0.0
 10
-62.60583226450248
 20
-2.937192411620963
 30
0.0
 10
-64.06331362131472
 20
-2.218844720781109
 30
0.0
 10
-65.52075163059429
 20
-1.486852080472702
 30
0.0
 10
-66.97815907545974
 20
-0.7457144806263414
 30
0.0
 10
-68.43555653676168
 20
-0.0000019383445843
 30
0.0
 10
-69.89294745556846
 20
0.7457240272276753
 30
0.0
 10
-71.35035978534604
 20
1.486850085601348
 30
0.0
 10
-72.8077959953988
 20
2.218844941609626
 30
0.0
 10
-74.2652799508842
 20
2.937195369033999
 30
0.0
 10
-75.72282629747547
 20
3.637470789388088
 30
0.0
 10
-77.18044198678684
 20
4.315382326836789
 30
0.0
 10
-78.63814146763309
 20
4.966747786920174
 30
0.0
 10
-80.0959427326641
 20
5.587553386533767
 30
0.0
 10
-81.55385961995538
 20
6.173969768512348
 30
0.0
 10
-83.01189878101979
 20
6.722393276250664
 30
0.0
 10
-84.47007821184667
 20
7.229410614129299
 30
0.0
 10
-85.92839588852854
 20
7.691913553961517
 30
0.0
 10
-87.38686244519835
 20
8.107013109238618
 30
0.0
 10
-88.84547917654117
 20
8.472153012285602
 30
0.0
 10
-90.30423562666102
 20
8.785052376453675
 30
0.0
 10
-91.76312012178234
 20
9.043762036084883
 30
0.0
 10
-93.22210509046252
 20
9.246695225748128
 30
0.0
 10
-94.68118094285163
 20
9.392540592268941
 30
0.0
 10
-96.14031682912727
 20
9.480423206602463
 30
0.0
 10
-97.11331138491775
 20
9.500000000000866
 30
0.0
 10
-97.5994847784789
 20
9.500000000000943
 30
0.0
  0
SPLINE
  5
4C66
330
1F
100
AcDbEntity
  8
PV0001_1
  6
CONTINUOUS
100
AcDbSpline
210
0.0
220
0.0
230
1.0
 70
     8
 71
     3
 72
    25
 73
    21
 74
     0
 42
0.0000000001
 43
0.0000000001
 40
24.56499986022253
 40
24.56499986022253
 40
24.56499986022253
 40
24.56499986022253
 40
24.6081876908653
 40
25.71582455492886
 40
26.81883757994213
 40
27.91624752121713
 40
29.00722033829659
 40
30.09105838626677
 40
31.16722880550176
 40
32.23537921050758
 40
33.29534548809967
 40
34.347168041821
 40
35.39108718934584
 40
36.42754827133493
 40
37.45720575381954
 40
38.48085062012849
 40
39.49948440763516
 40
40.51422944315121
 40
41.52631975251916
 40
42.53706336680078
 40
42.53706336680078
 40
42.53706336680078
 40
42.53706336680078
 10
-10.63140451500832
 20
2.730351876251726
 30
0.0
 10
-10.65051798790462
 20
2.739363271209369
 30
0.0
 10
-11.15986364196683
 20
2.979413667276357
 30
0.0
 10
-12.15895715021231
 20
3.445525196259169
 30
0.0
 10
-13.6311605012603
 20
4.114437978299346
 30
0.0
 10
-15.10295442833836
 20
4.760990517965353
 30
0.0
 10
-16.57426384737503
 20
5.38100126989082
 30
0.0
 10
-18.04502082255719
 20
5.970456985607133
 30
0.0
 10
-19.51515721251479
 20
6.525528889259737
 30
0.0
 10
-20.984602522606
 20
7.042614007676797
 30
0.0
 10
-22.45330167518424
 20
7.518299442193848
 30
0.0
 10
-23.92118610797055
 20
7.949477720241263
 30
0.0
 10
-25.38820460720188
 20
8.333260289710699
 30
0.0
 10
-26.85430374442639
 20
8.667091441013209
 30
0.0
 10
-28.31942423847365
 20
8.948691034027381
 30
0.0
 10
-29.7835126918303
 20
9.176110599676047
 30
0.0
 10
-31.2465075709764
 20
9.347764326386617
 30
0.0
 10
-32.70837121570278
 20
9.462341366791147
 30
0.0
 10
-34.16905405337228
 20
9.51896765275824
 30
0.0
 10
-35.14224472155956
 20
9.517710754008477
 30
0.0
 10
-35.6283067022012
 20
9.50730308456773
 30
0.0
  0
LINE
  5
4C67
330
1F
100
AcDbEntity
  8
AM_0
100
AcDbLine
 10
-13.78221440472816
 20
4.178118542732539
 30
0.0
 11
-13.71181188680863
 21
9.499999999999777
 31
0.0
  0
LINE
  5
4C68
330
1F
100
AcDbEntity
  8
AM_0
100
AcDbLine
 10
-14.88518698587964
 20
-9.479482716656274
 30
0.0
 11
-14.88518698587955
 21
4.662598713657626
 31
0.0
  0
SPLINE
  5
4C69
330
1F
100
AcDbEntity
  8
PV0001_1
  6
CONTINUOUS
100
AcDbSpline
210
0.0
220
0.0
230
1.0
 70
     8
 71
     3
 72
    17
 73
    13
 74
     0
 42
0.0000000001
 43
0.0000000001
 40
1.580019955310467
 40
1.580019955310467
 40
1.580019955310467
 40
1.580019955310467
 40
2.030549285115227
 40
3.082371838836284
 40
4.126290986361125
 40
5.162752068350215
 40
6.192395305374981
 40
7.216039564037012
 40
8.234688489606833
 40
9.249433870634691
 40
10.26152376260694
 40
11.27226744710342
 40
11.27226744710342
 40
11.27226744710342
 40
11.27226744710352
 10
-28.41537743396716
 20
-7.011279742608352
 30
0.0
 10
-28.62182098174996
 20
-7.083490099421619
 30
0.0
 10
-29.31141178857199
 20
-7.320169188948127
 30
0.0
 10
-30.48871430718074
 20
-7.691408809395672
 30
0.0
 10
-31.9469776401196
 20
-8.107147935992589
 30
0.0
 10
-33.4056424315886
 20
-8.47211169077641
 30
0.0
 10
-34.86437405856921
 20
-8.785074443432337
 30
0.0
 10
-36.32326461174628
 20
-9.043759687784033
 30
0.0
 10
-37.78225595548522
 20
-9.246691221205802
 30
0.0
 10
-39.24133814770444
 20
-9.39255397945959
 30
0.0
 10
-40.70047524039717
 20
-9.480409027031194
 30
0.0
 10
-41.67346939898837
 20
-9.50000005435961
 30
0.0
 10
-42.15964269753768
 20
-9.499999999999777
 30
0.0
  0
SPLINE
  5
4C6A
330
1F
100
AcDbEntity
  8
PV0001_1
  6
CONTINUOUS
 48
0.5
100
AcDbSpline
210
0.0
220
0.0
230
1.0
 70
     8
 71
     3
 72
    15
 73
    11
 74
     0
 42
0.0000000001
 43
0.0000000001
 40
0.0
 40
0.0
 40
0.0
 40
0.0
 40
1.010743614677189
 40
2.022833924044153
 40
3.037578959561199
 40
4.056212747067873
 40
5.079857613375832
 40
6.109500119648989
 40
7.14596120163808
 40
7.419196086074148
 40
7.419196086074148
 40
7.419196086074148
 40
7.419196086074148
 10
-13.71191253721744
 20
9.492389908589322
 30
0.0
 10
-14.17613060025412
 20
9.492332821671224
 30
0.0
 10
-15.10527469920555
 20
9.472839652952419
 30
0.0
 10
-16.49857902310268
 20
9.38492333445467
 30
0.0
 10
-17.89184536955085
 20
9.239087183968301
 30
0.0
 10
-19.28501959368357
 20
9.036150943229086
 30
0.0
 10
-20.67809302041549
 20
8.777445503689019
 30
0.0
 10
-22.07104188455126
 20
8.464539200505146
 30
0.0
 10
-23.11871049761962
 20
8.189887445294344
 30
0.0
 10
-23.70260368419135
 20
8.023652726204595
 30
0.0
 10
-23.93967892667001
 20
7.946750523650718
 30
0.0
  0
SPLINE
  5
4C6B
330
1F
100
AcDbEntity
  8
PV0001_1
  6
CONTINUOUS
100
AcDbSpline
210
0.0
220
0.0
230
1.0
 70
     8
 71
     3
 72
    55
 73
    51
 74
     0
 42
0.0000000001
 43
0.0000000001
 40
0.0
 40
0.0
 40
0.0
 40
0.0
 40
1.010743684496582
 40
2.022833576467832
 40
3.037578957496688
 40
4.056212745003489
 40
5.079857003664532
 40
6.109500240690281
 40
7.145961322679372
 40
8.189895241603872
 40
9.241717795325891
 40
10.30168407291828
 40
11.36983447792315
 40
12.44600489715814
 40
13.52984294512926
 40
14.62081576220742
 40
15.7182257034828
 40
16.82123173843959
 40
17.92886860250316
 40
19.0400688939571
 40
20.15368796660465
 40
21.26852814259644
 40
22.38336992938901
 40
23.49698739941135
 40
24.6081876908653
 40
25.71582455492886
 40
26.81883757994213
 40
27.91624752121713
 40
29.00722033829659
 40
30.09105838626677
 40
31.16722880550176
 40
32.23537921050758
 40
33.29534548809967
 40
34.347168041821
 40
35.39108718934584
 40
36.42754827133493
 40
37.45720575381954
 40
38.48085062012849
 40
39.49948440763516
 40
40.51422944315121
 40
41.52631975251916
 40
42.53706336719636
 40
43.54780698187354
 40
44.55989729124051
 40
45.57464232675757
 40
46.59327611426424
 40
47.6169209805722
 40
48.64656348684535
 40
49.68302456883444
 40
50.58557219878025
 40
50.58557219878025
 40
50.58557219878025
 40
50.58557219878025
 10
-14.88518698587964
 20
-9.500000000000413
 30
0.0
 10
-15.15942994672957
 20
-9.494347730151748
 30
0.0
 10
-16.13242408990062
 20
-9.48303566220809
 30
0.0
 10
-17.59156121354243
 20
-9.391847695191957
 30
0.0
 10
-19.050636052122
 20
-9.246882648590894
 30
0.0
 10
-20.50962058829385
 20
-9.043708622344219
 30
0.0
 10
-21.96850026368896
 20
-8.785079014043539
 30
0.0
 10
-23.4272462978732
 20
-8.472143908342449
 30
0.0
 10
-24.8858635702874
 20
-8.107011347652317
 30
0.0
 10
-26.34433914594409
 20
-7.691917229072402
 30
0.0
 10
-27.80266308996651
 20
-7.229410205309206
 30
0.0
 10
-29.26084267129333
 20
-6.722393385141133
 30
0.0
 10
-30.71888179522037
 20
-6.173969746266187
 30
0.0
 10
-32.17679867877846
 20
-5.587553365146112
 30
0.0
 10
-33.63459999685435
 20
-4.966747896085562
 30
0.0
 10
-35.09229926725723
 20
-4.315381907811457
 30
0.0
 10
-36.54991265606952
 20
-3.637473808300155
 30
0.0
 10
-38.00745295608457
 20
-2.937192411621294
 30
0.0
 10
-39.4649343128968
 20
-2.218844720781441
 30
0.0
 10
-40.9223723221764
 20
-1.486852080473034
 30
0.0
 10
-42.37977976704184
 20
-0.7457144806266727
 30
0.0
 10
-43.83717722834375
 20
-0.000001938344916
 30
0.0
 10
-45.29456814715056
 20
0.7457240272273432
 30
0.0
 10
-46.75198047692809
 20
1.486850085601016
 30
0.0
 10
-48.20941668698089
 20
2.218844941609294
 30
0.0
 10
-49.66690064246633
 20
2.937195369033666
 30
0.0
 10
-51.12444698905754
 20
3.637470789387755
 30
0.0
 10
-52.58206267836891
 20
4.315382326836459
 30
0.0
 10
-54.03976215921516
 20
4.966747786919843
 30
0.0
 10
-55.49756342424619
 20
5.587553386533432
 30
0.0
 10
-56.95548031153744
 20
6.173969768512017
 30
0.0
 10
-58.41351947260189
 20
6.722393276250333
 30
0.0
 10
-59.87169890342873
 20
7.229410614128967
 30
0.0
 10
-61.33001658011058
 20
7.691913553961182
 30
0.0
 10
-62.78848313678041
 20
8.107013109238286
 30
0.0
 10
-64.24709986812321
 20
8.472153012285271
 30
0.0
 10
-65.70585631824307
 20
8.785052376453341
 30
0.0
 10
-67.16474081336439
 20
9.043762036084549
 30
0.0
 10
-68.62372578204454
 20
9.246695225747794
 30
0.0
 10
-70.08280163443366
 20
9.392540592268611
 30
0.0
 10
-71.54193752090105
 20
9.480423206613682
 30
0.0
 10
-73.00110547099461
 20
9.509781880114296
 30
0.0
 10
-74.46027341894126
 20
9.480423206567767
 30
0.0
 10
-75.91940931186204
 20
9.392540592453268
 30
0.0
 10
-77.37848514049159
 20
9.246695225051981
 30
0.0
 10
-78.83747019825211
 20
9.04376203869994
 30
0.0
 10
-80.29634724614684
 20
8.785053627870603
 30
0.0
 10
-81.75509794932152
 20
8.472156211512258
 30
0.0
 10
-83.14739454333988
 20
8.123588149122229
 30
0.0
 10
-84.0507324294632
 20
7.868677029847764
 30
0.0
 10
-85.21130574698437
 20
7.462569057135425
 30
0.0
  0
LINE
  5
4C6C
330
1F
100
AcDbEntity
  8
PV0001_1
  6
CONTINUOUS
 48
0.5
100
AcDbLine
 10
-73.00109446190264
 20
9.50000000000042
 30
0.0
 11
-35.96937746448347
 21
9.499999999999932
 31
0.0
  0
LINE
  5
4C6D
330
1F
100
AcDbEntity
  8
PV0001_1
  6
CONTINUOUS
 48
0.5
100
AcDbLine
 10
-76.02214994211848
 20
-9.499999999999534
 30
0.0
 11
-42.15964269753789
 21
-9.49999999999998
 31
0.0
  0
VIEWPORT
  5
110
330
101
100
AcDbEntity
 67
     1
  8
0
100
AcDbViewport
 10
420.5
 20
297.0
 30
0.0
 40
948.9782706766916
 41
628.452
 68
     1
 69
     1
1001
ACAD
1000
MVIEW
1002
{
1070
    16
1010
0.0
1020
0.0
1030
0.0
1010
0.0
1020
0.0
1030
1.0
1040
0.0
1040
628.452
1040
420.5
1040
297.0
1040
50.0
1040
0.0
1040
0.0
1070
     0
1070
   100
1070
     1
1070
     1
1070
     0
1070
     0
1070
     0
1070
     0
1040
0.0
1040
0.0
1040
0.0
1040
10.0
1040
10.0
1040
10.0
1040
10.0
1070
     0
1002
{
1002
}
1002
}
  0
ENDSEC
  0
SECTION
  2
OBJECTS
  0
DICTIONARY
  5
C
330
0
100
AcDbDictionary
  3
ACAD_GROUP
350
D
  3
ACAD_LAYOUT
350
1A
  3
ACAD_MLINESTYLE
350
17
  3
ACAD_PLOTSETTINGS
350
19
  3
ACAD_PLOTSTYLENAME
350
E
  3
ACDBVARIABLEDICTIONARY
350
34
  3
ACMDICTIONARY
350
43
  3
AMG
350
2B
  3
AMGSNAPSETTINGS
350
6E
  3
DWGPROPS
350
4C8A
  3
ACDBHEADERROUNDTRIPXREC
350
4C9A
  0
DICTIONARY
  5
74
330
1F
100
AcDbDictionary
280
     1
  3
ACAD_INDEX
360
4C8C
  3
ACAD_LAYOUTSELFREF
360
4CBD
  0
DICTIONARY
  5
4CC2
330
101
100
AcDbDictionary
280
     1
  3
ACAD_LAYOUTSELFREF
360
4CC3
  0
DICTIONARY
  5
D
102
{ACAD_REACTORS
330
C
102
}
330
C
100
AcDbDictionary
  0
DICTIONARY
  5
1A
102
{ACAD_REACTORS
330
C
102
}
330
C
100
AcDbDictionary
  0
DICTIONARY
  5
17
102
{ACAD_REACTORS
330
C
102
}
330
C
100
AcDbDictionary
  3
STANDARD
350
18
  0
DICTIONARY
  5
19
102
{ACAD_REACTORS
330
C
102
}
330
C
100
AcDbDictionary
  0
ACDBDICTIONARYWDFLT
  5
E
102
{ACAD_REACTORS
330
C
102
}
330
C
100
AcDbDictionary
281
     1
  3
Normal
350
F
100
AcDbDictionaryWithDefault
340
F
  0
DICTIONARY
  5
34
102
{ACAD_REACTORS
330
C
102
}
330
C
100
AcDbDictionary
  3
INDEXCTL
350
35
  3
SORTENTS
350
B5E
  0
DICTIONARY
  5
43
102
{ACAD_REACTORS
330
C
102
}
330
C
100
AcDbDictionary
  3
ACMSTDDICTIONARY
350
260
  0
DICTIONARY
  5
2B
102
{ACAD_REACTORS
330
C
102
}
330
C
100
AcDbDictionary
  3
ACMGSETTINGS
350
2C
  0
DICTIONARY
  5
6E
102
{ACAD_REACTORS
330
C
102
}
330
C
100
AcDbDictionary
  0
XRECORD
  5
4C8A
102
{ACAD_REACTORS
330
C
102
}
330
C
100
AcDbXrecord
  1
DWGPROPS COOKIE
  2

  3

  4

  6

  7

  8

  9

300
AmdtFileType=82
301
=
302
=
303
=
304
=
305
=
306
=
307
=
308
=
309
=
 40
0.374910925925926
 41
2452800.443498622
 42
2453002.191141539
  1

 90
        1
  0
DICTIONARY
  5
4C9A
102
{ACAD_REACTORS
330
C
102
}
330
C
100
AcDbDictionary
  3
TSTACKALIGN
350
4C9B
  3
TSTACKSIZE
350
4C9C
  3
HYPERLINKBASE
350
4C9D
  3
STYLESHEET
350
4C9E
  3
LAYOUTDICT
350
4C9F
  3
PLOTSETDICT
350
4CA0
  3
PLOTSTYLNAMDICT
350
4CA1
  3
LWETCUNION
350
4CA2
  3
INSUNITS
350
4CA3
  3
CEPSNTYPE
350
4CA4
  3
FINGERPRINTGUID
350
4CA5
  3
VERSIONGUID
350
4CA6
  3
PSVPSCALE
350
4CA7
  3
DIMSTYLEDATA
350
4CA8
  3
PUCSORTHOREF
350
4CA9
  3
PUCSORTHOVIEW
350
4CAA
  3
PUCSBASE
350
4CAB
  3
PUCSORGTOP
350
4CAC
  3
PUCSORGBOTTOM
350
4CAD
  3
PUCSORGLEFT
350
4CAE
  3
PUCSORGRIGHT
350
4CAF
  3
PUCSORGFRONT
350
4CB0
  3
PUCSORGBACK
350
4CB1
  3
UCSORTHOREF
350
4CB2
  3
UCSORTHOVIEW
350
4CB3
  3
UCSBASE
350
4CB4
  3
UCSORGTOP
350
4CB5
  3
UCSORGBOTTOM
350
4CB6
  3
UCSORGLEFT
350
4CB7
  3
UCSORGRIGHT
350
4CB8
  3
UCSORGFRONT
350
4CB9
  3
UCSORGBACK
350
4CBA
  0
DICTIONARY
  5
4C8C
102
{ACAD_REACTORS
330
74
102
}
330
74
100
AcDbDictionary
  3
*A1
350
4C8D
  0
XRECORD
  5
4CBD
102
{ACAD_REACTORS
330
74
102
}
330
74
100
AcDbXrecord
340
1F
  0
XRECORD
  5
4CC3
102
{ACAD_REACTORS
330
4CC2
102
}
330
4CC2
100
AcDbXrecord
340
101
  0
MLINESTYLE
  5
18
102
{ACAD_REACTORS
330
17
102
}
330
17
100
AcDbMlineStyle
  2
STANDARD
 70
     0
  3

 62
   256
 51
90.0
 52
90.0
 71
     2
 49
0.5
 62
   256
  6
BYLAYER
 49
-0.5
 62
   256
  6
BYLAYER
  0
ACDBPLACEHOLDER
  5
F
102
{ACAD_REACTORS
330
E
102
}
330
E
100
AcDbPlaceHolder
280
     0
  0
DICTIONARYVAR
  5
35
102
{ACAD_REACTORS
330
34
102
}
330
34
100
DictionaryVariables
280
     0
  1
1
  0
DICTIONARYVAR
  5
B5E
102
{ACAD_REACTORS
330
34
102
}
330
34
100
DictionaryVariables
280
     0
  1
96
  0
DICTIONARY
  5
260
102
{ACAD_REACTORS
330
43
102
}
330
43
100
AcDbDictionary
  0
DICTIONARY
  5
2C
102
{ACAD_REACTORS
330
2B
102
}
330
2B
100
AcDbDictionary
  3
DWGSETTINGS
350
2D
  0
XRECORD
  5
4C9B
102
{ACAD_REACTORS
330
4C9A
102
}
330
4C9A
100
AcDbXrecord
 90
        1
  0
XRECORD
  5
4C9C
102
{ACAD_REACTORS
330
4C9A
102
}
330
4C9A
100
AcDbXrecord
 90
       70
  0
XRECORD
  5
4C9D
102
{ACAD_REACTORS
330
4C9A
102
}
330
4C9A
100
AcDbXrecord
  1

  0
XRECORD
  5
4C9E
102
{ACAD_REACTORS
330
4C9A
102
}
330
4C9A
100
AcDbXrecord
  1
ASAMI.ctb
  0
XRECORD
  5
4C9F
102
{ACAD_REACTORS
330
4C9A
102
}
330
4C9A
100
AcDbXrecord
340
1A
  0
XRECORD
  5
4CA0
102
{ACAD_REACTORS
330
4C9A
102
}
330
4C9A
100
AcDbXrecord
340
19
  0
XRECORD
  5
4CA1
102
{ACAD_REACTORS
330
4C9A
102
}
330
4C9A
100
AcDbXrecord
340
E
  0
XRECORD
  5
4CA2
102
{ACAD_REACTORS
330
4C9A
102
}
330
4C9A
100
AcDbXrecord
 90
    10781
  0
XRECORD
  5
4CA3
102
{ACAD_REACTORS
330
4C9A
102
}
330
4C9A
100
AcDbXrecord
 90
        4
  0
XRECORD
  5
4CA4
102
{ACAD_REACTORS
330
4C9A
102
}
330
4C9A
100
AcDbXrecord
 90
        0
  0
XRECORD
  5
4CA5
102
{ACAD_REACTORS
330
4C9A
102
}
330
4C9A
100
AcDbXrecord
  1
{AFB28963-8C59-40AE-9337-C84526B81ACE}
  0
XRECORD
  5
4CA6
102
{ACAD_REACTORS
330
4C9A
102
}
330
4C9A
100
AcDbXrecord
  1
{616DE4DD-1830-4FCD-8B10-7695B3B1005E}
  0
XRECORD
  5
4CA7
102
{ACAD_REACTORS
330
4C9A
102
}
330
4C9A
100
AcDbXrecord
 40
0.0
  0
XRECORD
  5
4CA8
102
{ACAD_REACTORS
330
4C9A
102
}
330
4C9A
100
AcDbXrecord
1000
DSTYLE
1002
{
1070
    79
 70
     2
1070
   341
340
59
1070
   342
340
59
1070
   371
 70
    -1
1070
   372
 70
    -1
1002
}
  0
XRECORD
  5
4CA9
102
{ACAD_REACTORS
330
4C9A
102
}
330
4C9A
100
AcDbXrecord
340
0
  0
XRECORD
  5
4CAA
102
{ACAD_REACTORS
330
4C9A
102
}
330
4C9A
100
AcDbXrecord
 70
     0
  0
XRECORD
  5
4CAB
102
{ACAD_REACTORS
330
4C9A
102
}
330
4C9A
100
AcDbXrecord
340
0
  0
XRECORD
  5
4CAC
102
{ACAD_REACTORS
330
4C9A
102
}
330
4C9A
100
AcDbXrecord
 10
0.0
 20
0.0
 30
0.0
  0
XRECORD
  5
4CAD
102
{ACAD_REACTORS
330
4C9A
102
}
330
4C9A
100
AcDbXrecord
 10
0.0
 20
0.0
 30
0.0
  0
XRECORD
  5
4CAE
102
{ACAD_REACTORS
330
4C9A
102
}
330
4C9A
100
AcDbXrecord
 10
0.0
 20
0.0
 30
0.0
  0
XRECORD
  5
4CAF
102
{ACAD_REACTORS
330
4C9A
102
}
330
4C9A
100
AcDbXrecord
 10
0.0
 20
0.0
 30
0.0
  0
XRECORD
  5
4CB0
102
{ACAD_REACTORS
330
4C9A
102
}
330
4C9A
100
AcDbXrecord
 10
0.0
 20
0.0
 30
0.0
  0
XRECORD
  5
4CB1
102
{ACAD_REACTORS
330
4C9A
102
}
330
4C9A
100
AcDbXrecord
 10
0.0
 20
0.0
 30
0.0
  0
XRECORD
  5
4CB2
102
{ACAD_REACTORS
330
4C9A
102
}
330
4C9A
100
AcDbXrecord
340
0
  0
XRECORD
  5
4CB3
102
{ACAD_REACTORS
330
4C9A
102
}
330
4C9A
100
AcDbXrecord
 70
     0
  0
XRECORD
  5
4CB4
102
{ACAD_REACTORS
330
4C9A
102
}
330
4C9A
100
AcDbXrecord
340
0
  0
XRECORD
  5
4CB5
102
{ACAD_REACTORS
330
4C9A
102
}
330
4C9A
100
AcDbXrecord
 10
0.0
 20
0.0
 30
0.0
  0
XRECORD
  5
4CB6
102
{ACAD_REACTORS
330
4C9A
102
}
330
4C9A
100
AcDbXrecord
 10
0.0
 20
0.0
 30
0.0
  0
XRECORD
  5
4CB7
102
{ACAD_REACTORS
330
4C9A
102
}
330
4C9A
100
AcDbXrecord
 10
0.0
 20
0.0
 30
0.0
  0
XRECORD
  5
4CB8
102
{ACAD_REACTORS
330
4C9A
102
}
330
4C9A
100
AcDbXrecord
 10
0.0
 20
0.0
 30
0.0
  0
XRECORD
  5
4CB9
102
{ACAD_REACTORS
330
4C9A
102
}
330
4C9A
100
AcDbXrecord
 10
0.0
 20
0.0
 30
0.0
  0
XRECORD
  5
4CBA
102
{ACAD_REACTORS
330
4C9A
102
}
330
4C9A
100
AcDbXrecord
 10
0.0
 20
0.0
 30
0.0
  0
LAYER_INDEX
  5
4C8D
102
{ACAD_REACTORS
330
4C8C
102
}
330
4C8C
100
AcDbIndex
 40
2453151.706783472
100
AcDbLayerIndex
  8
0
360
4C8E
 90
        0
  8
AM_0
360
4C8F
 90
       11
  8
PV0001_1
360
4C90
 90
       33
  8
AM_CL
360
4C91
 90
        0
  8
AM_7
360
4C92
 90
        1
  8
AM_11
360
4C93
 90
        3
  8
AM_5
360
4C94
 90
       10
  8
Defpoints
360
4C95
 90
        0
  8
AM_6
360
4C96
 90
        1
  8
AM_4
360
4C97
 90
        0
  8
AM_3
360
4C98
 90
        0
  0
XRECORD
  5
2D
102
{ACAD_REACTORS
330
2C
102
}
330
2C
100
AcDbXrecord
  1
VERSION
140
15.0
  1
PRODUCT
  2
AutoCAD Mechanical 2000
  0
IDBUFFER
  5
4C8E
330
0
100
AcDbIdBuffer
  0
IDBUFFER
  5
4C8F
330
0
100
AcDbIdBuffer
330
4524
330
4527
330
452D
330
46A4
330
4A51
330
4A52
330
4A53
330
4A56
330
4BDC
330
4C67
330
4C68
  0
IDBUFFER
  5
4C90
330
0
100
AcDbIdBuffer
330
4A4B
330
4A4C
330
4A4D
330
4A4E
330
4A4F
330
4A50
330
4A54
330
4A55
330
4A57
330
4C00
330
4C65
330
4C66
330
4C69
330
4C6A
330
4C6B
330
4C6C
330
4C6D
330
35F4
330
35F5
330
44E2
330
44E3
330
4522
330
4523
330
4525
330
4528
330
4529
330
452A
330
452E
330
4534
330
4536
330
46A3
330
46A6
330
48F5
  0
IDBUFFER
  5
4C91
330
0
100
AcDbIdBuffer
  0
IDBUFFER
  5
4C92
330
0
100
AcDbIdBuffer
330
35D1
  0
IDBUFFER
  5
4C93
330
0
100
AcDbIdBuffer
330
4539
330
453A
330
46A5
  0
IDBUFFER
  5
4C94
330
0
100
AcDbIdBuffer
330
36BA
330
3B0D
330
4515
330
471A
330
4A58
330
4A59
330
4A5A
330
4A5B
330
4A5C
330
4A5D
  0
IDBUFFER
  5
4C95
330
0
100
AcDbIdBuffer
  0
IDBUFFER
  5
4C96
330
0
100
AcDbIdBuffer
330
19BD
  0
IDBUFFER
  5
4C97
330
0
100
AcDbIdBuffer
  0
IDBUFFER
  5
4C98
330
0
100
AcDbIdBuffer
  0
ENDSEC
  0
EOF
