  0
SECTION
  2
HEADER
  9
$ACADVER
  1
AC1014
  9
$ACADMAINTVER
 70
     9
  9
$DWGCODEPAGE
  3
ANSI_932
  9
$INSBASE
 10
0.0
 20
0.0
 30
0.0
  9
$EXTMIN
 10
-589.2017441852486
 20
-73.06584636158071
 30
-0.00000001
  9
$EXTMAX
 10
31.97557355863935
 20
41.60310707219682
 30
0.00000001
  9
$LIMMIN
 10
-204.0575546607158
 20
-90.11643380524606
  9
$LIMMAX
 10
49.89029980509849
 20
66.23184027195851
  9
$ORTHOMODE
 70
     0
  9
$REGENMODE
 70
     1
  9
$FILLMODE
 70
     1
  9
$QTEXTMODE
 70
     0
  9
$MIRRTEXT
 70
     0
  9
$DRAGMODE
 70
     2
  9
$LTSCALE
 40
1.0
  9
$OSMODE
 70
    55
  9
$ATTMODE
 70
     1
  9
$TEXTSIZE
 40
2.5
  9
$TRACEWID
 40
1.0
  9
$TEXTSTYLE
  7
STANDARD
  9
$CLAYER
  8
AM_0
  9
$CELTYPE
  6
BYLAYER
  9
$CECOLOR
 62
   256
  9
$CELTSCALE
 40
1.0
  9
$DELOBJ
 70
     1
  9
$DISPSILH
 70
     0
  9
$DIMSCALE
 40
1.0
  9
$DIMASZ
 40
2.5
  9
$DIMEXO
 40
1.0
  9
$DIMDLI
 40
12.0
  9
$DIMRND
 40
0.0
  9
$DIMDLE
 40
0.0
  9
$DIMEXE
 40
1.0
  9
$DIMTP
 40
0.1
  9
$DIMTM
 40
0.1
  9
$DIMTXT
 40
3.2
  9
$DIMCEN
 40
0.0
  9
$DIMTSZ
 40
0.0
  9
$DIMTOL
 70
     0
  9
$DIMLIM
 70
     0
  9
$DIMTIH
 70
     0
  9
$DIMTOH
 70
     0
  9
$DIMSE1
 70
     0
  9
$DIMSE2
 70
     0
  9
$DIMTAD
 70
     3
  9
$DIMZIN
 70
     8
  9
$DIMBLK
  1
OPEN30
  9
$DIMASO
 70
     1
  9
$DIMSHO
 70
     1
  9
$DIMPOST
  1

  9
$DIMAPOST
  1
"
  9
$DIMALT
 70
     0
  9
$DIMALTD
 70
     2
  9
$DIMALTF
 40
0.0393701
  9
$DIMLFAC
 40
1.0
  9
$DIMTOFL
 70
     1
  9
$DIMTVP
 40
0.0
  9
$DIMTIX
 70
     0
  9
$DIMSOXD
 70
     0
  9
$DIMSAH
 70
     0
  9
$DIMBLK1
  1

  9
$DIMBLK2
  1

  9
$DIMSTYLE
  2
AM_JIS
  9
$DIMCLRD
 70
   256
  9
$DIMCLRE
 70
   256
  9
$DIMCLRT
 70
     2
  9
$DIMTFAC
 40
0.71
  9
$DIMGAP
 40
1.5
  9
$DIMJUST
 70
     0
  9
$DIMSD1
 70
     0
  9
$DIMSD2
 70
     0
  9
$DIMTOLJ
 70
     0
  9
$DIMTZIN
 70
     0
  9
$DIMALTZ
 70
     0
  9
$DIMALTTZ
 70
     0
  9
$DIMFIT
 70
     3
  9
$DIMUPT
 70
     0
  9
$DIMUNIT
 70
     2
  9
$DIMDEC
 70
     3
  9
$DIMTDEC
 70
     3
  9
$DIMALTU
 70
     2
  9
$DIMALTTD
 70
     2
  9
$DIMTXSTY
  7
ASAMI
  9
$DIMAUNIT
 70
     0
  9
$LUNITS
 70
     2
  9
$LUPREC
 70
     2
  9
$SKETCHINC
 40
1.0
  9
$FILLETRAD
 40
2.5
  9
$AUNITS
 70
     0
  9
$AUPREC
 70
     0
  9
$MENU
  1
.
  9
$ELEVATION
 40
0.0
  9
$PELEVATION
 40
0.0
  9
$THICKNESS
 40
0.0
  9
$LIMCHECK
 70
     0
  9
$BLIPMODE
 70
     0
  9
$CHAMFERA
 40
2.5
  9
$CHAMFERB
 40
2.5
  9
$CHAMFERC
 40
20.0
  9
$CHAMFERD
 40
0.0
  9
$SKPOLY
 70
     0
  9
$TDCREATE
 40
2452800.443498622
  9
$TDUPDATE
 40
2453151.699106793
  9
$TDINDWG
 40
0.5807879745
  9
$TDUSRTIMER
 40
0.5807879745
  9
$USRTIMER
 70
     1
  9
$ANGBASE
 50
0.0
  9
$ANGDIR
 70
     0
  9
$PDMODE
 70
     0
  9
$PDSIZE
 40
0.0
  9
$PLINEWID
 40
0.0
  9
$COORDS
 70
     1
  9
$SPLFRAME
 70
     0
  9
$SPLINETYPE
 70
     6
  9
$SPLINESEGS
 70
     8
  9
$ATTDIA
 70
     1
  9
$ATTREQ
 70
     1
  9
$HANDLING
 70
 12289
  9
$HANDSEED
  5
5479
  9
$SURFTAB1
 70
     6
  9
$SURFTAB2
 70
     6
  9
$SURFTYPE
 70
     6
  9
$SURFU
 70
     6
  9
$SURFV
 70
     6
  9
$UCSNAME
  2

  9
$UCSORG
 10
0.0
 20
-0.000000000000405
 30
0.0
  9
$UCSXDIR
 10
1.0
 20
0.0000000000000027
 30
0.0
  9
$UCSYDIR
 10
-0.0000000000000027
 20
1.0
 30
0.0
  9
$PUCSNAME
  2

  9
$PUCSORG
 10
0.0
 20
0.0
 30
0.0
  9
$PUCSXDIR
 10
1.0
 20
0.0
 30
0.0
  9
$PUCSYDIR
 10
0.0
 20
1.0
 30
0.0
  9
$USERI1
 70
     0
  9
$USERI2
 70
     0
  9
$USERI3
 70
     0
  9
$USERI4
 70
     0
  9
$USERI5
 70
     0
  9
$USERR1
 40
0.0
  9
$USERR2
 40
0.0
  9
$USERR3
 40
0.0
  9
$USERR4
 40
0.0
  9
$USERR5
 40
0.0
  9
$WORLDVIEW
 70
     1
  9
$SHADEDGE
 70
     3
  9
$SHADEDIF
 70
    70
  9
$TILEMODE
 70
     1
  9
$MAXACTVP
 70
    64
  9
$PINSBASE
 10
0.0
 20
0.0
 30
0.0
  9
$PLIMCHECK
 70
     0
  9
$PEXTMIN
 10
1.000000000000000E+20
 20
1.000000000000000E+20
 30
1.000000000000000E+20
  9
$PEXTMAX
 10
-1.000000000000000E+20
 20
-1.000000000000000E+20
 30
-1.000000000000000E+20
  9
$PLIMMIN
 10
0.0
 20
0.0
  9
$PLIMMAX
 10
841.0
 20
594.0
  9
$UNITMODE
 70
     0
  9
$VISRETAIN
 70
     1
  9
$PLINEGEN
 70
     0
  9
$PSLTSCALE
 70
     0
  9
$TREEDEPTH
 70
  3020
  9
$PICKSTYLE
 70
     0
  9
$CMLSTYLE
  2
STANDARD
  9
$CMLJUST
 70
     0
  9
$CMLSCALE
 40
20.0
  9
$PROXYGRAPHICS
 70
     1
  9
$MEASUREMENT
 70
     1
  0
ENDSEC
  0
SECTION
  2
CLASSES
  0
CLASS
  1
ACDBDICTIONARYWDFLT
  2
AcDbDictionaryWithDefault
  3
AutoCAD 2000
 90
        0
280
     0
281
     0
  0
CLASS
  1
ACDBPLACEHOLDER
  2
AcDbPlaceHolder
  3
AutoCAD 2000
 90
        0
280
     0
281
     0
  0
CLASS
  1
LAYOUT
  2
AcDbLayout
  3
AutoCAD 2000
 90
        0
280
     0
281
     0
  0
CLASS
  1
AMGSETTINGSOBJ
  2
AmgSettingsObj
  3
"AcadM|Product Description: AutoCAD Mechanical 2000|Company: Autodesk"
 90
        0
280
     0
281
     0
  0
CLASS
  1
ACME_DOCUMENT
  2
AcMeDbDoc
  3
AcMeServices
 90
        0
280
     0
281
     0
  0
CLASS
  1
ACMESCOPE
  2
AcMeScope
  3
AcMeServices
 90
        0
280
     0
281
     0
  0
CLASS
  1
ACMECOMMANDHISTORY
  2
AcMeCommandHistory
  3
AcMeServices
 90
        0
280
     0
281
     0
  0
CLASS
  1
DICTIONARYVAR
  2
AcDbDictionaryVar
  3
AutoCAD 2000
 90
        0
280
     0
281
     0
  0
CLASS
  1
ACIMSYSVARMAN
  2
AcImSysVarManager
  3
AcMeServices
 90
        0
280
     0
281
     0
  0
CLASS
  1
ACIMREALSYSVAR
  2
AcImRealSysVar
  3
AcMeServices
 90
        0
280
     0
281
     0
  0
CLASS
  1
ACIMINTSYSVAR
  2
AcImIntSysVar
  3
AcMeServices
 90
        0
280
     0
281
     0
  0
CLASS
  1
ACMEDRAWINGMAN
  2
AcMeDrawingMan
  3
AcMeServices
 90
        0
280
     0
281
     0
  0
CLASS
  1
ACMEVIEW
  2
AcMeView
  3
AcMeServices
 90
        0
280
     0
281
     0
  0
CLASS
  1
ACDBENTITYCACHE
  2
AcMeEntityCache
  3
AcMeServices
 90
        0
280
     0
281
     0
  0
CLASS
  1
GSMANAGER
  2
AcMeGSManager
  3
AcMeServices
 90
        0
280
     0
281
     0
  0
CLASS
  1
AmdtInternalReactor
  2
AmdtInternalReactor
  3
AcMeServices
 90
        0
280
     0
281
     0
  0
CLASS
  1
ACMESTATEMGR
  2
AcMeStateMgr
  3
AcMeServices
 90
        0
280
     0
281
     0
  0
CLASS
  1
ACME_DATABASE
  2
AcMeDbDatabase
  3
AcMeServices
 90
        0
280
     0
281
     0
  0
CLASS
  1
ACRFINSADJUSTERMGR
  2
AcRfInsAdjusterMgr
  3
AcMeServices
 90
        0
280
     0
281
     0
  0
CLASS
  1
ACMDATADICTIONARY
  2
AcmDataDictionary
  3
"AcmSymBB|Product Description: AutoCAD Mechanical 2000|Company: Autodesk"
 90
        0
280
     0
281
     0
  0
CLASS
  1
ACMDATAENTRYBLOCK
  2
AcmDataEntryBlock
  3
"AcmSymBB|Product Description: AutoCAD Mechanical 2000|Company: Autodesk"
 90
        0
280
     0
281
     0
  0
CLASS
  1
AMGOBJPROPCFG
  2
AmgObjPropCfg
  3
"AmgLay|Product Description: AutoCAD Mechanical 2000|Company: Autodesk"
 90
        1
280
     0
281
     0
  0
CLASS
  1
ACAMGFILTERDAT
  2
AcAmgFilterDat
  3
"AcadM|Product Description: AutoCAD Mechanical 2000|Company: Autodesk"
 90
        0
280
     0
281
     0
  0
CLASS
  1
LAYER_INDEX
  2
AcDbLayerIndex
  3
AutoCAD 2000
 90
        0
280
     0
281
     0
  0
CLASS
  1
IDBUFFER
  2
AcDbIdBuffer
  3
AutoCAD 2000
 90
        0
280
     0
281
     0
  0
CLASS
  1
ACIMSTRSYSVAR
  2
AcImStrSysVar
  3
AcMeServices
 90
        0
280
     0
281
     0
  0
CLASS
  1
ACMSTANDARDJIS
  2
AcmStandardJIS
  3
"AcmSymBB|Product Description: AutoCAD Mechanical 2000|Company: Autodesk"
 90
        0
280
     0
281
     0
  0
CLASS
  1
ACMSURFSTANDARDJIS
  2
AcmSurfTextStdJIS
  3
"AcmSymBB|Product Description: AutoCAD Mechanical 2000|Company: Autodesk"
 90
        0
280
     0
281
     0
  0
CLASS
  1
ACMFCFSTANDARDJIS
  2
AcmFCFStdJIS
  3
"AcmSymBB|Product Description: AutoCAD Mechanical 2000|Company: Autodesk"
 90
        0
280
     0
281
     0
  0
CLASS
  1
ACMWELDSTANDARDJIS
  2
AcmWeldingStdJIS
  3
"AcmSymBB|Product Description: AutoCAD Mechanical 2000|Company: Autodesk"
 90
        0
280
     0
281
     0
  0
CLASS
  1
ACMIDSTANDARDJIS
  2
AcmIdStdJIS
  3
"AcmSymBB|Product Description: AutoCAD Mechanical 2000|Company: Autodesk"
 90
        0
280
     0
281
     0
  0
CLASS
  1
ACMDATUMSTANDARDJIS
  2
AcmDatumStdJIS
  3
"AcmSymBB|Product Description: AutoCAD Mechanical 2000|Company: Autodesk"
 90
        0
280
     0
281
     0
  0
CLASS
  1
ACMBOMSTANDARDJIS
  2
AcmBOMStdJIS
  3
"AcmSymBB|Product Description: AutoCAD Mechanical 2000|Company: Autodesk"
 90
        0
280
     0
281
     0
  0
CLASS
  1
ACMSTANDARDANSI
  2
AcmStandardANSI
  3
"AcmSymBB|Product Description: AutoCAD Mechanical 2000|Company: Autodesk"
 90
        0
280
     0
281
     0
  0
CLASS
  1
ACMSURFSTANDARDANSI
  2
AcmSurfTextStdANSI
  3
"AcmSymBB|Product Description: AutoCAD Mechanical 2000|Company: Autodesk"
 90
        0
280
     0
281
     0
  0
CLASS
  1
ACMFCFSTANDARDANSI
  2
AcmFCFStdANSI
  3
"AcmSymBB|Product Description: AutoCAD Mechanical 2000|Company: Autodesk"
 90
        0
280
     0
281
     0
  0
CLASS
  1
ACMWELDSTANDARDANSI
  2
AcmWeldingStdANSI
  3
"AcmSymBB|Product Description: AutoCAD Mechanical 2000|Company: Autodesk"
 90
        0
280
     0
281
     0
  0
CLASS
  1
ACMIDSTANDARDANSI
  2
AcmIdStdANSI
  3
"AcmSymBB|Product Description: AutoCAD Mechanical 2000|Company: Autodesk"
 90
        0
280
     0
281
     0
  0
CLASS
  1
ACMDATUMSTANDARDANSI
  2
AcmDatumStdANSI
  3
"AcmSymBB|Product Description: AutoCAD Mechanical 2000|Company: Autodesk"
 90
        0
280
     0
281
     0
  0
CLASS
  1
ACMBOMSTANDARDANSI
  2
AcmBOMStdANSI
  3
"AcmSymBB|Product Description: AutoCAD Mechanical 2000|Company: Autodesk"
 90
        0
280
     0
281
     0
  0
CLASS
  1
ACMSTANDARDBSI
  2
AcmStandardBSI
  3
"AcmSymBB|Product Description: AutoCAD Mechanical 2000|Company: Autodesk"
 90
        0
280
     0
281
     0
  0
CLASS
  1
ACMSURFSTANDARDBSI
  2
AcmSurfTextStdBSI
  3
"AcmSymBB|Product Description: AutoCAD Mechanical 2000|Company: Autodesk"
 90
        0
280
     0
281
     0
  0
CLASS
  1
ACMFCFSTANDARDBSI
  2
AcmFCFStdBSI
  3
"AcmSymBB|Product Description: AutoCAD Mechanical 2000|Company: Autodesk"
 90
        0
280
     0
281
     0
  0
CLASS
  1
ACMWELDSTANDARDBSI
  2
AcmWeldingStdBSI
  3
"AcmSymBB|Product Description: AutoCAD Mechanical 2000|Company: Autodesk"
 90
        0
280
     0
281
     0
  0
CLASS
  1
ACMIDSTANDARDBSI
  2
AcmIdStdBSI
  3
"AcmSymBB|Product Description: AutoCAD Mechanical 2000|Company: Autodesk"
 90
        0
280
     0
281
     0
  0
CLASS
  1
ACMDATUMSTANDARDBSI
  2
AcmDatumStdBSI
  3
"AcmSymBB|Product Description: AutoCAD Mechanical 2000|Company: Autodesk"
 90
        0
280
     0
281
     0
  0
CLASS
  1
ACMBOMSTANDARDBSI
  2
AcmBOMStdBSI
  3
"AcmSymBB|Product Description: AutoCAD Mechanical 2000|Company: Autodesk"
 90
        0
280
     0
281
     0
  0
CLASS
  1
LONG_TRANSACTION
  2
AcDbLongTransaction
  3
AutoCAD 2000
 90
        0
280
     0
281
     0
  0
CLASS
  1
LWPOLYLINE
  2
AcDbPolyline
  3
AutoCAD 2000
 90
        0
280
     0
281
     1
  0
CLASS
  1
HATCH
  2
AcDbHatch
  3
AutoCAD 2000
 90
        0
280
     0
281
     1
  0
CLASS
  1
XRECORD
  2
AcDbXrecord
  3
AutoCAD 2000
 90
        0
280
     0
281
     0
  0
ENDSEC
  0
SECTION
  2
TABLES
  0
TABLE
  2
VPORT
  5
8
330
0
100
AcDbSymbolTable
 70
     3
  0
VPORT
  5
544E
330
8
100
AcDbSymbolTableRecord
100
AcDbViewportTableRecord
  2
*ACTIVE
 70
     0
 10
0.0
 20
0.0
 11
1.0
 21
1.0
 12
-51.14281100121255
 22
7.988553521216815
 13
0.0
 23
0.0
 14
2.5
 24
2.5
 15
10.0
 25
10.0
 16
0.0
 26
0.0
 36
1.0
 17
0.0
 27
0.0
 37
0.0
 40
197.9964244559665
 41
1.56570841889117
 42
50.0
 43
0.0
 44
0.0
 50
0.0
 51
0.0
 71
     0
 72
   100
 73
     1
 74
     1
 75
     0
 76
     0
 77
     0
 78
     0
  0
ENDTAB
  0
TABLE
  2
LTYPE
  5
5
330
0
100
AcDbSymbolTable
 70
    10
  0
LTYPE
  5
14
330
5
100
AcDbSymbolTableRecord
100
AcDbLinetypeTableRecord
  2
BYBLOCK
 70
     0
  3

 72
    65
 73
     0
 40
0.0
  0
LTYPE
  5
15
330
5
100
AcDbSymbolTableRecord
100
AcDbLinetypeTableRecord
  2
BYLAYER
 70
     0
  3

 72
    65
 73
     0
 40
0.0
  0
LTYPE
  5
16
330
5
100
AcDbSymbolTableRecord
100
AcDbLinetypeTableRecord
  2
CONTINUOUS
 70
     0
  3
Solid line
 72
    65
 73
     0
 40
0.0
  0
LTYPE
  5
4B
330
5
100
AcDbSymbolTableRecord
100
AcDbLinetypeTableRecord
  2
AM_ISO02W050
 70
     0
  3
__ __ __ __ __ __ __ __ __ __ __ __ __ __ __
 72
    65
 73
     2
 40
7.5
 49
6.0
 74
     0
 49
-1.5
 74
     0
  0
LTYPE
  5
4C
330
5
100
AcDbSymbolTableRecord
100
AcDbLinetypeTableRecord
  2
AM_ISO08W050
 70
     0
  3
____ . ____ . ____ . ____ . ____ . ____ . ____
 72
    65
 73
     4
 40
18.0
 49
12.0
 74
     0
 49
-1.5
 74
     0
 49
3.0
 74
     0
 49
-1.5
 74
     0
  0
LTYPE
  5
4D
330
5
100
AcDbSymbolTableRecord
100
AcDbLinetypeTableRecord
  2
AM_ISO09W050
 70
     0
  3
_____ . . _____ . . _____ . . ____ .. ____
 72
    65
 73
     6
 40
22.5
 49
12.0
 74
     0
 49
-1.5
 74
     0
 49
3.0
 74
     0
 49
-1.5
 74
     0
 49
3.0
 74
     0
 49
-1.5
 74
     0
  0
LTYPE
  5
4E
330
5
100
AcDbSymbolTableRecord
100
AcDbLinetypeTableRecord
  2
AMCONSTR
 70
     0
  3
_______________________
 72
    65
 73
     2
 40
9999.0
 49
9999.0
 74
     0
 49
0.0
 74
     0
  0
LTYPE
  5
4F
330
5
100
AcDbSymbolTableRecord
100
AcDbLinetypeTableRecord
  2
AM_ISO02W050X2
 70
     0
  3
 _ _ _ _ _ _ _ _ _ _ _ _
 72
    65
 73
     2
 40
3.75
 49
3.0
 74
     0
 49
-0.75
 74
     0
  0
LTYPE
  5
50
330
5
100
AcDbSymbolTableRecord
100
AcDbLinetypeTableRecord
  2
AM_ISO08W050X2
 70
     0
  3
__ . __ . __ . __ . __ . __
 72
    65
 73
     4
 40
9.0
 49
6.0
 74
     0
 49
-0.75
 74
     0
 49
1.5
 74
     0
 49
-0.75
 74
     0
  0
LTYPE
  5
53
330
5
100
AcDbSymbolTableRecord
100
AcDbLinetypeTableRecord
  2
AMZIGZAG
 70
     0
  3
/\/-/\/-/\/-/\/-/\/-/\/
 72
    65
 73
     2
 40
11.00009999999999
 49
0.0001
 74
     4
 75
   135
340
52
 46
0.04
 50
0.0
 44
0.0
 45
0.0
 49
-11.0
 74
     0
  0
LTYPE
  5
166
330
5
100
AcDbSymbolTableRecord
100
AcDbLinetypeTableRecord
  2
ACJISTGL
 70
     0
  3
_ _ _ _ _
 72
    65
 73
     2
 40
3.0
 49
2.0
 74
     0
 49
-1.0
 74
     0
  0
LTYPE
  5
26A
330
5
100
AcDbSymbolTableRecord
100
AcDbLinetypeTableRecord
  2
ACJISTGB
 70
     0
  3
__ . . __ . .
 72
    65
 73
     6
 40
9.0
 49
4.0
 74
     0
 49
-1.0
 74
     0
 49
1.0
 74
     0
 49
-1.0
 74
     0
 49
1.0
 74
     0
 49
-1.0
 74
     0
  0
ENDTAB
  0
TABLE
  2
LAYER
  5
2
330
0
100
AcDbSymbolTable
 70
    11
  0
LAYER
  5
10
330
2
100
AcDbSymbolTableRecord
100
AcDbLayerTableRecord
  2
0
 70
     0
 62
     7
  6
CONTINUOUS
  0
LAYER
  5
3F9
330
2
100
AcDbSymbolTableRecord
100
AcDbLayerTableRecord
  2
AM_0
 70
     0
 62
     7
  6
CONTINUOUS
  0
LAYER
  5
BA4
330
2
100
AcDbSymbolTableRecord
100
AcDbLayerTableRecord
  2
PV0001_1
 70
     0
 62
     7
  6
CONTINUOUS
  0
LAYER
  5
C6C
330
2
100
AcDbSymbolTableRecord
100
AcDbLayerTableRecord
  2
AM_CL
 70
     0
 62
     1
  6
AMCONSTR
  0
LAYER
  5
C7C
330
2
100
AcDbSymbolTableRecord
100
AcDbLayerTableRecord
  2
AM_7
 70
     0
 62
     4
  6
AM_ISO08W050
  0
LAYER
  5
C97
330
2
100
AcDbSymbolTableRecord
100
AcDbLayerTableRecord
  2
AM_11
 70
     0
 62
     3
  6
AM_ISO09W050
  0
LAYER
  5
CC5
330
2
100
AcDbSymbolTableRecord
100
AcDbLayerTableRecord
  2
AM_5
 70
     0
 62
     3
  6
CONTINUOUS
  0
LAYER
  5
CC7
330
2
100
AcDbSymbolTableRecord
100
AcDbLayerTableRecord
  2
DEFPOINTS
 70
     0
 62
     7
  6
CONTINUOUS
  0
LAYER
  5
19BC
330
2
100
AcDbSymbolTableRecord
100
AcDbLayerTableRecord
  2
AM_6
 70
     0
 62
     2
  6
CONTINUOUS
  0
LAYER
  5
1F8E
330
2
100
AcDbSymbolTableRecord
100
AcDbLayerTableRecord
  2
AM_4
 70
     0
 62
     3
  6
CONTINUOUS
  0
LAYER
  5
3588
330
2
100
AcDbSymbolTableRecord
100
AcDbLayerTableRecord
  2
AM_3
 70
     0
 62
     6
  6
ACJISTGL
  0
ENDTAB
  0
TABLE
  2
STYLE
  5
3
330
0
100
AcDbSymbolTable
 70
     5
  0
STYLE
  5
11
330
3
100
AcDbSymbolTableRecord
100
AcDbTextStyleTableRecord
  2
STANDARD
 70
     0
 40
0.0
 41
1.0
 50
0.0
 71
     0
 42
2.5
  3
simplex.shx
  4
EXTFONT.SHX
  0
STYLE
  5
52
330
3
100
AcDbSymbolTableRecord
100
AcDbTextStyleTableRecord
  2

 70
     1
 40
0.0
 41
1.0
 50
0.0
 71
     0
 42
2.5
  3
ltypeshp.shx
  4

  0
STYLE
  5
6B
330
3
100
AcDbSymbolTableRecord
100
AcDbTextStyleTableRecord
  2
ASAMI
 70
     0
 40
0.0
 41
1.0
 50
0.0
 71
     0
 42
2.5
  3
simplex.shx
  4
EXTFONT.SHX
  0
STYLE
  5
262
330
3
100
AcDbSymbolTableRecord
100
AcDbTextStyleTableRecord
  2
ACJISTS
 70
     0
 40
1.0
 41
1.0
 50
0.0
 71
     0
 42
2.5
  3
simplex.shx
  4
bigfont.shx
  0
STYLE
  5
269
330
3
100
AcDbSymbolTableRecord
100
AcDbTextStyleTableRecord
  2
ACJISGDT
 70
     0
 40
0.0
 41
1.0
 50
0.0
 71
     0
 42
2.5
  3
amgdtans.shx
  4

  0
ENDTAB
  0
TABLE
  2
VIEW
  5
6
330
0
100
AcDbSymbolTable
 70
     0
  0
ENDTAB
  0
TABLE
  2
UCS
  5
7
330
0
100
AcDbSymbolTable
 70
     0
  0
ENDTAB
  0
TABLE
  2
APPID
  5
9
330
0
100
AcDbSymbolTable
 70
    14
  0
APPID
  5
12
330
9
100
AcDbSymbolTableRecord
100
AcDbRegAppTableRecord
  2
ACAD
 70
     0
  0
APPID
  5
30
330
9
100
AcDbSymbolTableRecord
100
AcDbRegAppTableRecord
  2
MCAD_NO_VIS
 70
     0
  0
APPID
  5
31
330
9
100
AcDbSymbolTableRecord
100
AcDbRegAppTableRecord
  2
ACAD_TEMP_GRAPHIC
 70
     0
  0
APPID
  5
2C2
330
9
100
AcDbSymbolTableRecord
100
AcDbRegAppTableRecord
  2
GENIUS_GENDTOL_13
 70
     0
  0
APPID
  5
339
330
9
100
AcDbSymbolTableRecord
100
AcDbRegAppTableRecord
  2
GENIUS_GENODEF_13
 70
     0
  0
APPID
  5
33A
330
9
100
AcDbSymbolTableRecord
100
AcDbRegAppTableRecord
  2
GENIUS_GENOBJ-N-RSBK_13
 70
     0
  0
APPID
  5
33B
330
9
100
AcDbSymbolTableRecord
100
AcDbRegAppTableRecord
  2
GENIUS_GENOBJ-N-LIB_13
 70
     0
  0
APPID
  5
33C
330
9
100
AcDbSymbolTableRecord
100
AcDbRegAppTableRecord
  2
GENIUS_GENSCALE_13
 70
     0
  0
APPID
  5
378
330
9
100
AcDbSymbolTableRecord
100
AcDbRegAppTableRecord
  2
GENIUS_GENDIMSH_14
 70
     0
  0
APPID
  5
C82
330
9
100
AcDbSymbolTableRecord
100
AcDbRegAppTableRecord
  2
GENIUS_GENOBJ-N-CRS_13
 70
     0
  0
APPID
  5
C83
330
9
100
AcDbSymbolTableRecord
100
AcDbRegAppTableRecord
  2
GENIUS_GENOENT_13
 70
     0
  0
APPID
  5
C84
330
9
100
AcDbSymbolTableRecord
100
AcDbRegAppTableRecord
  2
GENIUS_GENOREF_13
 70
     0
  0
APPID
  5
C85
330
9
100
AcDbSymbolTableRecord
100
AcDbRegAppTableRecord
  2
GENIUS_GENOLIS_13
 70
     0
  0
APPID
  5
CA0
330
9
100
AcDbSymbolTableRecord
100
AcDbRegAppTableRecord
  2
GENIUS_GENOBJ-N-CEN_13
 70
     0
  0
ENDTAB
  0
TABLE
  2
DIMSTYLE
  5
A
330
0
100
AcDbSymbolTable
 70
    10
  0
DIMSTYLE
105
58
330
A
100
AcDbSymbolTableRecord
100
AcDbDimStyleTableRecord
  2
AM_JIS
 70
     0
  3

  4
"
  5
OPEN30
  6

  7

 40
1.0
 41
2.5
 42
1.0
 43
12.0
 44
1.0
 45
0.0
 46
0.0
 47
0.1
 48
0.1
140
3.2
141
0.0
142
0.0
143
0.0393701
144
1.0
145
0.0
146
0.71
147
1.5
 71
     0
 72
     0
 73
     0
 74
     0
 75
     0
 76
     0
 77
     3
 78
     8
170
     0
171
     2
172
     1
173
     0
174
     0
175
     0
176
   256
177
   256
178
     2
270
     2
271
     3
272
     3
273
     2
274
     2
340
6B
275
     0
280
     0
281
     0
282
     0
283
     0
284
     0
285
     0
286
     0
287
     3
288
     0
  0
DIMSTYLE
105
5F
330
A
100
AcDbSymbolTableRecord
100
AcDbDimStyleTableRecord
  2
AM_JIS$3
 70
     0
  3

  4
"
  5
OPEN30
  6

  7

 40
1.0
 41
2.5
 42
1.0
 43
10.0
 44
1.0
 45
0.0
 46
0.0
 47
0.1
 48
0.1
140
3.2
141
0.0
142
0.0
143
0.0393701
144
1.0
145
0.0
146
0.71
147
1.5
 71
     0
 72
     0
 73
     0
 74
     1
 75
     0
 76
     0
 77
     3
 78
     8
170
     0
171
     2
172
     0
173
     0
174
     0
175
     0
176
   256
177
   256
178
     2
270
     2
271
     2
272
     3
273
     2
274
     2
340
6B
275
     0
280
     0
281
     0
282
     0
283
     0
284
     0
285
     0
286
     0
287
     0
288
     1
  0
DIMSTYLE
105
60
330
A
100
AcDbSymbolTableRecord
100
AcDbDimStyleTableRecord
  2
AM_JIS$4
 70
     0
  3

  4
"
  5
OPEN30
  6

  7

 40
1.0
 41
2.5
 42
1.0
 43
10.0
 44
1.0
 45
0.0
 46
0.0
 47
0.1
 48
0.1
140
3.2
141
0.0
142
0.0
143
0.0393701
144
1.0
145
0.0
146
0.71
147
1.5
 71
     0
 72
     0
 73
     0
 74
     1
 75
     0
 76
     0
 77
     3
 78
     8
170
     0
171
     2
172
     0
173
     0
174
     0
175
     0
176
   256
177
   256
178
     2
270
     2
271
     2
272
     3
273
     2
274
     2
340
6B
275
     0
280
     0
281
     0
282
     0
283
     0
284
     0
285
     0
286
     0
287
     0
288
     1
  0
DIMSTYLE
105
61
330
A
100
AcDbSymbolTableRecord
100
AcDbDimStyleTableRecord
  2
AM_JIS$6
 70
     0
  3

  4
"
  5
OPEN30
  6

  7

 40
1.0
 41
2.5
 42
1.0
 43
10.0
 44
1.0
 45
0.0
 46
0.0
 47
0.1
 48
0.1
140
3.2
141
0.0
142
0.0
143
0.0393701
144
1.0
145
0.0
146
0.71
147
1.5
 71
     0
 72
     0
 73
     0
 74
     0
 75
     0
 76
     0
 77
     0
 78
     8
170
     0
171
     2
172
     1
173
     0
174
     0
175
     0
176
   256
177
   256
178
     2
270
     2
271
     2
272
     2
273
     2
274
     2
340
6B
275
     0
280
     0
281
     0
282
     0
283
     0
284
     0
285
     0
286
     0
287
     3
288
     0
  0
DIMSTYLE
105
62
330
A
100
AcDbSymbolTableRecord
100
AcDbDimStyleTableRecord
  2
AM_JIS$7
 70
     0
  3

  4
"
  5
OPEN30
  6

  7

 40
1.0
 41
2.5
 42
1.0
 43
10.0
 44
1.0
 45
0.0
 46
0.0
 47
0.1
 48
0.1
140
3.2
141
0.0
142
0.0
143
0.0393701
144
1.0
145
0.0
146
0.71
147
1.5
 71
     0
 72
     0
 73
     0
 74
     0
 75
     0
 76
     0
 77
     3
 78
     8
170
     0
171
     2
172
     1
173
     0
174
     0
175
     0
176
   256
177
   256
178
     2
270
     2
271
     2
272
     3
273
     2
274
     2
340
6B
275
     0
280
     0
281
     0
282
     0
283
     0
284
     0
285
     0
286
     0
287
     3
288
     0
  0
DIMSTYLE
105
63
330
A
100
AcDbSymbolTableRecord
100
AcDbDimStyleTableRecord
  2
AM_JIS$SF
 70
     0
  3

  4
"
  5
OPEN30
  6

  7

 40
1.0
 41
2.5
 42
1.0
 43
10.0
 44
1.0
 45
0.0
 46
0.0
 47
0.1
 48
0.1
140
3.2
141
0.0
142
0.0
143
0.0393701
144
1.0
145
0.0
146
0.71
147
1.5
 71
     0
 72
     0
 73
     0
 74
     0
 75
     1
 76
     1
 77
     3
 78
     8
170
     0
171
     2
172
     1
173
     0
174
     0
175
     0
176
   256
177
   256
178
     2
270
     2
271
     2
272
     2
273
     2
274
     2
340
6B
275
     0
280
     0
281
     0
282
     0
283
     0
284
     0
285
     0
286
     0
287
     3
288
     0
  0
DIMSTYLE
105
68
330
A
100
AcDbSymbolTableRecord
100
AcDbDimStyleTableRecord
  2
AM_JIS$SH
 70
     0
  3

  4
"
  5

  6
GENAXEH
  7
OPEN30
 40
1.0
 41
2.5
 42
1.0
 43
10.0
 44
1.0
 45
0.0
 46
0.0
 47
0.1
 48
0.1
140
3.2
141
0.0
142
0.0
143
0.0393701
144
2.0
145
0.0
146
0.71
147
1.5
 71
     0
 72
     0
 73
     0
 74
     0
 75
     1
 76
     1
 77
     3
 78
     8
170
     0
171
     2
172
     1
173
     1
174
     0
175
     0
176
   256
177
   256
178
     2
270
     2
271
     2
272
     2
273
     2
274
     2
340
6B
275
     0
280
     0
281
     0
282
     0
283
     0
284
     0
285
     0
286
     0
287
     3
288
     0
  0
DIMSTYLE
105
B34
102
{ACAD_REACTORS
330
36BA
102
}
330
A
100
AcDbSymbolTableRecord
100
AcDbDimStyleTableRecord
  2
AM_JIS$2
 70
     0
  3

  4
"
  5
OPEN30
  6

  7

 40
1.0
 41
2.5
 42
1.0
 43
12.0
 44
1.0
 45
0.0
 46
0.0
 47
0.1
 48
0.1
140
3.2
141
0.0
142
0.0
143
0.0393701
144
1.0
145
0.0
146
0.71
147
1.5
 71
     0
 72
     0
 73
     0
 74
     0
 75
     0
 76
     0
 77
     3
 78
     8
170
     0
171
     2
172
     1
173
     0
174
     0
175
     0
176
   256
177
   256
178
     2
270
     2
271
     3
272
     3
273
     2
274
     2
340
6B
275
     0
280
     0
281
     0
282
     0
283
     0
284
     0
285
     0
286
     0
287
     3
288
     0
  0
DIMSTYLE
105
BA5
102
{ACAD_REACTORS
330
3866
330
3C40
330
3D56
330
3DFD
330
52AA
330
52B7
330
52C4
330
52D1
330
52E9
102
}
330
A
100
AcDbSymbolTableRecord
100
AcDbDimStyleTableRecord
  2
AM_JIS$0
 70
     0
  3

  4
"
  5
OPEN30
  6

  7

 40
1.0
 41
2.5
 42
0.8
 43
10.0
 44
1.0
 45
0.0
 46
0.0
 47
0.1
 48
0.1000000001
140
3.799999999999999
141
0.0
142
0.0
143
0.0393701
144
1.0
145
0.0
146
0.71
147
1.5
 71
     0
 72
     0
 73
     0
 74
     0
 75
     0
 76
     0
 77
     3
 78
     9
170
     0
171
     2
172
     1
173
     0
174
     0
175
     0
176
     3
177
     3
178
     2
270
     2
271
     2
272
     2
273
     2
274
     2
340
11
275
     1
280
     0
281
     0
282
     0
283
     0
284
     8
285
     0
286
     0
287
     0
288
     0
  0
DIMSTYLE
105
BA6
330
A
100
AcDbSymbolTableRecord
100
AcDbDimStyleTableRecord
  2
AM_JISORG-1P0$2
 70
     0
  3

  4
"
  5
OPEN30
  6

  7

 40
1.0
 41
2.5
 42
0.0
 43
10.0
 44
1.0
 45
0.0
 46
0.0
 47
0.1
 48
0.1000000001
140
3.799999999999999
141
0.0
142
0.0
143
0.0393701
144
-0.999999980146674
145
0.0
146
0.71
147
1.5
 71
     0
 72
     0
 73
     0
 74
     0
 75
     0
 76
     0
 77
     3
 78
     1
170
     0
171
     2
172
     1
173
     0
174
     0
175
     0
176
     3
177
     3
178
     2
270
     2
271
     2
272
     2
273
     2
274
     2
340
11
275
     1
280
     0
281
     0
282
     0
283
     0
284
     8
285
     0
286
     0
287
     0
288
     0
  0
ENDTAB
  0
TABLE
  2
BLOCK_RECORD
  5
1
330
0
100
AcDbSymbolTable
 70
    18
  0
BLOCK_RECORD
  5
1F
102
{ACAD_XDICTIONARY
360
74
102
}
330
1
100
AcDbSymbolTableRecord
100
AcDbBlockTableRecord
  2
*MODEL_SPACE
  0
BLOCK_RECORD
  5
101
102
{ACAD_XDICTIONARY
360
5477
102
}
330
1
100
AcDbSymbolTableRecord
100
AcDbBlockTableRecord
  2
*PAPER_SPACE
  0
BLOCK_RECORD
  5
59
330
1
100
AcDbSymbolTableRecord
100
AcDbBlockTableRecord
  2
_OPEN30
  0
BLOCK_RECORD
  5
64
330
1
100
AcDbSymbolTableRecord
100
AcDbBlockTableRecord
  2
GENAXEH
  0
BLOCK_RECORD
  5
C31
330
1
100
AcDbSymbolTableRecord
100
AcDbBlockTableRecord
  2
A$C36D02A34
  0
BLOCK_RECORD
  5
2453
330
1
100
AcDbSymbolTableRecord
100
AcDbBlockTableRecord
  2
*D6
  0
BLOCK_RECORD
  5
245F
330
1
100
AcDbSymbolTableRecord
100
AcDbBlockTableRecord
  2
A$C4FFC6CC0
  0
BLOCK_RECORD
  5
36BB
330
1
100
AcDbSymbolTableRecord
100
AcDbBlockTableRecord
  2
*D8
  0
BLOCK_RECORD
  5
3867
330
1
100
AcDbSymbolTableRecord
100
AcDbBlockTableRecord
  2
*D9
  0
BLOCK_RECORD
  5
3C41
330
1
100
AcDbSymbolTableRecord
100
AcDbBlockTableRecord
  2
*D10
  0
BLOCK_RECORD
  5
3D57
330
1
100
AcDbSymbolTableRecord
100
AcDbBlockTableRecord
  2
*D11
  0
BLOCK_RECORD
  5
3DFE
330
1
100
AcDbSymbolTableRecord
100
AcDbBlockTableRecord
  2
*D12
  0
BLOCK_RECORD
  5
52AB
330
1
100
AcDbSymbolTableRecord
100
AcDbBlockTableRecord
  2
*D13
  0
BLOCK_RECORD
  5
52B8
330
1
100
AcDbSymbolTableRecord
100
AcDbBlockTableRecord
  2
*D14
  0
BLOCK_RECORD
  5
52C5
330
1
100
AcDbSymbolTableRecord
100
AcDbBlockTableRecord
  2
*D15
  0
BLOCK_RECORD
  5
52D2
330
1
100
AcDbSymbolTableRecord
100
AcDbBlockTableRecord
  2
*D16
  0
BLOCK_RECORD
  5
52EA
330
1
100
AcDbSymbolTableRecord
100
AcDbBlockTableRecord
  2
*D17
  0
ENDTAB
  0
ENDSEC
  0
SECTION
  2
BLOCKS
  0
BLOCK
  5
20
330
1F
100
AcDbEntity
  8
0
100
AcDbBlockBegin
  2
*MODEL_SPACE
 70
     0
 10
0.0
 20
0.0
 30
0.0
  3
*MODEL_SPACE
  1

  0
ENDBLK
  5
21
330
1F
100
AcDbEntity
  8
0
100
AcDbBlockEnd
  0
BLOCK
  5
103
330
101
100
AcDbEntity
 67
     1
  8
0
100
AcDbBlockBegin
  2
*PAPER_SPACE
 70
     0
 10
0.0
 20
0.0
 30
0.0
  3
*PAPER_SPACE
  1

  0
ENDBLK
  5
104
330
101
100
AcDbEntity
 67
     1
  8
0
100
AcDbBlockEnd
  0
BLOCK
  5
5D
330
59
100
AcDbEntity
  8
0
100
AcDbBlockBegin
  2
_OPEN30
 70
     0
 10
0.0
 20
0.0
 30
0.0
  3
_OPEN30
  1

  0
LINE
  5
5A
330
59
100
AcDbEntity
  8
0
 62
     0
100
AcDbLine
 10
-1.0
 20
0.26794919
 30
0.0
 11
0.0
 21
0.0
 31
0.0
  0
LINE
  5
5B
330
59
100
AcDbEntity
  8
0
 62
     0
100
AcDbLine
 10
0.0
 20
0.0
 30
0.0
 11
-1.0
 21
-0.26794919
 31
0.0
  0
LINE
  5
5C
330
59
100
AcDbEntity
  8
0
 62
     0
100
AcDbLine
 10
0.0
 20
0.0
 30
0.0
 11
-1.0
 21
0.0
 31
0.0
  0
ENDBLK
  5
5E
330
59
100
AcDbEntity
  8
0
100
AcDbBlockEnd
  0
BLOCK
  5
66
330
64
100
AcDbEntity
  8
0
100
AcDbBlockBegin
  2
GENAXEH
 70
     0
 10
0.0
 20
0.0
 30
0.0
  3
GENAXEH
  1

  0
LINE
  5
65
330
64
100
AcDbEntity
  8
0
100
AcDbLine
 10
-1.0
 20
0.0
 30
0.0
 11
1.0
 21
0.0
 31
0.0
  0
ENDBLK
  5
67
330
64
100
AcDbEntity
  8
0
100
AcDbBlockEnd
  0
BLOCK
  5
C4B
330
C31
100
AcDbEntity
  8
0
100
AcDbBlockBegin
  2
A$C36D02A34
 70
     0
 10
0.0
 20
0.0
 30
0.0
  3
A$C36D02A34
  1

  0
ARC
  5
C32
330
C31
100
AcDbEntity
  8
PV0001_1
  6
CONTINUOUS
 48
0.5
100
AcDbCircle
 10
18.06811523436999
 20
-11.83651161193799
 30
0.0
 40
21.600000381469
100
AcDbArc
 50
123.2290435713209
 51
126.6341524197568
  0
ARC
  5
C33
330
C31
100
AcDbEntity
  8
PV0001_1
  6
CONTINUOUS
 48
0.5
100
AcDbCircle
 10
18.06811523436999
 20
-11.83651161193799
 30
0.0
 40
21.600000381469
100
AcDbArc
 50
135.0736707620117
 51
146.7709980930592
  0
ARC
  5
C34
330
C31
100
AcDbEntity
  8
PV0001_1
  6
CONTINUOUS
 48
0.5
100
AcDbCircle
 10
-18.0680770874
 20
11.8365631103514
 30
0.0
 40
21.600000381469
100
AcDbArc
 50
315.0734847530392
 51
326.770781348241
  0
ARC
  5
C35
330
C31
100
AcDbEntity
  8
PV0001_1
  6
CONTINUOUS
 48
0.5
100
AcDbCircle
 10
-18.0680770874
 20
11.8365631103514
 30
0.0
 40
21.600000381469
100
AcDbArc
 50
303.2288882981993
 51
306.633986901359
  0
ARC
  5
C36
330
C31
100
AcDbEntity
  8
PV0001_1
  6
CONTINUOUS
 48
0.5
100
AcDbCircle
 10
-0.6269836425800009
 20
-2.044216156005997
 30
0.0
 40
2.0
100
AcDbArc
 50
337.4067997351092
 51
43.42231293132884
  0
ARC
  5
C37
330
C31
100
AcDbEntity
  8
PV0001_1
  6
CONTINUOUS
 48
0.5
100
AcDbCircle
 10
0.626953125
 20
2.044223785401001
 30
0.0
 40
2.0
100
AcDbArc
 50
157.4068184044407
 51
223.4222769591536
  0
CIRCLE
  5
C38
330
C31
100
AcDbEntity
  8
PV0001_1
  6
CONTINUOUS
 48
0.5
100
AcDbCircle
 10
3.856727600100001
 20
4.596265792847002
 30
0.0
 40
1.6000000238419
  0
CIRCLE
  5
C39
330
C31
100
AcDbEntity
  8
PV0001_1
  6
CONTINUOUS
 48
0.5
100
AcDbCircle
 10
-3.856727600100001
 20
-4.596265792845997
 30
0.0
 40
1.6000000238419
  0
ARC
  5
C3A
330
C31
100
AcDbEntity
  8
PV0001_1
  6
CONTINUOUS
 48
0.5
100
AcDbCircle
 10
-5.58123779297
 20
5.092639923096001
 30
0.0
 40
5.019082546234099
100
AcDbArc
 50
240.2658959250867
 51
321.5156269706421
  0
ARC
  5
C3B
330
C31
100
AcDbEntity
  8
PV0001_1
  6
CONTINUOUS
 48
0.5
100
AcDbCircle
 10
5.486755371089998
 20
-4.601703643798998
 30
0.0
 40
4.651036739349399
100
AcDbArc
 50
56.25271400417071
 51
145.528859890601
  0
ARC
  5
C3C
330
C31
100
AcDbEntity
  8
PV0001_1
  6
CONTINUOUS
 48
0.5
100
AcDbCircle
 10
-2.11590576172
 20
-3.453323364257997
 30
0.0
 40
4.050000190734899
100
AcDbArc
 50
43.42230610113921
 51
58.50391703385149
  0
ARC
  5
C3D
330
C31
100
AcDbEntity
  8
PV0001_1
  6
CONTINUOUS
 48
0.5
100
AcDbCircle
 10
2.115875244139999
 20
3.453330993653001
 30
0.0
 40
4.050000190734899
100
AcDbArc
 50
223.4222942619974
 51
238.5038164022482
  0
ARC
  5
C3E
330
C31
100
AcDbEntity
  8
PV0001_1
  6
CONTINUOUS
 48
0.5
100
AcDbCircle
 10
-6.70369720459
 20
5.094657897949002
 30
0.0
 40
5.940000057220499
100
AcDbArc
 50
328.2536768887549
 51
31.74641873389623
  0
ARC
  5
C3F
330
C31
100
AcDbEntity
  8
PV0001_1
  6
CONTINUOUS
 48
0.5
100
AcDbCircle
 10
6.703674316410001
 20
-5.094650268553998
 30
0.0
 40
5.940000057220499
100
AcDbArc
 50
148.2533403882529
 51
211.7466423089037
  0
ARC
  5
C40
330
C31
100
AcDbEntity
  8
PV0001_1
  6
CONTINUOUS
 48
0.5
100
AcDbCircle
 10
0.0
 20
0.0
 30
0.0
 40
8.812800407409699
100
AcDbArc
 50
175.2198288164333
 51
272.8622597568298
  0
ARC
  5
C41
330
C31
100
AcDbEntity
  8
PV0001_1
  6
CONTINUOUS
 48
0.5
100
AcDbCircle
 10
0.0
 20
0.0
 30
0.0
 40
9.1800003051758
100
AcDbArc
 50
272.7511362215027
 51
280.3697477877874
  0
ARC
  5
C42
330
C31
100
AcDbEntity
  8
PV0001_1
  6
CONTINUOUS
 48
0.5
100
AcDbCircle
 10
0.0
 20
0.0
 30
0.0
 40
8.812800407409699
100
AcDbArc
 50
355.2198199654955
 51
92.86229572901076
  0
ARC
  5
C43
330
C31
100
AcDbEntity
  8
PV0001_1
  6
CONTINUOUS
 48
0.5
100
AcDbCircle
 10
0.0
 20
0.0
 30
0.0
 40
9.1800003051758
100
AcDbArc
 50
92.75115489083434
 51
100.3697664571193
  0
CIRCLE
  5
C44
330
C31
100
AcDbEntity
  8
PV0001_1
  6
CONTINUOUS
100
AcDbCircle
 10
0.0
 20
0.0
 30
0.0
 40
9.1800003051758
  0
LINE
  5
C45
330
C31
100
AcDbEntity
  8
PV0001_1
  6
CONTINUOUS
 48
0.5
100
AcDbLine
 10
-1.652404785160001
 20
9.030059814453
 30
0.0
 11
-1.652404785160001
 21
8.220062255860002
 31
0.0
  0
LINE
  5
C46
330
C31
100
AcDbEntity
  8
PV0001_1
  6
CONTINUOUS
 48
0.5
100
AcDbLine
 10
1.652404785160001
 20
-8.220058441161999
 30
0.0
 11
1.652404785160001
 21
-9.030055999755997
 31
0.0
  0
LINE
  5
C47
330
C31
100
AcDbEntity
  8
PV0001_1
  6
CONTINUOUS
 48
0.5
100
AcDbLine
 10
-8.78217315674
 20
0.7343807220460015
 30
0.0
 11
-8.070594787600001
 21
0.7343997955320028
 31
0.0
  0
LINE
  5
C48
330
C31
100
AcDbEntity
  8
PV0001_1
  6
CONTINUOUS
 48
0.5
100
AcDbLine
 10
8.07057952881
 20
-0.7343864440919994
 30
0.0
 11
8.78215789795
 21
-0.7343654632569994
 31
0.0
  0
LINE
  5
C49
330
C31
100
AcDbEntity
  8
PV0001_1
  6
CONTINUOUS
 48
0.5
100
AcDbLine
 10
0.4406127929700006
 20
-9.169414520263
 30
0.0
 11
0.4406127929700006
 21
-8.812801361083998
 31
0.0
  0
LINE
  5
C4A
330
C31
100
AcDbEntity
  8
PV0001_1
  6
CONTINUOUS
 48
0.5
100
AcDbLine
 10
-0.4406127929700006
 20
9.169418334961001
 30
0.0
 11
-0.4406127929700006
 21
8.812805175781001
 31
0.0
  0
ENDBLK
  5
C4C
330
C31
100
AcDbEntity
  8
0
100
AcDbBlockEnd
  0
BLOCK
  5
245D
330
2453
100
AcDbEntity
  8
0
100
AcDbBlockBegin
  2
*D6
 70
     1
 10
0.0
 20
0.0
 30
0.0
  3
*D6
  1

  0
LINE
  5
2454
330
2453
100
AcDbEntity
  8
AM_5
 62
     3
100
AcDbLine
 10
-137.574381722344
 20
-5.00000294019065
 30
0.0
 11
-152.8199008769066
 21
-5.000002940190694
 31
0.0
  0
LINE
  5
2455
330
2453
100
AcDbEntity
  8
AM_5
 62
     3
100
AcDbLine
 10
-137.5743817223442
 20
5.00002461040103
 30
0.0
 11
-152.8199008769066
 21
5.000024610400987
 31
0.0
  0
LINE
  5
2456
330
2453
100
AcDbEntity
  8
AM_5
 62
     3
100
AcDbLine
 10
-151.8199008769066
 20
-2.500002940190691
 30
0.0
 11
-151.8199008769066
 21
2.50002461040099
 31
0.0
  0
INSERT
  5
2457
330
2453
100
AcDbEntity
  8
AM_5
 62
     3
100
AcDbBlockReference
  2
_OPEN30
 10
-151.8199008769066
 20
-5.00000294019069
 30
0.0
 41
2.5
 42
2.5
 43
2.5
 50
270.0000000000001
  0
INSERT
  5
2458
330
2453
100
AcDbEntity
  8
AM_5
 62
     3
100
AcDbBlockReference
  2
_OPEN30
 10
-151.8199008769066
 20
5.00002461040099
 30
0.0
 41
2.5
 42
2.5
 43
2.5
 50
90.00000000000015
  0
MTEXT
  5
2459
330
2453
100
AcDbEntity
  8
AM_5
 62
     2
100
AcDbMText
 10
-155.2199008769066
 20
0.000010835105146
 30
0.0
 40
3.799999999999999
 41
0.0
 71
     5
 72
     1
  1
%%c10
 11
-0.0000000000000028
 21
1.0
 31
0.0
1001
ACAD
1000
MTEXTBEGIN
1070
    73
1070
     1
1070
    44
1040
1.0
1070
    74
1070
     0
1000
MTEXTEND
  0
POINT
  5
245A
330
2453
100
AcDbEntity
  8
DEFPOINTS
 62
     0
100
AcDbPoint
 10
-137.5743817223441
 20
-5.000002940190223
 30
0.0
  0
POINT
  5
245B
330
2453
100
AcDbEntity
  8
DEFPOINTS
 62
     0
100
AcDbPoint
 10
-137.5743817223441
 20
5.000024610401458
 30
0.0
  0
POINT
  5
245C
330
2453
100
AcDbEntity
  8
DEFPOINTS
 62
     0
100
AcDbPoint
 10
-151.8199008769066
 20
5.000024610401462
 30
0.0
  0
ENDBLK
  5
245E
330
2453
100
AcDbEntity
  8
0
100
AcDbBlockEnd
  0
BLOCK
  5
246B
330
245F
100
AcDbEntity
  8
0
100
AcDbBlockBegin
  2
A$C4FFC6CC0
 70
     0
 10
0.0
 20
0.0
 30
0.0
  3
A$C4FFC6CC0
  1

  0
DIMENSION
  5
2460
330
245F
100
AcDbEntity
  8
AM_5
100
AcDbDimension
  2
*D6
 10
-70.00000100000002
 20
5.000008477104842
 30
0.0
 11
-70.00000100000002
 21
-0.0000052981910228
 31
0.0
 12
81.81989987690661
 22
-0.0000161332966199
 32
0.0
 70
   128
  1
%%c<>
 51
359.9999999999998
  3
AM_JIS$0
100
AcDbAlignedDimension
 13
-55.75448184543748
 23
-5.000019073486843
 33
0.0
 14
-55.75448184543756
 24
5.000008477104838
 34
0.0
 50
270.0
100
AcDbRotatedDimension
1001
ACAD
1000
DSTYLE
1002
{
1070
   271
1070
     0
1002
}
1001
GENIUS_GENDTOL_13
1000

1000
h7
1000

1040
0.0
  0
LINE
  5
2461
330
245F
100
AcDbEntity
  8
AM_0
 48
0.5
100
AcDbLine
 10
-56.0
 20
-4.754495620727796
 30
0.0
 11
-56.00000000000003
 21
4.754485024345811
 31
0.0
  0
LINE
  5
2462
330
245F
100
AcDbEntity
  8
AM_0
 48
0.5
100
AcDbLine
 10
-55.75448184543751
 20
-5.000019073486843
 30
0.0
 11
-55.75448184543754
 21
5.000008477104838
 31
0.0
  0
LINE
  5
2463
330
245F
100
AcDbEntity
  8
AM_0
100
AcDbLine
 10
-0.0000000000000142
 20
4.999995231627903
 30
0.0
 11
-55.75448184543754
 21
4.999995231627746
 31
0.0
  0
LINE
  5
2464
330
245F
100
AcDbEntity
  8
AM_0
 48
0.5
100
AcDbLine
 10
-55.99996821086117
 20
4.754439989725671
 30
0.0
 11
-55.75443945990975
 21
4.999963442484006
 31
0.0
  0
LINE
  5
2465
330
245F
100
AcDbEntity
  8
AM_0
100
AcDbLine
 10
-55.75448184543751
 20
-5.000008477105588
 30
0.0
 11
0.0000000000000142
 21
-5.00000847710543
 31
0.0
  0
LINE
  5
2466
330
245F
100
AcDbEntity
  8
AM_0
 48
0.5
100
AcDbLine
 10
-55.99996821086114
 20
-4.754474427965309
 30
0.0
 11
-55.75443945990972
 21
-4.999997880724334
 31
0.0
  0
LINE
  5
2467
330
245F
100
AcDbEntity
  8
AM_0
100
AcDbLine
 10
0.7794201296714505
 20
4.549985867772141
 30
0.0
 11
0.7794201296714789
 21
-4.550003370497427
 31
0.0
  0
LINE
  5
2468
330
245F
100
AcDbEntity
  8
AM_0
 48
0.5
100
AcDbLine
 10
0.0000000000000142
 20
-5.00000847710543
 30
0.0
 11
-0.0000000000000142
 21
5.000008477104995
 31
0.0
  0
LINE
  5
2469
330
245F
100
AcDbEntity
  8
AM_0
 48
0.5
100
AcDbLine
 10
0.7794201296714647
 20
-4.550003370497435
 30
0.0
 11
-0.0000105963812445
 21
-5.00000847710543
 31
0.0
  0
LINE
  5
246A
330
245F
100
AcDbEntity
  8
AM_0
 48
0.5
100
AcDbLine
 10
0.7794201296714647
 20
4.549985867772141
 30
0.0
 11
-0.0000000000000142
 21
4.999984635246652
 31
0.0
  0
ENDBLK
  5
246C
330
245F
100
AcDbEntity
  8
0
100
AcDbBlockEnd
  0
BLOCK
  5
36C9
330
36BB
100
AcDbEntity
  8
0
100
AcDbBlockBegin
  2
*D8
 70
     1
 10
0.0
 20
0.0
 30
0.0
  3
*D8
  1

  0
LINE
  5
4149
330
36BB
100
AcDbEntity
  8
AM_5
100
AcDbLine
 10
0.3420201408161502
 20
-0.9396926216994629
 30
0.0
 11
11.31017982904546
 21
-31.07446394848497
 31
0.0
  0
LINE
  5
414A
330
36BB
100
AcDbEntity
  8
AM_5
100
AcDbLine
 10
0.3420201408161393
 20
0.939692621699157
 30
0.0
 11
11.3101798290451
 21
31.07446394848479
 31
0.0
  0
ARC
  5
414B
330
36BB
100
AcDbEntity
  8
AM_5
100
AcDbCircle
 10
0.0000000000000263
 20
-0.000000000000155
 30
0.0
 40
32.06875379343813
100
AcDbArc
 50
294.4677676365269
 51
65.53223236347371
  0
INSERT
  5
414C
330
36BB
100
AcDbEntity
  8
AM_5
100
AcDbBlockReference
  2
_OPEN30
 10
10.96815968822934
 20
-30.13477132678566
 30
0.0
 41
2.5
 42
2.5
 43
2.5
 50
202.2338837417563
  0
INSERT
  5
414D
330
36BB
100
AcDbEntity
  8
AM_5
100
AcDbBlockReference
  2
_OPEN30
 10
10.96815968822899
 20
30.13477132678548
 30
0.0
 41
2.5
 42
2.5
 43
2.5
 50
157.7661162582443
  0
MTEXT
  5
414E
330
36BB
100
AcDbEntity
  8
AM_5
 62
     2
100
AcDbMText
 10
28.96875379343816
 20
0.0000000000000357
 30
0.0
 40
3.2
 41
0.0
 71
     5
 72
     1
  1
140°
  7
ASAMI
 11
-0.0000000000000028
 21
1.0
 31
0.0
1001
ACAD
1000
MTEXTBEGIN
1070
    73
1070
     1
1070
    44
1040
1.0
1070
    74
1070
     0
1000
MTEXTEND
  0
POINT
  5
414F
330
36BB
100
AcDbEntity
  8
DEFPOINTS
 62
     0
100
AcDbPoint
 10
29.44604624940567
 20
-12.70178452588532
 30
0.0
  0
POINT
  5
4150
330
36BB
100
AcDbEntity
  8
DEFPOINTS
 62
     0
100
AcDbPoint
 10
0.0
 20
-0.0000000000002274
 30
0.0
  0
POINT
  5
4151
330
36BB
100
AcDbEntity
  8
DEFPOINTS
 62
     0
100
AcDbPoint
 10
0.0
 20
-0.0000000000000827
 30
0.0
  0
POINT
  5
4152
330
36BB
100
AcDbEntity
  8
DEFPOINTS
 62
     0
100
AcDbPoint
 10
-2.547791618692619
 20
6.999999999999763
 30
0.0
  0
POINT
  5
4153
330
36BB
100
AcDbEntity
  8
DEFPOINTS
 62
     0
100
AcDbPoint
 10
-2.547791618692583
 20
-7.000000000000091
 30
0.0
  0
ENDBLK
  5
36CA
330
36BB
100
AcDbEntity
  8
0
100
AcDbBlockEnd
  0
BLOCK
  5
3871
330
3867
100
AcDbEntity
  8
0
100
AcDbBlockBegin
  2
*D9
 70
     1
 10
0.0
 20
0.0
 30
0.0
  3
*D9
  1

  0
LINE
  5
5378
330
3867
100
AcDbEntity
  8
AM_5
 62
     3
100
AcDbLine
 10
-158.8450477134569
 20
12.52500938462128
 30
0.0
 11
-176.6775359641806
 21
12.52500938462123
 31
0.0
  0
LINE
  5
5379
330
3867
100
AcDbEntity
  8
AM_5
 62
     3
100
AcDbLine
 10
-158.8450477134568
 20
-12.4748933430618
 30
0.0
 11
-176.6775359641806
 21
-12.47489334306185
 31
0.0
  0
LINE
  5
537A
330
3867
100
AcDbEntity
  8
AM_5
 62
     3
100
AcDbLine
 10
-175.6775359641806
 20
10.02500938462124
 30
0.0
 11
-175.6775359641806
 21
-9.974893343061847
 31
0.0
  0
INSERT
  5
537B
330
3867
100
AcDbEntity
  8
AM_5
 62
     3
100
AcDbBlockReference
  2
_OPEN30
 10
-175.6775359641806
 20
12.52500938462124
 30
0.0
 41
2.5
 42
2.5
 43
2.5
 50
90.00000000000017
  0
INSERT
  5
537C
330
3867
100
AcDbEntity
  8
AM_5
 62
     3
100
AcDbBlockReference
  2
_OPEN30
 10
-175.6775359641806
 20
-12.47489334306184
 30
0.0
 41
2.5
 42
2.5
 43
2.5
 50
270.0000000000001
  0
MTEXT
  5
537D
330
3867
100
AcDbEntity
  8
AM_5
 62
     2
100
AcDbMText
 10
-179.0775359641806
 20
0.0250580207796931
 30
0.0
 40
3.799999999999999
 41
0.0
 71
     5
 72
     1
  1
%%C25
 11
-0.0000000000000028
 21
1.0
 31
0.0
1001
ACAD
1000
MTEXTBEGIN
1070
    73
1070
     1
1070
    44
1040
1.0
1070
    74
1070
     0
1000
MTEXTEND
  0
POINT
  5
537E
330
3867
100
AcDbEntity
  8
DEFPOINTS
 62
     0
100
AcDbPoint
 10
-158.0450477134569
 20
12.52500938462178
 30
0.0
  0
POINT
  5
537F
330
3867
100
AcDbEntity
  8
DEFPOINTS
 62
     0
100
AcDbPoint
 10
-158.0450477134568
 20
-12.4748933430613
 30
0.0
  0
POINT
  5
5380
330
3867
100
AcDbEntity
  8
DEFPOINTS
 62
     0
100
AcDbPoint
 10
-175.6775359641806
 20
-12.4748933430613
 30
0.0
  0
ENDBLK
  5
3872
330
3867
100
AcDbEntity
  8
0
100
AcDbBlockEnd
  0
BLOCK
  5
3C4B
330
3C41
100
AcDbEntity
  8
0
100
AcDbBlockBegin
  2
*D10
 70
     1
 10
0.0
 20
0.0
 30
0.0
  3
*D10
  1

  0
LINE
  5
536F
330
3C41
100
AcDbEntity
  8
AM_5
 62
     3
100
AcDbLine
 10
-102.7306948702282
 20
-13.27503639174648
 30
0.0
 11
-102.7306948702282
 21
-40.403574761701
 31
0.0
  0
LINE
  5
5370
330
3C41
100
AcDbEntity
  8
AM_5
 62
     3
100
AcDbLine
 10
-158.7306090395532
 20
-12.61209445906811
 30
0.0
 11
-158.7306090395531
 21
-40.40357476170117
 31
0.0
  0
LINE
  5
5371
330
3C41
100
AcDbEntity
  8
AM_5
 62
     3
100
AcDbLine
 10
-105.2306948702282
 20
-39.40357476170101
 30
0.0
 11
-156.2306090395531
 21
-39.40357476170116
 31
0.0
  0
INSERT
  5
5372
330
3C41
100
AcDbEntity
  8
AM_5
 62
     3
100
AcDbBlockReference
  2
_OPEN30
 10
-102.7306948702282
 20
-39.40357476170101
 30
0.0
 41
2.5
 42
2.5
 43
2.5
 50
0.0000000000001527
  0
INSERT
  5
5373
330
3C41
100
AcDbEntity
  8
AM_5
 62
     3
100
AcDbBlockReference
  2
_OPEN30
 10
-158.7306090395531
 20
-39.40357476170117
 30
0.0
 41
2.5
 42
2.5
 43
2.5
 50
180.0000000000001
  0
MTEXT
  5
5374
330
3C41
100
AcDbEntity
  8
AM_5
 62
     2
100
AcDbMText
 10
-130.7306519548906
 20
-36.00357476170109
 30
0.0
 40
3.799999999999999
 41
0.0
 71
     5
 72
     1
  1
56
1001
ACAD
1000
MTEXTBEGIN
1070
    73
1070
     1
1070
    44
1040
1.0
1070
    74
1070
     0
1000
MTEXTEND
  0
POINT
  5
5375
330
3C41
100
AcDbEntity
  8
DEFPOINTS
 62
     0
100
AcDbPoint
 10
-102.7306948702283
 20
-12.47503639174619
 30
0.0
  0
POINT
  5
5376
330
3C41
100
AcDbEntity
  8
DEFPOINTS
 62
     0
100
AcDbPoint
 10
-158.7306090395532
 20
-11.81209445906764
 30
0.0
  0
POINT
  5
5377
330
3C41
100
AcDbEntity
  8
DEFPOINTS
 62
     0
100
AcDbPoint
 10
-158.7306090395532
 20
-39.40357476170071
 30
0.0
  0
ENDBLK
  5
3C4C
330
3C41
100
AcDbEntity
  8
0
100
AcDbBlockEnd
  0
BLOCK
  5
3D63
330
3D57
100
AcDbEntity
  8
0
100
AcDbBlockBegin
  2
*D11
 70
     1
 10
0.0
 20
0.0
 30
0.0
  3
*D11
  1

  0
LINE
  5
5364
330
3D57
100
AcDbEntity
  8
AM_5
 62
     3
100
AcDbLine
 10
-158.7306090395532
 20
-12.61209445906811
 30
0.0
 11
-158.7306090395531
 21
-29.4794172256178
 31
0.0
  0
LINE
  5
5365
330
3D57
100
AcDbEntity
  8
AM_5
 62
     3
100
AcDbLine
 10
-152.7307062356308
 20
-0.8000000000009237
 30
0.0
 11
-152.7307062356308
 21
-29.47941722561778
 31
0.0
  0
LINE
  5
5366
330
3D57
100
AcDbEntity
  8
AM_5
 62
     3
100
AcDbLine
 10
-161.2306090395531
 20
-28.47941722561781
 30
0.0
 11
-163.7306090395531
 21
-28.47941722561781
 31
0.0
  0
LINE
  5
5367
330
3D57
100
AcDbEntity
  8
AM_5
 62
     3
100
AcDbLine
 10
-150.2307062356308
 20
-28.47941722561778
 30
0.0
 11
-147.7307062356308
 21
-28.47941722561777
 31
0.0
  0
LINE
  5
5368
330
3D57
100
AcDbEntity
  8
AM_5
 62
     3
100
AcDbLine
 10
-158.7306090395531
 20
-28.4794172256178
 30
0.0
 11
-152.7307062356308
 21
-28.47941722561778
 31
0.0
  0
INSERT
  5
5369
330
3D57
100
AcDbEntity
  8
AM_5
 62
     3
100
AcDbBlockReference
  2
_OPEN30
 10
-158.7306090395531
 20
-28.4794172256178
 30
0.0
 41
2.5
 42
2.5
 43
2.5
 50
0.0000000000001527
  0
INSERT
  5
536A
330
3D57
100
AcDbEntity
  8
AM_5
 62
     3
100
AcDbBlockReference
  2
_OPEN30
 10
-152.7307062356308
 20
-28.47941722561778
 30
0.0
 41
2.5
 42
2.5
 43
2.5
 50
180.0000000000001
  0
MTEXT
  5
536B
330
3D57
100
AcDbEntity
  8
AM_5
 62
     2
100
AcDbMText
 10
-155.7306576375919
 20
-25.07941722561779
 30
0.0
 40
3.799999999999999
 41
0.0
 71
     5
 72
     1
  1
6
1001
ACAD
1000
MTEXTBEGIN
1070
    73
1070
     1
1070
    44
1040
1.0
1070
    74
1070
     0
1000
MTEXTEND
  0
POINT
  5
536C
330
3D57
100
AcDbEntity
  8
DEFPOINTS
 62
     0
100
AcDbPoint
 10
-158.7306090395532
 20
-11.81209445906764
 30
0.0
  0
POINT
  5
536D
330
3D57
100
AcDbEntity
  8
DEFPOINTS
 62
     0
100
AcDbPoint
 10
-152.7307062356308
 20
-0.0000000000004793
 30
0.0
  0
POINT
  5
536E
330
3D57
100
AcDbEntity
  8
DEFPOINTS
 62
     0
100
AcDbPoint
 10
-152.7307062356308
 20
-28.47941722561733
 30
0.0
  0
ENDBLK
  5
3D64
330
3D57
100
AcDbEntity
  8
0
100
AcDbBlockEnd
  0
BLOCK
  5
3E08
330
3DFE
100
AcDbEntity
  8
0
100
AcDbBlockBegin
  2
*D12
 70
     1
 10
0.0
 20
0.0
 30
0.0
  3
*D12
  1

  0
LINE
  5
535B
330
3DFE
100
AcDbEntity
  8
AM_5
 62
     3
100
AcDbLine
 10
-152.7307062356308
 20
-0.8000000000009237
 30
0.0
 11
-152.7307062356308
 21
-29.47941722561757
 31
0.0
  0
LINE
  5
535C
330
3DFE
100
AcDbEntity
  8
AM_5
 62
     3
100
AcDbLine
 10
-107.7306948702283
 20
-0.8000000000007043
 30
0.0
 11
-107.7306948702282
 21
-29.47941722561744
 31
0.0
  0
LINE
  5
535D
330
3DFE
100
AcDbEntity
  8
AM_5
 62
     3
100
AcDbLine
 10
-150.2307062356308
 20
-28.47941722561756
 30
0.0
 11
-110.2306948702282
 21
-28.47941722561745
 31
0.0
  0
INSERT
  5
535E
330
3DFE
100
AcDbEntity
  8
AM_5
 62
     3
100
AcDbBlockReference
  2
_OPEN30
 10
-152.7307062356308
 20
-28.47941722561757
 30
0.0
 41
2.5
 42
2.5
 43
2.5
 50
180.0000000000001
  0
INSERT
  5
535F
330
3DFE
100
AcDbEntity
  8
AM_5
 62
     3
100
AcDbBlockReference
  2
_OPEN30
 10
-107.7306948702282
 20
-28.47941722561744
 30
0.0
 41
2.5
 42
2.5
 43
2.5
 50
0.0000000000001527
  0
MTEXT
  5
5360
330
3DFE
100
AcDbEntity
  8
AM_5
 62
     2
100
AcDbMText
 10
-130.2307005529295
 20
-25.07941722561751
 30
0.0
 40
3.799999999999999
 41
0.0
 71
     5
 72
     1
  1
45
1001
ACAD
1000
MTEXTBEGIN
1070
    73
1070
     1
1070
    44
1040
1.0
1070
    74
1070
     0
1000
MTEXTEND
  0
POINT
  5
5361
330
3DFE
100
AcDbEntity
  8
DEFPOINTS
 62
     0
100
AcDbPoint
 10
-152.7307062356308
 20
-0.0000000000004793
 30
0.0
  0
POINT
  5
5362
330
3DFE
100
AcDbEntity
  8
DEFPOINTS
 62
     0
100
AcDbPoint
 10
-107.7306948702283
 20
-0.0000000000003908
 30
0.0
  0
POINT
  5
5363
330
3DFE
100
AcDbEntity
  8
DEFPOINTS
 62
     0
100
AcDbPoint
 10
-107.7306948702283
 20
-28.47941722561713
 30
0.0
  0
ENDBLK
  5
3E09
330
3DFE
100
AcDbEntity
  8
0
100
AcDbBlockEnd
  0
BLOCK
  5
52B5
330
52AB
100
AcDbEntity
  8
0
100
AcDbBlockBegin
  2
*D13
 70
     1
 10
0.0
 20
0.0
 30
0.0
  3
*D13
  1

  0
LINE
  5
5349
330
52AB
100
AcDbEntity
  8
AM_5
 62
     3
100
AcDbLine
 10
-3.730694870228372
 20
10.53749999999958
 30
0.0
 11
-3.730694870228348
 21
25.75486044680219
 31
0.0
  0
LINE
  5
534A
330
52AB
100
AcDbEntity
  8
AM_5
 62
     3
100
AcDbLine
 10
-75.7306948702282
 20
6.474800730532837
 30
0.0
 11
-75.73069487022817
 21
25.7548604468023
 31
0.0
  0
LINE
  5
534B
330
52AB
100
AcDbEntity
  8
AM_5
 62
     3
100
AcDbLine
 10
-6.230694870228349
 20
24.75486044680219
 30
0.0
 11
-73.23069487022817
 21
24.75486044680229
 31
0.0
  0
INSERT
  5
534C
330
52AB
100
AcDbEntity
  8
AM_5
 62
     3
100
AcDbBlockReference
  2
_OPEN30
 10
-3.73069487022835
 20
24.75486044680219
 30
0.0
 41
2.5
 42
2.5
 43
2.5
 50
359.9999999999998
  0
INSERT
  5
534D
330
52AB
100
AcDbEntity
  8
AM_5
 62
     3
100
AcDbBlockReference
  2
_OPEN30
 10
-75.73069487022817
 20
24.7548604468023
 30
0.0
 41
2.5
 42
2.5
 43
2.5
 50
179.9999999999998
  0
MTEXT
  5
534E
330
52AB
100
AcDbEntity
  8
AM_5
 62
     2
100
AcDbMText
 10
-39.73069487022826
 20
28.15486044680224
 30
0.0
 40
3.799999999999999
 41
0.0
 71
     5
 72
     1
  1
72
1001
ACAD
1000
MTEXTBEGIN
1070
    73
1070
     1
1070
    44
1040
1.0
1070
    74
1070
     0
1000
MTEXTEND
  0
POINT
  5
534F
330
52AB
100
AcDbEntity
  8
DEFPOINTS
 62
     0
100
AcDbPoint
 10
-3.730694870228345
 20
9.737499999999593
 30
0.0
  0
POINT
  5
5350
330
52AB
100
AcDbEntity
  8
DEFPOINTS
 62
     0
100
AcDbPoint
 10
-75.73069487022819
 20
5.674800730533058
 30
0.0
  0
POINT
  5
5351
330
52AB
100
AcDbEntity
  8
DEFPOINTS
 62
     0
100
AcDbPoint
 10
-75.7306948702281
 20
24.75486044680252
 30
0.0
  0
ENDBLK
  5
52B6
330
52AB
100
AcDbEntity
  8
0
100
AcDbBlockEnd
  0
BLOCK
  5
52C2
330
52B8
100
AcDbEntity
  8
0
100
AcDbBlockBegin
  2
*D14
 70
     1
 10
0.0
 20
0.0
 30
0.0
  3
*D14
  1

  0
LINE
  5
5340
330
52B8
100
AcDbEntity
  8
AM_5
 62
     3
100
AcDbLine
 10
-3.730694870228409
 20
12.88716411147622
 30
0.0
 11
-3.730694870228435
 21
37.30310707219687
 31
0.0
  0
LINE
  5
5341
330
52B8
100
AcDbEntity
  8
AM_5
 62
     3
100
AcDbLine
 10
-76.73069487022812
 20
10.36902747074355
 30
0.0
 11
-76.73069487022814
 21
37.30310707219679
 31
0.0
  0
LINE
  5
5342
330
52B8
100
AcDbEntity
  8
AM_5
 62
     3
100
AcDbLine
 10
-6.230694870228434
 20
36.30310707219687
 30
0.0
 11
-74.23069487022814
 21
36.30310707219679
 31
0.0
  0
INSERT
  5
5343
330
52B8
100
AcDbEntity
  8
AM_5
 62
     3
100
AcDbBlockReference
  2
_OPEN30
 10
-3.730694870228434
 20
36.30310707219687
 30
0.0
 41
2.5
 42
2.5
 43
2.5
 50
0.0000000000000509
  0
INSERT
  5
5344
330
52B8
100
AcDbEntity
  8
AM_5
 62
     3
100
AcDbBlockReference
  2
_OPEN30
 10
-76.73069487022814
 20
36.30310707219679
 30
0.0
 41
2.5
 42
2.5
 43
2.5
 50
180.0
  0
MTEXT
  5
5345
330
52B8
100
AcDbEntity
  8
AM_5
 62
     2
100
AcDbMText
 10
-40.23069487022829
 20
39.70310707219683
 30
0.0
 40
3.799999999999999
 41
0.0
 71
     5
 72
     1
  1
73
1001
ACAD
1000
MTEXTBEGIN
1070
    73
1070
     1
1070
    44
1040
1.0
1070
    74
1070
     0
1000
MTEXTEND
  0
POINT
  5
5346
330
52B8
100
AcDbEntity
  8
DEFPOINTS
 62
     0
100
AcDbPoint
 10
-3.730694870228373
 20
12.08716411147623
 30
0.0
  0
POINT
  5
5347
330
52B8
100
AcDbEntity
  8
DEFPOINTS
 62
     0
100
AcDbPoint
 10
-76.73069487022809
 20
9.569027470743778
 30
0.0
  0
POINT
  5
5348
330
52B8
100
AcDbEntity
  8
DEFPOINTS
 62
     0
100
AcDbPoint
 10
-76.73069487022804
 20
36.30310707219701
 30
0.0
  0
ENDBLK
  5
52C3
330
52B8
100
AcDbEntity
  8
0
100
AcDbBlockEnd
  0
BLOCK
  5
52CF
330
52C5
100
AcDbEntity
  8
0
100
AcDbBlockBegin
  2
*D15
 70
     1
 10
0.0
 20
0.0
 30
0.0
  3
*D15
  1

  0
LINE
  5
539E
330
52C5
100
AcDbEntity
  8
AM_5
 62
     3
100
AcDbLine
 10
-3.73069487022835
 20
-10.5375000000001
 30
0.0
 11
-3.730694870228264
 21
-40.40387087164596
 31
0.0
  0
LINE
  5
539F
330
52C5
100
AcDbEntity
  8
AM_5
 62
     3
100
AcDbLine
 10
-102.7306948702283
 20
-13.58691230153985
 30
0.0
 11
-102.7306948702282
 21
-40.40387087164624
 31
0.0
  0
LINE
  5
53A0
330
52C5
100
AcDbEntity
  8
AM_5
 62
     3
100
AcDbLine
 10
-6.230694870228267
 20
-39.40387087164597
 30
0.0
 11
-100.2306948702282
 21
-39.40387087164624
 31
0.0
  0
INSERT
  5
53A1
330
52C5
100
AcDbEntity
  8
AM_5
 62
     3
100
AcDbBlockReference
  2
_OPEN30
 10
-3.730694870228267
 20
-39.40387087164596
 30
0.0
 41
2.5
 42
2.5
 43
2.5
 50
0.0000000000001527
  0
INSERT
  5
53A2
330
52C5
100
AcDbEntity
  8
AM_5
 62
     3
100
AcDbBlockReference
  2
_OPEN30
 10
-102.7306948702282
 20
-39.40387087164625
 30
0.0
 41
2.5
 42
2.5
 43
2.5
 50
180.0000000000001
  0
MTEXT
  5
53A3
330
52C5
100
AcDbEntity
  8
AM_5
 62
     2
100
AcDbMText
 10
-53.23069487022825
 20
-36.00387087164611
 30
0.0
 40
3.799999999999999
 41
0.0
 71
     5
 72
     1
  1
99
1001
ACAD
1000
MTEXTBEGIN
1070
    73
1070
     1
1070
    44
1040
1.0
1070
    74
1070
     0
1000
MTEXTEND
  0
POINT
  5
53A4
330
52C5
100
AcDbEntity
  8
DEFPOINTS
 62
     0
100
AcDbPoint
 10
-3.73069487022838
 20
-9.737500000000091
 30
0.0
  0
POINT
  5
53A5
330
52C5
100
AcDbEntity
  8
DEFPOINTS
 62
     0
100
AcDbPoint
 10
-102.7306948702283
 20
-12.78691230153955
 30
0.0
  0
POINT
  5
53A6
330
52C5
100
AcDbEntity
  8
DEFPOINTS
 62
     0
100
AcDbPoint
 10
-102.7306948702283
 20
-39.40387087164594
 30
0.0
  0
ENDBLK
  5
52D0
330
52C5
100
AcDbEntity
  8
0
100
AcDbBlockEnd
  0
BLOCK
  5
52DC
330
52D2
100
AcDbEntity
  8
0
100
AcDbBlockBegin
  2
*D16
 70
     1
 10
0.0
 20
0.0
 30
0.0
  3
*D16
  1

  0
LINE
  5
5352
330
52D2
100
AcDbEntity
  8
AM_5
 62
     3
100
AcDbLine
 10
-3.73069487022835
 20
-10.5375000000001
 30
0.0
 11
-3.730694870228229
 21
-52.82999252061948
 31
0.0
  0
LINE
  5
5353
330
52D2
100
AcDbEntity
  8
AM_5
 62
     3
100
AcDbLine
 10
-158.7306090395532
 20
-12.90739682054435
 30
0.0
 11
-158.7306090395531
 21
-52.82999252061992
 31
0.0
  0
LINE
  5
5354
330
52D2
100
AcDbEntity
  8
AM_5
 62
     3
100
AcDbLine
 10
-6.230694870228232
 20
-51.82999252061948
 30
0.0
 11
-156.2306090395531
 21
-51.82999252061992
 31
0.0
  0
INSERT
  5
5355
330
52D2
100
AcDbEntity
  8
AM_5
 62
     3
100
AcDbBlockReference
  2
_OPEN30
 10
-3.730694870228232
 20
-51.82999252061947
 30
0.0
 41
2.5
 42
2.5
 43
2.5
 50
0.0000000000001527
  0
INSERT
  5
5356
330
52D2
100
AcDbEntity
  8
AM_5
 62
     3
100
AcDbBlockReference
  2
_OPEN30
 10
-158.7306090395531
 20
-51.82999252061993
 30
0.0
 41
2.5
 42
2.5
 43
2.5
 50
180.0000000000001
  0
MTEXT
  5
5357
330
52D2
100
AcDbEntity
  8
AM_5
 62
     2
100
AcDbMText
 10
-81.23065195489067
 20
-48.4299925206197
 30
0.0
 40
3.799999999999999
 41
0.0
 71
     5
 72
     1
  1
155
1001
ACAD
1000
MTEXTBEGIN
1070
    73
1070
     1
1070
    44
1040
1.0
1070
    74
1070
     0
1000
MTEXTEND
  0
POINT
  5
5358
330
52D2
100
AcDbEntity
  8
DEFPOINTS
 62
     0
100
AcDbPoint
 10
-3.73069487022838
 20
-9.737500000000093
 30
0.0
  0
POINT
  5
5359
330
52D2
100
AcDbEntity
  8
DEFPOINTS
 62
     0
100
AcDbPoint
 10
-158.7306090395532
 20
-12.10739682054389
 30
0.0
  0
POINT
  5
535A
330
52D2
100
AcDbEntity
  8
DEFPOINTS
 62
     0
100
AcDbPoint
 10
-158.7306090395532
 20
-51.82999252061947
 30
0.0
  0
ENDBLK
  5
52DD
330
52D2
100
AcDbEntity
  8
0
100
AcDbBlockEnd
  0
BLOCK
  5
52F6
330
52EA
100
AcDbEntity
  8
0
100
AcDbBlockBegin
  2
*D17
 70
     1
 10
0.0
 20
0.0
 30
0.0
  3
*D17
  1

  0
LINE
  5
532B
330
52EA
100
AcDbEntity
  8
AM_5
 62
     3
100
AcDbLine
 10
-2.438920368042617
 20
10.24999999999991
 30
0.0
 11
17.388824192936
 21
10.24999999999996
 31
0.0
  0
LINE
  5
532C
330
52EA
100
AcDbEntity
  8
AM_5
 62
     3
100
AcDbLine
 10
-2.499650124943681
 20
-10.25000000000008
 30
0.0
 11
17.38882419293606
 21
-10.25000000000002
 31
0.0
  0
LINE
  5
532D
330
52EA
100
AcDbEntity
  8
AM_5
 62
     3
100
AcDbLine
 10
16.38882419293599
 20
12.74999999999996
 30
0.0
 11
16.38882419293598
 21
15.24999999999996
 31
0.0
  0
LINE
  5
532E
330
52EA
100
AcDbEntity
  8
AM_5
 62
     3
100
AcDbLine
 10
16.38882419293606
 20
-12.75000000000002
 30
0.0
 11
16.38882419293607
 21
-15.25000000000002
 31
0.0
  0
LINE
  5
532F
330
52EA
100
AcDbEntity
  8
AM_5
 62
     3
100
AcDbLine
 10
16.388824192936
 20
10.24999999999996
 30
0.0
 11
16.38882419293605
 21
-10.25000000000002
 31
0.0
  0
INSERT
  5
5330
330
52EA
100
AcDbEntity
  8
AM_5
 62
     3
100
AcDbBlockReference
  2
_OPEN30
 10
16.388824192936
 20
10.24999999999996
 30
0.0
 41
2.5
 42
2.5
 43
2.5
 50
270.0000000000001
  0
INSERT
  5
5331
330
52EA
100
AcDbEntity
  8
AM_5
 62
     3
100
AcDbBlockReference
  2
_OPEN30
 10
16.38882419293605
 20
-10.25000000000002
 30
0.0
 41
2.5
 42
2.5
 43
2.5
 50
90.00000000000015
  0
MTEXT
  5
5332
330
52EA
100
AcDbEntity
  8
AM_5
 62
     2
100
AcDbMText
 10
12.98882419293603
 20
-0.0000000000001556
 30
0.0
 40
3.799999999999999
 41
0.0
 71
     5
 72
     1
  1
%%C20.5
 11
-0.0000000000000028
 21
1.0
 31
0.0
1001
ACAD
1000
MTEXTBEGIN
1070
    73
1070
     1
1070
    44
1040
1.0
1070
    74
1070
     0
1000
MTEXTEND
  0
POINT
  5
5333
330
52EA
100
AcDbEntity
  8
DEFPOINTS
 62
     0
100
AcDbPoint
 10
-3.238920368042585
 20
10.24999999999991
 30
0.0
  0
POINT
  5
5334
330
52EA
100
AcDbEntity
  8
DEFPOINTS
 62
     0
100
AcDbPoint
 10
-3.299650124943713
 20
-10.25000000000007
 30
0.0
  0
POINT
  5
5335
330
52EA
100
AcDbEntity
  8
DEFPOINTS
 62
     0
100
AcDbPoint
 10
16.38882419293602
 20
-10.25000000000007
 30
0.0
  0
ENDBLK
  5
52F7
330
52EA
100
AcDbEntity
  8
0
100
AcDbBlockEnd
  0
ENDSEC
  0
SECTION
  2
ENTITIES
  0
TEXT
  5
19BD
330
1F
100
AcDbEntity
  8
AM_6
100
AcDbText
 10
-102.7153335059365
 20
-73.0658463615807
 30
0.0
 40
5.0
  1
KDS205MAK
 50
0.0000000000001527
 72
     4
 11
-81.0486668392699
 21
-70.56584636158063
 31
0.0
100
AcDbText
  0
LINE
  5
35CA
330
1F
100
AcDbEntity
  8
PV0001_1
  6
CONTINUOUS
 48
0.5
100
AcDbLine
 10
-589.2017441852486
 20
-57.69694534177202
 30
0.0
 11
-567.9171279738763
 21
-62.69376548307545
 31
0.0
  0
LINE
  5
35D1
330
1F
100
AcDbEntity
  8
AM_7
100
AcDbLine
 10
4.745369175493294
 20
-0.0000000000001137
 30
0.0
 11
-166.5084919537721
 21
-0.0000000000005355
 31
0.0
  0
LINE
  5
35EA
330
1F
100
AcDbEntity
  8
PV0001_1
  6
CONTINUOUS
100
AcDbLine
 10
-158.0450477134568
 20
-12.47503639174631
 30
0.0
 11
-102.7306948702283
 21
-12.47503639174619
 31
0.0
  0
LINE
  5
35EB
330
1F
100
AcDbEntity
  8
PV0001_1
  6
CONTINUOUS
100
AcDbLine
 10
-102.7306948702283
 20
12.52497362183367
 30
0.0
 11
-158.0450477134569
 21
12.52497362183355
 31
0.0
  0
LINE
  5
35F9
330
1F
100
AcDbEntity
  8
PV0001_1
  6
CONTINUOUS
 48
0.5
100
AcDbLine
 10
-158.0677958529095
 20
0.0249721913229824
 30
0.0
 11
-158.0677958529096
 21
12.52500938462177
 31
0.0
  0
LINE
  5
35FA
330
1F
100
AcDbEntity
  8
PV0001_1
  6
CONTINUOUS
 48
0.5
100
AcDbLine
 10
-158.7306948702283
 20
0.0249721913229824
 30
0.0
 11
-158.7306948702283
 21
11.86209606217258
 31
0.0
  0
LINE
  5
35FB
330
1F
100
AcDbEntity
  8
PV0001_1
  6
CONTINUOUS
 48
0.5
100
AcDbLine
 10
-158.7306090395533
 20
11.86197446869815
 30
0.0
 11
-158.0676814119845
 21
12.52488779114552
 31
0.0
  0
LINE
  5
35FD
330
1F
100
AcDbEntity
  8
PV0001_1
  6
CONTINUOUS
 48
0.5
100
AcDbLine
 10
-158.7306090395532
 20
-11.81209445906764
 30
0.0
 11
-158.0676814119845
 21
-12.47500778151683
 31
0.0
  0
LINE
  5
3601
330
1F
100
AcDbEntity
  8
PV0001_1
  6
CONTINUOUS
 48
0.5
100
AcDbLine
 10
-158.7306948702283
 20
0.0249721913229824
 30
0.0
 11
-158.7306948702282
 21
-11.81215167952617
 31
0.0
  0
LINE
  5
3602
330
1F
100
AcDbEntity
  8
PV0001_1
  6
CONTINUOUS
 48
0.5
100
AcDbLine
 10
-158.0677958529095
 20
0.0249721913229824
 30
0.0
 11
-158.0677958529095
 21
-12.47506500197581
 31
0.0
  0
DIMENSION
  5
36BA
330
1F
100
AcDbEntity
  8
AM_5
100
AcDbDimension
  2
*D8
 10
-2.547791618692583
 20
-7.000000000000091
 30
0.0
 11
28.96875379343816
 21
-0.0000000000000532
 31
0.0
 70
    34
  1
<>
 51
359.9999999999998
  3
AM_JIS$2
100
AcDb2LineAngularDimension
 13
0.0
 23
-0.0000000000000827
 33
0.0
 14
-2.547791618692619
 24
6.999999999999763
 34
0.0
 15
0.0
 25
-0.0000000000002274
 35
0.0
 16
29.44604624940567
 26
-12.70178452588532
 36
0.0
1001
ACAD
1000
DSTYLE
1002
{
1070
   179
1070
     3
1002
}
1001
GENIUS_GENDTOL_13
1000

1000
h7
1000

1040
0.0
  0
DIMENSION
  5
3866
330
1F
100
AcDbEntity
  8
AM_5
100
AcDbDimension
  2
*D9
 10
-175.6775359641806
 20
-12.4748933430613
 30
0.0
 11
-179.0775359641806
 21
0.0250580207802141
 31
0.0
 70
    32
  1
%%C<>
 51
359.9999999999998
  3
AM_JIS$0
100
AcDbAlignedDimension
 13
-158.0450477134569
 23
12.52500938462178
 33
0.0
 14
-158.0450477134568
 24
-12.4748933430613
 34
0.0
 50
270.0000000000002
100
AcDbRotatedDimension
1001
ACAD
1000
DSTYLE
1002
{
1070
   271
1070
     3
1002
}
1001
GENIUS_GENDTOL_13
1000

1000
h7
1000

1040
0.0
  0
LINE
  5
395A
330
1F
100
AcDbEntity
  8
PV0001_1
  6
CONTINUOUS
100
AcDbLine
 10
-102.7306948702283
 20
-12.47503639174619
 30
0.0
 11
-102.7306948702283
 21
12.52497362183367
 31
0.0
  0
DIMENSION
  5
3C40
330
1F
100
AcDbEntity
  8
AM_5
100
AcDbDimension
  2
*D10
 10
-158.7306090395532
 20
-39.40357476170071
 30
0.0
 11
-130.7306519548907
 21
-36.00357476170071
 31
0.0
 70
    32
  1
<>
 51
359.9999999999998
  3
AM_JIS$0
100
AcDbAlignedDimension
 13
-102.7306948702283
 23
-12.47503639174619
 33
0.0
 14
-158.7306090395532
 24
-11.81209445906764
 34
0.0
 50
0.0000000000002658
100
AcDbRotatedDimension
1001
ACAD
1000
DSTYLE
1002
{
1070
   271
1070
     3
1002
}
1001
GENIUS_GENDTOL_13
1000

1000
h7
1000

1040
0.0
  0
DIMENSION
  5
3D56
330
1F
100
AcDbEntity
  8
AM_5
100
AcDbDimension
  2
*D11
 10
-152.7307062356308
 20
-28.47941722561733
 30
0.0
 11
-155.730657637592
 21
-28.47941722561733
 31
0.0
 70
   160
  1
<>
 51
359.9999999999998
  3
AM_JIS$0
100
AcDbAlignedDimension
 13
-158.7306090395532
 23
-11.81209445906764
 33
0.0
 14
-152.7307062356308
 24
-0.0000000000004793
 34
0.0
 50
0.0000000000002659
100
AcDbRotatedDimension
1001
ACAD
1000
DSTYLE
1002
{
1070
   271
1070
     3
1002
}
1001
GENIUS_GENDTOL_13
1000

1000
h7
1000

1040
0.0
  0
DIMENSION
  5
3DFD
330
1F
100
AcDbEntity
  8
AM_5
100
AcDbDimension
  2
*D12
 10
-107.7306948702283
 20
-28.47941722561713
 30
0.0
 11
-130.2307005529296
 21
-25.07941722561713
 31
0.0
 70
    32
  1
<>
 51
359.9999999999998
  3
AM_JIS$0
100
AcDbAlignedDimension
 13
-152.7307062356308
 23
-0.0000000000004793
 33
0.0
 14
-107.7306948702283
 24
-0.0000000000003908
 34
0.0
 50
0.0000000000002658
100
AcDbRotatedDimension
1001
ACAD
1000
DSTYLE
1002
{
1070
   271
1070
     3
1002
}
1001
GENIUS_GENDTOL_13
1000

1000
h7
1000

1040
0.0
  0
LINE
  5
452C
330
1F
100
AcDbEntity
  8
PV0001_1
  6
CONTINUOUS
 48
0.5
100
AcDbLine
 10
-89.20713832421961
 20
-11.11882468753301
 30
0.0
 11
-102.7306948702283
 21
-12.47503639174619
 31
0.0
  0
LINE
  5
48BA
330
1F
100
AcDbEntity
  8
PV0001_1
  6
CONTINUOUS
 48
0.5
100
AcDbLine
 10
-94.50567571308633
 20
11.68770278839747
 30
0.0
 11
-102.7306948702283
 21
12.52497362183367
 31
0.0
  0
ELLIPSE
  5
4BE9
330
1F
100
AcDbEntity
  8
AM_0
100
AcDbEllipse
 10
-95.18685830119073
 20
-5.605455289682979
 30
0.0
 11
-5.6448738840206
 21
3.054388422334471
 31
0.0
210
0.0
220
0.0
230
1.0
 40
0.7231285487486172
 41
0.9091123844261947
 42
1.697004501565757
  0
ELLIPSE
  5
4BEC
330
1F
100
AcDbEntity
  8
AM_0
100
AcDbEllipse
 10
-98.2955871891974
 20
-10.94888821198475
 30
0.0
 11
-10.83275784041185
 21
1.258328754591908
 31
0.0
210
0.0
220
0.0
230
1.0
 40
0.7477743222744299
 41
4.100902616141341
 42
4.760622859083181
  0
LINE
  5
4ED1
330
1F
100
AcDbEntity
  8
AM_0
100
AcDbLine
 10
-111.9953753975363
 20
4.264680527307588
 30
0.0
 11
-148.4731283679596
 21
4.26468052730749
 31
0.0
  0
LINE
  5
4ED6
330
1F
100
AcDbEntity
  8
AM_0
100
AcDbLine
 10
-148.4731283679596
 20
-4.264680527308504
 30
0.0
 11
-111.9953753975363
 21
-4.264680527308407
 31
0.0
  0
ARC
  5
4EF5
330
1F
100
AcDbEntity
  8
AM_0
100
AcDbCircle
 10
-148.4660257083229
 20
-0.0000000000004796
 30
0.0
 40
4.264680527307981
100
AcDbArc
 50
90.0
 51
270.0
  0
ARC
  5
4EF6
330
1F
100
AcDbEntity
  8
AM_0
100
AcDbCircle
 10
-111.9953753975363
 20
-0.0000000000004015
 30
0.0
 40
4.264680527307981
100
AcDbArc
 50
270.0000000000002
 51
90.00000000000019
  0
ARC
  5
509F
330
1F
100
AcDbEntity
  8
AM_0
100
AcDbCircle
 10
-71.70123622737204
 20
29.49373019737179
 30
0.0
 40
39.70945852483088
100
AcDbArc
 50
240.4152335456832
 51
265.7324963698123
  0
ARC
  5
50A0
330
1F
100
AcDbEntity
  8
AM_0
100
AcDbCircle
 10
-90.55692940743801
 20
5.872941091914297
 30
0.0
 40
17.04529378661257
100
AcDbArc
 50
248.9926168053652
 51
274.5419216732894
  0
ARC
  5
50A9
330
1F
100
AcDbEntity
  8
AM_0
100
AcDbCircle
 10
-97.99569471370578
 20
-5.566446742683971
 30
0.0
 40
2.771764418141944
100
AcDbArc
 50
87.56717975894439
 51
209.925410219899
  0
ARC
  5
50AB
330
1F
100
AcDbEntity
  8
AM_0
100
AcDbCircle
 10
-92.62190731905494
 20
11.33467896549065
 30
0.0
 40
22.71168143454896
100
AcDbArc
 50
278.6473828396395
 51
297.5396402262924
  0
LINE
  5
5276
330
1F
100
AcDbEntity
  8
PV0001_1
  6
CONTINUOUS
 48
0.5
100
AcDbLine
 10
-0.0000000000000355
 20
-0.0000000000003162
 30
0.0
 11
-3.730694870228715
 21
10.24999999999993
 31
0.0
  0
LINE
  5
5277
330
1F
100
AcDbEntity
  8
PV0001_1
  6
CONTINUOUS
 48
0.5
100
AcDbLine
 10
-0.0000000000000355
 20
-0.0000000000004938
 30
0.0
 11
-3.730694870228349
 21
-10.25000000000006
 31
0.0
  0
DIMENSION
  5
52AA
330
1F
100
AcDbEntity
  8
AM_5
100
AcDbDimension
  2
*D13
 10
-75.7306948702281
 20
24.75486044680252
 30
0.0
 11
-39.73069487022817
 21
28.15486044680236
 31
0.0
 70
    32
  1
<>
 51
359.9999999999998
  3
AM_JIS$0
100
AcDbAlignedDimension
 13
-3.730694870228345
 23
9.737499999999593
 33
0.0
 14
-75.73069487022819
 24
5.674800730533058
 34
0.0
 50
179.9999999999999
100
AcDbRotatedDimension
1001
ACAD
1000
DSTYLE
1002
{
1070
   271
1070
     3
1002
}
1001
GENIUS_GENDTOL_13
1000

1000
h7
1000

1040
0.0
  0
DIMENSION
  5
52B7
330
1F
100
AcDbEntity
  8
AM_5
100
AcDbDimension
  2
*D14
 10
-76.73069487022804
 20
36.30310707219701
 30
0.0
 11
-40.23069487022818
 21
39.70310707219695
 31
0.0
 70
    32
  1
<>
 51
359.9999999999998
  3
AM_JIS$0
100
AcDbAlignedDimension
 13
-3.730694870228373
 23
12.08716411147623
 33
0.0
 14
-76.73069487022809
 24
9.569027470743778
 34
0.0
 50
180.0
100
AcDbRotatedDimension
1001
ACAD
1000
DSTYLE
1002
{
1070
   271
1070
     3
1002
}
1001
GENIUS_GENDTOL_13
1000

1000
h7
1000

1040
0.0
  0
DIMENSION
  5
52C4
330
1F
100
AcDbEntity
  8
AM_5
100
AcDbDimension
  2
*D15
 10
-102.7306948702283
 20
-39.40387087164594
 30
0.0
 11
-53.23069487022836
 21
-36.00387087164595
 31
0.0
 70
    32
  1
<>
 51
359.9999999999998
  3
AM_JIS$0
100
AcDbAlignedDimension
 13
-3.73069487022838
 23
-9.737500000000091
 33
0.0
 14
-102.7306948702283
 24
-12.78691230153955
 34
0.0
 50
0.0000000000000116
100
AcDbRotatedDimension
1001
ACAD
1000
DSTYLE
1002
{
1070
   271
1070
     3
1002
}
1001
GENIUS_GENDTOL_13
1000

1000
h7
1000

1040
0.0
  0
DIMENSION
  5
52D1
330
1F
100
AcDbEntity
  8
AM_5
100
AcDbDimension
  2
*D16
 10
-158.7306090395532
 20
-51.82999252061947
 30
0.0
 11
-81.23065195489081
 21
-48.42999252061947
 31
0.0
 70
    32
  1
<>
 51
359.9999999999998
  3
AM_JIS$0
100
AcDbAlignedDimension
 13
-3.73069487022838
 23
-9.737500000000093
 33
0.0
 14
-158.7306090395532
 24
-12.10739682054389
 34
0.0
 50
0.0000000000001159
100
AcDbRotatedDimension
1001
ACAD
1000
DSTYLE
1002
{
1070
   271
1070
     3
1002
}
1001
GENIUS_GENDTOL_13
1000

1000
h7
1000

1040
0.0
  0
LINE
  5
52DE
330
1F
100
AcDbEntity
  8
PV0001_1
  6
CONTINUOUS
 48
0.5
100
AcDbLine
 10
-14.66465528400152
 20
10.25000000000022
 30
0.0
 11
-3.730694870228715
 21
10.24999999999993
 31
0.0
  0
LINE
  5
52DF
330
1F
100
AcDbEntity
  8
PV0001_1
  6
CONTINUOUS
 48
0.5
100
AcDbLine
 10
-3.233269361913677
 20
8.883334636687408
 30
0.0
 11
-14.67987181275508
 21
8.883334636687729
 31
0.0
  0
LINE
  5
52E0
330
1F
100
AcDbEntity
  8
PV0001_1
  6
CONTINUOUS
 48
0.5
100
AcDbLine
 10
-12.19470392275167
 20
2.820825701090407
 30
0.0
 11
-8.095057724877626
 21
1.155870355414398
 31
0.0
  0
ELLIPSE
  5
52E1
330
1F
100
AcDbEntity
  8
AM_0
100
AcDbEllipse
 10
-5.686143960122307
 20
4.148136557364378
 30
0.0
 11
-4.643785690413641
 21
1.185179006924216
 31
0.0
210
0.0
220
0.0
230
1.0
 40
0.7732804492600131
 41
1.231714624169017
 42
3.125611501329593
  0
LINE
  5
52E3
330
1F
100
AcDbEntity
  8
AM_0
100
AcDbLine
 10
-2.351730936139017
 20
-2.536521224763985
 30
0.0
 11
-5.65648057932371
 21
-4.428274878037763
 31
0.0
  0
LINE
  5
52E4
330
1F
100
AcDbEntity
  8
PV0001_1
  6
CONTINUOUS
 48
0.5
100
AcDbLine
 10
-15.73069128728762
 20
-8.852272727272488
 30
0.0
 11
-3.724535832884031
 21
-8.85227272727279
 31
0.0
  0
LINE
  5
52E5
330
1F
100
AcDbEntity
  8
PV0001_1
  6
CONTINUOUS
 48
0.5
100
AcDbLine
 10
-15.73069128728765
 20
-10.24999999999971
 30
0.0
 11
-3.730694870228349
 21
-10.25000000000006
 31
0.0
  0
LINE
  5
52E7
330
1F
100
AcDbEntity
  8
PV0001_1
  6
CONTINUOUS
 48
0.5
100
AcDbLine
 10
-2.351730936139017
 20
-2.536521224763985
 30
0.0
 11
-3.724535832884031
 21
-8.85227272727279
 31
0.0
  0
DIMENSION
  5
52E9
330
1F
100
AcDbEntity
  8
AM_5
100
AcDbDimension
  2
*D17
 10
16.38882419293602
 20
-10.25000000000007
 30
0.0
 11
16.38882419293603
 21
-0.0000000000001938
 31
0.0
 70
   160
  1
%%C<>
 51
359.9999999999998
  3
AM_JIS$0
100
AcDbAlignedDimension
 13
-3.238920368042585
 23
10.24999999999991
 33
0.0
 14
-3.299650124943713
 24
-10.25000000000007
 34
0.0
 50
89.99999999999896
100
AcDbRotatedDimension
1001
GENIUS_GENDTOL_13
1000

1000
h7
1000

1040
0.0
1001
ACAD
1000
DSTYLE
1002
{
1070
   271
1070
     3
1002
}
  0
LINE
  5
52F8
330
1F
100
AcDbEntity
  8
AM_0
100
AcDbLine
 10
-3.058077343852695
 20
0.7676504369555914
 30
0.0
 11
-2.351730936139017
 21
-2.536521224763985
 31
0.0
  0
LINE
  5
52F9
330
1F
100
AcDbEntity
  8
PV0001_1
  6
CONTINUOUS
 48
0.5
100
AcDbLine
 10
-8.095057724877506
 20
1.155870355414203
 30
0.0
 11
-3.724535832884031
 21
-8.85227272727279
 31
0.0
  0
LINE
  5
5302
330
1F
100
AcDbEntity
  8
AM_11
 48
0.5
100
AcDbLine
 10
-76.73069487022861
 20
-9.895822130739551
 30
0.0
 11
-76.73069487022809
 21
9.569027470743778
 31
0.0
  0
LINE
  5
5303
330
1F
100
AcDbEntity
  8
PV0001_1
  6
CONTINUOUS
100
AcDbLine
 10
-75.73069487022864
 20
-10.01173109701495
 30
0.0
 11
-75.73069487022822
 21
4.436990251168014
 31
0.0
  0
LINE
  5
5305
330
1F
100
AcDbEntity
  8
PV0001_1
  6
CONTINUOUS
 48
0.5
100
AcDbLine
 10
-74.65614182924979
 20
-10.10563380281456
 30
0.0
 11
-42.82818246695786
 21
-10.10563380281562
 31
0.0
  0
ELLIPSE
  5
53F9
330
1F
100
AcDbEntity
  8
AM_0
100
AcDbEllipse
 10
-107.7366540297704
 20
-63.89755560754158
 30
0.0
 11
-18.0709503381191
 21
75.44598071384166
 31
0.0
210
0.0
220
0.0
230
0.9999999999999998
 40
0.9335253886558732
 41
-0.8178788652743143
 42
-0.4340841011892392
  0
SPLINE
  5
53FA
330
1F
100
AcDbEntity
  8
PV0001_1
  6
CONTINUOUS
100
AcDbSpline
210
0.0
220
0.0
230
1.0
 70
     8
 71
     3
 72
    54
 73
    50
 74
     0
 42
0.0000000001
 43
0.0000000001
 40
0.8937596859602537
 40
0.8937596859602537
 40
0.8937596859602537
 40
0.8937596859602537
 40
1.010743684496582
 40
2.022833576467832
 40
3.037578957496688
 40
4.056212745003489
 40
5.079857003664532
 40
6.109500240690281
 40
7.145961322679372
 40
8.189895241603872
 40
9.241717795325891
 40
10.30168407291828
 40
11.36983447792315
 40
12.44600489715814
 40
13.52984294512926
 40
14.62081576220742
 40
15.7182257034828
 40
16.82123173843959
 40
17.92886860250316
 40
19.0400688939571
 40
20.15368796660465
 40
21.26852814259644
 40
22.38336992938901
 40
23.49698739941135
 40
24.6081876908653
 40
25.71582455492886
 40
26.81883757994213
 40
27.91624752121713
 40
29.00722033829659
 40
30.09105838626677
 40
31.16722880550176
 40
32.23537921050758
 40
33.29534548809967
 40
34.347168041821
 40
35.39108718934584
 40
36.42754827133493
 40
37.45720575381954
 40
38.48085062012849
 40
39.49948440763516
 40
40.51422944315121
 40
41.52631975251916
 40
42.53706336719636
 40
43.54780698187354
 40
44.55989729124051
 40
45.57464232675757
 40
46.59327611426424
 40
47.6169209805722
 40
48.64656348684535
 40
49.15203936885055
 40
49.15203936885055
 40
49.15203936885055
 40
49.15203936885055
 10
-15.73069128728764
 20
-10.10563380281707
 30
0.0
 10
-17.50643382148687
 20
-10.0783420332752
 30
0.0
 10
-18.03653840542357
 20
-10.0583813476342
 30
0.0
 10
-19.04231766155965
 20
-9.988943158155429
 30
0.0
 10
-20.46734612955595
 20
-9.832533502612143
 30
0.0
 10
-21.89228640228058
 20
-9.613319421661753
 30
0.0
 10
-23.31712426107272
 20
-9.334271686389929
 30
0.0
 10
-24.74183159706717
 20
-8.996631177607135
 30
0.0
 10
-26.16641317584678
 20
-8.747038559308535
 30
0.0
 10
-27.59085636425196
 20
-8.299173852419643
 30
0.0
 10
-29.0151514592285
 20
-7.800153116254052
 30
0.0
 10
-30.43930556010005
 20
-7.253108652388466
 30
0.0
 10
-31.86332248103544
 20
-6.661388410444414
 30
0.0
 10
-33.28722001398535
 20
-6.028675999235872
 30
0.0
 10
-34.71100467808314
 20
-5.358859572091567
 30
0.0
 10
-36.13468967571064
 20
-4.656069953164205
 30
0.0
 10
-37.55829079572733
 20
-3.924642793165134
 30
0.0
 10
-38.98182053241668
 20
-3.169076023064224
 30
0.0
 10
-40.40529270129679
 20
-2.394016672421192
 30
0.0
 10
-41.82872253412507
 20
-1.604235139456824
 30
0.0
 10
-43.25212251573584
 20
-0.8045866764646634
 30
0.0
 10
-44.67551274674178
 20
-0.0000020913711553
 30
0.0
 10
-46.09889658791664
 20
0.8045969767463162
 30
0.0
 10
-47.52230134045393
 20
1.604232987096891
 30
0.0
 10
-48.94572941603891
 20
2.394016910684805
 30
0.0
 10
-50.36920412295424
 20
3.169079213958506
 30
0.0
 10
-51.79273976512769
 20
3.924639535919529
 30
0.0
 10
-53.21634313196311
 20
4.65607040527211
 30
0.0
 10
-54.6400283351234
 20
5.358859454309479
 30
0.0
 10
-56.06381294741414
 20
6.028676022313648
 30
0.0
 10
-57.4877104840101
 20
6.522915357780367
 30
0.0
 10
-58.91172744121629
 20
7.114635458234901
 30
0.0
 10
-60.3358813950997
 20
7.661680480682935
 30
0.0
 10
-61.76017036897915
 20
8.160696810501937
 30
0.0
 10
-63.18460474884842
 20
8.608567383300947
 30
0.0
 10
-64.60918579918217
 20
9.002534120799051
 30
0.0
 10
-66.03390330806451
 20
9.340136066348847
 30
0.0
 10
-67.45874587411832
 20
9.619270172793068
 30
0.0
 10
-68.88368656925897
 20
9.838224403745552
 30
0.0
 10
-70.30871602740838
 20
9.995583878149634
 30
0.0
 10
-71.73380411878776
 20
10.09040459362724
 30
0.0
 10
-73.15892352561364
 20
10.12208105714109
 30
0.0
 10
-74.5840429303427
 20
10.09040459357777
 30
0.0
 10
-76.00913102802486
 20
9.995583878349
 30
0.0
 10
-77.43416046296911
 20
9.838224402995015
 30
0.0
 10
-78.85910124511156
 20
9.619270175615218
 30
0.0
 10
-80.28393653771397
 20
9.34013741656255
 30
0.0
 10
-81.46380619427485
 20
9.060555409096734
 30
0.0
 10
-82.16818097509937
 20
8.872950560864916
 30
0.0
 10
-83.88838903284161
 20
8.30909072667141
 30
0.0
  0
LINE
  5
53FB
330
1F
100
AcDbEntity
  8
AM_0
100
AcDbLine
 10
-14.73355971010347
 20
4.130433893660092
 30
0.0
 11
-14.66544238363178
 21
10.25000000000001
 31
0.0
  0
LINE
  5
53FC
330
1F
100
AcDbEntity
  8
AM_0
100
AcDbLine
 10
-15.73069128728765
 20
-10.22786293112886
 30
0.0
 11
-15.73069128728731
 21
4.626823546161059
 31
0.0
  0
SPLINE
  5
53FD
330
1F
100
AcDbEntity
  8
PV0001_1
  6
CONTINUOUS
100
AcDbSpline
210
0.0
220
0.0
230
1.0
 70
     8
 71
     3
 72
    11
 73
     7
 74
     0
 42
0.0000000001
 43
0.0000000001
 40
11.27226913003534
 40
11.27226913003534
 40
11.27226913003534
 40
11.2722691300354
 40
12.28301561507924
 40
13.29510212255852
 40
14.30984805882082
 40
15.18258238371378
 40
15.18258238371378
 40
15.18258238371378
 40
15.18258238371378
 10
-42.82818246695795
 20
-10.09351207261586
 30
0.0
 10
-43.30120575874421
 20
-10.04334559398541
 30
0.0
 10
-44.29016837078363
 20
-10.03142269317992
 30
0.0
 10
-45.7222696685953
 20
-9.849065329963876
 30
0.0
 10
-47.20897126291425
 20
-9.540764860835237
 30
0.0
 10
-48.0761352384744
 20
-9.31581810413146
 30
0.0
 10
-48.47574909088409
 20
-9.204700619573227
 30
0.0
  0
SPLINE
  5
53FE
330
1F
100
AcDbEntity
  8
PV0001_1
  6
CONTINUOUS
100
AcDbSpline
210
0.0
220
0.0
230
1.0
 70
     8
 71
     3
 72
    17
 73
    13
 74
     0
 42
0.0000000001
 43
0.0000000001
 40
1.580019955310467
 40
1.580019955310467
 40
1.580019955310467
 40
1.580019955310467
 40
2.030549285115227
 40
3.082371838836284
 40
4.126290986361125
 40
5.162752068350215
 40
6.192395305374981
 40
7.216039564037012
 40
8.234688489606833
 40
9.249433870634691
 40
10.26152376260694
 40
11.27226744710342
 40
11.27226744710342
 40
11.27226744710342
 40
11.27226744710352
 10
-29.61356859306146
 20
-7.564801827550486
 30
0.0
 10
-29.81519494206427
 20
-7.6427130020069
 30
0.0
 10
-30.4886946865644
 20
-7.898077282811799
 30
0.0
 10
-31.63852577137321
 20
-8.298625294347282
 30
0.0
 10
-33.06276166957846
 20
-8.747185930938663
 30
0.0
 10
-34.48738965859291
 20
-9.1409626137317
 30
0.0
 10
-35.91208292356455
 20
-9.478632952123577
 30
0.0
 10
-37.33693140631413
 20
-9.757740715766164
 30
0.0
 10
-38.56805622431441
 20
-9.958228161864159
 30
0.0
 10
-39.98470808455399
 20
-10.0424102958141
 30
0.0
 10
-41.40306354158234
 20
-10.07237444388664
 30
0.0
 10
-42.3533536422165
 20
-10.09351213126727
 30
0.0
 10
-42.82818246695786
 20
-10.09351207261586
 30
0.0
  0
SPLINE
  5
53FF
330
1F
100
AcDbEntity
  8
PV0001_1
  6
CONTINUOUS
100
AcDbSpline
210
0.0
220
0.0
230
1.0
 70
     8
 71
     3
 72
    22
 73
    18
 74
     0
 42
0.0000000001
 43
0.0000000001
 40
17.17441611292
 40
17.17441611292
 40
17.17441611292
 40
17.17441611292
 40
17.38177636558528
 40
18.41823744757437
 40
19.46215659509824
 40
20.51397914882054
 40
21.57394542641293
 40
22.64209583141747
 40
23.71826625065247
 40
24.80210429862395
 40
25.8930771157021
 40
26.99048705697709
 40
28.09349309193389
 40
29.20112995599786
 40
30.31233024745139
 40
31.42594771747373
 40
32.5407895042663
 40
32.54078950426994
 40
32.54078950426994
 40
32.54078950426994
 10
-48.47637233155428
 20
-9.204574185901382
 30
0.0
 10
-48.57179834063638
 20
-9.180846441239776
 30
0.0
 10
-49.1438251499047
 20
-9.036318154998019
 30
0.0
 10
-50.19174603090195
 20
-8.746520130307636
 30
0.0
 10
-51.61618020708528
 20
-8.298648270772849
 30
0.0
 10
-53.04046923641622
 20
-7.799632290339173
 30
0.0
 10
-54.46462317429538
 20
-7.252587170488566
 30
0.0
 10
-55.88864013951434
 20
-6.660867106623294
 30
0.0
 10
-57.31253766007081
 20
-6.028154646131056
 30
0.0
 10
-58.73632232901055
 20
-5.358338236217763
 30
0.0
 10
-60.16000731972731
 20
-4.655548597981764
 30
0.0
 10
-61.58360846269573
 20
-3.924121498337104
 30
0.0
 10
-63.03249370359569
 20
-3.258824466010879
 30
0.0
 10
-64.4112846008357
 20
-2.491365327556475
 30
0.0
 10
-65.81737835124329
 20
-1.718977671192148
 30
0.0
 10
-67.21994647928034
 20
-0.8729496954661016
 30
0.0
 10
-68.10728283177997
 20
-0.336112452628476
 30
0.0
 10
-68.70082875832737
 20
0.0005213419633553
 30
0.0
  0
SPLINE
  5
5400
330
1F
100
AcDbEntity
  8
PV0001_1
  6
CONTINUOUS
100
AcDbSpline
210
0.0
220
0.0
230
1.0
 70
     8
 71
     3
 72
    25
 73
    21
 74
     0
 42
0.0000000001
 43
0.0000000001
 40
24.56499986022253
 40
24.56499986022253
 40
24.56499986022253
 40
24.56499986022253
 40
24.6081876908653
 40
25.71582455492886
 40
26.81883757994213
 40
27.91624752121713
 40
29.00722033829659
 40
30.09105838626677
 40
31.16722880550176
 40
32.23537921050758
 40
33.29534548809967
 40
34.347168041821
 40
35.39108718934584
 40
36.42754827133493
 40
37.45720575381954
 40
38.48085062012849
 40
39.49948440763516
 40
40.51422944315121
 40
41.52631975251916
 40
42.53706336680078
 40
42.53706336680078
 40
42.53706336680078
 40
42.53706336680078
 10
-12.19470392275167
 20
2.820825701090407
 30
0.0
 10
-12.21336193890856
 20
2.830647299132501
 30
0.0
 10
-12.71057044870838
 20
3.092281311055386
 30
0.0
 10
-13.68586200960372
 20
3.600354590963679
 30
0.0
 10
-15.12301242196423
 20
4.329685665930352
 30
0.0
 10
-16.55978810536246
 20
5.034890103169857
 30
0.0
 10
-17.9961204294555
 20
5.711456034849918
 30
0.0
 10
-19.43194755627469
 20
6.355053206113845
 30
0.0
 10
-20.86456011346199
 20
6.817208462895393
 30
0.0
 10
-22.29918755443296
 20
7.382718036029054
 30
0.0
 10
-23.7331327983108
 20
7.903557530025747
 30
0.0
 10
-25.16633237623055
 20
8.376373930324387
 30
0.0
 10
-26.59873951735345
 20
8.79805050614178
 30
0.0
 10
-28.03030491329293
 20
9.165829619705187
 30
0.0
 10
-29.46097322928027
 20
9.477250915355996
 30
0.0
 10
-30.89069450398204
 20
9.730211908563404
 30
0.0
 10
-32.31941042161555
 20
9.923001344530819
 30
0.0
 10
-33.74708567414877
 20
10.0542047518125
 30
0.0
 10
-35.1736728272754
 20
10.10563380281736
 30
0.0
 10
-36.12419085409622
 20
10.10563380281739
 30
0.0
 10
-36.59893994241245
 20
10.10563380281741
 30
0.0
  0
SPLINE
  5
5401
330
1F
100
AcDbEntity
  8
PV0001_1
  6
CONTINUOUS
 48
0.5
100
AcDbSpline
210
0.0
220
0.0
230
1.0
 70
     8
 71
     3
 72
    15
 73
    11
 74
     0
 42
0.0000000001
 43
0.0000000001
 40
0.0
 40
0.0
 40
0.0
 40
0.0
 40
1.010743614677189
 40
2.022833924044153
 40
3.037578959561199
 40
4.056212747067873
 40
5.079857613375832
 40
6.109500119648989
 40
7.14596120163808
 40
7.345743122959106
 40
7.345743122959106
 40
7.345743122959106
 40
7.345743122959106
 10
-14.67693513280461
 20
10.10563380281677
 30
0.0
 10
-15.15173765282716
 20
10.10557220903673
 30
0.0
 10
-16.10206680796683
 20
10.08454010594541
 30
0.0
 10
-17.5271393262941
 20
9.989683025461042
 30
0.0
 10
-18.95217300126324
 20
9.83233349467315
 30
0.0
 10
-20.37711245347158
 20
9.613375971770359
 30
0.0
 10
-21.80194881003642
 20
9.334246418582427
 30
0.0
 10
-23.22665776390144
 20
8.99663698619987
 30
0.0
 10
-24.26456804078497
 20
8.709606823133569
 30
0.0
 10
-24.82842422929837
 20
8.541019647516469
 30
0.0
 10
-25.2679720700832
 20
8.399490755703661
 30
0.0
  0
LINE
  5
5402
330
1F
100
AcDbEntity
  8
AM_11
 48
0.5
100
AcDbLine
 10
-37.26595404342967
 20
10.10563380281743
 30
0.0
 11
-14.67693514673116
 21
10.1056338028167
 31
0.0
  0
LINE
  5
5403
330
1F
100
AcDbEntity
  8
AM_11
 48
0.5
100
AcDbLine
 10
-49.74025267542812
 20
-10.10563380281596
 30
0.0
 11
-15.73069128728764
 21
-10.10563380281707
 31
0.0
  0
LINE
  5
5404
330
1F
100
AcDbEntity
  8
PV0001_1
  6
CONTINUOUS
 48
0.5
100
AcDbLine
 10
-73.89183837893293
 20
10.10563380281905
 30
0.0
 11
-37.26595404342967
 21
10.10563380281764
 31
0.0
  0
VIEWPORT
  5
110
330
101
100
AcDbEntity
 67
     1
  8
0
100
AcDbViewport
 10
420.5
 20
297.0
 30
0.0
 40
948.9782706766916
 41
628.452
 68
     1
 69
     1
1001
ACAD
1000
MVIEW
1002
{
1070
    16
1010
0.0
1020
0.0
1030
0.0
1010
0.0
1020
0.0
1030
1.0
1040
0.0
1040
628.452
1040
420.5
1040
297.0
1040
50.0
1040
0.0
1040
0.0
1070
     0
1070
   100
1070
     1
1070
     1
1070
     0
1070
     0
1070
     0
1070
     0
1040
0.0
1040
0.0
1040
0.0
1040
10.0
1040
10.0
1040
10.0
1040
10.0
1070
     0
1002
{
1002
}
1002
}
  0
ENDSEC
  0
SECTION
  2
OBJECTS
  0
DICTIONARY
  5
C
330
0
100
AcDbDictionary
  3
ACAD_GROUP
350
D
  3
ACAD_LAYOUT
350
1A
  3
ACAD_MLINESTYLE
350
17
  3
ACAD_PLOTSETTINGS
350
19
  3
ACAD_PLOTSTYLENAME
350
E
  3
ACDBVARIABLEDICTIONARY
350
34
  3
ACMDICTIONARY
350
43
  3
AMG
350
2B
  3
AMGSNAPSETTINGS
350
6E
  3
DWGPROPS
350
543F
  3
ACDBHEADERROUNDTRIPXREC
350
544F
  0
DICTIONARY
  5
74
330
1F
100
AcDbDictionary
280
     1
  3
ACAD_INDEX
360
5441
  3
ACAD_LAYOUTSELFREF
360
5472
  0
DICTIONARY
  5
5477
330
101
100
AcDbDictionary
280
     1
  3
ACAD_LAYOUTSELFREF
360
5478
  0
DICTIONARY
  5
D
102
{ACAD_REACTORS
330
C
102
}
330
C
100
AcDbDictionary
  0
DICTIONARY
  5
1A
102
{ACAD_REACTORS
330
C
102
}
330
C
100
AcDbDictionary
  0
DICTIONARY
  5
17
102
{ACAD_REACTORS
330
C
102
}
330
C
100
AcDbDictionary
  3
STANDARD
350
18
  0
DICTIONARY
  5
19
102
{ACAD_REACTORS
330
C
102
}
330
C
100
AcDbDictionary
  0
ACDBDICTIONARYWDFLT
  5
E
102
{ACAD_REACTORS
330
C
102
}
330
C
100
AcDbDictionary
281
     1
  3
Normal
350
F
100
AcDbDictionaryWithDefault
340
F
  0
DICTIONARY
  5
34
102
{ACAD_REACTORS
330
C
102
}
330
C
100
AcDbDictionary
  3
INDEXCTL
350
35
  3
SORTENTS
350
B5E
  0
DICTIONARY
  5
43
102
{ACAD_REACTORS
330
C
102
}
330
C
100
AcDbDictionary
  3
ACMSTDDICTIONARY
350
260
  0
DICTIONARY
  5
2B
102
{ACAD_REACTORS
330
C
102
}
330
C
100
AcDbDictionary
  3
ACMGSETTINGS
350
2C
  0
DICTIONARY
  5
6E
102
{ACAD_REACTORS
330
C
102
}
330
C
100
AcDbDictionary
  0
XRECORD
  5
543F
102
{ACAD_REACTORS
330
C
102
}
330
C
100
AcDbXrecord
  1
DWGPROPS COOKIE
  2

  3

  4

  6

  7

  8

  9

300
AmdtFileType=82
301
=
302
=
303
=
304
=
305
=
306
=
307
=
308
=
309
=
 40
0.5806214236111112
 41
2452800.443498622
 42
2453002.905437349
  1

 90
        1
  0
DICTIONARY
  5
544F
102
{ACAD_REACTORS
330
C
102
}
330
C
100
AcDbDictionary
  3
TSTACKALIGN
350
5450
  3
TSTACKSIZE
350
5451
  3
HYPERLINKBASE
350
5452
  3
STYLESHEET
350
5453
  3
LAYOUTDICT
350
5454
  3
PLOTSETDICT
350
5455
  3
PLOTSTYLNAMDICT
350
5456
  3
LWETCUNION
350
5457
  3
INSUNITS
350
5458
  3
CEPSNTYPE
350
5459
  3
FINGERPRINTGUID
350
545A
  3
VERSIONGUID
350
545B
  3
PSVPSCALE
350
545C
  3
DIMSTYLEDATA
350
545D
  3
PUCSORTHOREF
350
545E
  3
PUCSORTHOVIEW
350
545F
  3
PUCSBASE
350
5460
  3
PUCSORGTOP
350
5461
  3
PUCSORGBOTTOM
350
5462
  3
PUCSORGLEFT
350
5463
  3
PUCSORGRIGHT
350
5464
  3
PUCSORGFRONT
350
5465
  3
PUCSORGBACK
350
5466
  3
UCSORTHOREF
350
5467
  3
UCSORTHOVIEW
350
5468
  3
UCSBASE
350
5469
  3
UCSORGTOP
350
546A
  3
UCSORGBOTTOM
350
546B
  3
UCSORGLEFT
350
546C
  3
UCSORGRIGHT
350
546D
  3
UCSORGFRONT
350
546E
  3
UCSORGBACK
350
546F
  0
DICTIONARY
  5
5441
102
{ACAD_REACTORS
330
74
102
}
330
74
100
AcDbDictionary
  3
*A1
350
5442
  0
XRECORD
  5
5472
102
{ACAD_REACTORS
330
74
102
}
330
74
100
AcDbXrecord
340
1F
  0
XRECORD
  5
5478
102
{ACAD_REACTORS
330
5477
102
}
330
5477
100
AcDbXrecord
340
101
  0
MLINESTYLE
  5
18
102
{ACAD_REACTORS
330
17
102
}
330
17
100
AcDbMlineStyle
  2
STANDARD
 70
     0
  3

 62
   256
 51
90.0
 52
90.0
 71
     2
 49
0.5
 62
   256
  6
BYLAYER
 49
-0.5
 62
   256
  6
BYLAYER
  0
ACDBPLACEHOLDER
  5
F
102
{ACAD_REACTORS
330
E
102
}
330
E
100
AcDbPlaceHolder
280
     0
  0
DICTIONARYVAR
  5
35
102
{ACAD_REACTORS
330
34
102
}
330
34
100
DictionaryVariables
280
     0
  1
1
  0
DICTIONARYVAR
  5
B5E
102
{ACAD_REACTORS
330
34
102
}
330
34
100
DictionaryVariables
280
     0
  1
96
  0
DICTIONARY
  5
260
102
{ACAD_REACTORS
330
43
102
}
330
43
100
AcDbDictionary
  0
DICTIONARY
  5
2C
102
{ACAD_REACTORS
330
2B
102
}
330
2B
100
AcDbDictionary
  3
DWGSETTINGS
350
2D
  0
XRECORD
  5
5450
102
{ACAD_REACTORS
330
544F
102
}
330
544F
100
AcDbXrecord
 90
        1
  0
XRECORD
  5
5451
102
{ACAD_REACTORS
330
544F
102
}
330
544F
100
AcDbXrecord
 90
       70
  0
XRECORD
  5
5452
102
{ACAD_REACTORS
330
544F
102
}
330
544F
100
AcDbXrecord
  1

  0
XRECORD
  5
5453
102
{ACAD_REACTORS
330
544F
102
}
330
544F
100
AcDbXrecord
  1
ASAMI.ctb
  0
XRECORD
  5
5454
102
{ACAD_REACTORS
330
544F
102
}
330
544F
100
AcDbXrecord
340
1A
  0
XRECORD
  5
5455
102
{ACAD_REACTORS
330
544F
102
}
330
544F
100
AcDbXrecord
340
19
  0
XRECORD
  5
5456
102
{ACAD_REACTORS
330
544F
102
}
330
544F
100
AcDbXrecord
340
E
  0
XRECORD
  5
5457
102
{ACAD_REACTORS
330
544F
102
}
330
544F
100
AcDbXrecord
 90
    10781
  0
XRECORD
  5
5458
102
{ACAD_REACTORS
330
544F
102
}
330
544F
100
AcDbXrecord
 90
        4
  0
XRECORD
  5
5459
102
{ACAD_REACTORS
330
544F
102
}
330
544F
100
AcDbXrecord
 90
        0
  0
XRECORD
  5
545A
102
{ACAD_REACTORS
330
544F
102
}
330
544F
100
AcDbXrecord
  1
{AFB28963-8C59-40AE-9337-C84526B81ACE}
  0
XRECORD
  5
545B
102
{ACAD_REACTORS
330
544F
102
}
330
544F
100
AcDbXrecord
  1
{267976F6-71AF-40E5-A503-24CC8E338B9E}
  0
XRECORD
  5
545C
102
{ACAD_REACTORS
330
544F
102
}
330
544F
100
AcDbXrecord
 40
0.0
  0
XRECORD
  5
545D
102
{ACAD_REACTORS
330
544F
102
}
330
544F
100
AcDbXrecord
1000
DSTYLE
1002
{
1070
    79
 70
     2
1070
   341
340
59
1070
   342
340
59
1070
   371
 70
    -1
1070
   372
 70
    -1
1002
}
  0
XRECORD
  5
545E
102
{ACAD_REACTORS
330
544F
102
}
330
544F
100
AcDbXrecord
340
0
  0
XRECORD
  5
545F
102
{ACAD_REACTORS
330
544F
102
}
330
544F
100
AcDbXrecord
 70
     0
  0
XRECORD
  5
5460
102
{ACAD_REACTORS
330
544F
102
}
330
544F
100
AcDbXrecord
340
0
  0
XRECORD
  5
5461
102
{ACAD_REACTORS
330
544F
102
}
330
544F
100
AcDbXrecord
 10
0.0
 20
0.0
 30
0.0
  0
XRECORD
  5
5462
102
{ACAD_REACTORS
330
544F
102
}
330
544F
100
AcDbXrecord
 10
0.0
 20
0.0
 30
0.0
  0
XRECORD
  5
5463
102
{ACAD_REACTORS
330
544F
102
}
330
544F
100
AcDbXrecord
 10
0.0
 20
0.0
 30
0.0
  0
XRECORD
  5
5464
102
{ACAD_REACTORS
330
544F
102
}
330
544F
100
AcDbXrecord
 10
0.0
 20
0.0
 30
0.0
  0
XRECORD
  5
5465
102
{ACAD_REACTORS
330
544F
102
}
330
544F
100
AcDbXrecord
 10
0.0
 20
0.0
 30
0.0
  0
XRECORD
  5
5466
102
{ACAD_REACTORS
330
544F
102
}
330
544F
100
AcDbXrecord
 10
0.0
 20
0.0
 30
0.0
  0
XRECORD
  5
5467
102
{ACAD_REACTORS
330
544F
102
}
330
544F
100
AcDbXrecord
340
0
  0
XRECORD
  5
5468
102
{ACAD_REACTORS
330
544F
102
}
330
544F
100
AcDbXrecord
 70
     0
  0
XRECORD
  5
5469
102
{ACAD_REACTORS
330
544F
102
}
330
544F
100
AcDbXrecord
340
0
  0
XRECORD
  5
546A
102
{ACAD_REACTORS
330
544F
102
}
330
544F
100
AcDbXrecord
 10
0.0
 20
0.0
 30
0.0
  0
XRECORD
  5
546B
102
{ACAD_REACTORS
330
544F
102
}
330
544F
100
AcDbXrecord
 10
0.0
 20
0.0
 30
0.0
  0
XRECORD
  5
546C
102
{ACAD_REACTORS
330
544F
102
}
330
544F
100
AcDbXrecord
 10
0.0
 20
0.0
 30
0.0
  0
XRECORD
  5
546D
102
{ACAD_REACTORS
330
544F
102
}
330
544F
100
AcDbXrecord
 10
0.0
 20
0.0
 30
0.0
  0
XRECORD
  5
546E
102
{ACAD_REACTORS
330
544F
102
}
330
544F
100
AcDbXrecord
 10
0.0
 20
0.0
 30
0.0
  0
XRECORD
  5
546F
102
{ACAD_REACTORS
330
544F
102
}
330
544F
100
AcDbXrecord
 10
0.0
 20
0.0
 30
0.0
  0
LAYER_INDEX
  5
5442
102
{ACAD_REACTORS
330
5441
102
}
330
5441
100
AcDbIndex
 40
2453151.699106793
100
AcDbLayerIndex
  8
0
360
5443
 90
        0
  8
AM_0
360
5444
 90
       16
  8
PV0001_1
360
5445
 90
       30
  8
AM_CL
360
5446
 90
        0
  8
AM_7
360
5447
 90
        1
  8
AM_11
360
5448
 90
        3
  8
AM_5
360
5449
 90
       10
  8
Defpoints
360
544A
 90
        0
  8
AM_6
360
544B
 90
        1
  8
AM_4
360
544C
 90
        0
  8
AM_3
360
544D
 90
        0
  0
XRECORD
  5
2D
102
{ACAD_REACTORS
330
2C
102
}
330
2C
100
AcDbXrecord
  1
VERSION
140
15.0
  1
PRODUCT
  2
AutoCAD Mechanical 2000
  0
IDBUFFER
  5
5443
330
0
100
AcDbIdBuffer
  0
IDBUFFER
  5
5444
330
0
100
AcDbIdBuffer
330
4BE9
330
4BEC
330
4ED1
330
4ED6
330
4EF5
330
4EF6
330
509F
330
50A0
330
50A9
330
50AB
330
52E1
330
52E3
330
52F8
330
53F9
330
53FB
330
53FC
  0
IDBUFFER
  5
5445
330
0
100
AcDbIdBuffer
330
52E0
330
52E4
330
52E5
330
52E7
330
52F9
330
5303
330
5305
330
53FA
330
53FD
330
53FE
330
53FF
330
5400
330
5401
330
5404
330
35CA
330
35EA
330
35EB
330
35F9
330
35FA
330
35FB
330
35FD
330
3601
330
3602
330
395A
330
452C
330
48BA
330
5276
330
5277
330
52DE
330
52DF
  0
IDBUFFER
  5
5446
330
0
100
AcDbIdBuffer
  0
IDBUFFER
  5
5447
330
0
100
AcDbIdBuffer
330
35D1
  0
IDBUFFER
  5
5448
330
0
100
AcDbIdBuffer
330
5302
330
5402
330
5403
  0
IDBUFFER
  5
5449
330
0
100
AcDbIdBuffer
330
36BA
330
3866
330
3C40
330
3D56
330
3DFD
330
52AA
330
52B7
330
52C4
330
52D1
330
52E9
  0
IDBUFFER
  5
544A
330
0
100
AcDbIdBuffer
  0
IDBUFFER
  5
544B
330
0
100
AcDbIdBuffer
330
19BD
  0
IDBUFFER
  5
544C
330
0
100
AcDbIdBuffer
  0
IDBUFFER
  5
544D
330
0
100
AcDbIdBuffer
  0
ENDSEC
  0
EOF
