  0
SECTION
  2
HEADER
  9
$ACADVER
  1
AC1014
  9
$ACADMAINTVER
 70
     9
  9
$DWGCODEPAGE
  3
ANSI_932
  9
$INSBASE
 10
0.0
 20
0.0
 30
0.0
  9
$EXTMIN
 10
-221.1231240566776
 20
-74.36240652469864
 30
-0.00000001
  9
$EXTMAX
 10
36.23104039027799
 20
46.28585580958612
 30
0.00000001
  9
$LIMMIN
 10
-248.3062404358741
 20
-108.0284873913964
  9
$LIMMAX
 10
73.09018920230278
 20
85.04515124795602
  9
$ORTHOMODE
 70
     0
  9
$REGENMODE
 70
     1
  9
$FILLMODE
 70
     1
  9
$QTEXTMODE
 70
     0
  9
$MIRRTEXT
 70
     0
  9
$DRAGMODE
 70
     2
  9
$LTSCALE
 40
1.0
  9
$OSMODE
 70
    55
  9
$ATTMODE
 70
     1
  9
$TEXTSIZE
 40
2.5
  9
$TRACEWID
 40
1.0
  9
$TEXTSTYLE
  7
STANDARD
  9
$CLAYER
  8
AM_0
  9
$CELTYPE
  6
BYLAYER
  9
$CECOLOR
 62
   256
  9
$CELTSCALE
 40
1.0
  9
$DELOBJ
 70
     1
  9
$DISPSILH
 70
     0
  9
$DIMSCALE
 40
1.0
  9
$DIMASZ
 40
2.5
  9
$DIMEXO
 40
1.0
  9
$DIMDLI
 40
12.0
  9
$DIMRND
 40
0.0
  9
$DIMDLE
 40
0.0
  9
$DIMEXE
 40
1.0
  9
$DIMTP
 40
0.1
  9
$DIMTM
 40
0.1
  9
$DIMTXT
 40
3.2
  9
$DIMCEN
 40
0.0
  9
$DIMTSZ
 40
0.0
  9
$DIMTOL
 70
     0
  9
$DIMLIM
 70
     0
  9
$DIMTIH
 70
     0
  9
$DIMTOH
 70
     0
  9
$DIMSE1
 70
     0
  9
$DIMSE2
 70
     0
  9
$DIMTAD
 70
     3
  9
$DIMZIN
 70
     8
  9
$DIMBLK
  1
OPEN30
  9
$DIMASO
 70
     1
  9
$DIMSHO
 70
     1
  9
$DIMPOST
  1

  9
$DIMAPOST
  1
"
  9
$DIMALT
 70
     0
  9
$DIMALTD
 70
     2
  9
$DIMALTF
 40
0.0393701
  9
$DIMLFAC
 40
1.0
  9
$DIMTOFL
 70
     1
  9
$DIMTVP
 40
0.0
  9
$DIMTIX
 70
     0
  9
$DIMSOXD
 70
     0
  9
$DIMSAH
 70
     0
  9
$DIMBLK1
  1

  9
$DIMBLK2
  1

  9
$DIMSTYLE
  2
AM_JIS
  9
$DIMCLRD
 70
   256
  9
$DIMCLRE
 70
   256
  9
$DIMCLRT
 70
     2
  9
$DIMTFAC
 40
0.71
  9
$DIMGAP
 40
1.5
  9
$DIMJUST
 70
     0
  9
$DIMSD1
 70
     0
  9
$DIMSD2
 70
     0
  9
$DIMTOLJ
 70
     0
  9
$DIMTZIN
 70
     0
  9
$DIMALTZ
 70
     0
  9
$DIMALTTZ
 70
     0
  9
$DIMFIT
 70
     3
  9
$DIMUPT
 70
     0
  9
$DIMUNIT
 70
     2
  9
$DIMDEC
 70
     3
  9
$DIMTDEC
 70
     3
  9
$DIMALTU
 70
     2
  9
$DIMALTTD
 70
     2
  9
$DIMTXSTY
  7
ASAMI
  9
$DIMAUNIT
 70
     0
  9
$LUNITS
 70
     2
  9
$LUPREC
 70
     2
  9
$SKETCHINC
 40
1.0
  9
$FILLETRAD
 40
2.5
  9
$AUNITS
 70
     0
  9
$AUPREC
 70
     0
  9
$MENU
  1
.
  9
$ELEVATION
 40
0.0
  9
$PELEVATION
 40
0.0
  9
$THICKNESS
 40
0.0
  9
$LIMCHECK
 70
     0
  9
$BLIPMODE
 70
     0
  9
$CHAMFERA
 40
2.5
  9
$CHAMFERB
 40
2.5
  9
$CHAMFERC
 40
20.0
  9
$CHAMFERD
 40
0.0
  9
$SKPOLY
 70
     0
  9
$TDCREATE
 40
2452800.443498622
  9
$TDUPDATE
 40
2453151.708017025
  9
$TDINDWG
 40
0.4580306019
  9
$TDUSRTIMER
 40
0.4580306019
  9
$USRTIMER
 70
     1
  9
$ANGBASE
 50
0.0
  9
$ANGDIR
 70
     0
  9
$PDMODE
 70
     0
  9
$PDSIZE
 40
0.0
  9
$PLINEWID
 40
0.0
  9
$COORDS
 70
     1
  9
$SPLFRAME
 70
     0
  9
$SPLINETYPE
 70
     6
  9
$SPLINESEGS
 70
     8
  9
$ATTDIA
 70
     1
  9
$ATTREQ
 70
     1
  9
$HANDLING
 70
 12289
  9
$HANDSEED
  5
5092
  9
$SURFTAB1
 70
     6
  9
$SURFTAB2
 70
     6
  9
$SURFTYPE
 70
     6
  9
$SURFU
 70
     6
  9
$SURFV
 70
     6
  9
$UCSNAME
  2

  9
$UCSORG
 10
-0.0000000000000213
 20
-0.0000000000007394
 30
0.0
  9
$UCSXDIR
 10
1.0
 20
0.0000000000000027
 30
0.0
  9
$UCSYDIR
 10
-0.0000000000000027
 20
1.0
 30
0.0
  9
$PUCSNAME
  2

  9
$PUCSORG
 10
0.0
 20
0.0
 30
0.0
  9
$PUCSXDIR
 10
1.0
 20
0.0
 30
0.0
  9
$PUCSYDIR
 10
0.0
 20
1.0
 30
0.0
  9
$USERI1
 70
     0
  9
$USERI2
 70
     0
  9
$USERI3
 70
     0
  9
$USERI4
 70
     0
  9
$USERI5
 70
     0
  9
$USERR1
 40
0.0
  9
$USERR2
 40
0.0
  9
$USERR3
 40
0.0
  9
$USERR4
 40
0.0
  9
$USERR5
 40
0.0
  9
$WORLDVIEW
 70
     1
  9
$SHADEDGE
 70
     3
  9
$SHADEDIF
 70
    70
  9
$TILEMODE
 70
     1
  9
$MAXACTVP
 70
    64
  9
$PINSBASE
 10
0.0
 20
0.0
 30
0.0
  9
$PLIMCHECK
 70
     0
  9
$PEXTMIN
 10
1.000000000000000E+20
 20
1.000000000000000E+20
 30
1.000000000000000E+20
  9
$PEXTMAX
 10
-1.000000000000000E+20
 20
-1.000000000000000E+20
 30
-1.000000000000000E+20
  9
$PLIMMIN
 10
0.0
 20
0.0
  9
$PLIMMAX
 10
841.0
 20
594.0
  9
$UNITMODE
 70
     0
  9
$VISRETAIN
 70
     1
  9
$PLINEGEN
 70
     0
  9
$PSLTSCALE
 70
     0
  9
$TREEDEPTH
 70
  3020
  9
$PICKSTYLE
 70
     0
  9
$CMLSTYLE
  2
STANDARD
  9
$CMLJUST
 70
     0
  9
$CMLSCALE
 40
20.0
  9
$PROXYGRAPHICS
 70
     1
  9
$MEASUREMENT
 70
     1
  0
ENDSEC
  0
SECTION
  2
CLASSES
  0
CLASS
  1
ACDBDICTIONARYWDFLT
  2
AcDbDictionaryWithDefault
  3
AutoCAD 2000
 90
        0
280
     0
281
     0
  0
CLASS
  1
ACDBPLACEHOLDER
  2
AcDbPlaceHolder
  3
AutoCAD 2000
 90
        0
280
     0
281
     0
  0
CLASS
  1
LAYOUT
  2
AcDbLayout
  3
AutoCAD 2000
 90
        0
280
     0
281
     0
  0
CLASS
  1
AMGSETTINGSOBJ
  2
AmgSettingsObj
  3
"AcadM|Product Description: AutoCAD Mechanical 2000|Company: Autodesk"
 90
        0
280
     0
281
     0
  0
CLASS
  1
ACME_DOCUMENT
  2
AcMeDbDoc
  3
AcMeServices
 90
        0
280
     0
281
     0
  0
CLASS
  1
ACMESCOPE
  2
AcMeScope
  3
AcMeServices
 90
        0
280
     0
281
     0
  0
CLASS
  1
ACMECOMMANDHISTORY
  2
AcMeCommandHistory
  3
AcMeServices
 90
        0
280
     0
281
     0
  0
CLASS
  1
DICTIONARYVAR
  2
AcDbDictionaryVar
  3
AutoCAD 2000
 90
        0
280
     0
281
     0
  0
CLASS
  1
ACIMSYSVARMAN
  2
AcImSysVarManager
  3
AcMeServices
 90
        0
280
     0
281
     0
  0
CLASS
  1
ACIMREALSYSVAR
  2
AcImRealSysVar
  3
AcMeServices
 90
        0
280
     0
281
     0
  0
CLASS
  1
ACIMINTSYSVAR
  2
AcImIntSysVar
  3
AcMeServices
 90
        0
280
     0
281
     0
  0
CLASS
  1
ACMEDRAWINGMAN
  2
AcMeDrawingMan
  3
AcMeServices
 90
        0
280
     0
281
     0
  0
CLASS
  1
ACMEVIEW
  2
AcMeView
  3
AcMeServices
 90
        0
280
     0
281
     0
  0
CLASS
  1
ACDBENTITYCACHE
  2
AcMeEntityCache
  3
AcMeServices
 90
        0
280
     0
281
     0
  0
CLASS
  1
GSMANAGER
  2
AcMeGSManager
  3
AcMeServices
 90
        0
280
     0
281
     0
  0
CLASS
  1
AmdtInternalReactor
  2
AmdtInternalReactor
  3
AcMeServices
 90
        0
280
     0
281
     0
  0
CLASS
  1
ACMESTATEMGR
  2
AcMeStateMgr
  3
AcMeServices
 90
        0
280
     0
281
     0
  0
CLASS
  1
ACME_DATABASE
  2
AcMeDbDatabase
  3
AcMeServices
 90
        0
280
     0
281
     0
  0
CLASS
  1
ACRFINSADJUSTERMGR
  2
AcRfInsAdjusterMgr
  3
AcMeServices
 90
        0
280
     0
281
     0
  0
CLASS
  1
ACMDATADICTIONARY
  2
AcmDataDictionary
  3
"AcmSymBB|Product Description: AutoCAD Mechanical 2000|Company: Autodesk"
 90
        0
280
     0
281
     0
  0
CLASS
  1
ACMDATAENTRYBLOCK
  2
AcmDataEntryBlock
  3
"AcmSymBB|Product Description: AutoCAD Mechanical 2000|Company: Autodesk"
 90
        0
280
     0
281
     0
  0
CLASS
  1
AMGOBJPROPCFG
  2
AmgObjPropCfg
  3
"AmgLay|Product Description: AutoCAD Mechanical 2000|Company: Autodesk"
 90
        1
280
     0
281
     0
  0
CLASS
  1
ACAMGFILTERDAT
  2
AcAmgFilterDat
  3
"AcadM|Product Description: AutoCAD Mechanical 2000|Company: Autodesk"
 90
        0
280
     0
281
     0
  0
CLASS
  1
LAYER_INDEX
  2
AcDbLayerIndex
  3
AutoCAD 2000
 90
        0
280
     0
281
     0
  0
CLASS
  1
IDBUFFER
  2
AcDbIdBuffer
  3
AutoCAD 2000
 90
        0
280
     0
281
     0
  0
CLASS
  1
ACIMSTRSYSVAR
  2
AcImStrSysVar
  3
AcMeServices
 90
        0
280
     0
281
     0
  0
CLASS
  1
ACMSTANDARDJIS
  2
AcmStandardJIS
  3
"AcmSymBB|Product Description: AutoCAD Mechanical 2000|Company: Autodesk"
 90
        0
280
     0
281
     0
  0
CLASS
  1
ACMSURFSTANDARDJIS
  2
AcmSurfTextStdJIS
  3
"AcmSymBB|Product Description: AutoCAD Mechanical 2000|Company: Autodesk"
 90
        0
280
     0
281
     0
  0
CLASS
  1
ACMFCFSTANDARDJIS
  2
AcmFCFStdJIS
  3
"AcmSymBB|Product Description: AutoCAD Mechanical 2000|Company: Autodesk"
 90
        0
280
     0
281
     0
  0
CLASS
  1
ACMWELDSTANDARDJIS
  2
AcmWeldingStdJIS
  3
"AcmSymBB|Product Description: AutoCAD Mechanical 2000|Company: Autodesk"
 90
        0
280
     0
281
     0
  0
CLASS
  1
ACMIDSTANDARDJIS
  2
AcmIdStdJIS
  3
"AcmSymBB|Product Description: AutoCAD Mechanical 2000|Company: Autodesk"
 90
        0
280
     0
281
     0
  0
CLASS
  1
ACMDATUMSTANDARDJIS
  2
AcmDatumStdJIS
  3
"AcmSymBB|Product Description: AutoCAD Mechanical 2000|Company: Autodesk"
 90
        0
280
     0
281
     0
  0
CLASS
  1
ACMBOMSTANDARDJIS
  2
AcmBOMStdJIS
  3
"AcmSymBB|Product Description: AutoCAD Mechanical 2000|Company: Autodesk"
 90
        0
280
     0
281
     0
  0
CLASS
  1
ACMSTANDARDANSI
  2
AcmStandardANSI
  3
"AcmSymBB|Product Description: AutoCAD Mechanical 2000|Company: Autodesk"
 90
        0
280
     0
281
     0
  0
CLASS
  1
ACMSURFSTANDARDANSI
  2
AcmSurfTextStdANSI
  3
"AcmSymBB|Product Description: AutoCAD Mechanical 2000|Company: Autodesk"
 90
        0
280
     0
281
     0
  0
CLASS
  1
ACMFCFSTANDARDANSI
  2
AcmFCFStdANSI
  3
"AcmSymBB|Product Description: AutoCAD Mechanical 2000|Company: Autodesk"
 90
        0
280
     0
281
     0
  0
CLASS
  1
ACMWELDSTANDARDANSI
  2
AcmWeldingStdANSI
  3
"AcmSymBB|Product Description: AutoCAD Mechanical 2000|Company: Autodesk"
 90
        0
280
     0
281
     0
  0
CLASS
  1
ACMIDSTANDARDANSI
  2
AcmIdStdANSI
  3
"AcmSymBB|Product Description: AutoCAD Mechanical 2000|Company: Autodesk"
 90
        0
280
     0
281
     0
  0
CLASS
  1
ACMDATUMSTANDARDANSI
  2
AcmDatumStdANSI
  3
"AcmSymBB|Product Description: AutoCAD Mechanical 2000|Company: Autodesk"
 90
        0
280
     0
281
     0
  0
CLASS
  1
ACMBOMSTANDARDANSI
  2
AcmBOMStdANSI
  3
"AcmSymBB|Product Description: AutoCAD Mechanical 2000|Company: Autodesk"
 90
        0
280
     0
281
     0
  0
CLASS
  1
ACMSTANDARDBSI
  2
AcmStandardBSI
  3
"AcmSymBB|Product Description: AutoCAD Mechanical 2000|Company: Autodesk"
 90
        0
280
     0
281
     0
  0
CLASS
  1
ACMSURFSTANDARDBSI
  2
AcmSurfTextStdBSI
  3
"AcmSymBB|Product Description: AutoCAD Mechanical 2000|Company: Autodesk"
 90
        0
280
     0
281
     0
  0
CLASS
  1
ACMFCFSTANDARDBSI
  2
AcmFCFStdBSI
  3
"AcmSymBB|Product Description: AutoCAD Mechanical 2000|Company: Autodesk"
 90
        0
280
     0
281
     0
  0
CLASS
  1
ACMWELDSTANDARDBSI
  2
AcmWeldingStdBSI
  3
"AcmSymBB|Product Description: AutoCAD Mechanical 2000|Company: Autodesk"
 90
        0
280
     0
281
     0
  0
CLASS
  1
ACMIDSTANDARDBSI
  2
AcmIdStdBSI
  3
"AcmSymBB|Product Description: AutoCAD Mechanical 2000|Company: Autodesk"
 90
        0
280
     0
281
     0
  0
CLASS
  1
ACMDATUMSTANDARDBSI
  2
AcmDatumStdBSI
  3
"AcmSymBB|Product Description: AutoCAD Mechanical 2000|Company: Autodesk"
 90
        0
280
     0
281
     0
  0
CLASS
  1
ACMBOMSTANDARDBSI
  2
AcmBOMStdBSI
  3
"AcmSymBB|Product Description: AutoCAD Mechanical 2000|Company: Autodesk"
 90
        0
280
     0
281
     0
  0
CLASS
  1
LONG_TRANSACTION
  2
AcDbLongTransaction
  3
AutoCAD 2000
 90
        0
280
     0
281
     0
  0
CLASS
  1
LWPOLYLINE
  2
AcDbPolyline
  3
AutoCAD 2000
 90
        0
280
     0
281
     1
  0
CLASS
  1
HATCH
  2
AcDbHatch
  3
AutoCAD 2000
 90
        0
280
     0
281
     1
  0
CLASS
  1
XRECORD
  2
AcDbXrecord
  3
AutoCAD 2000
 90
        0
280
     0
281
     0
  0
ENDSEC
  0
SECTION
  2
TABLES
  0
TABLE
  2
VPORT
  5
8
330
0
100
AcDbSymbolTable
 70
     3
  0
VPORT
  5
5067
330
8
100
AcDbSymbolTableRecord
100
AcDbViewportTableRecord
  2
*ACTIVE
 70
     0
 10
0.0
 20
0.0
 11
1.0
 21
1.0
 12
-82.84637183594041
 22
-9.510860380822606
 13
0.0
 23
0.0
 14
2.5
 24
2.5
 15
10.0
 25
10.0
 16
0.0
 26
0.0
 36
1.0
 17
0.0
 27
0.0
 37
0.0
 40
199.903847022233
 41
1.56570841889117
 42
50.0
 43
0.0
 44
0.0
 50
0.0
 51
0.0
 71
     0
 72
   100
 73
     1
 74
     1
 75
     0
 76
     0
 77
     0
 78
     0
  0
ENDTAB
  0
TABLE
  2
LTYPE
  5
5
330
0
100
AcDbSymbolTable
 70
    10
  0
LTYPE
  5
14
330
5
100
AcDbSymbolTableRecord
100
AcDbLinetypeTableRecord
  2
BYBLOCK
 70
     0
  3

 72
    65
 73
     0
 40
0.0
  0
LTYPE
  5
15
330
5
100
AcDbSymbolTableRecord
100
AcDbLinetypeTableRecord
  2
BYLAYER
 70
     0
  3

 72
    65
 73
     0
 40
0.0
  0
LTYPE
  5
16
330
5
100
AcDbSymbolTableRecord
100
AcDbLinetypeTableRecord
  2
CONTINUOUS
 70
     0
  3
Solid line
 72
    65
 73
     0
 40
0.0
  0
LTYPE
  5
4B
330
5
100
AcDbSymbolTableRecord
100
AcDbLinetypeTableRecord
  2
AM_ISO02W050
 70
     0
  3
__ __ __ __ __ __ __ __ __ __ __ __ __ __ __
 72
    65
 73
     2
 40
7.5
 49
6.0
 74
     0
 49
-1.5
 74
     0
  0
LTYPE
  5
4C
330
5
100
AcDbSymbolTableRecord
100
AcDbLinetypeTableRecord
  2
AM_ISO08W050
 70
     0
  3
____ . ____ . ____ . ____ . ____ . ____ . ____
 72
    65
 73
     4
 40
18.0
 49
12.0
 74
     0
 49
-1.5
 74
     0
 49
3.0
 74
     0
 49
-1.5
 74
     0
  0
LTYPE
  5
4D
330
5
100
AcDbSymbolTableRecord
100
AcDbLinetypeTableRecord
  2
AM_ISO09W050
 70
     0
  3
_____ . . _____ . . _____ . . ____ .. ____
 72
    65
 73
     6
 40
22.5
 49
12.0
 74
     0
 49
-1.5
 74
     0
 49
3.0
 74
     0
 49
-1.5
 74
     0
 49
3.0
 74
     0
 49
-1.5
 74
     0
  0
LTYPE
  5
4E
330
5
100
AcDbSymbolTableRecord
100
AcDbLinetypeTableRecord
  2
AMCONSTR
 70
     0
  3
_______________________
 72
    65
 73
     2
 40
9999.0
 49
9999.0
 74
     0
 49
0.0
 74
     0
  0
LTYPE
  5
4F
330
5
100
AcDbSymbolTableRecord
100
AcDbLinetypeTableRecord
  2
AM_ISO02W050X2
 70
     0
  3
 _ _ _ _ _ _ _ _ _ _ _ _
 72
    65
 73
     2
 40
3.75
 49
3.0
 74
     0
 49
-0.75
 74
     0
  0
LTYPE
  5
50
330
5
100
AcDbSymbolTableRecord
100
AcDbLinetypeTableRecord
  2
AM_ISO08W050X2
 70
     0
  3
__ . __ . __ . __ . __ . __
 72
    65
 73
     4
 40
9.0
 49
6.0
 74
     0
 49
-0.75
 74
     0
 49
1.5
 74
     0
 49
-0.75
 74
     0
  0
LTYPE
  5
53
330
5
100
AcDbSymbolTableRecord
100
AcDbLinetypeTableRecord
  2
AMZIGZAG
 70
     0
  3
/\/-/\/-/\/-/\/-/\/-/\/
 72
    65
 73
     2
 40
11.00009999999999
 49
0.0001
 74
     4
 75
   135
340
52
 46
0.04
 50
0.0
 44
0.0
 45
0.0
 49
-11.0
 74
     0
  0
LTYPE
  5
166
330
5
100
AcDbSymbolTableRecord
100
AcDbLinetypeTableRecord
  2
ACJISTGL
 70
     0
  3
_ _ _ _ _
 72
    65
 73
     2
 40
3.0
 49
2.0
 74
     0
 49
-1.0
 74
     0
  0
LTYPE
  5
26A
330
5
100
AcDbSymbolTableRecord
100
AcDbLinetypeTableRecord
  2
ACJISTGB
 70
     0
  3
__ . . __ . .
 72
    65
 73
     6
 40
9.0
 49
4.0
 74
     0
 49
-1.0
 74
     0
 49
1.0
 74
     0
 49
-1.0
 74
     0
 49
1.0
 74
     0
 49
-1.0
 74
     0
  0
ENDTAB
  0
TABLE
  2
LAYER
  5
2
330
0
100
AcDbSymbolTable
 70
    11
  0
LAYER
  5
10
330
2
100
AcDbSymbolTableRecord
100
AcDbLayerTableRecord
  2
0
 70
     0
 62
     7
  6
CONTINUOUS
  0
LAYER
  5
3F9
330
2
100
AcDbSymbolTableRecord
100
AcDbLayerTableRecord
  2
AM_0
 70
     0
 62
     7
  6
CONTINUOUS
  0
LAYER
  5
BA4
330
2
100
AcDbSymbolTableRecord
100
AcDbLayerTableRecord
  2
PV0001_1
 70
     0
 62
     7
  6
CONTINUOUS
  0
LAYER
  5
C6C
330
2
100
AcDbSymbolTableRecord
100
AcDbLayerTableRecord
  2
AM_CL
 70
     0
 62
     1
  6
AMCONSTR
  0
LAYER
  5
C7C
330
2
100
AcDbSymbolTableRecord
100
AcDbLayerTableRecord
  2
AM_7
 70
     0
 62
     4
  6
AM_ISO08W050
  0
LAYER
  5
C97
330
2
100
AcDbSymbolTableRecord
100
AcDbLayerTableRecord
  2
AM_11
 70
     0
 62
     3
  6
AM_ISO09W050
  0
LAYER
  5
CC5
330
2
100
AcDbSymbolTableRecord
100
AcDbLayerTableRecord
  2
AM_5
 70
     0
 62
     3
  6
CONTINUOUS
  0
LAYER
  5
CC7
330
2
100
AcDbSymbolTableRecord
100
AcDbLayerTableRecord
  2
DEFPOINTS
 70
     0
 62
     7
  6
CONTINUOUS
  0
LAYER
  5
19BC
330
2
100
AcDbSymbolTableRecord
100
AcDbLayerTableRecord
  2
AM_6
 70
     0
 62
     2
  6
CONTINUOUS
  0
LAYER
  5
1F8E
330
2
100
AcDbSymbolTableRecord
100
AcDbLayerTableRecord
  2
AM_4
 70
     0
 62
     3
  6
CONTINUOUS
  0
LAYER
  5
3588
330
2
100
AcDbSymbolTableRecord
100
AcDbLayerTableRecord
  2
AM_3
 70
     0
 62
     6
  6
ACJISTGL
  0
ENDTAB
  0
TABLE
  2
STYLE
  5
3
330
0
100
AcDbSymbolTable
 70
     5
  0
STYLE
  5
11
330
3
100
AcDbSymbolTableRecord
100
AcDbTextStyleTableRecord
  2
STANDARD
 70
     0
 40
0.0
 41
1.0
 50
0.0
 71
     0
 42
2.5
  3
simplex.shx
  4
EXTFONT.SHX
  0
STYLE
  5
52
330
3
100
AcDbSymbolTableRecord
100
AcDbTextStyleTableRecord
  2

 70
     1
 40
0.0
 41
1.0
 50
0.0
 71
     0
 42
2.5
  3
ltypeshp.shx
  4

  0
STYLE
  5
6B
330
3
100
AcDbSymbolTableRecord
100
AcDbTextStyleTableRecord
  2
ASAMI
 70
     0
 40
0.0
 41
1.0
 50
0.0
 71
     0
 42
2.5
  3
simplex.shx
  4
EXTFONT.SHX
  0
STYLE
  5
262
330
3
100
AcDbSymbolTableRecord
100
AcDbTextStyleTableRecord
  2
ACJISTS
 70
     0
 40
1.0
 41
1.0
 50
0.0
 71
     0
 42
2.5
  3
simplex.shx
  4
bigfont.shx
  0
STYLE
  5
269
330
3
100
AcDbSymbolTableRecord
100
AcDbTextStyleTableRecord
  2
ACJISGDT
 70
     0
 40
0.0
 41
1.0
 50
0.0
 71
     0
 42
2.5
  3
amgdtans.shx
  4

  0
ENDTAB
  0
TABLE
  2
VIEW
  5
6
330
0
100
AcDbSymbolTable
 70
     0
  0
ENDTAB
  0
TABLE
  2
UCS
  5
7
330
0
100
AcDbSymbolTable
 70
     0
  0
ENDTAB
  0
TABLE
  2
APPID
  5
9
330
0
100
AcDbSymbolTable
 70
    14
  0
APPID
  5
12
330
9
100
AcDbSymbolTableRecord
100
AcDbRegAppTableRecord
  2
ACAD
 70
     0
  0
APPID
  5
30
330
9
100
AcDbSymbolTableRecord
100
AcDbRegAppTableRecord
  2
MCAD_NO_VIS
 70
     0
  0
APPID
  5
31
330
9
100
AcDbSymbolTableRecord
100
AcDbRegAppTableRecord
  2
ACAD_TEMP_GRAPHIC
 70
     0
  0
APPID
  5
2C2
330
9
100
AcDbSymbolTableRecord
100
AcDbRegAppTableRecord
  2
GENIUS_GENDTOL_13
 70
     0
  0
APPID
  5
339
330
9
100
AcDbSymbolTableRecord
100
AcDbRegAppTableRecord
  2
GENIUS_GENODEF_13
 70
     0
  0
APPID
  5
33A
330
9
100
AcDbSymbolTableRecord
100
AcDbRegAppTableRecord
  2
GENIUS_GENOBJ-N-RSBK_13
 70
     0
  0
APPID
  5
33B
330
9
100
AcDbSymbolTableRecord
100
AcDbRegAppTableRecord
  2
GENIUS_GENOBJ-N-LIB_13
 70
     0
  0
APPID
  5
33C
330
9
100
AcDbSymbolTableRecord
100
AcDbRegAppTableRecord
  2
GENIUS_GENSCALE_13
 70
     0
  0
APPID
  5
378
330
9
100
AcDbSymbolTableRecord
100
AcDbRegAppTableRecord
  2
GENIUS_GENDIMSH_14
 70
     0
  0
APPID
  5
C82
330
9
100
AcDbSymbolTableRecord
100
AcDbRegAppTableRecord
  2
GENIUS_GENOBJ-N-CRS_13
 70
     0
  0
APPID
  5
C83
330
9
100
AcDbSymbolTableRecord
100
AcDbRegAppTableRecord
  2
GENIUS_GENOENT_13
 70
     0
  0
APPID
  5
C84
330
9
100
AcDbSymbolTableRecord
100
AcDbRegAppTableRecord
  2
GENIUS_GENOREF_13
 70
     0
  0
APPID
  5
C85
330
9
100
AcDbSymbolTableRecord
100
AcDbRegAppTableRecord
  2
GENIUS_GENOLIS_13
 70
     0
  0
APPID
  5
CA0
330
9
100
AcDbSymbolTableRecord
100
AcDbRegAppTableRecord
  2
GENIUS_GENOBJ-N-CEN_13
 70
     0
  0
ENDTAB
  0
TABLE
  2
DIMSTYLE
  5
A
330
0
100
AcDbSymbolTable
 70
    10
  0
DIMSTYLE
105
58
330
A
100
AcDbSymbolTableRecord
100
AcDbDimStyleTableRecord
  2
AM_JIS
 70
     0
  3

  4
"
  5
OPEN30
  6

  7

 40
1.0
 41
2.5
 42
1.0
 43
12.0
 44
1.0
 45
0.0
 46
0.0
 47
0.1
 48
0.1
140
3.2
141
0.0
142
0.0
143
0.0393701
144
1.0
145
0.0
146
0.71
147
1.5
 71
     0
 72
     0
 73
     0
 74
     0
 75
     0
 76
     0
 77
     3
 78
     8
170
     0
171
     2
172
     1
173
     0
174
     0
175
     0
176
   256
177
   256
178
     2
270
     2
271
     3
272
     3
273
     2
274
     2
340
6B
275
     0
280
     0
281
     0
282
     0
283
     0
284
     0
285
     0
286
     0
287
     3
288
     0
  0
DIMSTYLE
105
5F
330
A
100
AcDbSymbolTableRecord
100
AcDbDimStyleTableRecord
  2
AM_JIS$3
 70
     0
  3

  4
"
  5
OPEN30
  6

  7

 40
1.0
 41
2.5
 42
1.0
 43
10.0
 44
1.0
 45
0.0
 46
0.0
 47
0.1
 48
0.1
140
3.2
141
0.0
142
0.0
143
0.0393701
144
1.0
145
0.0
146
0.71
147
1.5
 71
     0
 72
     0
 73
     0
 74
     1
 75
     0
 76
     0
 77
     3
 78
     8
170
     0
171
     2
172
     0
173
     0
174
     0
175
     0
176
   256
177
   256
178
     2
270
     2
271
     2
272
     3
273
     2
274
     2
340
6B
275
     0
280
     0
281
     0
282
     0
283
     0
284
     0
285
     0
286
     0
287
     0
288
     1
  0
DIMSTYLE
105
60
330
A
100
AcDbSymbolTableRecord
100
AcDbDimStyleTableRecord
  2
AM_JIS$4
 70
     0
  3

  4
"
  5
OPEN30
  6

  7

 40
1.0
 41
2.5
 42
1.0
 43
10.0
 44
1.0
 45
0.0
 46
0.0
 47
0.1
 48
0.1
140
3.2
141
0.0
142
0.0
143
0.0393701
144
1.0
145
0.0
146
0.71
147
1.5
 71
     0
 72
     0
 73
     0
 74
     1
 75
     0
 76
     0
 77
     3
 78
     8
170
     0
171
     2
172
     0
173
     0
174
     0
175
     0
176
   256
177
   256
178
     2
270
     2
271
     2
272
     3
273
     2
274
     2
340
6B
275
     0
280
     0
281
     0
282
     0
283
     0
284
     0
285
     0
286
     0
287
     0
288
     1
  0
DIMSTYLE
105
61
330
A
100
AcDbSymbolTableRecord
100
AcDbDimStyleTableRecord
  2
AM_JIS$6
 70
     0
  3

  4
"
  5
OPEN30
  6

  7

 40
1.0
 41
2.5
 42
1.0
 43
10.0
 44
1.0
 45
0.0
 46
0.0
 47
0.1
 48
0.1
140
3.2
141
0.0
142
0.0
143
0.0393701
144
1.0
145
0.0
146
0.71
147
1.5
 71
     0
 72
     0
 73
     0
 74
     0
 75
     0
 76
     0
 77
     0
 78
     8
170
     0
171
     2
172
     1
173
     0
174
     0
175
     0
176
   256
177
   256
178
     2
270
     2
271
     2
272
     2
273
     2
274
     2
340
6B
275
     0
280
     0
281
     0
282
     0
283
     0
284
     0
285
     0
286
     0
287
     3
288
     0
  0
DIMSTYLE
105
62
330
A
100
AcDbSymbolTableRecord
100
AcDbDimStyleTableRecord
  2
AM_JIS$7
 70
     0
  3

  4
"
  5
OPEN30
  6

  7

 40
1.0
 41
2.5
 42
1.0
 43
10.0
 44
1.0
 45
0.0
 46
0.0
 47
0.1
 48
0.1
140
3.2
141
0.0
142
0.0
143
0.0393701
144
1.0
145
0.0
146
0.71
147
1.5
 71
     0
 72
     0
 73
     0
 74
     0
 75
     0
 76
     0
 77
     3
 78
     8
170
     0
171
     2
172
     1
173
     0
174
     0
175
     0
176
   256
177
   256
178
     2
270
     2
271
     2
272
     3
273
     2
274
     2
340
6B
275
     0
280
     0
281
     0
282
     0
283
     0
284
     0
285
     0
286
     0
287
     3
288
     0
  0
DIMSTYLE
105
63
330
A
100
AcDbSymbolTableRecord
100
AcDbDimStyleTableRecord
  2
AM_JIS$SF
 70
     0
  3

  4
"
  5
OPEN30
  6

  7

 40
1.0
 41
2.5
 42
1.0
 43
10.0
 44
1.0
 45
0.0
 46
0.0
 47
0.1
 48
0.1
140
3.2
141
0.0
142
0.0
143
0.0393701
144
1.0
145
0.0
146
0.71
147
1.5
 71
     0
 72
     0
 73
     0
 74
     0
 75
     1
 76
     1
 77
     3
 78
     8
170
     0
171
     2
172
     1
173
     0
174
     0
175
     0
176
   256
177
   256
178
     2
270
     2
271
     2
272
     2
273
     2
274
     2
340
6B
275
     0
280
     0
281
     0
282
     0
283
     0
284
     0
285
     0
286
     0
287
     3
288
     0
  0
DIMSTYLE
105
68
330
A
100
AcDbSymbolTableRecord
100
AcDbDimStyleTableRecord
  2
AM_JIS$SH
 70
     0
  3

  4
"
  5

  6
GENAXEH
  7
OPEN30
 40
1.0
 41
2.5
 42
1.0
 43
10.0
 44
1.0
 45
0.0
 46
0.0
 47
0.1
 48
0.1
140
3.2
141
0.0
142
0.0
143
0.0393701
144
2.0
145
0.0
146
0.71
147
1.5
 71
     0
 72
     0
 73
     0
 74
     0
 75
     1
 76
     1
 77
     3
 78
     8
170
     0
171
     2
172
     1
173
     1
174
     0
175
     0
176
   256
177
   256
178
     2
270
     2
271
     2
272
     2
273
     2
274
     2
340
6B
275
     0
280
     0
281
     0
282
     0
283
     0
284
     0
285
     0
286
     0
287
     3
288
     0
  0
DIMSTYLE
105
B34
102
{ACAD_REACTORS
330
36BA
102
}
330
A
100
AcDbSymbolTableRecord
100
AcDbDimStyleTableRecord
  2
AM_JIS$2
 70
     0
  3

  4
"
  5
OPEN30
  6

  7

 40
1.0
 41
2.5
 42
1.0
 43
12.0
 44
1.0
 45
0.0
 46
0.0
 47
0.1
 48
0.1
140
3.2
141
0.0
142
0.0
143
0.0393701
144
1.0
145
0.0
146
0.71
147
1.5
 71
     0
 72
     0
 73
     0
 74
     0
 75
     0
 76
     0
 77
     3
 78
     8
170
     0
171
     2
172
     1
173
     0
174
     0
175
     0
176
   256
177
   256
178
     2
270
     2
271
     3
272
     3
273
     2
274
     2
340
6B
275
     0
280
     0
281
     0
282
     0
283
     0
284
     0
285
     0
286
     0
287
     3
288
     0
  0
DIMSTYLE
105
BA5
102
{ACAD_REACTORS
330
3B0D
330
471A
330
4A58
330
4A59
330
4A5A
330
4A5B
330
4A5C
330
4A5D
330
4F59
102
}
330
A
100
AcDbSymbolTableRecord
100
AcDbDimStyleTableRecord
  2
AM_JIS$0
 70
     0
  3

  4
"
  5
OPEN30
  6

  7

 40
1.0
 41
2.5
 42
0.8
 43
10.0
 44
1.0
 45
0.0
 46
0.0
 47
0.1
 48
0.1000000001
140
3.799999999999999
141
0.0
142
0.0
143
0.0393701
144
1.0
145
0.0
146
0.71
147
1.5
 71
     0
 72
     0
 73
     0
 74
     0
 75
     0
 76
     0
 77
     3
 78
     9
170
     0
171
     2
172
     1
173
     0
174
     0
175
     0
176
     3
177
     3
178
     2
270
     2
271
     2
272
     2
273
     2
274
     2
340
11
275
     1
280
     0
281
     0
282
     0
283
     0
284
     8
285
     0
286
     0
287
     0
288
     0
  0
DIMSTYLE
105
BA6
330
A
100
AcDbSymbolTableRecord
100
AcDbDimStyleTableRecord
  2
AM_JISORG-1P0$2
 70
     0
  3

  4
"
  5
OPEN30
  6

  7

 40
1.0
 41
2.5
 42
0.0
 43
10.0
 44
1.0
 45
0.0
 46
0.0
 47
0.1
 48
0.1000000001
140
3.799999999999999
141
0.0
142
0.0
143
0.0393701
144
-0.999999980146674
145
0.0
146
0.71
147
1.5
 71
     0
 72
     0
 73
     0
 74
     0
 75
     0
 76
     0
 77
     3
 78
     1
170
     0
171
     2
172
     1
173
     0
174
     0
175
     0
176
     3
177
     3
178
     2
270
     2
271
     2
272
     2
273
     2
274
     2
340
11
275
     1
280
     0
281
     0
282
     0
283
     0
284
     8
285
     0
286
     0
287
     0
288
     0
  0
ENDTAB
  0
TABLE
  2
BLOCK_RECORD
  5
1
330
0
100
AcDbSymbolTable
 70
    19
  0
BLOCK_RECORD
  5
1F
102
{ACAD_XDICTIONARY
360
74
102
}
330
1
100
AcDbSymbolTableRecord
100
AcDbBlockTableRecord
  2
*MODEL_SPACE
  0
BLOCK_RECORD
  5
101
102
{ACAD_XDICTIONARY
360
5090
102
}
330
1
100
AcDbSymbolTableRecord
100
AcDbBlockTableRecord
  2
*PAPER_SPACE
  0
BLOCK_RECORD
  5
59
330
1
100
AcDbSymbolTableRecord
100
AcDbBlockTableRecord
  2
_OPEN30
  0
BLOCK_RECORD
  5
64
330
1
100
AcDbSymbolTableRecord
100
AcDbBlockTableRecord
  2
GENAXEH
  0
BLOCK_RECORD
  5
C31
330
1
100
AcDbSymbolTableRecord
100
AcDbBlockTableRecord
  2
A$C36D02A34
  0
BLOCK_RECORD
  5
2453
330
1
100
AcDbSymbolTableRecord
100
AcDbBlockTableRecord
  2
*D6
  0
BLOCK_RECORD
  5
245F
330
1
100
AcDbSymbolTableRecord
100
AcDbBlockTableRecord
  2
A$C4FFC6CC0
  0
BLOCK_RECORD
  5
36BB
330
1
100
AcDbSymbolTableRecord
100
AcDbBlockTableRecord
  2
*D8
  0
BLOCK_RECORD
  5
3B0E
330
1
100
AcDbSymbolTableRecord
100
AcDbBlockTableRecord
  2
*D9
  0
BLOCK_RECORD
  5
471B
330
1
100
AcDbSymbolTableRecord
100
AcDbBlockTableRecord
  2
*D10
  0
BLOCK_RECORD
  5
4A5E
330
1
100
AcDbSymbolTableRecord
100
AcDbBlockTableRecord
  2
*D11
  0
BLOCK_RECORD
  5
4A6A
330
1
100
AcDbSymbolTableRecord
100
AcDbBlockTableRecord
  2
*D12
  0
BLOCK_RECORD
  5
4A78
330
1
100
AcDbSymbolTableRecord
100
AcDbBlockTableRecord
  2
*D13
  0
BLOCK_RECORD
  5
4A84
330
1
100
AcDbSymbolTableRecord
100
AcDbBlockTableRecord
  2
*D14
  0
BLOCK_RECORD
  5
4A90
330
1
100
AcDbSymbolTableRecord
100
AcDbBlockTableRecord
  2
*D15
  0
BLOCK_RECORD
  5
4A9C
330
1
100
AcDbSymbolTableRecord
100
AcDbBlockTableRecord
  2
*D16
  0
BLOCK_RECORD
  5
4F5A
330
1
100
AcDbSymbolTableRecord
100
AcDbBlockTableRecord
  2
*D17
  0
ENDTAB
  0
ENDSEC
  0
SECTION
  2
BLOCKS
  0
BLOCK
  5
20
330
1F
100
AcDbEntity
  8
0
100
AcDbBlockBegin
  2
*MODEL_SPACE
 70
     0
 10
0.0
 20
0.0
 30
0.0
  3
*MODEL_SPACE
  1

  0
ENDBLK
  5
21
330
1F
100
AcDbEntity
  8
0
100
AcDbBlockEnd
  0
BLOCK
  5
103
330
101
100
AcDbEntity
 67
     1
  8
0
100
AcDbBlockBegin
  2
*PAPER_SPACE
 70
     0
 10
0.0
 20
0.0
 30
0.0
  3
*PAPER_SPACE
  1

  0
ENDBLK
  5
104
330
101
100
AcDbEntity
 67
     1
  8
0
100
AcDbBlockEnd
  0
BLOCK
  5
5D
330
59
100
AcDbEntity
  8
0
100
AcDbBlockBegin
  2
_OPEN30
 70
     0
 10
0.0
 20
0.0
 30
0.0
  3
_OPEN30
  1

  0
LINE
  5
5A
330
59
100
AcDbEntity
  8
0
 62
     0
100
AcDbLine
 10
-1.0
 20
0.26794919
 30
0.0
 11
0.0
 21
0.0
 31
0.0
  0
LINE
  5
5B
330
59
100
AcDbEntity
  8
0
 62
     0
100
AcDbLine
 10
0.0
 20
0.0
 30
0.0
 11
-1.0
 21
-0.26794919
 31
0.0
  0
LINE
  5
5C
330
59
100
AcDbEntity
  8
0
 62
     0
100
AcDbLine
 10
0.0
 20
0.0
 30
0.0
 11
-1.0
 21
0.0
 31
0.0
  0
ENDBLK
  5
5E
330
59
100
AcDbEntity
  8
0
100
AcDbBlockEnd
  0
BLOCK
  5
66
330
64
100
AcDbEntity
  8
0
100
AcDbBlockBegin
  2
GENAXEH
 70
     0
 10
0.0
 20
0.0
 30
0.0
  3
GENAXEH
  1

  0
LINE
  5
65
330
64
100
AcDbEntity
  8
0
100
AcDbLine
 10
-1.0
 20
0.0
 30
0.0
 11
1.0
 21
0.0
 31
0.0
  0
ENDBLK
  5
67
330
64
100
AcDbEntity
  8
0
100
AcDbBlockEnd
  0
BLOCK
  5
C4B
330
C31
100
AcDbEntity
  8
0
100
AcDbBlockBegin
  2
A$C36D02A34
 70
     0
 10
0.0
 20
0.0
 30
0.0
  3
A$C36D02A34
  1

  0
ARC
  5
C32
330
C31
100
AcDbEntity
  8
PV0001_1
  6
CONTINUOUS
 48
0.5
100
AcDbCircle
 10
18.06811523436999
 20
-11.83651161193799
 30
0.0
 40
21.600000381469
100
AcDbArc
 50
123.2290435713209
 51
126.6341524197568
  0
ARC
  5
C33
330
C31
100
AcDbEntity
  8
PV0001_1
  6
CONTINUOUS
 48
0.5
100
AcDbCircle
 10
18.06811523436999
 20
-11.83651161193799
 30
0.0
 40
21.600000381469
100
AcDbArc
 50
135.0736707620117
 51
146.7709980930592
  0
ARC
  5
C34
330
C31
100
AcDbEntity
  8
PV0001_1
  6
CONTINUOUS
 48
0.5
100
AcDbCircle
 10
-18.0680770874
 20
11.8365631103514
 30
0.0
 40
21.600000381469
100
AcDbArc
 50
315.0734847530392
 51
326.770781348241
  0
ARC
  5
C35
330
C31
100
AcDbEntity
  8
PV0001_1
  6
CONTINUOUS
 48
0.5
100
AcDbCircle
 10
-18.0680770874
 20
11.8365631103514
 30
0.0
 40
21.600000381469
100
AcDbArc
 50
303.2288882981993
 51
306.633986901359
  0
ARC
  5
C36
330
C31
100
AcDbEntity
  8
PV0001_1
  6
CONTINUOUS
 48
0.5
100
AcDbCircle
 10
-0.6269836425800009
 20
-2.044216156005997
 30
0.0
 40
2.0
100
AcDbArc
 50
337.4067997351092
 51
43.42231293132884
  0
ARC
  5
C37
330
C31
100
AcDbEntity
  8
PV0001_1
  6
CONTINUOUS
 48
0.5
100
AcDbCircle
 10
0.626953125
 20
2.044223785401001
 30
0.0
 40
2.0
100
AcDbArc
 50
157.4068184044407
 51
223.4222769591536
  0
CIRCLE
  5
C38
330
C31
100
AcDbEntity
  8
PV0001_1
  6
CONTINUOUS
 48
0.5
100
AcDbCircle
 10
3.856727600100001
 20
4.596265792847002
 30
0.0
 40
1.6000000238419
  0
CIRCLE
  5
C39
330
C31
100
AcDbEntity
  8
PV0001_1
  6
CONTINUOUS
 48
0.5
100
AcDbCircle
 10
-3.856727600100001
 20
-4.596265792845997
 30
0.0
 40
1.6000000238419
  0
ARC
  5
C3A
330
C31
100
AcDbEntity
  8
PV0001_1
  6
CONTINUOUS
 48
0.5
100
AcDbCircle
 10
-5.58123779297
 20
5.092639923096001
 30
0.0
 40
5.019082546234099
100
AcDbArc
 50
240.2658959250867
 51
321.5156269706421
  0
ARC
  5
C3B
330
C31
100
AcDbEntity
  8
PV0001_1
  6
CONTINUOUS
 48
0.5
100
AcDbCircle
 10
5.486755371089998
 20
-4.601703643798998
 30
0.0
 40
4.651036739349399
100
AcDbArc
 50
56.25271400417071
 51
145.528859890601
  0
ARC
  5
C3C
330
C31
100
AcDbEntity
  8
PV0001_1
  6
CONTINUOUS
 48
0.5
100
AcDbCircle
 10
-2.11590576172
 20
-3.453323364257997
 30
0.0
 40
4.050000190734899
100
AcDbArc
 50
43.42230610113921
 51
58.50391703385149
  0
ARC
  5
C3D
330
C31
100
AcDbEntity
  8
PV0001_1
  6
CONTINUOUS
 48
0.5
100
AcDbCircle
 10
2.115875244139999
 20
3.453330993653001
 30
0.0
 40
4.050000190734899
100
AcDbArc
 50
223.4222942619974
 51
238.5038164022482
  0
ARC
  5
C3E
330
C31
100
AcDbEntity
  8
PV0001_1
  6
CONTINUOUS
 48
0.5
100
AcDbCircle
 10
-6.70369720459
 20
5.094657897949002
 30
0.0
 40
5.940000057220499
100
AcDbArc
 50
328.2536768887549
 51
31.74641873389623
  0
ARC
  5
C3F
330
C31
100
AcDbEntity
  8
PV0001_1
  6
CONTINUOUS
 48
0.5
100
AcDbCircle
 10
6.703674316410001
 20
-5.094650268553998
 30
0.0
 40
5.940000057220499
100
AcDbArc
 50
148.2533403882529
 51
211.7466423089037
  0
ARC
  5
C40
330
C31
100
AcDbEntity
  8
PV0001_1
  6
CONTINUOUS
 48
0.5
100
AcDbCircle
 10
0.0
 20
0.0
 30
0.0
 40
8.812800407409699
100
AcDbArc
 50
175.2198288164333
 51
272.8622597568298
  0
ARC
  5
C41
330
C31
100
AcDbEntity
  8
PV0001_1
  6
CONTINUOUS
 48
0.5
100
AcDbCircle
 10
0.0
 20
0.0
 30
0.0
 40
9.1800003051758
100
AcDbArc
 50
272.7511362215027
 51
280.3697477877874
  0
ARC
  5
C42
330
C31
100
AcDbEntity
  8
PV0001_1
  6
CONTINUOUS
 48
0.5
100
AcDbCircle
 10
0.0
 20
0.0
 30
0.0
 40
8.812800407409699
100
AcDbArc
 50
355.2198199654955
 51
92.86229572901076
  0
ARC
  5
C43
330
C31
100
AcDbEntity
  8
PV0001_1
  6
CONTINUOUS
 48
0.5
100
AcDbCircle
 10
0.0
 20
0.0
 30
0.0
 40
9.1800003051758
100
AcDbArc
 50
92.75115489083434
 51
100.3697664571193
  0
CIRCLE
  5
C44
330
C31
100
AcDbEntity
  8
PV0001_1
  6
CONTINUOUS
100
AcDbCircle
 10
0.0
 20
0.0
 30
0.0
 40
9.1800003051758
  0
LINE
  5
C45
330
C31
100
AcDbEntity
  8
PV0001_1
  6
CONTINUOUS
 48
0.5
100
AcDbLine
 10
-1.652404785160001
 20
9.030059814453
 30
0.0
 11
-1.652404785160001
 21
8.220062255860002
 31
0.0
  0
LINE
  5
C46
330
C31
100
AcDbEntity
  8
PV0001_1
  6
CONTINUOUS
 48
0.5
100
AcDbLine
 10
1.652404785160001
 20
-8.220058441161999
 30
0.0
 11
1.652404785160001
 21
-9.030055999755997
 31
0.0
  0
LINE
  5
C47
330
C31
100
AcDbEntity
  8
PV0001_1
  6
CONTINUOUS
 48
0.5
100
AcDbLine
 10
-8.78217315674
 20
0.7343807220460015
 30
0.0
 11
-8.070594787600001
 21
0.7343997955320028
 31
0.0
  0
LINE
  5
C48
330
C31
100
AcDbEntity
  8
PV0001_1
  6
CONTINUOUS
 48
0.5
100
AcDbLine
 10
8.07057952881
 20
-0.7343864440919994
 30
0.0
 11
8.78215789795
 21
-0.7343654632569994
 31
0.0
  0
LINE
  5
C49
330
C31
100
AcDbEntity
  8
PV0001_1
  6
CONTINUOUS
 48
0.5
100
AcDbLine
 10
0.4406127929700006
 20
-9.169414520263
 30
0.0
 11
0.4406127929700006
 21
-8.812801361083998
 31
0.0
  0
LINE
  5
C4A
330
C31
100
AcDbEntity
  8
PV0001_1
  6
CONTINUOUS
 48
0.5
100
AcDbLine
 10
-0.4406127929700006
 20
9.169418334961001
 30
0.0
 11
-0.4406127929700006
 21
8.812805175781001
 31
0.0
  0
ENDBLK
  5
C4C
330
C31
100
AcDbEntity
  8
0
100
AcDbBlockEnd
  0
BLOCK
  5
245D
330
2453
100
AcDbEntity
  8
0
100
AcDbBlockBegin
  2
*D6
 70
     1
 10
0.0
 20
0.0
 30
0.0
  3
*D6
  1

  0
LINE
  5
2454
330
2453
100
AcDbEntity
  8
AM_5
 62
     3
100
AcDbLine
 10
-137.574381722344
 20
-5.00000294019065
 30
0.0
 11
-152.8199008769066
 21
-5.000002940190694
 31
0.0
  0
LINE
  5
2455
330
2453
100
AcDbEntity
  8
AM_5
 62
     3
100
AcDbLine
 10
-137.5743817223442
 20
5.00002461040103
 30
0.0
 11
-152.8199008769066
 21
5.000024610400987
 31
0.0
  0
LINE
  5
2456
330
2453
100
AcDbEntity
  8
AM_5
 62
     3
100
AcDbLine
 10
-151.8199008769066
 20
-2.500002940190691
 30
0.0
 11
-151.8199008769066
 21
2.50002461040099
 31
0.0
  0
INSERT
  5
2457
330
2453
100
AcDbEntity
  8
AM_5
 62
     3
100
AcDbBlockReference
  2
_OPEN30
 10
-151.8199008769066
 20
-5.00000294019069
 30
0.0
 41
2.5
 42
2.5
 43
2.5
 50
270.0000000000001
  0
INSERT
  5
2458
330
2453
100
AcDbEntity
  8
AM_5
 62
     3
100
AcDbBlockReference
  2
_OPEN30
 10
-151.8199008769066
 20
5.00002461040099
 30
0.0
 41
2.5
 42
2.5
 43
2.5
 50
90.00000000000015
  0
MTEXT
  5
2459
330
2453
100
AcDbEntity
  8
AM_5
 62
     2
100
AcDbMText
 10
-155.2199008769066
 20
0.000010835105146
 30
0.0
 40
3.799999999999999
 41
0.0
 71
     5
 72
     1
  1
%%c10
 11
-0.0000000000000028
 21
1.0
 31
0.0
1001
ACAD
1000
MTEXTBEGIN
1070
    73
1070
     1
1070
    44
1040
1.0
1070
    74
1070
     0
1000
MTEXTEND
  0
POINT
  5
245A
330
2453
100
AcDbEntity
  8
DEFPOINTS
 62
     0
100
AcDbPoint
 10
-137.5743817223441
 20
-5.000002940190223
 30
0.0
  0
POINT
  5
245B
330
2453
100
AcDbEntity
  8
DEFPOINTS
 62
     0
100
AcDbPoint
 10
-137.5743817223441
 20
5.000024610401458
 30
0.0
  0
POINT
  5
245C
330
2453
100
AcDbEntity
  8
DEFPOINTS
 62
     0
100
AcDbPoint
 10
-151.8199008769066
 20
5.000024610401462
 30
0.0
  0
ENDBLK
  5
245E
330
2453
100
AcDbEntity
  8
0
100
AcDbBlockEnd
  0
BLOCK
  5
246B
330
245F
100
AcDbEntity
  8
0
100
AcDbBlockBegin
  2
A$C4FFC6CC0
 70
     0
 10
0.0
 20
0.0
 30
0.0
  3
A$C4FFC6CC0
  1

  0
DIMENSION
  5
2460
330
245F
100
AcDbEntity
  8
AM_5
100
AcDbDimension
  2
*D6
 10
-70.00000100000002
 20
5.000008477104842
 30
0.0
 11
-70.00000100000002
 21
-0.0000052981910228
 31
0.0
 12
81.81989987690661
 22
-0.0000161332966199
 32
0.0
 70
   128
  1
%%c<>
 51
359.9999999999998
  3
AM_JIS$0
100
AcDbAlignedDimension
 13
-55.75448184543748
 23
-5.000019073486843
 33
0.0
 14
-55.75448184543756
 24
5.000008477104838
 34
0.0
 50
270.0
100
AcDbRotatedDimension
1001
ACAD
1000
DSTYLE
1002
{
1070
   271
1070
     0
1002
}
1001
GENIUS_GENDTOL_13
1000

1000
h7
1000

1040
0.0
  0
LINE
  5
2461
330
245F
100
AcDbEntity
  8
AM_0
 48
0.5
100
AcDbLine
 10
-56.0
 20
-4.754495620727796
 30
0.0
 11
-56.00000000000003
 21
4.754485024345811
 31
0.0
  0
LINE
  5
2462
330
245F
100
AcDbEntity
  8
AM_0
 48
0.5
100
AcDbLine
 10
-55.75448184543751
 20
-5.000019073486843
 30
0.0
 11
-55.75448184543754
 21
5.000008477104838
 31
0.0
  0
LINE
  5
2463
330
245F
100
AcDbEntity
  8
AM_0
100
AcDbLine
 10
-0.0000000000000142
 20
4.999995231627903
 30
0.0
 11
-55.75448184543754
 21
4.999995231627746
 31
0.0
  0
LINE
  5
2464
330
245F
100
AcDbEntity
  8
AM_0
 48
0.5
100
AcDbLine
 10
-55.99996821086117
 20
4.754439989725671
 30
0.0
 11
-55.75443945990975
 21
4.999963442484006
 31
0.0
  0
LINE
  5
2465
330
245F
100
AcDbEntity
  8
AM_0
100
AcDbLine
 10
-55.75448184543751
 20
-5.000008477105588
 30
0.0
 11
0.0000000000000142
 21
-5.00000847710543
 31
0.0
  0
LINE
  5
2466
330
245F
100
AcDbEntity
  8
AM_0
 48
0.5
100
AcDbLine
 10
-55.99996821086114
 20
-4.754474427965309
 30
0.0
 11
-55.75443945990972
 21
-4.999997880724334
 31
0.0
  0
LINE
  5
2467
330
245F
100
AcDbEntity
  8
AM_0
100
AcDbLine
 10
0.7794201296714505
 20
4.549985867772141
 30
0.0
 11
0.7794201296714789
 21
-4.550003370497427
 31
0.0
  0
LINE
  5
2468
330
245F
100
AcDbEntity
  8
AM_0
 48
0.5
100
AcDbLine
 10
0.0000000000000142
 20
-5.00000847710543
 30
0.0
 11
-0.0000000000000142
 21
5.000008477104995
 31
0.0
  0
LINE
  5
2469
330
245F
100
AcDbEntity
  8
AM_0
 48
0.5
100
AcDbLine
 10
0.7794201296714647
 20
-4.550003370497435
 30
0.0
 11
-0.0000105963812445
 21
-5.00000847710543
 31
0.0
  0
LINE
  5
246A
330
245F
100
AcDbEntity
  8
AM_0
 48
0.5
100
AcDbLine
 10
0.7794201296714647
 20
4.549985867772141
 30
0.0
 11
-0.0000000000000142
 21
4.999984635246652
 31
0.0
  0
ENDBLK
  5
246C
330
245F
100
AcDbEntity
  8
0
100
AcDbBlockEnd
  0
BLOCK
  5
36C9
330
36BB
100
AcDbEntity
  8
0
100
AcDbBlockBegin
  2
*D8
 70
     1
 10
0.0
 20
0.0
 30
0.0
  3
*D8
  1

  0
LINE
  5
4DBC
330
36BB
100
AcDbEntity
  8
AM_5
100
AcDbLine
 10
0.3420201408161528
 20
-0.93969262169946
 30
0.0
 11
12.73376567701368
 21
-34.98573395293323
 31
0.0
  0
LINE
  5
4DBD
330
36BB
100
AcDbEntity
  8
AM_5
100
AcDbLine
 10
0.3420201408161419
 20
0.9396926216991598
 30
0.0
 11
12.73376567701327
 21
34.98573395293309
 31
0.0
  0
ARC
  5
4DBE
330
36BB
100
AcDbEntity
  8
AM_5
100
AcDbCircle
 10
0.0000000000000289
 20
-0.0000000000001521
 30
0.0
 40
36.23104039027792
100
AcDbArc
 50
293.9542854242186
 51
66.04571457578202
  0
INSERT
  5
4DBF
330
36BB
100
AcDbEntity
  8
AM_5
100
AcDbBlockReference
  2
_OPEN30
 10
12.39174553619755
 20
-34.04604133123393
 30
0.0
 41
2.5
 42
2.5
 43
2.5
 50
201.9771426356022
  0
INSERT
  5
4DC0
330
36BB
100
AcDbEntity
  8
AM_5
100
AcDbBlockReference
  2
_OPEN30
 10
12.39174553619716
 20
34.04604133123378
 30
0.0
 41
2.5
 42
2.5
 43
2.5
 50
158.0228573643984
  0
MTEXT
  5
4DC1
330
36BB
100
AcDbEntity
  8
AM_5
 62
     2
100
AcDbMText
 10
33.13104039027795
 20
0.0000000000000646
 30
0.0
 40
3.2
 41
0.0
 71
     5
 72
     1
  1
140°
  7
ASAMI
 11
-0.0000000000000028
 21
1.0
 31
0.0
1001
ACAD
1000
MTEXTBEGIN
1070
    73
1070
     1
1070
    44
1040
1.0
1070
    74
1070
     0
1000
MTEXTEND
  0
POINT
  5
4DC2
330
36BB
100
AcDbEntity
  8
DEFPOINTS
 62
     0
100
AcDbPoint
 10
33.26792484260828
 20
-14.35038203075178
 30
0.0
  0
POINT
  5
4DC3
330
36BB
100
AcDbEntity
  8
DEFPOINTS
 62
     0
100
AcDbPoint
 10
0.0
 20
-0.0000000000002316
 30
0.0
  0
POINT
  5
4DC4
330
36BB
100
AcDbEntity
  8
DEFPOINTS
 62
     0
100
AcDbPoint
 10
0.0
 20
-0.0000000000000725
 30
0.0
  0
POINT
  5
4DC5
330
36BB
100
AcDbEntity
  8
DEFPOINTS
 62
     0
100
AcDbPoint
 10
-2.800374408476802
 20
7.693965517241139
 30
0.0
  0
POINT
  5
4DC6
330
36BB
100
AcDbEntity
  8
DEFPOINTS
 62
     0
100
AcDbPoint
 10
-2.800374408476762
 20
-7.693965517241461
 30
0.0
  0
ENDBLK
  5
36CA
330
36BB
100
AcDbEntity
  8
0
100
AcDbBlockEnd
  0
BLOCK
  5
3B18
330
3B0E
100
AcDbEntity
  8
0
100
AcDbBlockBegin
  2
*D9
 70
     1
 10
0.0
 20
0.0
 30
0.0
  3
*D9
  1

  0
LINE
  5
4F85
330
3B0E
100
AcDbEntity
  8
AM_5
 62
     3
100
AcDbLine
 10
-3.912679985850007
 20
10.79999999999989
 30
0.0
 11
-3.91267998585006
 21
29.66830068841534
 31
0.0
  0
LINE
  5
4F86
330
3B0E
100
AcDbEntity
  8
AM_5
 62
     3
100
AcDbLine
 10
-115.9126799858498
 20
10.80000000000091
 30
0.0
 11
-115.9126799858498
 21
29.66830068841501
 31
0.0
  0
LINE
  5
4F87
330
3B0E
100
AcDbEntity
  8
AM_5
 62
     3
100
AcDbLine
 10
-6.412679985850058
 20
28.66830068841533
 30
0.0
 11
-113.4126799858498
 21
28.66830068841501
 31
0.0
  0
INSERT
  5
4F88
330
3B0E
100
AcDbEntity
  8
AM_5
 62
     3
100
AcDbBlockReference
  2
_OPEN30
 10
-3.912679985850057
 20
28.66830068841533
 30
0.0
 41
2.5
 42
2.5
 43
2.5
 50
0.0000000000001527
  0
INSERT
  5
4F89
330
3B0E
100
AcDbEntity
  8
AM_5
 62
     3
100
AcDbBlockReference
  2
_OPEN30
 10
-115.9126799858498
 20
28.66830068841501
 30
0.0
 41
2.5
 42
2.5
 43
2.5
 50
180.0000000000001
  0
MTEXT
  5
4F8A
330
3B0E
100
AcDbEntity
  8
AM_5
 62
     2
100
AcDbMText
 10
-59.91267998584998
 20
32.06830068841517
 30
0.0
 40
3.799999999999999
 41
0.0
 71
     5
 72
     1
  1
112
1001
ACAD
1000
MTEXTBEGIN
1070
    73
1070
     1
1070
    44
1040
1.0
1070
    74
1070
     0
1000
MTEXTEND
  0
POINT
  5
4F8B
330
3B0E
100
AcDbEntity
  8
DEFPOINTS
 62
     0
100
AcDbPoint
 10
-3.912679985849975
 20
9.9999999999999
 30
0.0
  0
POINT
  5
4F8C
330
3B0E
100
AcDbEntity
  8
DEFPOINTS
 62
     0
100
AcDbPoint
 10
-115.9126799858497
 20
10.00000000000125
 30
0.0
  0
POINT
  5
4F8D
330
3B0E
100
AcDbEntity
  8
DEFPOINTS
 62
     0
100
AcDbPoint
 10
-115.9126799858497
 20
28.66830068841535
 30
0.0
  0
ENDBLK
  5
3B19
330
3B0E
100
AcDbEntity
  8
0
100
AcDbBlockEnd
  0
BLOCK
  5
4725
330
471B
100
AcDbEntity
  8
0
100
AcDbBlockBegin
  2
*D10
 70
     1
 10
0.0
 20
0.0
 30
0.0
  3
*D10
  1

  0
LINE
  5
4F8E
330
471B
100
AcDbEntity
  8
AM_5
 62
     3
100
AcDbLine
 10
-3.912679985850007
 20
10.79999999999989
 30
0.0
 11
-3.912679985850095
 21
41.98585580958627
 31
0.0
  0
LINE
  5
4F8F
330
471B
100
AcDbEntity
  8
AM_5
 62
     3
100
AcDbLine
 10
-121.9126799858496
 20
11.3000000000011
 30
0.0
 11
-121.9126799858497
 21
41.98585580958593
 31
0.0
  0
LINE
  5
4F90
330
471B
100
AcDbEntity
  8
AM_5
 62
     3
100
AcDbLine
 10
-6.412679985850092
 20
40.98585580958626
 30
0.0
 11
-119.4126799858497
 21
40.98585580958594
 31
0.0
  0
INSERT
  5
4F91
330
471B
100
AcDbEntity
  8
AM_5
 62
     3
100
AcDbBlockReference
  2
_OPEN30
 10
-3.912679985850093
 20
40.98585580958627
 30
0.0
 41
2.5
 42
2.5
 43
2.5
 50
0.0000000000001527
  0
INSERT
  5
4F92
330
471B
100
AcDbEntity
  8
AM_5
 62
     3
100
AcDbBlockReference
  2
_OPEN30
 10
-121.9126799858497
 20
40.98585580958594
 30
0.0
 41
2.5
 42
2.5
 43
2.5
 50
180.0000000000001
  0
MTEXT
  5
4F93
330
471B
100
AcDbEntity
  8
AM_5
 62
     2
100
AcDbMText
 10
-62.91267998584993
 20
44.3858558095861
 30
0.0
 40
3.799999999999999
 41
0.0
 71
     5
 72
     1
  1
118
1001
ACAD
1000
MTEXTBEGIN
1070
    73
1070
     1
1070
    44
1040
1.0
1070
    74
1070
     0
1000
MTEXTEND
  0
POINT
  5
4F94
330
471B
100
AcDbEntity
  8
DEFPOINTS
 62
     0
100
AcDbPoint
 10
-3.912679985849975
 20
9.9999999999999
 30
0.0
  0
POINT
  5
4F95
330
471B
100
AcDbEntity
  8
DEFPOINTS
 62
     0
100
AcDbPoint
 10
-121.9126799858496
 20
10.50000000000145
 30
0.0
  0
POINT
  5
4F96
330
471B
100
AcDbEntity
  8
DEFPOINTS
 62
     0
100
AcDbPoint
 10
-121.9126799858496
 20
40.98585580958629
 30
0.0
  0
ENDBLK
  5
4726
330
471B
100
AcDbEntity
  8
0
100
AcDbBlockEnd
  0
BLOCK
  5
4A68
330
4A5E
100
AcDbEntity
  8
0
100
AcDbBlockBegin
  2
*D11
 70
     1
 10
0.0
 20
0.0
 30
0.0
  3
*D11
  1

  0
LINE
  5
4F97
330
4A5E
100
AcDbEntity
  8
AM_5
 62
     3
100
AcDbLine
 10
-192.9126913512523
 20
-0.8000000000012031
 30
0.0
 11
-192.9126913512523
 21
-29.47941722561774
 31
0.0
  0
LINE
  5
4F98
330
4A5E
100
AcDbEntity
  8
AM_5
 62
     3
100
AcDbLine
 10
-147.9126799858498
 20
-0.8000000000009947
 30
0.0
 11
-147.9126799858498
 21
-29.47941722561774
 31
0.0
  0
LINE
  5
4F99
330
4A5E
100
AcDbEntity
  8
AM_5
 62
     3
100
AcDbLine
 10
-190.4126913512523
 20
-28.47941722561774
 30
0.0
 11
-150.4126799858498
 21
-28.47941722561774
 31
0.0
  0
INSERT
  5
4F9A
330
4A5E
100
AcDbEntity
  8
AM_5
 62
     3
100
AcDbBlockReference
  2
_OPEN30
 10
-192.9126913512523
 20
-28.47941722561774
 30
0.0
 41
2.5
 42
2.5
 43
2.5
 50
180.0
  0
INSERT
  5
4F9B
330
4A5E
100
AcDbEntity
  8
AM_5
 62
     3
100
AcDbBlockReference
  2
_OPEN30
 10
-147.9126799858498
 20
-28.47941722561774
 30
0.0
 41
2.5
 42
2.5
 43
2.5
  0
MTEXT
  5
4F9C
330
4A5E
100
AcDbEntity
  8
AM_5
 62
     2
100
AcDbMText
 10
-170.4126856685511
 20
-25.07941722561774
 30
0.0
 40
3.799999999999999
 41
0.0
 71
     5
 72
     1
  1
45
1001
ACAD
1000
MTEXTBEGIN
1070
    73
1070
     1
1070
    44
1040
1.0
1070
    74
1070
     0
1000
MTEXTEND
  0
POINT
  5
4F9D
330
4A5E
100
AcDbEntity
  8
DEFPOINTS
 62
     0
100
AcDbPoint
 10
-192.9126913512523
 20
-0.0000000000012032
 30
0.0
  0
POINT
  5
4F9E
330
4A5E
100
AcDbEntity
  8
DEFPOINTS
 62
     0
100
AcDbPoint
 10
-147.9126799858498
 20
-0.0000000000009948
 30
0.0
  0
POINT
  5
4F9F
330
4A5E
100
AcDbEntity
  8
DEFPOINTS
 62
     0
100
AcDbPoint
 10
-147.9126799858498
 20
-28.47941722561774
 30
0.0
  0
ENDBLK
  5
4A69
330
4A5E
100
AcDbEntity
  8
0
100
AcDbBlockEnd
  0
BLOCK
  5
4A76
330
4A6A
100
AcDbEntity
  8
0
100
AcDbBlockBegin
  2
*D12
 70
     1
 10
0.0
 20
0.0
 30
0.0
  3
*D12
  1

  0
LINE
  5
4FA0
330
4A6A
100
AcDbEntity
  8
AM_5
 62
     3
100
AcDbLine
 10
-198.9125941551746
 20
-12.61209445906838
 30
0.0
 11
-198.9125941551746
 21
-29.47941722561807
 31
0.0
  0
LINE
  5
4FA1
330
4A6A
100
AcDbEntity
  8
AM_5
 62
     3
100
AcDbLine
 10
-192.9126913512523
 20
-0.8000000000012031
 30
0.0
 11
-192.9126913512523
 21
-29.47941722561807
 31
0.0
  0
LINE
  5
4FA2
330
4A6A
100
AcDbEntity
  8
AM_5
 62
     3
100
AcDbLine
 10
-201.4125941551746
 20
-28.47941722561807
 30
0.0
 11
-203.9125941551746
 21
-28.47941722561807
 31
0.0
  0
LINE
  5
4FA3
330
4A6A
100
AcDbEntity
  8
AM_5
 62
     3
100
AcDbLine
 10
-190.4126913512523
 20
-28.47941722561807
 30
0.0
 11
-187.9126913512523
 21
-28.47941722561807
 31
0.0
  0
LINE
  5
4FA4
330
4A6A
100
AcDbEntity
  8
AM_5
 62
     3
100
AcDbLine
 10
-198.9125941551746
 20
-28.47941722561807
 30
0.0
 11
-192.9126913512523
 21
-28.47941722561807
 31
0.0
  0
INSERT
  5
4FA5
330
4A6A
100
AcDbEntity
  8
AM_5
 62
     3
100
AcDbBlockReference
  2
_OPEN30
 10
-198.9125941551746
 20
-28.47941722561807
 30
0.0
 41
2.5
 42
2.5
 43
2.5
  0
INSERT
  5
4FA6
330
4A6A
100
AcDbEntity
  8
AM_5
 62
     3
100
AcDbBlockReference
  2
_OPEN30
 10
-192.9126913512523
 20
-28.47941722561807
 30
0.0
 41
2.5
 42
2.5
 43
2.5
 50
180.0
  0
MTEXT
  5
4FA7
330
4A6A
100
AcDbEntity
  8
AM_5
 62
     2
100
AcDbMText
 10
-195.9126427532135
 20
-25.07941722561807
 30
0.0
 40
3.799999999999999
 41
0.0
 71
     5
 72
     1
  1
6
1001
ACAD
1000
MTEXTBEGIN
1070
    73
1070
     1
1070
    44
1040
1.0
1070
    74
1070
     0
1000
MTEXTEND
  0
POINT
  5
4FA8
330
4A6A
100
AcDbEntity
  8
DEFPOINTS
 62
     0
100
AcDbPoint
 10
-198.9125941551746
 20
-11.81209445906838
 30
0.0
  0
POINT
  5
4FA9
330
4A6A
100
AcDbEntity
  8
DEFPOINTS
 62
     0
100
AcDbPoint
 10
-192.9126913512523
 20
-0.0000000000012032
 30
0.0
  0
POINT
  5
4FAA
330
4A6A
100
AcDbEntity
  8
DEFPOINTS
 62
     0
100
AcDbPoint
 10
-192.9126913512523
 20
-28.47941722561807
 30
0.0
  0
ENDBLK
  5
4A77
330
4A6A
100
AcDbEntity
  8
0
100
AcDbBlockEnd
  0
BLOCK
  5
4A82
330
4A78
100
AcDbEntity
  8
0
100
AcDbBlockBegin
  2
*D13
 70
     1
 10
0.0
 20
0.0
 30
0.0
  3
*D13
  1

  0
LINE
  5
4FC6
330
4A78
100
AcDbEntity
  8
AM_5
 62
     3
100
AcDbLine
 10
-3.912679985849683
 20
-11.4000000000012
 30
0.0
 11
-3.912679985849686
 21
-52.86240652469857
 31
0.0
  0
LINE
  5
4FC7
330
4A78
100
AcDbEntity
  8
AM_5
 62
     3
100
AcDbLine
 10
-198.9125941551746
 20
-12.61209445906838
 30
0.0
 11
-198.9125941551746
 21
-52.86240652469857
 31
0.0
  0
LINE
  5
4FC8
330
4A78
100
AcDbEntity
  8
AM_5
 62
     3
100
AcDbLine
 10
-6.412679985849686
 20
-51.86240652469857
 30
0.0
 11
-196.4125941551746
 21
-51.86240652469857
 31
0.0
  0
INSERT
  5
4FC9
330
4A78
100
AcDbEntity
  8
AM_5
 62
     3
100
AcDbBlockReference
  2
_OPEN30
 10
-3.912679985849686
 20
-51.86240652469857
 30
0.0
 41
2.5
 42
2.5
 43
2.5
  0
INSERT
  5
4FCA
330
4A78
100
AcDbEntity
  8
AM_5
 62
     3
100
AcDbBlockReference
  2
_OPEN30
 10
-198.9125941551746
 20
-51.86240652469857
 30
0.0
 41
2.5
 42
2.5
 43
2.5
 50
180.0
  0
MTEXT
  5
4FCB
330
4A78
100
AcDbEntity
  8
AM_5
 62
     2
100
AcDbMText
 10
-101.4126370705121
 20
-48.46240652469857
 30
0.0
 40
3.799999999999999
 41
0.0
 71
     5
 72
     1
  1
195
1001
ACAD
1000
MTEXTBEGIN
1070
    73
1070
     1
1070
    44
1040
1.0
1070
    74
1070
     0
1000
MTEXTEND
  0
POINT
  5
4FCC
330
4A78
100
AcDbEntity
  8
DEFPOINTS
 62
     0
100
AcDbPoint
 10
-3.912679985849683
 20
-10.6000000000012
 30
0.0
  0
POINT
  5
4FCD
330
4A78
100
AcDbEntity
  8
DEFPOINTS
 62
     0
100
AcDbPoint
 10
-198.9125941551746
 20
-11.81209445906838
 30
0.0
  0
POINT
  5
4FCE
330
4A78
100
AcDbEntity
  8
DEFPOINTS
 62
     0
100
AcDbPoint
 10
-198.9125941551746
 20
-51.86240652469857
 30
0.0
  0
ENDBLK
  5
4A83
330
4A78
100
AcDbEntity
  8
0
100
AcDbBlockEnd
  0
BLOCK
  5
4A8E
330
4A84
100
AcDbEntity
  8
0
100
AcDbBlockBegin
  2
*D14
 70
     1
 10
0.0
 20
0.0
 30
0.0
  3
*D14
  1

  0
LINE
  5
4FBD
330
4A84
100
AcDbEntity
  8
AM_5
 62
     3
100
AcDbLine
 10
-142.9126799858497
 20
-13.27503639174677
 30
0.0
 11
-142.9126799858497
 21
-41.34624234624797
 31
0.0
  0
LINE
  5
4FBE
330
4A84
100
AcDbEntity
  8
AM_5
 62
     3
100
AcDbLine
 10
-198.9125941551746
 20
-12.61209445906838
 30
0.0
 11
-198.9125941551746
 21
-41.34624234624797
 31
0.0
  0
LINE
  5
4FBF
330
4A84
100
AcDbEntity
  8
AM_5
 62
     3
100
AcDbLine
 10
-145.4126799858497
 20
-40.34624234624797
 30
0.0
 11
-196.4125941551746
 21
-40.34624234624797
 31
0.0
  0
INSERT
  5
4FC0
330
4A84
100
AcDbEntity
  8
AM_5
 62
     3
100
AcDbBlockReference
  2
_OPEN30
 10
-142.9126799858497
 20
-40.34624234624797
 30
0.0
 41
2.5
 42
2.5
 43
2.5
  0
INSERT
  5
4FC1
330
4A84
100
AcDbEntity
  8
AM_5
 62
     3
100
AcDbBlockReference
  2
_OPEN30
 10
-198.9125941551746
 20
-40.34624234624797
 30
0.0
 41
2.5
 42
2.5
 43
2.5
 50
180.0
  0
MTEXT
  5
4FC2
330
4A84
100
AcDbEntity
  8
AM_5
 62
     2
100
AcDbMText
 10
-170.9126370705122
 20
-36.94624234624797
 30
0.0
 40
3.799999999999999
 41
0.0
 71
     5
 72
     1
  1
56
1001
ACAD
1000
MTEXTBEGIN
1070
    73
1070
     1
1070
    44
1040
1.0
1070
    74
1070
     0
1000
MTEXTEND
  0
POINT
  5
4FC3
330
4A84
100
AcDbEntity
  8
DEFPOINTS
 62
     0
100
AcDbPoint
 10
-142.9126799858497
 20
-12.47503639174677
 30
0.0
  0
POINT
  5
4FC4
330
4A84
100
AcDbEntity
  8
DEFPOINTS
 62
     0
100
AcDbPoint
 10
-198.9125941551746
 20
-11.81209445906838
 30
0.0
  0
POINT
  5
4FC5
330
4A84
100
AcDbEntity
  8
DEFPOINTS
 62
     0
100
AcDbPoint
 10
-198.9125941551746
 20
-40.34624234624797
 30
0.0
  0
ENDBLK
  5
4A8F
330
4A84
100
AcDbEntity
  8
0
100
AcDbBlockEnd
  0
BLOCK
  5
4A9A
330
4A90
100
AcDbEntity
  8
0
100
AcDbBlockBegin
  2
*D15
 70
     1
 10
0.0
 20
0.0
 30
0.0
  3
*D15
  1

  0
LINE
  5
4FB4
330
4A90
100
AcDbEntity
  8
AM_5
 62
     3
100
AcDbLine
 10
-3.912679985849691
 20
-11.40000000000007
 30
0.0
 11
-3.912679985849693
 21
-41.41392283251385
 31
0.0
  0
LINE
  5
4FB5
330
4A90
100
AcDbEntity
  8
AM_5
 62
     3
100
AcDbLine
 10
-142.9126799858497
 20
-14.07503639174677
 30
0.0
 11
-142.9126799858497
 21
-41.41392283251385
 31
0.0
  0
LINE
  5
4FB6
330
4A90
100
AcDbEntity
  8
AM_5
 62
     3
100
AcDbLine
 10
-6.412679985849694
 20
-40.41392283251385
 30
0.0
 11
-140.4126799858497
 21
-40.41392283251385
 31
0.0
  0
INSERT
  5
4FB7
330
4A90
100
AcDbEntity
  8
AM_5
 62
     3
100
AcDbBlockReference
  2
_OPEN30
 10
-3.912679985849693
 20
-40.41392283251385
 30
0.0
 41
2.5
 42
2.5
 43
2.5
  0
INSERT
  5
4FB8
330
4A90
100
AcDbEntity
  8
AM_5
 62
     3
100
AcDbBlockReference
  2
_OPEN30
 10
-142.9126799858497
 20
-40.41392283251385
 30
0.0
 41
2.5
 42
2.5
 43
2.5
 50
180.0
  0
MTEXT
  5
4FB9
330
4A90
100
AcDbEntity
  8
AM_5
 62
     2
100
AcDbMText
 10
-73.41267998584974
 20
-37.01392283251385
 30
0.0
 40
3.799999999999999
 41
0.0
 71
     5
 72
     1
  1
139
1001
ACAD
1000
MTEXTBEGIN
1070
    73
1070
     1
1070
    44
1040
1.0
1070
    74
1070
     0
1000
MTEXTEND
  0
POINT
  5
4FBA
330
4A90
100
AcDbEntity
  8
DEFPOINTS
 62
     0
100
AcDbPoint
 10
-3.912679985849691
 20
-10.60000000000006
 30
0.0
  0
POINT
  5
4FBB
330
4A90
100
AcDbEntity
  8
DEFPOINTS
 62
     0
100
AcDbPoint
 10
-142.9126799858497
 20
-13.27503639174677
 30
0.0
  0
POINT
  5
4FBC
330
4A90
100
AcDbEntity
  8
DEFPOINTS
 62
     0
100
AcDbPoint
 10
-142.9126799858497
 20
-40.41392283251385
 30
0.0
  0
ENDBLK
  5
4A9B
330
4A90
100
AcDbEntity
  8
0
100
AcDbBlockEnd
  0
BLOCK
  5
4AA6
330
4A9C
100
AcDbEntity
  8
0
100
AcDbBlockBegin
  2
*D16
 70
     1
 10
0.0
 20
0.0
 30
0.0
  3
*D16
  1

  0
LINE
  5
4FAB
330
4A9C
100
AcDbEntity
  8
AM_5
 62
     3
100
AcDbLine
 10
-198.9906358059539
 20
12.52500938462104
 30
0.0
 11
-216.8231240566775
 21
12.52500938462105
 31
0.0
  0
LINE
  5
4FAC
330
4A9C
100
AcDbEntity
  8
AM_5
 62
     3
100
AcDbLine
 10
-198.9906358059537
 20
-12.47489334306204
 30
0.0
 11
-216.8231240566775
 21
-12.47489334306203
 31
0.0
  0
LINE
  5
4FAD
330
4A9C
100
AcDbEntity
  8
AM_5
 62
     3
100
AcDbLine
 10
-215.8231240566775
 20
10.02500938462105
 30
0.0
 11
-215.8231240566775
 21
-9.974893343062037
 31
0.0
  0
INSERT
  5
4FAE
330
4A9C
100
AcDbEntity
  8
AM_5
 62
     3
100
AcDbBlockReference
  2
_OPEN30
 10
-215.8231240566775
 20
12.52500938462105
 30
0.0
 41
2.5
 42
2.5
 43
2.5
 50
90.0
  0
INSERT
  5
4FAF
330
4A9C
100
AcDbEntity
  8
AM_5
 62
     3
100
AcDbBlockReference
  2
_OPEN30
 10
-215.8231240566775
 20
-12.47489334306203
 30
0.0
 41
2.5
 42
2.5
 43
2.5
 50
270.0
  0
MTEXT
  5
4FB0
330
4A9C
100
AcDbEntity
  8
AM_5
 62
     2
100
AcDbMText
 10
-219.2231240566775
 20
0.0250580207794723
 30
0.0
 40
3.799999999999999
 41
0.0
 71
     5
 72
     1
  1
%%C25
 11
0.0000000000000001
 21
1.0
 31
0.0
1001
ACAD
1000
MTEXTBEGIN
1070
    73
1070
     1
1070
    44
1040
1.0
1070
    74
1070
     0
1000
MTEXTEND
  0
POINT
  5
4FB1
330
4A9C
100
AcDbEntity
  8
DEFPOINTS
 62
     0
100
AcDbPoint
 10
-198.1906358059539
 20
12.52500938462104
 30
0.0
  0
POINT
  5
4FB2
330
4A9C
100
AcDbEntity
  8
DEFPOINTS
 62
     0
100
AcDbPoint
 10
-198.1906358059537
 20
-12.47489334306204
 30
0.0
  0
POINT
  5
4FB3
330
4A9C
100
AcDbEntity
  8
DEFPOINTS
 62
     0
100
AcDbPoint
 10
-215.8231240566775
 20
-12.47489334306203
 30
0.0
  0
ENDBLK
  5
4AA7
330
4A9C
100
AcDbEntity
  8
0
100
AcDbBlockEnd
  0
BLOCK
  5
4F66
330
4F5A
100
AcDbEntity
  8
0
100
AcDbBlockBegin
  2
*D17
 70
     1
 10
0.0
 20
0.0
 30
0.0
  3
*D17
  1

  0
LINE
  5
4F6F
330
4F5A
100
AcDbEntity
  8
AM_5
 62
     3
100
AcDbLine
 10
-2.898407188424824
 20
10.74999999999994
 30
0.0
 11
19.5581674578903
 21
10.75
 31
0.0
  0
LINE
  5
4F70
330
4F5A
100
AcDbEntity
  8
AM_5
 62
     3
100
AcDbLine
 10
-3.021687428038839
 20
-10.75000000000004
 30
0.0
 11
19.55816745789037
 21
-10.74999999999998
 31
0.0
  0
LINE
  5
4F71
330
4F5A
100
AcDbEntity
  8
AM_5
 62
     3
100
AcDbLine
 10
18.55816745789029
 20
13.25
 30
0.0
 11
18.55816745789029
 21
15.75
 31
0.0
  0
LINE
  5
4F72
330
4F5A
100
AcDbEntity
  8
AM_5
 62
     3
100
AcDbLine
 10
18.55816745789037
 20
-13.24999999999998
 30
0.0
 11
18.55816745789038
 21
-15.74999999999998
 31
0.0
  0
LINE
  5
4F73
330
4F5A
100
AcDbEntity
  8
AM_5
 62
     3
100
AcDbLine
 10
18.5581674578903
 20
10.75
 30
0.0
 11
18.55816745789037
 21
-10.74999999999998
 31
0.0
  0
INSERT
  5
4F74
330
4F5A
100
AcDbEntity
  8
AM_5
 62
     3
100
AcDbBlockReference
  2
_OPEN30
 10
18.5581674578903
 20
10.75
 30
0.0
 41
2.5
 42
2.5
 43
2.5
 50
270.0000000000001
  0
INSERT
  5
4F75
330
4F5A
100
AcDbEntity
  8
AM_5
 62
     3
100
AcDbBlockReference
  2
_OPEN30
 10
18.55816745789037
 20
-10.74999999999998
 30
0.0
 41
2.5
 42
2.5
 43
2.5
 50
90.00000000000015
  0
MTEXT
  5
4F76
330
4F5A
100
AcDbEntity
  8
AM_5
 62
     2
100
AcDbMText
 10
15.15816745789033
 20
-0.0000000000000747
 30
0.0
 40
3.799999999999999
 41
0.0
 71
     5
 72
     1
  1
%%C21.5
 11
-0.0000000000000028
 21
1.0
 31
0.0
1001
ACAD
1000
MTEXTBEGIN
1070
    73
1070
     1
1070
    44
1040
1.0
1070
    74
1070
     0
1000
MTEXTEND
  0
POINT
  5
4F77
330
4F5A
100
AcDbEntity
  8
DEFPOINTS
 62
     0
100
AcDbPoint
 10
-3.698407188424791
 20
10.74999999999995
 30
0.0
  0
POINT
  5
4F78
330
4F5A
100
AcDbEntity
  8
DEFPOINTS
 62
     0
100
AcDbPoint
 10
-3.821687428038872
 20
-10.75000000000003
 30
0.0
  0
POINT
  5
4F79
330
4F5A
100
AcDbEntity
  8
DEFPOINTS
 62
     0
100
AcDbPoint
 10
18.55816745789033
 20
-10.75000000000004
 30
0.0
  0
ENDBLK
  5
4F67
330
4F5A
100
AcDbEntity
  8
0
100
AcDbBlockEnd
  0
ENDSEC
  0
SECTION
  2
ENTITIES
  0
TEXT
  5
19BD
330
1F
100
AcDbEntity
  8
AM_6
100
AcDbText
 10
-121.5877948120336
 20
-74.36240652469862
 30
0.0
 40
5.0
  1
KDS215LAK
 50
0.0000000000001527
 72
     4
 11
-101.2306519548908
 21
-71.86240652469857
 31
0.0
100
AcDbText
  0
LINE
  5
35D1
330
1F
100
AcDbEntity
  8
AM_7
100
AcDbLine
 10
4.909002595337891
 20
-0.0000000000001046
 30
0.0
 11
-200.0207498297156
 21
-0.0000000000006094
 31
0.0
  0
LINE
  5
35F4
330
1F
100
AcDbEntity
  8
PV0001_1
  6
CONTINUOUS
 48
0.5
100
AcDbLine
 10
-121.9126799858495
 20
10.75000000000207
 30
0.0
 11
-142.9126799858498
 21
12.52497362183308
 31
0.0
  0
LINE
  5
35F5
330
1F
100
AcDbEntity
  8
PV0001_1
  6
CONTINUOUS
 48
0.5
100
AcDbLine
 10
-121.9126799858496
 20
-10.74999999999814
 30
0.0
 11
-142.9126799858497
 21
-12.47503639174677
 31
0.0
  0
DIMENSION
  5
36BA
330
1F
100
AcDbEntity
  8
AM_5
100
AcDbDimension
  2
*D8
 10
-2.800374408476762
 20
-7.693965517241461
 30
0.0
 11
33.13104039027795
 21
-0.0000000000000372
 31
0.0
 70
    34
  1
<>
 51
359.9999999999998
  3
AM_JIS$2
100
AcDb2LineAngularDimension
 13
0.0
 23
-0.0000000000000725
 33
0.0
 14
-2.800374408476802
 24
7.693965517241139
 34
0.0
 15
0.0
 25
-0.0000000000002316
 35
0.0
 16
33.26792484260828
 26
-14.35038203075178
 36
0.0
1001
ACAD
1000
DSTYLE
1002
{
1070
   179
1070
     3
1002
}
1001
GENIUS_GENDTOL_13
1000

1000
h7
1000

1040
0.0
  0
DIMENSION
  5
3B0D
330
1F
100
AcDbEntity
  8
AM_5
100
AcDbDimension
  2
*D9
 10
-115.9126799858497
 20
28.66830068841535
 30
0.0
 11
-59.91267998584988
 21
32.06830068841535
 31
0.0
 70
    32
  1
<>
 51
359.9999999999998
  3
AM_JIS$0
100
AcDbAlignedDimension
 13
-3.912679985849975
 23
9.9999999999999
 33
0.0
 14
-115.9126799858497
 24
10.00000000000125
 34
0.0
 50
180.0000000000001
100
AcDbRotatedDimension
1001
ACAD
1000
DSTYLE
1002
{
1070
   271
1070
     3
1002
}
1001
GENIUS_GENDTOL_13
1000

1000
h7
1000

1040
0.0
  0
LINE
  5
4534
330
1F
100
AcDbEntity
  8
PV0001_1
  6
CONTINUOUS
100
AcDbLine
 10
-121.9126799858496
 20
2.573489780914597
 30
0.0
 11
-121.9126799858496
 21
10.75000000000207
 31
0.0
  0
LINE
  5
4536
330
1F
100
AcDbEntity
  8
PV0001_1
  6
CONTINUOUS
100
AcDbLine
 10
-121.9126799858496
 20
-10.74999999999814
 30
0.0
 11
-121.9126799858496
 21
-9.835234346212978
 31
0.0
  0
LINE
  5
46A5
330
1F
100
AcDbEntity
  8
AM_11
 48
0.5
100
AcDbLine
 10
-115.9126799858498
 20
-10.49999999999891
 30
0.0
 11
-115.9126799858498
 21
10.55000000000092
 31
0.0
  0
DIMENSION
  5
471A
330
1F
100
AcDbEntity
  8
AM_5
100
AcDbDimension
  2
*D10
 10
-121.9126799858496
 20
40.98585580958629
 30
0.0
 11
-62.91267998584981
 21
44.38585580958629
 31
0.0
 70
    32
  1
<>
 51
359.9999999999998
  3
AM_JIS$0
100
AcDbAlignedDimension
 13
-3.912679985849975
 23
9.9999999999999
 33
0.0
 14
-121.9126799858496
 24
10.50000000000145
 34
0.0
 50
180.0000000000002
100
AcDbRotatedDimension
1001
ACAD
1000
DSTYLE
1002
{
1070
   271
1070
     3
1002
}
1001
GENIUS_GENDTOL_13
1000

1000
h7
1000

1040
0.0
  0
LINE
  5
4A4B
330
1F
100
AcDbEntity
  8
PV0001_1
  6
CONTINUOUS
100
AcDbLine
 10
-142.9126799858497
 20
-12.47503639174678
 30
0.0
 11
-142.9126799858498
 21
12.52497362183308
 31
0.0
  0
LINE
  5
4A4C
330
1F
100
AcDbEntity
  8
PV0001_1
  6
CONTINUOUS
 48
0.5
100
AcDbLine
 10
-198.249780968531
 20
0.0249721913222434
 30
0.0
 11
-198.2497809685309
 21
-12.47506500197655
 31
0.0
  0
LINE
  5
4A4D
330
1F
100
AcDbEntity
  8
PV0001_1
  6
CONTINUOUS
 48
0.5
100
AcDbLine
 10
-198.9125941551746
 20
-11.81209445906838
 30
0.0
 11
-198.2496665276059
 21
-12.47500778151756
 31
0.0
  0
LINE
  5
4A4E
330
1F
100
AcDbEntity
  8
PV0001_1
  6
CONTINUOUS
100
AcDbLine
 10
-198.1724372943919
 20
-12.47503639174705
 30
0.0
 11
-142.8580844511633
 21
-12.47503639174677
 31
0.0
  0
LINE
  5
4A4F
330
1F
100
AcDbEntity
  8
PV0001_1
  6
CONTINUOUS
 48
0.5
100
AcDbLine
 10
-198.9125941551748
 20
11.86197446869742
 30
0.0
 11
-198.249666527606
 21
12.52488779114478
 31
0.0
  0
LINE
  5
4A50
330
1F
100
AcDbEntity
  8
PV0001_1
  6
CONTINUOUS
 48
0.5
100
AcDbLine
 10
-198.249780968531
 20
0.0249721913222434
 30
0.0
 11
-198.2497809685311
 21
12.52500938462103
 31
0.0
  0
LINE
  5
4A51
330
1F
100
AcDbEntity
  8
AM_0
100
AcDbLine
 10
-188.6551134835811
 20
-4.264680527309216
 30
0.0
 11
-152.1773605131578
 21
-4.264680527309023
 31
0.0
  0
LINE
  5
4A52
330
1F
100
AcDbEntity
  8
AM_0
100
AcDbLine
 10
-152.1773605131578
 20
4.264680527306971
 30
0.0
 11
-188.6551134835811
 21
4.264680527306779
 31
0.0
  0
ARC
  5
4A53
330
1F
100
AcDbEntity
  8
AM_0
100
AcDbCircle
 10
-188.6480108239443
 20
-0.0000000000011919
 30
0.0
 40
4.264680527307981
100
AcDbArc
 50
90.0
 51
270.0
  0
LINE
  5
4A54
330
1F
100
AcDbEntity
  8
PV0001_1
  6
CONTINUOUS
 48
0.5
100
AcDbLine
 10
-198.9126799858498
 20
0.0249721913222416
 30
0.0
 11
-198.9126799858498
 21
11.86209606217184
 31
0.0
  0
LINE
  5
4A55
330
1F
100
AcDbEntity
  8
PV0001_1
  6
CONTINUOUS
 48
0.5
100
AcDbLine
 10
-198.9126799858498
 20
0.0249721913222416
 30
0.0
 11
-198.9126799858497
 21
-11.81215167952691
 31
0.0
  0
ARC
  5
4A56
330
1F
100
AcDbEntity
  8
AM_0
100
AcDbCircle
 10
-152.1773605131578
 20
-0.0000000000010161
 30
0.0
 40
4.264680527307981
100
AcDbArc
 50
270.0
 51
90.0
  0
LINE
  5
4A57
330
1F
100
AcDbEntity
  8
PV0001_1
  6
CONTINUOUS
100
AcDbLine
 10
-142.9126799858498
 20
12.52497362183308
 30
0.0
 11
-198.2270328290784
 21
12.5249736218328
 31
0.0
  0
DIMENSION
  5
4A58
330
1F
100
AcDbEntity
  8
AM_5
100
AcDbDimension
  2
*D11
 10
-147.9126799858498
 20
-28.47941722561774
 30
0.0
 11
-170.4126856685511
 21
-25.07941722561774
 31
0.0
 70
    32
  1
<>
  3
AM_JIS$0
100
AcDbAlignedDimension
 13
-192.9126913512523
 23
-0.0000000000012032
 33
0.0
 14
-147.9126799858498
 24
-0.0000000000009948
 34
0.0
 50
0.0000000000004184
100
AcDbRotatedDimension
1001
ACAD
1000
DSTYLE
1002
{
1070
   271
1070
     3
1002
}
1001
GENIUS_GENDTOL_13
1000

1000
h7
1000

1040
0.0
  0
DIMENSION
  5
4A59
330
1F
100
AcDbEntity
  8
AM_5
100
AcDbDimension
  2
*D12
 10
-192.9126913512523
 20
-28.47941722561807
 30
0.0
 11
-195.9126427532135
 21
-28.47941722561807
 31
0.0
 70
   160
  1
<>
  3
AM_JIS$0
100
AcDbAlignedDimension
 13
-198.9125941551746
 23
-11.81209445906838
 33
0.0
 14
-192.9126913512523
 24
-0.0000000000012032
 34
0.0
 50
0.0000000000004185
100
AcDbRotatedDimension
1001
ACAD
1000
DSTYLE
1002
{
1070
   271
1070
     3
1002
}
1001
GENIUS_GENDTOL_13
1000

1000
h7
1000

1040
0.0
  0
DIMENSION
  5
4A5A
330
1F
100
AcDbEntity
  8
AM_5
100
AcDbDimension
  2
*D13
 10
-198.9125941551746
 20
-51.86240652469857
 30
0.0
 11
-101.4126370705121
 21
-48.46240652469857
 31
0.0
 70
    32
  1
<>
  3
AM_JIS$0
100
AcDbAlignedDimension
 13
-3.912679985849683
 23
-10.6000000000012
 33
0.0
 14
-198.9125941551746
 24
-11.81209445906838
 34
0.0
 50
0.0000000000004184
100
AcDbRotatedDimension
1001
ACAD
1000
DSTYLE
1002
{
1070
   271
1070
     3
1002
}
1001
GENIUS_GENDTOL_13
1000

1000
h7
1000

1040
0.0
  0
DIMENSION
  5
4A5B
330
1F
100
AcDbEntity
  8
AM_5
100
AcDbDimension
  2
*D14
 10
-198.9125941551746
 20
-40.34624234624797
 30
0.0
 11
-170.9126370705122
 21
-36.94624234624797
 31
0.0
 70
    32
  1
<>
  3
AM_JIS$0
100
AcDbAlignedDimension
 13
-142.9126799858497
 23
-12.47503639174677
 33
0.0
 14
-198.9125941551746
 24
-11.81209445906838
 34
0.0
 50
0.0000000000004184
100
AcDbRotatedDimension
1001
ACAD
1000
DSTYLE
1002
{
1070
   271
1070
     3
1002
}
1001
GENIUS_GENDTOL_13
1000

1000
h7
1000

1040
0.0
  0
DIMENSION
  5
4A5C
330
1F
100
AcDbEntity
  8
AM_5
100
AcDbDimension
  2
*D15
 10
-142.9126799858497
 20
-40.41392283251385
 30
0.0
 11
-73.41267998584974
 21
-37.01392283251385
 31
0.0
 70
    32
  1
<>
  3
AM_JIS$0
100
AcDbAlignedDimension
 13
-3.912679985849691
 23
-10.60000000000006
 33
0.0
 14
-142.9126799858497
 24
-13.27503639174677
 34
0.0
 50
0.0000000000003167
100
AcDbRotatedDimension
1001
ACAD
1000
DSTYLE
1002
{
1070
   271
1070
     3
1002
}
1001
GENIUS_GENDTOL_13
1000

1000
h7
1000

1040
0.0
  0
DIMENSION
  5
4A5D
330
1F
100
AcDbEntity
  8
AM_5
100
AcDbDimension
  2
*D16
 10
-215.8231240566775
 20
-12.47489334306203
 30
0.0
 11
-219.2231240566775
 21
0.0250580207794723
 31
0.0
 70
    32
  1
%%C<>
  3
AM_JIS$0
100
AcDbAlignedDimension
 13
-198.1906358059539
 23
12.52500938462104
 33
0.0
 14
-198.1906358059537
 24
-12.47489334306204
 34
0.0
 50
270.0
100
AcDbRotatedDimension
1001
ACAD
1000
DSTYLE
1002
{
1070
   271
1070
     3
1002
}
1001
GENIUS_GENDTOL_13
1000

1000
h7
1000

1040
0.0
  0
SPLINE
  5
4BDC
330
1F
100
AcDbEntity
  8
AM_0
100
AcDbSpline
210
0.0
220
0.0
230
1.0
 70
     8
 71
     3
 72
    12
 73
     8
 74
     0
 42
0.0000000001
 43
0.0000000001
 40
0.0
 40
0.0
 40
0.0
 40
0.0
 40
3.550288329958888
 40
5.110699985623471
 40
6.310592039948465
 40
8.859663010396623
 40
10.65155104271494
 40
10.65155104271494
 40
10.65155104271494
 40
10.65155104271494
 10
-119.9110216799658
 20
1.712800103635836
 30
0.0
 10
-126.7725915253861
 20
4.923202037116743
 30
0.0
 10
-135.1409814177765
 20
5.236074819514393
 30
0.0
 10
-140.5080275202418
 20
2.832595285003272
 30
0.0
 10
-141.2608285356942
 20
-0.4402269525348208
 30
0.0
 10
-139.6457511421115
 20
-3.248912013142287
 30
0.0
 10
-135.7541507587349
 20
-6.312004977141811
 30
0.0
 10
-129.346887586845
 20
-8.408820679311446
 30
0.0
  0
LINE
  5
4F17
330
1F
100
AcDbEntity
  8
PV0001_1
  6
CONTINUOUS
 48
0.5
100
AcDbLine
 10
-0.0000000000000213
 20
-0.0000000000007394
 30
0.0
 11
-3.91267998584974
 21
10.74999999999994
 31
0.0
  0
LINE
  5
4F18
330
1F
100
AcDbEntity
  8
PV0001_1
  6
CONTINUOUS
 48
0.5
100
AcDbLine
 10
-0.0000000000000213
 20
-0.0000000000009455
 30
0.0
 11
-3.912679985849098
 21
-10.75000000000004
 31
0.0
  0
LINE
  5
4F44
330
1F
100
AcDbEntity
  8
PV0001_1
  6
CONTINUOUS
 48
0.5
100
AcDbLine
 10
-121.9126799858496
 20
10.75000000000207
 30
0.0
 11
-106.1505930242145
 21
10.75000000000182
 31
0.0
  0
SPLINE
  5
4F45
330
1F
100
AcDbEntity
  8
PV0001_1
  6
CONTINUOUS
100
AcDbSpline
210
0.0
220
0.0
230
1.0
 70
     8
 71
     3
 72
    16
 73
    12
 74
     0
 42
0.0000000001
 43
0.0000000001
 40
0.0
 40
0.0
 40
0.0
 40
0.0
 40
1.010743684496582
 40
2.022833576467832
 40
3.037578957496688
 40
4.056212745003489
 40
5.079857003664532
 40
6.109500240690281
 40
7.145961322679372
 40
8.189895241603872
 40
8.753615341503387
 40
8.753615341503387
 40
8.753615341503387
 40
8.753615341503387
 10
-109.8927193072706
 20
-10.74999994672545
 30
0.0
 10
-110.6480059565212
 20
-10.74360395716013
 30
0.0
 10
-112.1595852197871
 20
-10.73080345922388
 30
0.0
 10
-114.4264040221801
 20
-10.62761707549507
 30
0.0
 10
-116.6931260626253
 20
-10.46357768065701
 30
0.0
 10
-118.9597078152301
 20
-10.23367022990418
 30
0.0
 10
-121.2261266630768
 20
-9.941010409984968
 30
0.0
 10
-123.4923378947889
 20
-9.58689963248109
 30
0.0
 10
-125.7583490907423
 20
-9.173723313805396
 30
0.0
 10
-127.6710554294389
 20
-8.777208080998059
 30
0.0
 10
-128.8272672719819
 20
-8.516532957667175
 30
0.0
 10
-129.2318592386259
 20
-8.422834622686558
 30
0.0
  0
LINE
  5
4F46
330
1F
100
AcDbEntity
  8
AM_0
100
AcDbLine
 10
-121.9126799858496
 20
-10.74999999999814
 30
0.0
 11
-109.8926670320753
 21
-10.74999999999834
 31
0.0
  0
SPLINE
  5
4F47
330
1F
100
AcDbEntity
  8
PV0001_1
  6
CONTINUOUS
100
AcDbSpline
210
0.0
220
0.0
230
1.0
 70
     8
 71
     3
 72
    30
 73
    26
 74
     0
 42
0.0000000001
 43
0.0000000001
 40
0.0
 40
0.0
 40
0.0
 40
0.0
 40
1.010743684496582
 40
2.022833576467832
 40
3.037578957496688
 40
4.056212745003489
 40
5.079857003664532
 40
6.109500240690281
 40
7.145961322679372
 40
8.189895241603872
 40
9.241717795325891
 40
10.30168407291828
 40
11.36983447792315
 40
12.44600489715814
 40
13.52984294512926
 40
14.62081576220742
 40
15.7182257034828
 40
16.82123173843959
 40
17.92886860250316
 40
19.0400688939571
 40
20.15368796660465
 40
21.26852814259644
 40
22.38336992938901
 40
23.49698739941135
 40
23.53853004329818
 40
23.53853004329818
 40
23.53853004329818
 40
23.53853004329818
 10
-77.37165764453166
 20
-10.74999999999866
 30
0.0
 10
-78.01441838446336
 20
-10.74360401043334
 30
0.0
 10
-79.30079595605977
 20
-10.73080351249709
 30
0.0
 10
-81.22989417613664
 20
-10.6276171287683
 30
0.0
 10
-83.15891005028408
 20
-10.46357773393024
 30
0.0
 10
-85.08780653728738
 20
-10.23367028317741
 30
0.0
 10
-87.01656438979606
 20
-9.941010463258219
 30
0.0
 10
-88.94514555773005
 20
-9.586899685754341
 30
0.0
 10
-90.87355649210801
 20
-9.173723367078665
 30
0.0
 10
-92.80178009182202
 20
-8.704011601317164
 30
0.0
 10
-94.7298032221551
 20
-8.180648390216692
 30
0.0
 10
-96.65763549323694
 20
-7.606918830552813
 30
0.0
 10
-98.58528206818659
 20
-6.986334186562733
 30
0.0
 10
-100.512767031404
 20
-6.32275775529527
 30
0.0
 10
-102.4400992076336
 20
-5.620267356095161
 30
0.0
 10
-104.3672964685209
 20
-4.883195316732348
 30
0.0
 10
-106.294380186945
 20
-4.116088783074813
 30
0.0
 10
-108.2213672760209
 20
-3.323665097359249
 30
0.0
 10
-110.1482764373781
 20
-2.510797973514141
 30
0.0
 10
-112.0751282897635
 20
-1.682490512112513
 30
0.0
 10
-114.0019397335021
 20
-0.8438348070231993
 30
0.0
 10
-115.9287379781557
 20
-0.0000021933885706
 30
0.0
 10
-117.8555275730976
 20
0.843845609758998
 30
0.0
 10
-119.1652060707433
 20
1.413879881411155
 30
0.0
 10
-119.8324299975496
 20
1.702425262740668
 30
0.0
 10
-119.8564261452794
 20
1.712800103635835
 30
0.0
  0
LINE
  5
4F48
330
1F
100
AcDbEntity
  8
PV0001_1
  6
CONTINUOUS
 48
0.5
100
AcDbLine
 10
-3.381764924409411
 20
9.316668033599011
 30
0.0
 11
-15.23745385355261
 21
9.316668033599157
 31
0.0
  0
LINE
  5
4F49
330
1F
100
AcDbEntity
  8
PV0001_1
  6
CONTINUOUS
 48
0.5
100
AcDbLine
 10
-15.21898548074164
 20
10.75000000000008
 30
0.0
 11
-3.912679985849741
 21
10.74999999999994
 31
0.0
  0
LINE
  5
4F4B
330
1F
100
AcDbEntity
  8
PV0001_1
  6
CONTINUOUS
 48
0.5
100
AcDbLine
 10
-11.74886885096465
 20
3.342008060822238
 30
0.0
 11
-8.200873230390071
 21
1.212254275190667
 31
0.0
  0
ELLIPSE
  5
4F4C
330
1F
100
AcDbEntity
  8
AM_0
100
AcDbEllipse
 10
-5.669193766812213
 20
4.010489698980336
 30
0.0
 11
-4.476372355491336
 21
0.4938890897831619
 31
0.0
210
0.0
220
0.0
230
0.9999999999999998
 40
0.7795104945184286
 41
1.057992497600695
 42
3.102432830952584
  0
LINE
  5
4F4D
330
1F
100
AcDbEntity
  8
AM_0
100
AcDbLine
 10
-3.608305981920418
 20
0.8050967997339506
 30
0.0
 11
-2.774869256265065
 21
-2.660253967435348
 31
0.0
  0
LINE
  5
4F4F
330
1F
100
AcDbEntity
  8
PV0001_1
  6
CONTINUOUS
 48
0.5
100
AcDbLine
 10
-16.51268225547951
 20
-9.284090909090821
 30
0.0
 11
-4.394677902011666
 21
-9.284090909090949
 31
0.0
  0
LINE
  5
4F50
330
1F
100
AcDbEntity
  8
PV0001_1
  6
CONTINUOUS
 48
0.5
100
AcDbLine
 10
-16.51268225547953
 20
-10.74999999999988
 30
0.0
 11
-3.912679985849099
 21
-10.75000000000004
 31
0.0
  0
LINE
  5
4F52
330
1F
100
AcDbEntity
  8
PV0001_1
  6
CONTINUOUS
 48
0.5
100
AcDbLine
 10
-8.200873230390016
 20
1.212254275190515
 30
0.0
 11
-4.394677902011666
 21
-9.284090909090949
 31
0.0
  0
LINE
  5
4F53
330
1F
100
AcDbEntity
  8
PV0001_1
  6
CONTINUOUS
 48
0.5
100
AcDbLine
 10
-2.774869256265065
 20
-2.660253967435348
 30
0.0
 11
-4.394677902011666
 21
-9.284090909090949
 31
0.0
  0
LINE
  5
4F54
330
1F
100
AcDbEntity
  8
AM_0
100
AcDbLine
 10
-2.774869256265065
 20
-2.660253967435348
 30
0.0
 11
-6.170169670196092
 21
-4.387817107332587
 31
0.0
  0
DIMENSION
  5
4F59
330
1F
100
AcDbEntity
  8
AM_5
100
AcDbDimension
  2
*D17
 10
18.55816745789033
 20
-10.75000000000004
 30
0.0
 11
18.55816745789033
 21
-0.0000000000001192
 31
0.0
 70
   160
  1
%%C<>
 51
359.9999999999998
  3
AM_JIS$0
100
AcDbAlignedDimension
 13
-3.698407188424791
 23
10.74999999999995
 33
0.0
 14
-3.821687428038872
 24
-10.75000000000003
 34
0.0
 50
89.99999999999934
100
AcDbRotatedDimension
1001
GENIUS_GENDTOL_13
1000

1000
h7
1000

1040
0.0
1001
ACAD
1000
DSTYLE
1002
{
1070
   271
1070
     3
1002
}
  0
SPLINE
  5
4F68
330
1F
100
AcDbEntity
  8
PV0001_1
  6
CONTINUOUS
100
AcDbSpline
210
0.0
220
0.0
230
1.0
 70
     8
 71
     3
 72
    16
 73
    12
 74
     0
 42
0.0000000001
 43
0.0000000001
 40
2.625839846755727
 40
2.625839846755727
 40
2.625839846755727
 40
2.625839846755727
 40
3.082371838836284
 40
4.126290986361125
 40
5.162752068350215
 40
6.192395305374981
 40
7.216039564037012
 40
8.234688489606833
 40
9.249433870634691
 40
10.26152376260694
 40
11.27226744710342
 40
11.27226744710342
 40
11.27226744710342
 40
11.27226744710352
 10
-94.97552795478521
 20
-8.101921653551293
 30
0.0
 10
-96.00889469111885
 20
-8.551601580754585
 30
0.0
 10
-96.80722546513917
 20
-8.792846035027427
 30
0.0
 10
-98.16370763108412
 20
-9.173877927568701
 30
0.0
 10
-99.83895160042397
 20
-9.586863229034596
 30
0.0
 10
-101.5142723288578
 20
-9.94100529125051
 30
0.0
 10
-103.1897755804825
 20
-10.23372806775374
 30
0.0
 10
-104.8653945878188
 20
-10.463361118731
 30
0.0
 10
-106.5411179326078
 20
-10.62841634517607
 30
0.0
 10
-108.2169043293658
 20
-10.72783126742814
 30
0.0
 10
-109.3343664124407
 20
-10.75000006151029
 30
0.0
 10
-109.8927255990146
 20
-10.74999999999785
 30
0.0
  0
LINE
  5
4F69
330
1F
100
AcDbEntity
  8
AM_11
 48
0.5
100
AcDbLine
 10
-11.15513430333577
 20
-10.74999999999997
 30
0.0
 11
-109.8927209480322
 21
-10.74999999999881
 31
0.0
  0
LINE
  5
4F6E
330
1F
100
AcDbEntity
  8
AM_11
 48
0.5
100
AcDbLine
 10
-106.1506599139081
 20
10.75000000000109
 30
0.0
 11
-9.822078122239972
 21
10.75000000000001
 31
0.0
  0
SPLINE
  5
5033
330
1F
100
AcDbEntity
  8
PV0001_1
  6
CONTINUOUS
100
AcDbSpline
210
0.0
220
0.0
230
1.0
 70
     8
 71
     3
 72
    25
 73
    21
 74
     0
 42
0.0000000001
 43
0.0000000001
 40
24.56499986022253
 40
24.56499986022253
 40
24.56499986022253
 40
24.56499986022253
 40
24.6081876908653
 40
25.71582455492886
 40
26.81883757994213
 40
27.91624752121713
 40
29.00722033829659
 40
30.09105838626677
 40
31.16722880550176
 40
32.23537921050758
 40
33.29534548809967
 40
34.347168041821
 40
35.39108718934584
 40
36.42754827133493
 40
37.45720575381954
 40
38.48085062012849
 40
39.49948440763516
 40
40.51422944315121
 40
41.52631975251916
 40
42.53706336680078
 40
42.53706336680078
 40
42.53706336680078
 40
42.53706336680078
 10
-11.74886885096465
 20
3.342008060822238
 30
0.0
 10
-11.77003072683147
 20
3.35201448949362
 30
0.0
 10
-12.33396224250033
 20
3.618569234389358
 30
0.0
 10
-13.44007252900647
 20
4.136044618043679
 30
0.0
 10
-15.0697631348926
 20
4.878287340190908
 30
0.0
 10
-16.69874543707678
 20
5.595233362189466
 30
0.0
 10
-18.32688860931009
 20
6.282151982695813
 30
0.0
 10
-19.95407163692732
 20
6.934502858415026
 30
0.0
 10
-21.58017540088027
 20
7.547954380149206
 30
0.0
 10
-23.20508078694174
 20
8.118430459412067
 30
0.0
 10
-24.82868785304444
 20
8.642069925075093
 30
0.0
 10
-26.45088531394936
 20
9.115357331838147
 30
0.0
 10
-28.07158351645553
 20
9.535024771954189
 30
0.0
 10
-29.69069419620366
 20
9.898180973334021
 30
0.0
 10
-31.30812581064453
 20
10.20224653085704
 30
0.0
 10
-32.9237971149234
 20
10.44501726901373
 30
0.0
 10
-34.53762207221086
 20
10.62469944268699
 30
0.0
 10
-36.14954411109065
 20
10.73981019333042
 30
0.0
 10
-37.75949856017318
 20
10.7893609995938
 30
0.0
 10
-38.83169407493099
 20
10.77826326583398
 30
0.0
 10
-39.36709171601156
 20
10.76165444568025
 30
0.0
  0
SPLINE
  5
5034
330
1F
100
AcDbEntity
  8
PV0001_1
  6
CONTINUOUS
100
AcDbSpline
210
0.0
220
0.0
230
1.0
 70
     8
 71
     3
 72
    47
 73
    43
 74
     0
 42
0.0000000001
 43
0.0000000001
 40
0.0
 40
0.0
 40
0.0
 40
0.0
 40
1.010743684496582
 40
2.022833576467832
 40
3.037578957496688
 40
4.056212745003489
 40
5.079857003664532
 40
6.109500240690281
 40
7.145961322679372
 40
8.189895241603872
 40
9.241717795325891
 40
10.30168407291828
 40
11.36983447792315
 40
12.44600489715814
 40
13.52984294512926
 40
14.62081576220742
 40
15.7182257034828
 40
16.82123173843959
 40
17.92886860250316
 40
19.0400688939571
 40
20.15368796660465
 40
21.26852814259644
 40
22.38336992938901
 40
23.49698739941135
 40
24.6081876908653
 40
25.71582455492886
 40
26.81883757994213
 40
27.91624752121713
 40
29.00722033829659
 40
30.09105838626677
 40
31.16722880550176
 40
32.23537921050758
 40
33.29534548809967
 40
34.347168041821
 40
35.39108718934584
 40
36.42754827133493
 40
37.45720575381954
 40
38.48085062012849
 40
39.49948440763516
 40
40.51422944315121
 40
41.52631975251916
 40
42.53706336679711
 40
42.53706336679711
 40
42.53706336679711
 40
42.53706336679711
 10
-43.38113747472037
 20
-10.74999999999951
 30
0.0
 10
-43.91679257121765
 20
-10.74360401043419
 30
0.0
 10
-44.9888162021547
 20
-10.73080351249795
 30
0.0
 10
-46.59646151872734
 20
-10.62761712876915
 30
0.0
 10
-48.20403821098294
 20
-10.4635777339311
 30
0.0
 10
-49.81151541002403
 20
-10.23367028317827
 30
0.0
 10
-51.41887707575856
 20
-9.941010463259075
 30
0.0
 10
-53.02609149853471
 20
-9.586899685755197
 30
0.0
 10
-54.63316405441343
 20
-9.173723367079524
 30
0.0
 10
-56.24008049190901
 20
-8.704011601318025
 30
0.0
 10
-57.84682986499188
 20
-8.180648390217559
 30
0.0
 10
-59.45342018241941
 20
-7.606918830553681
 30
0.0
 10
-61.05985574696089
 20
-6.986334186563602
 30
0.0
 10
-62.66615662974188
 20
-6.322757755296141
 30
0.0
 10
-64.27233018500628
 20
-5.620267356096035
 30
0.0
 10
-65.87839130638028
 20
-4.883195316733223
 30
0.0
 10
-67.4843578052992
 20
-4.116088783075687
 30
0.0
 10
-69.0902437765825
 20
-3.323665097360124
 30
0.0
 10
-70.69606480553625
 20
-2.510797973515018
 30
0.0
 10
-72.30183807512817
 20
-1.682490512113391
 30
0.0
 10
-73.90757766951823
 20
-0.843834807024079
 30
0.0
 10
-75.51330626423669
 20
-0.0000021933894509
 30
0.0
 10
-77.11902765057735
 20
0.8438456097581148
 30
0.0
 10
-78.72477262705654
 20
1.682488254759911
 30
0.0
 10
-80.33054391429979
 20
2.510798223400865
 30
0.0
 10
-81.93636780641469
 20
3.323668443907402
 30
0.0
 10
-83.54226043968324
 20
4.116085366939669
 30
0.0
 10
-85.14822947324162
 20
4.883195790894789
 30
0.0
 10
-86.75429082647751
 20
5.6202672325681
 30
0.0
 10
-88.36046432329828
 20
6.322757779499281
 30
0.0
 10
-89.96676521019242
 20
6.98633421173821
 30
0.0
 10
-91.57320081565107
 20
7.606918707336839
 30
0.0
 10
-93.179790967261
 20
8.180648852831097
 30
0.0
 10
-94.78653343512531
 20
8.704007442641247
 30
0.0
 10
-96.39343993569873
 20
9.173725360454819
 30
0.0
 10
-98.00051189543696
 20
9.586909987586938
 30
0.0
 10
-99.60773779426274
 20
9.940980320724504
 30
0.0
 10
-101.215104770266
 20
10.23373072504403
 30
0.0
 10
-102.8225824458352
 20
10.4633656501893
 30
0.0
 10
-104.430160255084
 20
10.62840119651549
 30
0.0
 10
-106.0378042083537
 20
10.72784731273501
 30
0.0
 10
-107.1098282939058
 20
10.75000000000162
 30
0.0
 10
-107.6454834880181
 20
10.75000000000172
 30
0.0
  0
LINE
  5
5035
330
1F
100
AcDbEntity
  8
AM_0
100
AcDbLine
 10
-15.29427559392791
 20
4.974417194416052
 30
0.0
 11
-15.21988327720633
 21
10.74999999999988
 31
0.0
  0
SPLINE
  5
5036
330
1F
100
AcDbEntity
  8
PV0001_1
  6
CONTINUOUS
 48
0.5
100
AcDbSpline
210
0.0
220
0.0
230
1.0
 70
     8
 71
     3
 72
    15
 73
    11
 74
     0
 42
0.0000000001
 43
0.0000000001
 40
0.0
 40
0.0
 40
0.0
 40
0.0
 40
1.010743614677189
 40
2.022833924044153
 40
3.037578959561199
 40
4.056212747067873
 40
5.079857613375832
 40
6.109500119648989
 40
7.14596120163808
 40
7.336193997738589
 40
7.336193997738589
 40
7.336193997738589
 40
7.336193997738589
 10
-15.21999417162173
 20
10.74138858077226
 30
0.0
 10
-15.73145946355173
 20
10.74132398241758
 30
0.0
 10
-16.75517007641873
 20
10.71926592307788
 30
0.0
 10
-18.29028225647421
 20
10.6197816679357
 30
0.0
 10
-19.82535259380838
 20
10.45475655028008
 30
0.0
 10
-21.36032143279364
 20
10.2251181726015
 30
0.0
 10
-22.89517921541087
 20
9.932372543648281
 30
0.0
 10
-24.42989975768856
 20
9.578294358466536
 30
0.0
 10
-25.543242414853
 20
9.278531362168591
 30
0.0
 10
-26.14596606395608
 20
9.103182519006439
 30
0.0
 10
-26.28227344365966
 20
9.059775634578514
 30
0.0
  0
SPLINE
  5
5037
330
1F
100
AcDbEntity
  8
PV0001_1
  6
CONTINUOUS
100
AcDbSpline
210
0.0
220
0.0
230
1.0
 70
     8
 71
     3
 72
    17
 73
    13
 74
     0
 42
0.0000000001
 43
0.0000000001
 40
1.580019955310467
 40
1.580019955310467
 40
1.580019955310467
 40
1.580019955310467
 40
2.030549285115227
 40
3.082371838836284
 40
4.126290986361125
 40
5.162752068350215
 40
6.192395305374981
 40
7.216039564037012
 40
8.234688489606833
 40
9.249433870634691
 40
10.26152376260694
 40
11.27226744710342
 40
11.27226744710342
 40
11.27226744710342
 40
11.27226744710352
 10
-31.41994967659371
 20
-7.933816550846064
 30
0.0
 10
-31.64740465484916
 20
-8.015528270397917
 30
0.0
 10
-32.40718069849613
 20
-8.283349345388433
 30
0.0
 10
-33.7043068215754
 20
-8.703436284315912
 30
0.0
 10
-35.31098941469425
 20
-9.173877927570311
 30
0.0
 10
-36.91811432602659
 20
-9.586863229036202
 30
0.0
 10
-38.52531287526142
 20
-9.941005291252114
 30
0.0
 10
-40.13268652589776
 20
-10.23372806775534
 30
0.0
 10
-41.74017122536715
 20
-10.46336111873259
 30
0.0
 10
-43.34775601970178
 20
-10.62841634517765
 30
0.0
 10
-44.9554013021754
 20
-10.72783126742973
 30
0.0
 10
-46.02742495010204
 20
-10.75000006151187
 30
0.0
 10
-46.56308003953237
 20
-10.74999999999943
 30
0.0
  0
LINE
  5
5038
330
1F
100
AcDbEntity
  8
AM_0
100
AcDbLine
 10
-16.51268225547953
 20
-10.7267830741109
 30
0.0
 11
-16.51268225547933
 21
5.50990010744476
 31
0.0
  0
LINE
  5
5039
330
1F
100
AcDbEntity
  8
PV0001_1
  6
CONTINUOUS
 48
0.5
100
AcDbLine
 10
-83.87204867387527
 20
-10.74999999999895
 30
0.0
 11
-46.5630800395326
 21
-10.74999999999966
 31
0.0
  0
LINE
  5
503A
330
1F
100
AcDbEntity
  8
PV0001_1
  6
CONTINUOUS
 48
0.5
100
AcDbLine
 10
-80.54351592997978
 20
10.75000000000097
 30
0.0
 11
-39.74278141987693
 21
10.75000000000019
 31
0.0
  0
SPLINE
  5
503B
330
1F
100
AcDbEntity
  8
PV0001_1
  6
CONTINUOUS
100
AcDbSpline
210
0.0
220
0.0
230
1.0
 70
     8
 71
     3
 72
    55
 73
    51
 74
     0
 42
0.0000000001
 43
0.0000000001
 40
0.0
 40
0.0
 40
0.0
 40
0.0
 40
1.010743684496582
 40
2.022833576467832
 40
3.037578957496688
 40
4.056212745003489
 40
5.079857003664532
 40
6.109500240690281
 40
7.145961322679372
 40
8.189895241603872
 40
9.241717795325891
 40
10.30168407291828
 40
11.36983447792315
 40
12.44600489715814
 40
13.52984294512926
 40
14.62081576220742
 40
15.7182257034828
 40
16.82123173843959
 40
17.92886860250316
 40
19.0400688939571
 40
20.15368796660465
 40
21.26852814259644
 40
22.38336992938901
 40
23.49698739941135
 40
24.6081876908653
 40
25.71582455492886
 40
26.81883757994213
 40
27.91624752121713
 40
29.00722033829659
 40
30.09105838626677
 40
31.16722880550176
 40
32.23537921050758
 40
33.29534548809967
 40
34.347168041821
 40
35.39108718934584
 40
36.42754827133493
 40
37.45720575381954
 40
38.48085062012849
 40
39.49948440763516
 40
40.51422944315121
 40
41.52631975251916
 40
42.53706336719636
 40
43.54780698187354
 40
44.55989729124051
 40
45.57464232675757
 40
46.59327611426424
 40
47.6169209805722
 40
48.64656348684535
 40
49.68302456883444
 40
50.58557219878025
 40
50.58557219878025
 40
50.58557219878025
 40
50.58557219878025
 10
-16.51268225547953
 20
-10.75000000000031
 30
0.0
 10
-16.81483714172697
 20
-10.74360401043472
 30
0.0
 10
-17.88686077266403
 20
-10.73080351249847
 30
0.0
 10
-19.49450608923666
 20
-10.62761712876968
 30
0.0
 10
-21.10208278149227
 20
-10.46357773393162
 30
0.0
 10
-22.70955998053334
 20
-10.2336702831788
 30
0.0
 10
-24.31692164626784
 20
-9.941010463259603
 30
0.0
 10
-25.92413606904401
 20
-9.58689968575573
 30
0.0
 10
-27.53120862492277
 20
-9.173723367080045
 30
0.0
 10
-29.13812506241836
 20
-8.704011601318558
 30
0.0
 10
-30.74487443550121
 20
-8.180648390218086
 30
0.0
 10
-32.35146475292872
 20
-7.606918830554207
 30
0.0
 10
-33.95790031747017
 20
-6.986334186564127
 30
0.0
 10
-35.56420120025119
 20
-6.322757755296665
 30
0.0
 10
-37.17037475551563
 20
-5.62026735609656
 30
0.0
 10
-38.77643587688961
 20
-4.88319531673375
 30
0.0
 10
-40.38240237580855
 20
-4.116088783076214
 30
0.0
 10
-41.98828834709184
 20
-3.323665097360652
 30
0.0
 10
-43.5941093760456
 20
-2.510797973515545
 30
0.0
 10
-45.19988264563756
 20
-1.682490512113919
 30
0.0
 10
-46.80562224002755
 20
-0.843834807024606
 30
0.0
 10
-48.41135083474603
 20
-0.0000021933899778
 30
0.0
 10
-50.01707222108669
 20
0.8438456097575873
 30
0.0
 10
-51.62281719756584
 20
1.682488254759385
 30
0.0
 10
-53.22858848480912
 20
2.51079822340034
 30
0.0
 10
-54.83441237692407
 20
3.323668443906875
 30
0.0
 10
-56.44030501019255
 20
4.11608536693914
 30
0.0
 10
-58.04627404375098
 20
4.883195790894262
 30
0.0
 10
-59.65233539698684
 20
5.620267232567575
 30
0.0
 10
-61.25850889380763
 20
6.32275777949875
 30
0.0
 10
-62.8648097807017
 20
6.986334211737682
 30
0.0
 10
-64.47124538616041
 20
7.606918707336312
 30
0.0
 10
-66.07783553777029
 20
8.180648852830568
 30
0.0
 10
-67.6845780056346
 20
8.704007442640717
 30
0.0
 10
-69.29148450620805
 20
9.173725360454287
 30
0.0
 10
-70.89855646594624
 20
9.586909987586414
 30
0.0
 10
-72.50578236477204
 20
9.940980320723971
 30
0.0
 10
-74.11314934077529
 20
10.2337307250435
 30
0.0
 10
-75.72062701634455
 20
10.46336565018876
 30
0.0
 10
-77.3282048255933
 20
10.62840119651496
 30
0.0
 10
-78.93584877907426
 20
10.72784731274755
 30
0.0
 10
-80.54352805955614
 20
10.76106896960352
 30
0.0
 10
-82.15120733767255
 20
10.72784731269561
 30
0.0
 10
-83.75885129826372
 20
10.62840119672395
 30
0.0
 10
-85.36642908133471
 20
10.46336564940145
 30
0.0
 10
-86.97390685505075
 20
10.2337307280031
 30
0.0
 10
-88.58126562586287
 20
9.940981736801489
 30
0.0
 10
-90.18848519283039
 20
9.586913607764429
 30
0.0
 10
-91.72248707818244
 20
9.192481326638871
 30
0.0
 10
-92.71776497110877
 20
8.904029270617778
 30
0.0
 10
-93.99645922692711
 20
8.44448603833803
 30
0.0
  0
VIEWPORT
  5
110
330
101
100
AcDbEntity
 67
     1
  8
0
100
AcDbViewport
 10
420.5
 20
297.0
 30
0.0
 40
948.9782706766916
 41
628.452
 68
     1
 69
     1
1001
ACAD
1000
MVIEW
1002
{
1070
    16
1010
0.0
1020
0.0
1030
0.0
1010
0.0
1020
0.0
1030
1.0
1040
0.0
1040
628.452
1040
420.5
1040
297.0
1040
50.0
1040
0.0
1040
0.0
1070
     0
1070
   100
1070
     1
1070
     1
1070
     0
1070
     0
1070
     0
1070
     0
1040
0.0
1040
0.0
1040
0.0
1040
10.0
1040
10.0
1040
10.0
1040
10.0
1070
     0
1002
{
1002
}
1002
}
  0
ENDSEC
  0
SECTION
  2
OBJECTS
  0
DICTIONARY
  5
C
330
0
100
AcDbDictionary
  3
ACAD_GROUP
350
D
  3
ACAD_LAYOUT
350
1A
  3
ACAD_MLINESTYLE
350
17
  3
ACAD_PLOTSETTINGS
350
19
  3
ACAD_PLOTSTYLENAME
350
E
  3
ACDBVARIABLEDICTIONARY
350
34
  3
ACMDICTIONARY
350
43
  3
AMG
350
2B
  3
AMGSNAPSETTINGS
350
6E
  3
DWGPROPS
350
5058
  3
ACDBHEADERROUNDTRIPXREC
350
5068
  0
DICTIONARY
  5
74
330
1F
100
AcDbDictionary
280
     1
  3
ACAD_INDEX
360
505A
  3
ACAD_LAYOUTSELFREF
360
508B
  0
DICTIONARY
  5
5090
330
101
100
AcDbDictionary
280
     1
  3
ACAD_LAYOUTSELFREF
360
5091
  0
DICTIONARY
  5
D
102
{ACAD_REACTORS
330
C
102
}
330
C
100
AcDbDictionary
  0
DICTIONARY
  5
1A
102
{ACAD_REACTORS
330
C
102
}
330
C
100
AcDbDictionary
  0
DICTIONARY
  5
17
102
{ACAD_REACTORS
330
C
102
}
330
C
100
AcDbDictionary
  3
STANDARD
350
18
  0
DICTIONARY
  5
19
102
{ACAD_REACTORS
330
C
102
}
330
C
100
AcDbDictionary
  0
ACDBDICTIONARYWDFLT
  5
E
102
{ACAD_REACTORS
330
C
102
}
330
C
100
AcDbDictionary
281
     1
  3
Normal
350
F
100
AcDbDictionaryWithDefault
340
F
  0
DICTIONARY
  5
34
102
{ACAD_REACTORS
330
C
102
}
330
C
100
AcDbDictionary
  3
INDEXCTL
350
35
  3
SORTENTS
350
B5E
  0
DICTIONARY
  5
43
102
{ACAD_REACTORS
330
C
102
}
330
C
100
AcDbDictionary
  3
ACMSTDDICTIONARY
350
260
  0
DICTIONARY
  5
2B
102
{ACAD_REACTORS
330
C
102
}
330
C
100
AcDbDictionary
  3
ACMGSETTINGS
350
2C
  0
DICTIONARY
  5
6E
102
{ACAD_REACTORS
330
C
102
}
330
C
100
AcDbDictionary
  0
XRECORD
  5
5058
102
{ACAD_REACTORS
330
C
102
}
330
C
100
AcDbXrecord
  1
DWGPROPS COOKIE
  2

  3

  4

  6

  7

  8

  9

300
AmdtFileType=82
301
=
302
=
303
=
304
=
305
=
306
=
307
=
308
=
309
=
 40
0.4578586226851852
 41
2452800.443498622
 42
2453002.168172059
  1

 90
        1
  0
DICTIONARY
  5
5068
102
{ACAD_REACTORS
330
C
102
}
330
C
100
AcDbDictionary
  3
TSTACKALIGN
350
5069
  3
TSTACKSIZE
350
506A
  3
HYPERLINKBASE
350
506B
  3
STYLESHEET
350
506C
  3
LAYOUTDICT
350
506D
  3
PLOTSETDICT
350
506E
  3
PLOTSTYLNAMDICT
350
506F
  3
LWETCUNION
350
5070
  3
INSUNITS
350
5071
  3
CEPSNTYPE
350
5072
  3
FINGERPRINTGUID
350
5073
  3
VERSIONGUID
350
5074
  3
PSVPSCALE
350
5075
  3
DIMSTYLEDATA
350
5076
  3
PUCSORTHOREF
350
5077
  3
PUCSORTHOVIEW
350
5078
  3
PUCSBASE
350
5079
  3
PUCSORGTOP
350
507A
  3
PUCSORGBOTTOM
350
507B
  3
PUCSORGLEFT
350
507C
  3
PUCSORGRIGHT
350
507D
  3
PUCSORGFRONT
350
507E
  3
PUCSORGBACK
350
507F
  3
UCSORTHOREF
350
5080
  3
UCSORTHOVIEW
350
5081
  3
UCSBASE
350
5082
  3
UCSORGTOP
350
5083
  3
UCSORGBOTTOM
350
5084
  3
UCSORGLEFT
350
5085
  3
UCSORGRIGHT
350
5086
  3
UCSORGFRONT
350
5087
  3
UCSORGBACK
350
5088
  0
DICTIONARY
  5
505A
102
{ACAD_REACTORS
330
74
102
}
330
74
100
AcDbDictionary
  3
*A1
350
505B
  0
XRECORD
  5
508B
102
{ACAD_REACTORS
330
74
102
}
330
74
100
AcDbXrecord
340
1F
  0
XRECORD
  5
5091
102
{ACAD_REACTORS
330
5090
102
}
330
5090
100
AcDbXrecord
340
101
  0
MLINESTYLE
  5
18
102
{ACAD_REACTORS
330
17
102
}
330
17
100
AcDbMlineStyle
  2
STANDARD
 70
     0
  3

 62
   256
 51
90.0
 52
90.0
 71
     2
 49
0.5
 62
   256
  6
BYLAYER
 49
-0.5
 62
   256
  6
BYLAYER
  0
ACDBPLACEHOLDER
  5
F
102
{ACAD_REACTORS
330
E
102
}
330
E
100
AcDbPlaceHolder
280
     0
  0
DICTIONARYVAR
  5
35
102
{ACAD_REACTORS
330
34
102
}
330
34
100
DictionaryVariables
280
     0
  1
1
  0
DICTIONARYVAR
  5
B5E
102
{ACAD_REACTORS
330
34
102
}
330
34
100
DictionaryVariables
280
     0
  1
96
  0
DICTIONARY
  5
260
102
{ACAD_REACTORS
330
43
102
}
330
43
100
AcDbDictionary
  0
DICTIONARY
  5
2C
102
{ACAD_REACTORS
330
2B
102
}
330
2B
100
AcDbDictionary
  3
DWGSETTINGS
350
2D
  0
XRECORD
  5
5069
102
{ACAD_REACTORS
330
5068
102
}
330
5068
100
AcDbXrecord
 90
        1
  0
XRECORD
  5
506A
102
{ACAD_REACTORS
330
5068
102
}
330
5068
100
AcDbXrecord
 90
       70
  0
XRECORD
  5
506B
102
{ACAD_REACTORS
330
5068
102
}
330
5068
100
AcDbXrecord
  1

  0
XRECORD
  5
506C
102
{ACAD_REACTORS
330
5068
102
}
330
5068
100
AcDbXrecord
  1
ASAMI.ctb
  0
XRECORD
  5
506D
102
{ACAD_REACTORS
330
5068
102
}
330
5068
100
AcDbXrecord
340
1A
  0
XRECORD
  5
506E
102
{ACAD_REACTORS
330
5068
102
}
330
5068
100
AcDbXrecord
340
19
  0
XRECORD
  5
506F
102
{ACAD_REACTORS
330
5068
102
}
330
5068
100
AcDbXrecord
340
E
  0
XRECORD
  5
5070
102
{ACAD_REACTORS
330
5068
102
}
330
5068
100
AcDbXrecord
 90
    10781
  0
XRECORD
  5
5071
102
{ACAD_REACTORS
330
5068
102
}
330
5068
100
AcDbXrecord
 90
        4
  0
XRECORD
  5
5072
102
{ACAD_REACTORS
330
5068
102
}
330
5068
100
AcDbXrecord
 90
        0
  0
XRECORD
  5
5073
102
{ACAD_REACTORS
330
5068
102
}
330
5068
100
AcDbXrecord
  1
{AFB28963-8C59-40AE-9337-C84526B81ACE}
  0
XRECORD
  5
5074
102
{ACAD_REACTORS
330
5068
102
}
330
5068
100
AcDbXrecord
  1
{29722EE1-8F3B-4811-B288-32EDA781AC65}
  0
XRECORD
  5
5075
102
{ACAD_REACTORS
330
5068
102
}
330
5068
100
AcDbXrecord
 40
0.0
  0
XRECORD
  5
5076
102
{ACAD_REACTORS
330
5068
102
}
330
5068
100
AcDbXrecord
1000
DSTYLE
1002
{
1070
    79
 70
     2
1070
   341
340
59
1070
   342
340
59
1070
   371
 70
    -1
1070
   372
 70
    -1
1002
}
  0
XRECORD
  5
5077
102
{ACAD_REACTORS
330
5068
102
}
330
5068
100
AcDbXrecord
340
0
  0
XRECORD
  5
5078
102
{ACAD_REACTORS
330
5068
102
}
330
5068
100
AcDbXrecord
 70
     0
  0
XRECORD
  5
5079
102
{ACAD_REACTORS
330
5068
102
}
330
5068
100
AcDbXrecord
340
0
  0
XRECORD
  5
507A
102
{ACAD_REACTORS
330
5068
102
}
330
5068
100
AcDbXrecord
 10
0.0
 20
0.0
 30
0.0
  0
XRECORD
  5
507B
102
{ACAD_REACTORS
330
5068
102
}
330
5068
100
AcDbXrecord
 10
0.0
 20
0.0
 30
0.0
  0
XRECORD
  5
507C
102
{ACAD_REACTORS
330
5068
102
}
330
5068
100
AcDbXrecord
 10
0.0
 20
0.0
 30
0.0
  0
XRECORD
  5
507D
102
{ACAD_REACTORS
330
5068
102
}
330
5068
100
AcDbXrecord
 10
0.0
 20
0.0
 30
0.0
  0
XRECORD
  5
507E
102
{ACAD_REACTORS
330
5068
102
}
330
5068
100
AcDbXrecord
 10
0.0
 20
0.0
 30
0.0
  0
XRECORD
  5
507F
102
{ACAD_REACTORS
330
5068
102
}
330
5068
100
AcDbXrecord
 10
0.0
 20
0.0
 30
0.0
  0
XRECORD
  5
5080
102
{ACAD_REACTORS
330
5068
102
}
330
5068
100
AcDbXrecord
340
0
  0
XRECORD
  5
5081
102
{ACAD_REACTORS
330
5068
102
}
330
5068
100
AcDbXrecord
 70
     0
  0
XRECORD
  5
5082
102
{ACAD_REACTORS
330
5068
102
}
330
5068
100
AcDbXrecord
340
0
  0
XRECORD
  5
5083
102
{ACAD_REACTORS
330
5068
102
}
330
5068
100
AcDbXrecord
 10
0.0
 20
0.0
 30
0.0
  0
XRECORD
  5
5084
102
{ACAD_REACTORS
330
5068
102
}
330
5068
100
AcDbXrecord
 10
0.0
 20
0.0
 30
0.0
  0
XRECORD
  5
5085
102
{ACAD_REACTORS
330
5068
102
}
330
5068
100
AcDbXrecord
 10
0.0
 20
0.0
 30
0.0
  0
XRECORD
  5
5086
102
{ACAD_REACTORS
330
5068
102
}
330
5068
100
AcDbXrecord
 10
0.0
 20
0.0
 30
0.0
  0
XRECORD
  5
5087
102
{ACAD_REACTORS
330
5068
102
}
330
5068
100
AcDbXrecord
 10
0.0
 20
0.0
 30
0.0
  0
XRECORD
  5
5088
102
{ACAD_REACTORS
330
5068
102
}
330
5068
100
AcDbXrecord
 10
0.0
 20
0.0
 30
0.0
  0
LAYER_INDEX
  5
505B
102
{ACAD_REACTORS
330
505A
102
}
330
505A
100
AcDbIndex
 40
2453151.708017025
100
AcDbLayerIndex
  8
0
360
505C
 90
        0
  8
AM_0
360
505D
 90
       11
  8
PV0001_1
360
505E
 90
       33
  8
AM_CL
360
505F
 90
        0
  8
AM_7
360
5060
 90
        1
  8
AM_11
360
5061
 90
        3
  8
AM_5
360
5062
 90
       10
  8
Defpoints
360
5063
 90
        0
  8
AM_6
360
5064
 90
        1
  8
AM_4
360
5065
 90
        0
  8
AM_3
360
5066
 90
        0
  0
XRECORD
  5
2D
102
{ACAD_REACTORS
330
2C
102
}
330
2C
100
AcDbXrecord
  1
VERSION
140
15.0
  1
PRODUCT
  2
AutoCAD Mechanical 2000
  0
IDBUFFER
  5
505C
330
0
100
AcDbIdBuffer
  0
IDBUFFER
  5
505D
330
0
100
AcDbIdBuffer
330
4A51
330
4A52
330
4A53
330
4A56
330
4BDC
330
4F46
330
4F4C
330
4F4D
330
4F54
330
5035
330
5038
  0
IDBUFFER
  5
505E
330
0
100
AcDbIdBuffer
330
4F45
330
4F47
330
4F48
330
4F49
330
4F4B
330
4F4F
330
4F50
330
4F52
330
4F53
330
4F68
330
5033
330
5034
330
5036
330
5037
330
5039
330
503A
330
503B
330
35F4
330
35F5
330
4534
330
4536
330
4A4B
330
4A4C
330
4A4D
330
4A4E
330
4A4F
330
4A50
330
4A54
330
4A55
330
4A57
330
4F17
330
4F18
330
4F44
  0
IDBUFFER
  5
505F
330
0
100
AcDbIdBuffer
  0
IDBUFFER
  5
5060
330
0
100
AcDbIdBuffer
330
35D1
  0
IDBUFFER
  5
5061
330
0
100
AcDbIdBuffer
330
46A5
330
4F69
330
4F6E
  0
IDBUFFER
  5
5062
330
0
100
AcDbIdBuffer
330
36BA
330
3B0D
330
471A
330
4A58
330
4A59
330
4A5A
330
4A5B
330
4A5C
330
4A5D
330
4F59
  0
IDBUFFER
  5
5063
330
0
100
AcDbIdBuffer
  0
IDBUFFER
  5
5064
330
0
100
AcDbIdBuffer
330
19BD
  0
IDBUFFER
  5
5065
330
0
100
AcDbIdBuffer
  0
IDBUFFER
  5
5066
330
0
100
AcDbIdBuffer
  0
ENDSEC
  0
EOF
