  0
SECTION
  2
HEADER
  9
$ACADVER
  1
AC1014
  9
$ACADMAINTVER
 70
     9
  9
$DWGCODEPAGE
  3
ANSI_932
  9
$INSBASE
 10
0.0
 20
0.0
 30
0.0
  9
$EXTMIN
 10
-589.2017441852486
 20
-73.06584636158071
 30
-0.00000001
  9
$EXTMAX
 10
31.94471718537354
 20
42.48854870810417
 30
0.00000001
  9
$LIMMIN
 10
-204.0575546607158
 20
-90.11643380524606
  9
$LIMMAX
 10
49.89029980509849
 20
66.23184027195851
  9
$ORTHOMODE
 70
     0
  9
$REGENMODE
 70
     1
  9
$FILLMODE
 70
     1
  9
$QTEXTMODE
 70
     0
  9
$MIRRTEXT
 70
     0
  9
$DRAGMODE
 70
     2
  9
$LTSCALE
 40
1.0
  9
$OSMODE
 70
    55
  9
$ATTMODE
 70
     1
  9
$TEXTSIZE
 40
2.5
  9
$TRACEWID
 40
1.0
  9
$TEXTSTYLE
  7
STANDARD
  9
$CLAYER
  8
AM_0
  9
$CELTYPE
  6
BYLAYER
  9
$CECOLOR
 62
   256
  9
$CELTSCALE
 40
1.0
  9
$DELOBJ
 70
     1
  9
$DISPSILH
 70
     0
  9
$DIMSCALE
 40
1.0
  9
$DIMASZ
 40
2.5
  9
$DIMEXO
 40
1.0
  9
$DIMDLI
 40
12.0
  9
$DIMRND
 40
0.0
  9
$DIMDLE
 40
0.0
  9
$DIMEXE
 40
1.0
  9
$DIMTP
 40
0.1
  9
$DIMTM
 40
0.1
  9
$DIMTXT
 40
3.2
  9
$DIMCEN
 40
0.0
  9
$DIMTSZ
 40
0.0
  9
$DIMTOL
 70
     0
  9
$DIMLIM
 70
     0
  9
$DIMTIH
 70
     0
  9
$DIMTOH
 70
     0
  9
$DIMSE1
 70
     0
  9
$DIMSE2
 70
     0
  9
$DIMTAD
 70
     3
  9
$DIMZIN
 70
     8
  9
$DIMBLK
  1
OPEN30
  9
$DIMASO
 70
     1
  9
$DIMSHO
 70
     1
  9
$DIMPOST
  1

  9
$DIMAPOST
  1
"
  9
$DIMALT
 70
     0
  9
$DIMALTD
 70
     2
  9
$DIMALTF
 40
0.0393701
  9
$DIMLFAC
 40
1.0
  9
$DIMTOFL
 70
     1
  9
$DIMTVP
 40
0.0
  9
$DIMTIX
 70
     0
  9
$DIMSOXD
 70
     0
  9
$DIMSAH
 70
     0
  9
$DIMBLK1
  1

  9
$DIMBLK2
  1

  9
$DIMSTYLE
  2
AM_JIS
  9
$DIMCLRD
 70
   256
  9
$DIMCLRE
 70
   256
  9
$DIMCLRT
 70
     2
  9
$DIMTFAC
 40
0.71
  9
$DIMGAP
 40
1.5
  9
$DIMJUST
 70
     0
  9
$DIMSD1
 70
     0
  9
$DIMSD2
 70
     0
  9
$DIMTOLJ
 70
     0
  9
$DIMTZIN
 70
     0
  9
$DIMALTZ
 70
     0
  9
$DIMALTTZ
 70
     0
  9
$DIMFIT
 70
     3
  9
$DIMUPT
 70
     0
  9
$DIMUNIT
 70
     2
  9
$DIMDEC
 70
     3
  9
$DIMTDEC
 70
     3
  9
$DIMALTU
 70
     2
  9
$DIMALTTD
 70
     2
  9
$DIMTXSTY
  7
ASAMI
  9
$DIMAUNIT
 70
     0
  9
$LUNITS
 70
     2
  9
$LUPREC
 70
     2
  9
$SKETCHINC
 40
1.0
  9
$FILLETRAD
 40
2.5
  9
$AUNITS
 70
     0
  9
$AUPREC
 70
     0
  9
$MENU
  1
.
  9
$ELEVATION
 40
0.0
  9
$PELEVATION
 40
0.0
  9
$THICKNESS
 40
0.0
  9
$LIMCHECK
 70
     0
  9
$BLIPMODE
 70
     0
  9
$CHAMFERA
 40
2.5
  9
$CHAMFERB
 40
2.5
  9
$CHAMFERC
 40
20.0
  9
$CHAMFERD
 40
0.0
  9
$SKPOLY
 70
     0
  9
$TDCREATE
 40
2452800.443498622
  9
$TDUPDATE
 40
2453151.699705023
  9
$TDINDWG
 40
0.5234266898
  9
$TDUSRTIMER
 40
0.5234266898
  9
$USRTIMER
 70
     1
  9
$ANGBASE
 50
0.0
  9
$ANGDIR
 70
     0
  9
$PDMODE
 70
     0
  9
$PDSIZE
 40
0.0
  9
$PLINEWID
 40
0.0
  9
$COORDS
 70
     1
  9
$SPLFRAME
 70
     0
  9
$SPLINETYPE
 70
     6
  9
$SPLINESEGS
 70
     8
  9
$ATTDIA
 70
     1
  9
$ATTREQ
 70
     1
  9
$HANDLING
 70
 12289
  9
$HANDSEED
  5
573A
  9
$SURFTAB1
 70
     6
  9
$SURFTAB2
 70
     6
  9
$SURFTYPE
 70
     6
  9
$SURFU
 70
     6
  9
$SURFV
 70
     6
  9
$UCSNAME
  2

  9
$UCSORG
 10
-0.0000000000001066
 20
0.0000000000000523
 30
0.0
  9
$UCSXDIR
 10
1.0
 20
0.0000000000000027
 30
0.0
  9
$UCSYDIR
 10
-0.0000000000000027
 20
1.0
 30
0.0
  9
$PUCSNAME
  2

  9
$PUCSORG
 10
0.0
 20
0.0
 30
0.0
  9
$PUCSXDIR
 10
1.0
 20
0.0
 30
0.0
  9
$PUCSYDIR
 10
0.0
 20
1.0
 30
0.0
  9
$USERI1
 70
     0
  9
$USERI2
 70
     0
  9
$USERI3
 70
     0
  9
$USERI4
 70
     0
  9
$USERI5
 70
     0
  9
$USERR1
 40
0.0
  9
$USERR2
 40
0.0
  9
$USERR3
 40
0.0
  9
$USERR4
 40
0.0
  9
$USERR5
 40
0.0
  9
$WORLDVIEW
 70
     1
  9
$SHADEDGE
 70
     3
  9
$SHADEDIF
 70
    70
  9
$TILEMODE
 70
     1
  9
$MAXACTVP
 70
    64
  9
$PINSBASE
 10
0.0
 20
0.0
 30
0.0
  9
$PLIMCHECK
 70
     0
  9
$PEXTMIN
 10
1.000000000000000E+20
 20
1.000000000000000E+20
 30
1.000000000000000E+20
  9
$PEXTMAX
 10
-1.000000000000000E+20
 20
-1.000000000000000E+20
 30
-1.000000000000000E+20
  9
$PLIMMIN
 10
0.0
 20
0.0
  9
$PLIMMAX
 10
841.0
 20
594.0
  9
$UNITMODE
 70
     0
  9
$VISRETAIN
 70
     1
  9
$PLINEGEN
 70
     0
  9
$PSLTSCALE
 70
     0
  9
$TREEDEPTH
 70
  3020
  9
$PICKSTYLE
 70
     0
  9
$CMLSTYLE
  2
STANDARD
  9
$CMLJUST
 70
     0
  9
$CMLSCALE
 40
20.0
  9
$PROXYGRAPHICS
 70
     1
  9
$MEASUREMENT
 70
     1
  0
ENDSEC
  0
SECTION
  2
CLASSES
  0
CLASS
  1
ACDBDICTIONARYWDFLT
  2
AcDbDictionaryWithDefault
  3
AutoCAD 2000
 90
        0
280
     0
281
     0
  0
CLASS
  1
ACDBPLACEHOLDER
  2
AcDbPlaceHolder
  3
AutoCAD 2000
 90
        0
280
     0
281
     0
  0
CLASS
  1
LAYOUT
  2
AcDbLayout
  3
AutoCAD 2000
 90
        0
280
     0
281
     0
  0
CLASS
  1
AMGSETTINGSOBJ
  2
AmgSettingsObj
  3
"AcadM|Product Description: AutoCAD Mechanical 2000|Company: Autodesk"
 90
        0
280
     0
281
     0
  0
CLASS
  1
ACME_DOCUMENT
  2
AcMeDbDoc
  3
AcMeServices
 90
        0
280
     0
281
     0
  0
CLASS
  1
ACMESCOPE
  2
AcMeScope
  3
AcMeServices
 90
        0
280
     0
281
     0
  0
CLASS
  1
ACMECOMMANDHISTORY
  2
AcMeCommandHistory
  3
AcMeServices
 90
        0
280
     0
281
     0
  0
CLASS
  1
DICTIONARYVAR
  2
AcDbDictionaryVar
  3
AutoCAD 2000
 90
        0
280
     0
281
     0
  0
CLASS
  1
ACIMSYSVARMAN
  2
AcImSysVarManager
  3
AcMeServices
 90
        0
280
     0
281
     0
  0
CLASS
  1
ACIMREALSYSVAR
  2
AcImRealSysVar
  3
AcMeServices
 90
        0
280
     0
281
     0
  0
CLASS
  1
ACIMINTSYSVAR
  2
AcImIntSysVar
  3
AcMeServices
 90
        0
280
     0
281
     0
  0
CLASS
  1
ACMEDRAWINGMAN
  2
AcMeDrawingMan
  3
AcMeServices
 90
        0
280
     0
281
     0
  0
CLASS
  1
ACMEVIEW
  2
AcMeView
  3
AcMeServices
 90
        0
280
     0
281
     0
  0
CLASS
  1
ACDBENTITYCACHE
  2
AcMeEntityCache
  3
AcMeServices
 90
        0
280
     0
281
     0
  0
CLASS
  1
GSMANAGER
  2
AcMeGSManager
  3
AcMeServices
 90
        0
280
     0
281
     0
  0
CLASS
  1
AmdtInternalReactor
  2
AmdtInternalReactor
  3
AcMeServices
 90
        0
280
     0
281
     0
  0
CLASS
  1
ACMESTATEMGR
  2
AcMeStateMgr
  3
AcMeServices
 90
        0
280
     0
281
     0
  0
CLASS
  1
ACME_DATABASE
  2
AcMeDbDatabase
  3
AcMeServices
 90
        0
280
     0
281
     0
  0
CLASS
  1
ACRFINSADJUSTERMGR
  2
AcRfInsAdjusterMgr
  3
AcMeServices
 90
        0
280
     0
281
     0
  0
CLASS
  1
ACMDATADICTIONARY
  2
AcmDataDictionary
  3
"AcmSymBB|Product Description: AutoCAD Mechanical 2000|Company: Autodesk"
 90
        0
280
     0
281
     0
  0
CLASS
  1
ACMDATAENTRYBLOCK
  2
AcmDataEntryBlock
  3
"AcmSymBB|Product Description: AutoCAD Mechanical 2000|Company: Autodesk"
 90
        0
280
     0
281
     0
  0
CLASS
  1
AMGOBJPROPCFG
  2
AmgObjPropCfg
  3
"AmgLay|Product Description: AutoCAD Mechanical 2000|Company: Autodesk"
 90
        1
280
     0
281
     0
  0
CLASS
  1
ACAMGFILTERDAT
  2
AcAmgFilterDat
  3
"AcadM|Product Description: AutoCAD Mechanical 2000|Company: Autodesk"
 90
        0
280
     0
281
     0
  0
CLASS
  1
LAYER_INDEX
  2
AcDbLayerIndex
  3
AutoCAD 2000
 90
        0
280
     0
281
     0
  0
CLASS
  1
IDBUFFER
  2
AcDbIdBuffer
  3
AutoCAD 2000
 90
        0
280
     0
281
     0
  0
CLASS
  1
ACIMSTRSYSVAR
  2
AcImStrSysVar
  3
AcMeServices
 90
        0
280
     0
281
     0
  0
CLASS
  1
ACMSTANDARDJIS
  2
AcmStandardJIS
  3
"AcmSymBB|Product Description: AutoCAD Mechanical 2000|Company: Autodesk"
 90
        0
280
     0
281
     0
  0
CLASS
  1
ACMSURFSTANDARDJIS
  2
AcmSurfTextStdJIS
  3
"AcmSymBB|Product Description: AutoCAD Mechanical 2000|Company: Autodesk"
 90
        0
280
     0
281
     0
  0
CLASS
  1
ACMFCFSTANDARDJIS
  2
AcmFCFStdJIS
  3
"AcmSymBB|Product Description: AutoCAD Mechanical 2000|Company: Autodesk"
 90
        0
280
     0
281
     0
  0
CLASS
  1
ACMWELDSTANDARDJIS
  2
AcmWeldingStdJIS
  3
"AcmSymBB|Product Description: AutoCAD Mechanical 2000|Company: Autodesk"
 90
        0
280
     0
281
     0
  0
CLASS
  1
ACMIDSTANDARDJIS
  2
AcmIdStdJIS
  3
"AcmSymBB|Product Description: AutoCAD Mechanical 2000|Company: Autodesk"
 90
        0
280
     0
281
     0
  0
CLASS
  1
ACMDATUMSTANDARDJIS
  2
AcmDatumStdJIS
  3
"AcmSymBB|Product Description: AutoCAD Mechanical 2000|Company: Autodesk"
 90
        0
280
     0
281
     0
  0
CLASS
  1
ACMBOMSTANDARDJIS
  2
AcmBOMStdJIS
  3
"AcmSymBB|Product Description: AutoCAD Mechanical 2000|Company: Autodesk"
 90
        0
280
     0
281
     0
  0
CLASS
  1
ACMSTANDARDANSI
  2
AcmStandardANSI
  3
"AcmSymBB|Product Description: AutoCAD Mechanical 2000|Company: Autodesk"
 90
        0
280
     0
281
     0
  0
CLASS
  1
ACMSURFSTANDARDANSI
  2
AcmSurfTextStdANSI
  3
"AcmSymBB|Product Description: AutoCAD Mechanical 2000|Company: Autodesk"
 90
        0
280
     0
281
     0
  0
CLASS
  1
ACMFCFSTANDARDANSI
  2
AcmFCFStdANSI
  3
"AcmSymBB|Product Description: AutoCAD Mechanical 2000|Company: Autodesk"
 90
        0
280
     0
281
     0
  0
CLASS
  1
ACMWELDSTANDARDANSI
  2
AcmWeldingStdANSI
  3
"AcmSymBB|Product Description: AutoCAD Mechanical 2000|Company: Autodesk"
 90
        0
280
     0
281
     0
  0
CLASS
  1
ACMIDSTANDARDANSI
  2
AcmIdStdANSI
  3
"AcmSymBB|Product Description: AutoCAD Mechanical 2000|Company: Autodesk"
 90
        0
280
     0
281
     0
  0
CLASS
  1
ACMDATUMSTANDARDANSI
  2
AcmDatumStdANSI
  3
"AcmSymBB|Product Description: AutoCAD Mechanical 2000|Company: Autodesk"
 90
        0
280
     0
281
     0
  0
CLASS
  1
ACMBOMSTANDARDANSI
  2
AcmBOMStdANSI
  3
"AcmSymBB|Product Description: AutoCAD Mechanical 2000|Company: Autodesk"
 90
        0
280
     0
281
     0
  0
CLASS
  1
ACMSTANDARDBSI
  2
AcmStandardBSI
  3
"AcmSymBB|Product Description: AutoCAD Mechanical 2000|Company: Autodesk"
 90
        0
280
     0
281
     0
  0
CLASS
  1
ACMSURFSTANDARDBSI
  2
AcmSurfTextStdBSI
  3
"AcmSymBB|Product Description: AutoCAD Mechanical 2000|Company: Autodesk"
 90
        0
280
     0
281
     0
  0
CLASS
  1
ACMFCFSTANDARDBSI
  2
AcmFCFStdBSI
  3
"AcmSymBB|Product Description: AutoCAD Mechanical 2000|Company: Autodesk"
 90
        0
280
     0
281
     0
  0
CLASS
  1
ACMWELDSTANDARDBSI
  2
AcmWeldingStdBSI
  3
"AcmSymBB|Product Description: AutoCAD Mechanical 2000|Company: Autodesk"
 90
        0
280
     0
281
     0
  0
CLASS
  1
ACMIDSTANDARDBSI
  2
AcmIdStdBSI
  3
"AcmSymBB|Product Description: AutoCAD Mechanical 2000|Company: Autodesk"
 90
        0
280
     0
281
     0
  0
CLASS
  1
ACMDATUMSTANDARDBSI
  2
AcmDatumStdBSI
  3
"AcmSymBB|Product Description: AutoCAD Mechanical 2000|Company: Autodesk"
 90
        0
280
     0
281
     0
  0
CLASS
  1
ACMBOMSTANDARDBSI
  2
AcmBOMStdBSI
  3
"AcmSymBB|Product Description: AutoCAD Mechanical 2000|Company: Autodesk"
 90
        0
280
     0
281
     0
  0
CLASS
  1
LONG_TRANSACTION
  2
AcDbLongTransaction
  3
AutoCAD 2000
 90
        0
280
     0
281
     0
  0
CLASS
  1
LWPOLYLINE
  2
AcDbPolyline
  3
AutoCAD 2000
 90
        0
280
     0
281
     1
  0
CLASS
  1
HATCH
  2
AcDbHatch
  3
AutoCAD 2000
 90
        0
280
     0
281
     1
  0
CLASS
  1
XRECORD
  2
AcDbXrecord
  3
AutoCAD 2000
 90
        0
280
     0
281
     0
  0
ENDSEC
  0
SECTION
  2
TABLES
  0
TABLE
  2
VPORT
  5
8
330
0
100
AcDbSymbolTable
 70
     3
  0
VPORT
  5
570F
330
8
100
AcDbSymbolTableRecord
100
AcDbViewportTableRecord
  2
*ACTIVE
 70
     0
 10
0.0
 20
0.0
 11
1.0
 21
1.0
 12
-58.8834804529065
 22
-12.52050317238315
 13
0.0
 23
0.0
 14
2.5
 24
2.5
 15
10.0
 25
10.0
 16
0.0
 26
0.0
 36
1.0
 17
0.0
 27
0.0
 37
0.0
 40
229.1455487565893
 41
1.56570841889117
 42
50.0
 43
0.0
 44
0.0
 50
0.0
 51
0.0
 71
     0
 72
   100
 73
     1
 74
     1
 75
     0
 76
     0
 77
     0
 78
     0
  0
ENDTAB
  0
TABLE
  2
LTYPE
  5
5
330
0
100
AcDbSymbolTable
 70
    10
  0
LTYPE
  5
14
330
5
100
AcDbSymbolTableRecord
100
AcDbLinetypeTableRecord
  2
BYBLOCK
 70
     0
  3

 72
    65
 73
     0
 40
0.0
  0
LTYPE
  5
15
330
5
100
AcDbSymbolTableRecord
100
AcDbLinetypeTableRecord
  2
BYLAYER
 70
     0
  3

 72
    65
 73
     0
 40
0.0
  0
LTYPE
  5
16
330
5
100
AcDbSymbolTableRecord
100
AcDbLinetypeTableRecord
  2
CONTINUOUS
 70
     0
  3
Solid line
 72
    65
 73
     0
 40
0.0
  0
LTYPE
  5
4B
330
5
100
AcDbSymbolTableRecord
100
AcDbLinetypeTableRecord
  2
AM_ISO02W050
 70
     0
  3
__ __ __ __ __ __ __ __ __ __ __ __ __ __ __
 72
    65
 73
     2
 40
7.5
 49
6.0
 74
     0
 49
-1.5
 74
     0
  0
LTYPE
  5
4C
330
5
100
AcDbSymbolTableRecord
100
AcDbLinetypeTableRecord
  2
AM_ISO08W050
 70
     0
  3
____ . ____ . ____ . ____ . ____ . ____ . ____
 72
    65
 73
     4
 40
18.0
 49
12.0
 74
     0
 49
-1.5
 74
     0
 49
3.0
 74
     0
 49
-1.5
 74
     0
  0
LTYPE
  5
4D
330
5
100
AcDbSymbolTableRecord
100
AcDbLinetypeTableRecord
  2
AM_ISO09W050
 70
     0
  3
_____ . . _____ . . _____ . . ____ .. ____
 72
    65
 73
     6
 40
22.5
 49
12.0
 74
     0
 49
-1.5
 74
     0
 49
3.0
 74
     0
 49
-1.5
 74
     0
 49
3.0
 74
     0
 49
-1.5
 74
     0
  0
LTYPE
  5
4E
330
5
100
AcDbSymbolTableRecord
100
AcDbLinetypeTableRecord
  2
AMCONSTR
 70
     0
  3
_______________________
 72
    65
 73
     2
 40
9999.0
 49
9999.0
 74
     0
 49
0.0
 74
     0
  0
LTYPE
  5
4F
330
5
100
AcDbSymbolTableRecord
100
AcDbLinetypeTableRecord
  2
AM_ISO02W050X2
 70
     0
  3
 _ _ _ _ _ _ _ _ _ _ _ _
 72
    65
 73
     2
 40
3.75
 49
3.0
 74
     0
 49
-0.75
 74
     0
  0
LTYPE
  5
50
330
5
100
AcDbSymbolTableRecord
100
AcDbLinetypeTableRecord
  2
AM_ISO08W050X2
 70
     0
  3
__ . __ . __ . __ . __ . __
 72
    65
 73
     4
 40
9.0
 49
6.0
 74
     0
 49
-0.75
 74
     0
 49
1.5
 74
     0
 49
-0.75
 74
     0
  0
LTYPE
  5
53
330
5
100
AcDbSymbolTableRecord
100
AcDbLinetypeTableRecord
  2
AMZIGZAG
 70
     0
  3
/\/-/\/-/\/-/\/-/\/-/\/
 72
    65
 73
     2
 40
11.00009999999999
 49
0.0001
 74
     4
 75
   135
340
52
 46
0.04
 50
0.0
 44
0.0
 45
0.0
 49
-11.0
 74
     0
  0
LTYPE
  5
166
330
5
100
AcDbSymbolTableRecord
100
AcDbLinetypeTableRecord
  2
ACJISTGL
 70
     0
  3
_ _ _ _ _
 72
    65
 73
     2
 40
3.0
 49
2.0
 74
     0
 49
-1.0
 74
     0
  0
LTYPE
  5
26A
330
5
100
AcDbSymbolTableRecord
100
AcDbLinetypeTableRecord
  2
ACJISTGB
 70
     0
  3
__ . . __ . .
 72
    65
 73
     6
 40
9.0
 49
4.0
 74
     0
 49
-1.0
 74
     0
 49
1.0
 74
     0
 49
-1.0
 74
     0
 49
1.0
 74
     0
 49
-1.0
 74
     0
  0
ENDTAB
  0
TABLE
  2
LAYER
  5
2
330
0
100
AcDbSymbolTable
 70
    11
  0
LAYER
  5
10
330
2
100
AcDbSymbolTableRecord
100
AcDbLayerTableRecord
  2
0
 70
     0
 62
     7
  6
CONTINUOUS
  0
LAYER
  5
3F9
330
2
100
AcDbSymbolTableRecord
100
AcDbLayerTableRecord
  2
AM_0
 70
     0
 62
     7
  6
CONTINUOUS
  0
LAYER
  5
BA4
330
2
100
AcDbSymbolTableRecord
100
AcDbLayerTableRecord
  2
PV0001_1
 70
     0
 62
     7
  6
CONTINUOUS
  0
LAYER
  5
C6C
330
2
100
AcDbSymbolTableRecord
100
AcDbLayerTableRecord
  2
AM_CL
 70
     0
 62
     1
  6
AMCONSTR
  0
LAYER
  5
C7C
330
2
100
AcDbSymbolTableRecord
100
AcDbLayerTableRecord
  2
AM_7
 70
     0
 62
     4
  6
AM_ISO08W050
  0
LAYER
  5
C97
330
2
100
AcDbSymbolTableRecord
100
AcDbLayerTableRecord
  2
AM_11
 70
     0
 62
     3
  6
AM_ISO09W050
  0
LAYER
  5
CC5
330
2
100
AcDbSymbolTableRecord
100
AcDbLayerTableRecord
  2
AM_5
 70
     0
 62
     3
  6
CONTINUOUS
  0
LAYER
  5
CC7
330
2
100
AcDbSymbolTableRecord
100
AcDbLayerTableRecord
  2
DEFPOINTS
 70
     0
 62
     7
  6
CONTINUOUS
  0
LAYER
  5
19BC
330
2
100
AcDbSymbolTableRecord
100
AcDbLayerTableRecord
  2
AM_6
 70
     0
 62
     2
  6
CONTINUOUS
  0
LAYER
  5
1F8E
330
2
100
AcDbSymbolTableRecord
100
AcDbLayerTableRecord
  2
AM_4
 70
     0
 62
     3
  6
CONTINUOUS
  0
LAYER
  5
3588
330
2
100
AcDbSymbolTableRecord
100
AcDbLayerTableRecord
  2
AM_3
 70
     0
 62
     6
  6
ACJISTGL
  0
ENDTAB
  0
TABLE
  2
STYLE
  5
3
330
0
100
AcDbSymbolTable
 70
     5
  0
STYLE
  5
11
330
3
100
AcDbSymbolTableRecord
100
AcDbTextStyleTableRecord
  2
STANDARD
 70
     0
 40
0.0
 41
1.0
 50
0.0
 71
     0
 42
2.5
  3
simplex.shx
  4
EXTFONT.SHX
  0
STYLE
  5
52
330
3
100
AcDbSymbolTableRecord
100
AcDbTextStyleTableRecord
  2

 70
     1
 40
0.0
 41
1.0
 50
0.0
 71
     0
 42
2.5
  3
ltypeshp.shx
  4

  0
STYLE
  5
6B
330
3
100
AcDbSymbolTableRecord
100
AcDbTextStyleTableRecord
  2
ASAMI
 70
     0
 40
0.0
 41
1.0
 50
0.0
 71
     0
 42
2.5
  3
simplex.shx
  4
EXTFONT.SHX
  0
STYLE
  5
262
330
3
100
AcDbSymbolTableRecord
100
AcDbTextStyleTableRecord
  2
ACJISTS
 70
     0
 40
1.0
 41
1.0
 50
0.0
 71
     0
 42
2.5
  3
simplex.shx
  4
bigfont.shx
  0
STYLE
  5
269
330
3
100
AcDbSymbolTableRecord
100
AcDbTextStyleTableRecord
  2
ACJISGDT
 70
     0
 40
0.0
 41
1.0
 50
0.0
 71
     0
 42
2.5
  3
amgdtans.shx
  4

  0
ENDTAB
  0
TABLE
  2
VIEW
  5
6
330
0
100
AcDbSymbolTable
 70
     0
  0
ENDTAB
  0
TABLE
  2
UCS
  5
7
330
0
100
AcDbSymbolTable
 70
     0
  0
ENDTAB
  0
TABLE
  2
APPID
  5
9
330
0
100
AcDbSymbolTable
 70
    14
  0
APPID
  5
12
330
9
100
AcDbSymbolTableRecord
100
AcDbRegAppTableRecord
  2
ACAD
 70
     0
  0
APPID
  5
30
330
9
100
AcDbSymbolTableRecord
100
AcDbRegAppTableRecord
  2
MCAD_NO_VIS
 70
     0
  0
APPID
  5
31
330
9
100
AcDbSymbolTableRecord
100
AcDbRegAppTableRecord
  2
ACAD_TEMP_GRAPHIC
 70
     0
  0
APPID
  5
2C2
330
9
100
AcDbSymbolTableRecord
100
AcDbRegAppTableRecord
  2
GENIUS_GENDTOL_13
 70
     0
  0
APPID
  5
339
330
9
100
AcDbSymbolTableRecord
100
AcDbRegAppTableRecord
  2
GENIUS_GENODEF_13
 70
     0
  0
APPID
  5
33A
330
9
100
AcDbSymbolTableRecord
100
AcDbRegAppTableRecord
  2
GENIUS_GENOBJ-N-RSBK_13
 70
     0
  0
APPID
  5
33B
330
9
100
AcDbSymbolTableRecord
100
AcDbRegAppTableRecord
  2
GENIUS_GENOBJ-N-LIB_13
 70
     0
  0
APPID
  5
33C
330
9
100
AcDbSymbolTableRecord
100
AcDbRegAppTableRecord
  2
GENIUS_GENSCALE_13
 70
     0
  0
APPID
  5
378
330
9
100
AcDbSymbolTableRecord
100
AcDbRegAppTableRecord
  2
GENIUS_GENDIMSH_14
 70
     0
  0
APPID
  5
C82
330
9
100
AcDbSymbolTableRecord
100
AcDbRegAppTableRecord
  2
GENIUS_GENOBJ-N-CRS_13
 70
     0
  0
APPID
  5
C83
330
9
100
AcDbSymbolTableRecord
100
AcDbRegAppTableRecord
  2
GENIUS_GENOENT_13
 70
     0
  0
APPID
  5
C84
330
9
100
AcDbSymbolTableRecord
100
AcDbRegAppTableRecord
  2
GENIUS_GENOREF_13
 70
     0
  0
APPID
  5
C85
330
9
100
AcDbSymbolTableRecord
100
AcDbRegAppTableRecord
  2
GENIUS_GENOLIS_13
 70
     0
  0
APPID
  5
CA0
330
9
100
AcDbSymbolTableRecord
100
AcDbRegAppTableRecord
  2
GENIUS_GENOBJ-N-CEN_13
 70
     0
  0
ENDTAB
  0
TABLE
  2
DIMSTYLE
  5
A
330
0
100
AcDbSymbolTable
 70
    10
  0
DIMSTYLE
105
58
330
A
100
AcDbSymbolTableRecord
100
AcDbDimStyleTableRecord
  2
AM_JIS
 70
     0
  3

  4
"
  5
OPEN30
  6

  7

 40
1.0
 41
2.5
 42
1.0
 43
12.0
 44
1.0
 45
0.0
 46
0.0
 47
0.1
 48
0.1
140
3.2
141
0.0
142
0.0
143
0.0393701
144
1.0
145
0.0
146
0.71
147
1.5
 71
     0
 72
     0
 73
     0
 74
     0
 75
     0
 76
     0
 77
     3
 78
     8
170
     0
171
     2
172
     1
173
     0
174
     0
175
     0
176
   256
177
   256
178
     2
270
     2
271
     3
272
     3
273
     2
274
     2
340
6B
275
     0
280
     0
281
     0
282
     0
283
     0
284
     0
285
     0
286
     0
287
     3
288
     0
  0
DIMSTYLE
105
5F
330
A
100
AcDbSymbolTableRecord
100
AcDbDimStyleTableRecord
  2
AM_JIS$3
 70
     0
  3

  4
"
  5
OPEN30
  6

  7

 40
1.0
 41
2.5
 42
1.0
 43
10.0
 44
1.0
 45
0.0
 46
0.0
 47
0.1
 48
0.1
140
3.2
141
0.0
142
0.0
143
0.0393701
144
1.0
145
0.0
146
0.71
147
1.5
 71
     0
 72
     0
 73
     0
 74
     1
 75
     0
 76
     0
 77
     3
 78
     8
170
     0
171
     2
172
     0
173
     0
174
     0
175
     0
176
   256
177
   256
178
     2
270
     2
271
     2
272
     3
273
     2
274
     2
340
6B
275
     0
280
     0
281
     0
282
     0
283
     0
284
     0
285
     0
286
     0
287
     0
288
     1
  0
DIMSTYLE
105
60
330
A
100
AcDbSymbolTableRecord
100
AcDbDimStyleTableRecord
  2
AM_JIS$4
 70
     0
  3

  4
"
  5
OPEN30
  6

  7

 40
1.0
 41
2.5
 42
1.0
 43
10.0
 44
1.0
 45
0.0
 46
0.0
 47
0.1
 48
0.1
140
3.2
141
0.0
142
0.0
143
0.0393701
144
1.0
145
0.0
146
0.71
147
1.5
 71
     0
 72
     0
 73
     0
 74
     1
 75
     0
 76
     0
 77
     3
 78
     8
170
     0
171
     2
172
     0
173
     0
174
     0
175
     0
176
   256
177
   256
178
     2
270
     2
271
     2
272
     3
273
     2
274
     2
340
6B
275
     0
280
     0
281
     0
282
     0
283
     0
284
     0
285
     0
286
     0
287
     0
288
     1
  0
DIMSTYLE
105
61
330
A
100
AcDbSymbolTableRecord
100
AcDbDimStyleTableRecord
  2
AM_JIS$6
 70
     0
  3

  4
"
  5
OPEN30
  6

  7

 40
1.0
 41
2.5
 42
1.0
 43
10.0
 44
1.0
 45
0.0
 46
0.0
 47
0.1
 48
0.1
140
3.2
141
0.0
142
0.0
143
0.0393701
144
1.0
145
0.0
146
0.71
147
1.5
 71
     0
 72
     0
 73
     0
 74
     0
 75
     0
 76
     0
 77
     0
 78
     8
170
     0
171
     2
172
     1
173
     0
174
     0
175
     0
176
   256
177
   256
178
     2
270
     2
271
     2
272
     2
273
     2
274
     2
340
6B
275
     0
280
     0
281
     0
282
     0
283
     0
284
     0
285
     0
286
     0
287
     3
288
     0
  0
DIMSTYLE
105
62
330
A
100
AcDbSymbolTableRecord
100
AcDbDimStyleTableRecord
  2
AM_JIS$7
 70
     0
  3

  4
"
  5
OPEN30
  6

  7

 40
1.0
 41
2.5
 42
1.0
 43
10.0
 44
1.0
 45
0.0
 46
0.0
 47
0.1
 48
0.1
140
3.2
141
0.0
142
0.0
143
0.0393701
144
1.0
145
0.0
146
0.71
147
1.5
 71
     0
 72
     0
 73
     0
 74
     0
 75
     0
 76
     0
 77
     3
 78
     8
170
     0
171
     2
172
     1
173
     0
174
     0
175
     0
176
   256
177
   256
178
     2
270
     2
271
     2
272
     3
273
     2
274
     2
340
6B
275
     0
280
     0
281
     0
282
     0
283
     0
284
     0
285
     0
286
     0
287
     3
288
     0
  0
DIMSTYLE
105
63
330
A
100
AcDbSymbolTableRecord
100
AcDbDimStyleTableRecord
  2
AM_JIS$SF
 70
     0
  3

  4
"
  5
OPEN30
  6

  7

 40
1.0
 41
2.5
 42
1.0
 43
10.0
 44
1.0
 45
0.0
 46
0.0
 47
0.1
 48
0.1
140
3.2
141
0.0
142
0.0
143
0.0393701
144
1.0
145
0.0
146
0.71
147
1.5
 71
     0
 72
     0
 73
     0
 74
     0
 75
     1
 76
     1
 77
     3
 78
     8
170
     0
171
     2
172
     1
173
     0
174
     0
175
     0
176
   256
177
   256
178
     2
270
     2
271
     2
272
     2
273
     2
274
     2
340
6B
275
     0
280
     0
281
     0
282
     0
283
     0
284
     0
285
     0
286
     0
287
     3
288
     0
  0
DIMSTYLE
105
68
330
A
100
AcDbSymbolTableRecord
100
AcDbDimStyleTableRecord
  2
AM_JIS$SH
 70
     0
  3

  4
"
  5

  6
GENAXEH
  7
OPEN30
 40
1.0
 41
2.5
 42
1.0
 43
10.0
 44
1.0
 45
0.0
 46
0.0
 47
0.1
 48
0.1
140
3.2
141
0.0
142
0.0
143
0.0393701
144
2.0
145
0.0
146
0.71
147
1.5
 71
     0
 72
     0
 73
     0
 74
     0
 75
     1
 76
     1
 77
     3
 78
     8
170
     0
171
     2
172
     1
173
     1
174
     0
175
     0
176
   256
177
   256
178
     2
270
     2
271
     2
272
     2
273
     2
274
     2
340
6B
275
     0
280
     0
281
     0
282
     0
283
     0
284
     0
285
     0
286
     0
287
     3
288
     0
  0
DIMSTYLE
105
B34
102
{ACAD_REACTORS
330
36BA
102
}
330
A
100
AcDbSymbolTableRecord
100
AcDbDimStyleTableRecord
  2
AM_JIS$2
 70
     0
  3

  4
"
  5
OPEN30
  6

  7

 40
1.0
 41
2.5
 42
1.0
 43
12.0
 44
1.0
 45
0.0
 46
0.0
 47
0.1
 48
0.1
140
3.2
141
0.0
142
0.0
143
0.0393701
144
1.0
145
0.0
146
0.71
147
1.5
 71
     0
 72
     0
 73
     0
 74
     0
 75
     0
 76
     0
 77
     3
 78
     8
170
     0
171
     2
172
     1
173
     0
174
     0
175
     0
176
   256
177
   256
178
     2
270
     2
271
     3
272
     3
273
     2
274
     2
340
6B
275
     0
280
     0
281
     0
282
     0
283
     0
284
     0
285
     0
286
     0
287
     3
288
     0
  0
DIMSTYLE
105
BA5
102
{ACAD_REACTORS
330
3866
330
3C40
330
3D56
330
3DFD
330
53D8
330
53E5
330
53F2
330
53FF
330
55C4
102
}
330
A
100
AcDbSymbolTableRecord
100
AcDbDimStyleTableRecord
  2
AM_JIS$0
 70
     0
  3

  4
"
  5
OPEN30
  6

  7

 40
1.0
 41
2.5
 42
0.8
 43
10.0
 44
1.0
 45
0.0
 46
0.0
 47
0.1
 48
0.1000000001
140
3.799999999999999
141
0.0
142
0.0
143
0.0393701
144
1.0
145
0.0
146
0.71
147
1.5
 71
     0
 72
     0
 73
     0
 74
     0
 75
     0
 76
     0
 77
     3
 78
     9
170
     0
171
     2
172
     1
173
     0
174
     0
175
     0
176
     3
177
     3
178
     2
270
     2
271
     2
272
     2
273
     2
274
     2
340
11
275
     1
280
     0
281
     0
282
     0
283
     0
284
     8
285
     0
286
     0
287
     0
288
     0
  0
DIMSTYLE
105
BA6
330
A
100
AcDbSymbolTableRecord
100
AcDbDimStyleTableRecord
  2
AM_JISORG-1P0$2
 70
     0
  3

  4
"
  5
OPEN30
  6

  7

 40
1.0
 41
2.5
 42
0.0
 43
10.0
 44
1.0
 45
0.0
 46
0.0
 47
0.1
 48
0.1000000001
140
3.799999999999999
141
0.0
142
0.0
143
0.0393701
144
-0.999999980146674
145
0.0
146
0.71
147
1.5
 71
     0
 72
     0
 73
     0
 74
     0
 75
     0
 76
     0
 77
     3
 78
     1
170
     0
171
     2
172
     1
173
     0
174
     0
175
     0
176
     3
177
     3
178
     2
270
     2
271
     2
272
     2
273
     2
274
     2
340
11
275
     1
280
     0
281
     0
282
     0
283
     0
284
     8
285
     0
286
     0
287
     0
288
     0
  0
ENDTAB
  0
TABLE
  2
BLOCK_RECORD
  5
1
330
0
100
AcDbSymbolTable
 70
    18
  0
BLOCK_RECORD
  5
1F
102
{ACAD_XDICTIONARY
360
74
102
}
330
1
100
AcDbSymbolTableRecord
100
AcDbBlockTableRecord
  2
*MODEL_SPACE
  0
BLOCK_RECORD
  5
101
102
{ACAD_XDICTIONARY
360
5738
102
}
330
1
100
AcDbSymbolTableRecord
100
AcDbBlockTableRecord
  2
*PAPER_SPACE
  0
BLOCK_RECORD
  5
59
330
1
100
AcDbSymbolTableRecord
100
AcDbBlockTableRecord
  2
_OPEN30
  0
BLOCK_RECORD
  5
64
330
1
100
AcDbSymbolTableRecord
100
AcDbBlockTableRecord
  2
GENAXEH
  0
BLOCK_RECORD
  5
C31
330
1
100
AcDbSymbolTableRecord
100
AcDbBlockTableRecord
  2
A$C36D02A34
  0
BLOCK_RECORD
  5
2453
330
1
100
AcDbSymbolTableRecord
100
AcDbBlockTableRecord
  2
*D6
  0
BLOCK_RECORD
  5
245F
330
1
100
AcDbSymbolTableRecord
100
AcDbBlockTableRecord
  2
A$C4FFC6CC0
  0
BLOCK_RECORD
  5
36BB
330
1
100
AcDbSymbolTableRecord
100
AcDbBlockTableRecord
  2
*D8
  0
BLOCK_RECORD
  5
3867
330
1
100
AcDbSymbolTableRecord
100
AcDbBlockTableRecord
  2
*D9
  0
BLOCK_RECORD
  5
3C41
330
1
100
AcDbSymbolTableRecord
100
AcDbBlockTableRecord
  2
*D10
  0
BLOCK_RECORD
  5
3D57
330
1
100
AcDbSymbolTableRecord
100
AcDbBlockTableRecord
  2
*D11
  0
BLOCK_RECORD
  5
3DFE
330
1
100
AcDbSymbolTableRecord
100
AcDbBlockTableRecord
  2
*D12
  0
BLOCK_RECORD
  5
53D9
330
1
100
AcDbSymbolTableRecord
100
AcDbBlockTableRecord
  2
*D13
  0
BLOCK_RECORD
  5
53E6
330
1
100
AcDbSymbolTableRecord
100
AcDbBlockTableRecord
  2
*D14
  0
BLOCK_RECORD
  5
53F3
330
1
100
AcDbSymbolTableRecord
100
AcDbBlockTableRecord
  2
*D15
  0
BLOCK_RECORD
  5
5400
330
1
100
AcDbSymbolTableRecord
100
AcDbBlockTableRecord
  2
*D16
  0
BLOCK_RECORD
  5
55C5
330
1
100
AcDbSymbolTableRecord
100
AcDbBlockTableRecord
  2
*D17
  0
ENDTAB
  0
ENDSEC
  0
SECTION
  2
BLOCKS
  0
BLOCK
  5
20
330
1F
100
AcDbEntity
  8
0
100
AcDbBlockBegin
  2
*MODEL_SPACE
 70
     0
 10
0.0
 20
0.0
 30
0.0
  3
*MODEL_SPACE
  1

  0
ENDBLK
  5
21
330
1F
100
AcDbEntity
  8
0
100
AcDbBlockEnd
  0
BLOCK
  5
103
330
101
100
AcDbEntity
 67
     1
  8
0
100
AcDbBlockBegin
  2
*PAPER_SPACE
 70
     0
 10
0.0
 20
0.0
 30
0.0
  3
*PAPER_SPACE
  1

  0
ENDBLK
  5
104
330
101
100
AcDbEntity
 67
     1
  8
0
100
AcDbBlockEnd
  0
BLOCK
  5
5D
330
59
100
AcDbEntity
  8
0
100
AcDbBlockBegin
  2
_OPEN30
 70
     0
 10
0.0
 20
0.0
 30
0.0
  3
_OPEN30
  1

  0
LINE
  5
5A
330
59
100
AcDbEntity
  8
0
 62
     0
100
AcDbLine
 10
-1.0
 20
0.26794919
 30
0.0
 11
0.0
 21
0.0
 31
0.0
  0
LINE
  5
5B
330
59
100
AcDbEntity
  8
0
 62
     0
100
AcDbLine
 10
0.0
 20
0.0
 30
0.0
 11
-1.0
 21
-0.26794919
 31
0.0
  0
LINE
  5
5C
330
59
100
AcDbEntity
  8
0
 62
     0
100
AcDbLine
 10
0.0
 20
0.0
 30
0.0
 11
-1.0
 21
0.0
 31
0.0
  0
ENDBLK
  5
5E
330
59
100
AcDbEntity
  8
0
100
AcDbBlockEnd
  0
BLOCK
  5
66
330
64
100
AcDbEntity
  8
0
100
AcDbBlockBegin
  2
GENAXEH
 70
     0
 10
0.0
 20
0.0
 30
0.0
  3
GENAXEH
  1

  0
LINE
  5
65
330
64
100
AcDbEntity
  8
0
100
AcDbLine
 10
-1.0
 20
0.0
 30
0.0
 11
1.0
 21
0.0
 31
0.0
  0
ENDBLK
  5
67
330
64
100
AcDbEntity
  8
0
100
AcDbBlockEnd
  0
BLOCK
  5
C4B
330
C31
100
AcDbEntity
  8
0
100
AcDbBlockBegin
  2
A$C36D02A34
 70
     0
 10
0.0
 20
0.0
 30
0.0
  3
A$C36D02A34
  1

  0
ARC
  5
C32
330
C31
100
AcDbEntity
  8
PV0001_1
  6
CONTINUOUS
 48
0.5
100
AcDbCircle
 10
18.06811523436999
 20
-11.83651161193799
 30
0.0
 40
21.600000381469
100
AcDbArc
 50
123.2290435713209
 51
126.6341524197568
  0
ARC
  5
C33
330
C31
100
AcDbEntity
  8
PV0001_1
  6
CONTINUOUS
 48
0.5
100
AcDbCircle
 10
18.06811523436999
 20
-11.83651161193799
 30
0.0
 40
21.600000381469
100
AcDbArc
 50
135.0736707620117
 51
146.7709980930592
  0
ARC
  5
C34
330
C31
100
AcDbEntity
  8
PV0001_1
  6
CONTINUOUS
 48
0.5
100
AcDbCircle
 10
-18.0680770874
 20
11.8365631103514
 30
0.0
 40
21.600000381469
100
AcDbArc
 50
315.0734847530392
 51
326.770781348241
  0
ARC
  5
C35
330
C31
100
AcDbEntity
  8
PV0001_1
  6
CONTINUOUS
 48
0.5
100
AcDbCircle
 10
-18.0680770874
 20
11.8365631103514
 30
0.0
 40
21.600000381469
100
AcDbArc
 50
303.2288882981993
 51
306.633986901359
  0
ARC
  5
C36
330
C31
100
AcDbEntity
  8
PV0001_1
  6
CONTINUOUS
 48
0.5
100
AcDbCircle
 10
-0.6269836425800009
 20
-2.044216156005997
 30
0.0
 40
2.0
100
AcDbArc
 50
337.4067997351092
 51
43.42231293132884
  0
ARC
  5
C37
330
C31
100
AcDbEntity
  8
PV0001_1
  6
CONTINUOUS
 48
0.5
100
AcDbCircle
 10
0.626953125
 20
2.044223785401001
 30
0.0
 40
2.0
100
AcDbArc
 50
157.4068184044407
 51
223.4222769591536
  0
CIRCLE
  5
C38
330
C31
100
AcDbEntity
  8
PV0001_1
  6
CONTINUOUS
 48
0.5
100
AcDbCircle
 10
3.856727600100001
 20
4.596265792847002
 30
0.0
 40
1.6000000238419
  0
CIRCLE
  5
C39
330
C31
100
AcDbEntity
  8
PV0001_1
  6
CONTINUOUS
 48
0.5
100
AcDbCircle
 10
-3.856727600100001
 20
-4.596265792845997
 30
0.0
 40
1.6000000238419
  0
ARC
  5
C3A
330
C31
100
AcDbEntity
  8
PV0001_1
  6
CONTINUOUS
 48
0.5
100
AcDbCircle
 10
-5.58123779297
 20
5.092639923096001
 30
0.0
 40
5.019082546234099
100
AcDbArc
 50
240.2658959250867
 51
321.5156269706421
  0
ARC
  5
C3B
330
C31
100
AcDbEntity
  8
PV0001_1
  6
CONTINUOUS
 48
0.5
100
AcDbCircle
 10
5.486755371089998
 20
-4.601703643798998
 30
0.0
 40
4.651036739349399
100
AcDbArc
 50
56.25271400417071
 51
145.528859890601
  0
ARC
  5
C3C
330
C31
100
AcDbEntity
  8
PV0001_1
  6
CONTINUOUS
 48
0.5
100
AcDbCircle
 10
-2.11590576172
 20
-3.453323364257997
 30
0.0
 40
4.050000190734899
100
AcDbArc
 50
43.42230610113921
 51
58.50391703385149
  0
ARC
  5
C3D
330
C31
100
AcDbEntity
  8
PV0001_1
  6
CONTINUOUS
 48
0.5
100
AcDbCircle
 10
2.115875244139999
 20
3.453330993653001
 30
0.0
 40
4.050000190734899
100
AcDbArc
 50
223.4222942619974
 51
238.5038164022482
  0
ARC
  5
C3E
330
C31
100
AcDbEntity
  8
PV0001_1
  6
CONTINUOUS
 48
0.5
100
AcDbCircle
 10
-6.70369720459
 20
5.094657897949002
 30
0.0
 40
5.940000057220499
100
AcDbArc
 50
328.2536768887549
 51
31.74641873389623
  0
ARC
  5
C3F
330
C31
100
AcDbEntity
  8
PV0001_1
  6
CONTINUOUS
 48
0.5
100
AcDbCircle
 10
6.703674316410001
 20
-5.094650268553998
 30
0.0
 40
5.940000057220499
100
AcDbArc
 50
148.2533403882529
 51
211.7466423089037
  0
ARC
  5
C40
330
C31
100
AcDbEntity
  8
PV0001_1
  6
CONTINUOUS
 48
0.5
100
AcDbCircle
 10
0.0
 20
0.0
 30
0.0
 40
8.812800407409699
100
AcDbArc
 50
175.2198288164333
 51
272.8622597568298
  0
ARC
  5
C41
330
C31
100
AcDbEntity
  8
PV0001_1
  6
CONTINUOUS
 48
0.5
100
AcDbCircle
 10
0.0
 20
0.0
 30
0.0
 40
9.1800003051758
100
AcDbArc
 50
272.7511362215027
 51
280.3697477877874
  0
ARC
  5
C42
330
C31
100
AcDbEntity
  8
PV0001_1
  6
CONTINUOUS
 48
0.5
100
AcDbCircle
 10
0.0
 20
0.0
 30
0.0
 40
8.812800407409699
100
AcDbArc
 50
355.2198199654955
 51
92.86229572901076
  0
ARC
  5
C43
330
C31
100
AcDbEntity
  8
PV0001_1
  6
CONTINUOUS
 48
0.5
100
AcDbCircle
 10
0.0
 20
0.0
 30
0.0
 40
9.1800003051758
100
AcDbArc
 50
92.75115489083434
 51
100.3697664571193
  0
CIRCLE
  5
C44
330
C31
100
AcDbEntity
  8
PV0001_1
  6
CONTINUOUS
100
AcDbCircle
 10
0.0
 20
0.0
 30
0.0
 40
9.1800003051758
  0
LINE
  5
C45
330
C31
100
AcDbEntity
  8
PV0001_1
  6
CONTINUOUS
 48
0.5
100
AcDbLine
 10
-1.652404785160001
 20
9.030059814453
 30
0.0
 11
-1.652404785160001
 21
8.220062255860002
 31
0.0
  0
LINE
  5
C46
330
C31
100
AcDbEntity
  8
PV0001_1
  6
CONTINUOUS
 48
0.5
100
AcDbLine
 10
1.652404785160001
 20
-8.220058441161999
 30
0.0
 11
1.652404785160001
 21
-9.030055999755997
 31
0.0
  0
LINE
  5
C47
330
C31
100
AcDbEntity
  8
PV0001_1
  6
CONTINUOUS
 48
0.5
100
AcDbLine
 10
-8.78217315674
 20
0.7343807220460015
 30
0.0
 11
-8.070594787600001
 21
0.7343997955320028
 31
0.0
  0
LINE
  5
C48
330
C31
100
AcDbEntity
  8
PV0001_1
  6
CONTINUOUS
 48
0.5
100
AcDbLine
 10
8.07057952881
 20
-0.7343864440919994
 30
0.0
 11
8.78215789795
 21
-0.7343654632569994
 31
0.0
  0
LINE
  5
C49
330
C31
100
AcDbEntity
  8
PV0001_1
  6
CONTINUOUS
 48
0.5
100
AcDbLine
 10
0.4406127929700006
 20
-9.169414520263
 30
0.0
 11
0.4406127929700006
 21
-8.812801361083998
 31
0.0
  0
LINE
  5
C4A
330
C31
100
AcDbEntity
  8
PV0001_1
  6
CONTINUOUS
 48
0.5
100
AcDbLine
 10
-0.4406127929700006
 20
9.169418334961001
 30
0.0
 11
-0.4406127929700006
 21
8.812805175781001
 31
0.0
  0
ENDBLK
  5
C4C
330
C31
100
AcDbEntity
  8
0
100
AcDbBlockEnd
  0
BLOCK
  5
245D
330
2453
100
AcDbEntity
  8
0
100
AcDbBlockBegin
  2
*D6
 70
     1
 10
0.0
 20
0.0
 30
0.0
  3
*D6
  1

  0
LINE
  5
2454
330
2453
100
AcDbEntity
  8
AM_5
 62
     3
100
AcDbLine
 10
-137.574381722344
 20
-5.00000294019065
 30
0.0
 11
-152.8199008769066
 21
-5.000002940190694
 31
0.0
  0
LINE
  5
2455
330
2453
100
AcDbEntity
  8
AM_5
 62
     3
100
AcDbLine
 10
-137.5743817223442
 20
5.00002461040103
 30
0.0
 11
-152.8199008769066
 21
5.000024610400987
 31
0.0
  0
LINE
  5
2456
330
2453
100
AcDbEntity
  8
AM_5
 62
     3
100
AcDbLine
 10
-151.8199008769066
 20
-2.500002940190691
 30
0.0
 11
-151.8199008769066
 21
2.50002461040099
 31
0.0
  0
INSERT
  5
2457
330
2453
100
AcDbEntity
  8
AM_5
 62
     3
100
AcDbBlockReference
  2
_OPEN30
 10
-151.8199008769066
 20
-5.00000294019069
 30
0.0
 41
2.5
 42
2.5
 43
2.5
 50
270.0000000000001
  0
INSERT
  5
2458
330
2453
100
AcDbEntity
  8
AM_5
 62
     3
100
AcDbBlockReference
  2
_OPEN30
 10
-151.8199008769066
 20
5.00002461040099
 30
0.0
 41
2.5
 42
2.5
 43
2.5
 50
90.00000000000015
  0
MTEXT
  5
2459
330
2453
100
AcDbEntity
  8
AM_5
 62
     2
100
AcDbMText
 10
-155.2199008769066
 20
0.000010835105146
 30
0.0
 40
3.799999999999999
 41
0.0
 71
     5
 72
     1
  1
%%c10
 11
-0.0000000000000028
 21
1.0
 31
0.0
1001
ACAD
1000
MTEXTBEGIN
1070
    73
1070
     1
1070
    44
1040
1.0
1070
    74
1070
     0
1000
MTEXTEND
  0
POINT
  5
245A
330
2453
100
AcDbEntity
  8
DEFPOINTS
 62
     0
100
AcDbPoint
 10
-137.5743817223441
 20
-5.000002940190223
 30
0.0
  0
POINT
  5
245B
330
2453
100
AcDbEntity
  8
DEFPOINTS
 62
     0
100
AcDbPoint
 10
-137.5743817223441
 20
5.000024610401458
 30
0.0
  0
POINT
  5
245C
330
2453
100
AcDbEntity
  8
DEFPOINTS
 62
     0
100
AcDbPoint
 10
-151.8199008769066
 20
5.000024610401462
 30
0.0
  0
ENDBLK
  5
245E
330
2453
100
AcDbEntity
  8
0
100
AcDbBlockEnd
  0
BLOCK
  5
246B
330
245F
100
AcDbEntity
  8
0
100
AcDbBlockBegin
  2
A$C4FFC6CC0
 70
     0
 10
0.0
 20
0.0
 30
0.0
  3
A$C4FFC6CC0
  1

  0
DIMENSION
  5
2460
330
245F
100
AcDbEntity
  8
AM_5
100
AcDbDimension
  2
*D6
 10
-70.00000100000002
 20
5.000008477104842
 30
0.0
 11
-70.00000100000002
 21
-0.0000052981910228
 31
0.0
 12
81.81989987690661
 22
-0.0000161332966199
 32
0.0
 70
   128
  1
%%c<>
 51
359.9999999999998
  3
AM_JIS$0
100
AcDbAlignedDimension
 13
-55.75448184543748
 23
-5.000019073486843
 33
0.0
 14
-55.75448184543756
 24
5.000008477104838
 34
0.0
 50
270.0
100
AcDbRotatedDimension
1001
ACAD
1000
DSTYLE
1002
{
1070
   271
1070
     0
1002
}
1001
GENIUS_GENDTOL_13
1000

1000
h7
1000

1040
0.0
  0
LINE
  5
2461
330
245F
100
AcDbEntity
  8
AM_0
 48
0.5
100
AcDbLine
 10
-56.0
 20
-4.754495620727796
 30
0.0
 11
-56.00000000000003
 21
4.754485024345811
 31
0.0
  0
LINE
  5
2462
330
245F
100
AcDbEntity
  8
AM_0
 48
0.5
100
AcDbLine
 10
-55.75448184543751
 20
-5.000019073486843
 30
0.0
 11
-55.75448184543754
 21
5.000008477104838
 31
0.0
  0
LINE
  5
2463
330
245F
100
AcDbEntity
  8
AM_0
100
AcDbLine
 10
-0.0000000000000142
 20
4.999995231627903
 30
0.0
 11
-55.75448184543754
 21
4.999995231627746
 31
0.0
  0
LINE
  5
2464
330
245F
100
AcDbEntity
  8
AM_0
 48
0.5
100
AcDbLine
 10
-55.99996821086117
 20
4.754439989725671
 30
0.0
 11
-55.75443945990975
 21
4.999963442484006
 31
0.0
  0
LINE
  5
2465
330
245F
100
AcDbEntity
  8
AM_0
100
AcDbLine
 10
-55.75448184543751
 20
-5.000008477105588
 30
0.0
 11
0.0000000000000142
 21
-5.00000847710543
 31
0.0
  0
LINE
  5
2466
330
245F
100
AcDbEntity
  8
AM_0
 48
0.5
100
AcDbLine
 10
-55.99996821086114
 20
-4.754474427965309
 30
0.0
 11
-55.75443945990972
 21
-4.999997880724334
 31
0.0
  0
LINE
  5
2467
330
245F
100
AcDbEntity
  8
AM_0
100
AcDbLine
 10
0.7794201296714505
 20
4.549985867772141
 30
0.0
 11
0.7794201296714789
 21
-4.550003370497427
 31
0.0
  0
LINE
  5
2468
330
245F
100
AcDbEntity
  8
AM_0
 48
0.5
100
AcDbLine
 10
0.0000000000000142
 20
-5.00000847710543
 30
0.0
 11
-0.0000000000000142
 21
5.000008477104995
 31
0.0
  0
LINE
  5
2469
330
245F
100
AcDbEntity
  8
AM_0
 48
0.5
100
AcDbLine
 10
0.7794201296714647
 20
-4.550003370497435
 30
0.0
 11
-0.0000105963812445
 21
-5.00000847710543
 31
0.0
  0
LINE
  5
246A
330
245F
100
AcDbEntity
  8
AM_0
 48
0.5
100
AcDbLine
 10
0.7794201296714647
 20
4.549985867772141
 30
0.0
 11
-0.0000000000000142
 21
4.999984635246652
 31
0.0
  0
ENDBLK
  5
246C
330
245F
100
AcDbEntity
  8
0
100
AcDbBlockEnd
  0
BLOCK
  5
36C9
330
36BB
100
AcDbEntity
  8
0
100
AcDbBlockBegin
  2
*D8
 70
     1
 10
0.0
 20
0.0
 30
0.0
  3
*D8
  1

  0
LINE
  5
4149
330
36BB
100
AcDbEntity
  8
AM_5
100
AcDbLine
 10
0.3420201408161502
 20
-0.9396926216994629
 30
0.0
 11
11.31017982904546
 21
-31.07446394848497
 31
0.0
  0
LINE
  5
414A
330
36BB
100
AcDbEntity
  8
AM_5
100
AcDbLine
 10
0.3420201408161393
 20
0.939692621699157
 30
0.0
 11
11.3101798290451
 21
31.07446394848479
 31
0.0
  0
ARC
  5
414B
330
36BB
100
AcDbEntity
  8
AM_5
100
AcDbCircle
 10
0.0000000000000263
 20
-0.000000000000155
 30
0.0
 40
32.06875379343813
100
AcDbArc
 50
294.4677676365269
 51
65.53223236347371
  0
INSERT
  5
414C
330
36BB
100
AcDbEntity
  8
AM_5
100
AcDbBlockReference
  2
_OPEN30
 10
10.96815968822934
 20
-30.13477132678566
 30
0.0
 41
2.5
 42
2.5
 43
2.5
 50
202.2338837417563
  0
INSERT
  5
414D
330
36BB
100
AcDbEntity
  8
AM_5
100
AcDbBlockReference
  2
_OPEN30
 10
10.96815968822899
 20
30.13477132678548
 30
0.0
 41
2.5
 42
2.5
 43
2.5
 50
157.7661162582443
  0
MTEXT
  5
414E
330
36BB
100
AcDbEntity
  8
AM_5
 62
     2
100
AcDbMText
 10
28.96875379343816
 20
0.0000000000000357
 30
0.0
 40
3.2
 41
0.0
 71
     5
 72
     1
  1
140°
  7
ASAMI
 11
-0.0000000000000028
 21
1.0
 31
0.0
1001
ACAD
1000
MTEXTBEGIN
1070
    73
1070
     1
1070
    44
1040
1.0
1070
    74
1070
     0
1000
MTEXTEND
  0
POINT
  5
414F
330
36BB
100
AcDbEntity
  8
DEFPOINTS
 62
     0
100
AcDbPoint
 10
29.44604624940567
 20
-12.70178452588532
 30
0.0
  0
POINT
  5
4150
330
36BB
100
AcDbEntity
  8
DEFPOINTS
 62
     0
100
AcDbPoint
 10
0.0
 20
-0.0000000000002274
 30
0.0
  0
POINT
  5
4151
330
36BB
100
AcDbEntity
  8
DEFPOINTS
 62
     0
100
AcDbPoint
 10
0.0
 20
-0.0000000000000827
 30
0.0
  0
POINT
  5
4152
330
36BB
100
AcDbEntity
  8
DEFPOINTS
 62
     0
100
AcDbPoint
 10
-2.547791618692619
 20
6.999999999999763
 30
0.0
  0
POINT
  5
4153
330
36BB
100
AcDbEntity
  8
DEFPOINTS
 62
     0
100
AcDbPoint
 10
-2.547791618692583
 20
-7.000000000000091
 30
0.0
  0
ENDBLK
  5
36CA
330
36BB
100
AcDbEntity
  8
0
100
AcDbBlockEnd
  0
BLOCK
  5
3871
330
3867
100
AcDbEntity
  8
0
100
AcDbBlockBegin
  2
*D9
 70
     1
 10
0.0
 20
0.0
 30
0.0
  3
*D9
  1

  0
LINE
  5
5614
330
3867
100
AcDbEntity
  8
AM_5
 62
     3
100
AcDbLine
 10
-159.0230722206982
 20
12.52500938462128
 30
0.0
 11
-176.8555604714218
 21
12.52500938462123
 31
0.0
  0
LINE
  5
5615
330
3867
100
AcDbEntity
  8
AM_5
 62
     3
100
AcDbLine
 10
-159.023072220698
 20
-12.4748933430618
 30
0.0
 11
-176.8555604714217
 21
-12.47489334306185
 31
0.0
  0
LINE
  5
5616
330
3867
100
AcDbEntity
  8
AM_5
 62
     3
100
AcDbLine
 10
-175.8555604714218
 20
10.02500938462123
 30
0.0
 11
-175.8555604714217
 21
-9.974893343061848
 31
0.0
  0
INSERT
  5
5617
330
3867
100
AcDbEntity
  8
AM_5
 62
     3
100
AcDbBlockReference
  2
_OPEN30
 10
-175.8555604714218
 20
12.52500938462123
 30
0.0
 41
2.5
 42
2.5
 43
2.5
 50
90.00000000000017
  0
INSERT
  5
5618
330
3867
100
AcDbEntity
  8
AM_5
 62
     3
100
AcDbBlockReference
  2
_OPEN30
 10
-175.8555604714217
 20
-12.47489334306185
 30
0.0
 41
2.5
 42
2.5
 43
2.5
 50
270.0000000000001
  0
MTEXT
  5
5619
330
3867
100
AcDbEntity
  8
AM_5
 62
     2
100
AcDbMText
 10
-179.2555604714218
 20
0.0250580207796926
 30
0.0
 40
3.799999999999999
 41
0.0
 71
     5
 72
     1
  1
%%C25
 11
-0.0000000000000028
 21
1.0
 31
0.0
1001
ACAD
1000
MTEXTBEGIN
1070
    73
1070
     1
1070
    44
1040
1.0
1070
    74
1070
     0
1000
MTEXTEND
  0
POINT
  5
561A
330
3867
100
AcDbEntity
  8
DEFPOINTS
 62
     0
100
AcDbPoint
 10
-158.2230722206981
 20
12.52500938462178
 30
0.0
  0
POINT
  5
561B
330
3867
100
AcDbEntity
  8
DEFPOINTS
 62
     0
100
AcDbPoint
 10
-158.223072220698
 20
-12.4748933430613
 30
0.0
  0
POINT
  5
561C
330
3867
100
AcDbEntity
  8
DEFPOINTS
 62
     0
100
AcDbPoint
 10
-175.8555604714218
 20
-12.4748933430613
 30
0.0
  0
ENDBLK
  5
3872
330
3867
100
AcDbEntity
  8
0
100
AcDbBlockEnd
  0
BLOCK
  5
3C4B
330
3C41
100
AcDbEntity
  8
0
100
AcDbBlockBegin
  2
*D10
 70
     1
 10
0.0
 20
0.0
 30
0.0
  3
*D10
  1

  0
LINE
  5
5631
330
3C41
100
AcDbEntity
  8
AM_5
 62
     3
100
AcDbLine
 10
-102.9087193774694
 20
-13.27503639174649
 30
0.0
 11
-102.9087193774694
 21
-41.3606269566308
 31
0.0
  0
LINE
  5
5632
330
3C41
100
AcDbEntity
  8
AM_5
 62
     3
100
AcDbLine
 10
-158.9086335467943
 20
-12.61209445906811
 30
0.0
 11
-158.9086335467943
 21
-41.36062695663096
 31
0.0
  0
LINE
  5
5633
330
3C41
100
AcDbEntity
  8
AM_5
 62
     3
100
AcDbLine
 10
-105.4087193774694
 20
-40.36062695663081
 30
0.0
 11
-156.4086335467943
 21
-40.36062695663096
 31
0.0
  0
INSERT
  5
5634
330
3C41
100
AcDbEntity
  8
AM_5
 62
     3
100
AcDbBlockReference
  2
_OPEN30
 10
-102.9087193774694
 20
-40.3606269566308
 30
0.0
 41
2.5
 42
2.5
 43
2.5
 50
0.0000000000001527
  0
INSERT
  5
5635
330
3C41
100
AcDbEntity
  8
AM_5
 62
     3
100
AcDbBlockReference
  2
_OPEN30
 10
-158.9086335467943
 20
-40.36062695663097
 30
0.0
 41
2.5
 42
2.5
 43
2.5
 50
180.0000000000001
  0
MTEXT
  5
5636
330
3C41
100
AcDbEntity
  8
AM_5
 62
     2
100
AcDbMText
 10
-130.9086764621318
 20
-36.96062695663089
 30
0.0
 40
3.799999999999999
 41
0.0
 71
     5
 72
     1
  1
56
1001
ACAD
1000
MTEXTBEGIN
1070
    73
1070
     1
1070
    44
1040
1.0
1070
    74
1070
     0
1000
MTEXTEND
  0
POINT
  5
5637
330
3C41
100
AcDbEntity
  8
DEFPOINTS
 62
     0
100
AcDbPoint
 10
-102.9087193774695
 20
-12.47503639174619
 30
0.0
  0
POINT
  5
5638
330
3C41
100
AcDbEntity
  8
DEFPOINTS
 62
     0
100
AcDbPoint
 10
-158.9086335467944
 20
-11.81209445906764
 30
0.0
  0
POINT
  5
5639
330
3C41
100
AcDbEntity
  8
DEFPOINTS
 62
     0
100
AcDbPoint
 10
-158.9086335467944
 20
-40.3606269566305
 30
0.0
  0
ENDBLK
  5
3C4C
330
3C41
100
AcDbEntity
  8
0
100
AcDbBlockEnd
  0
BLOCK
  5
3D63
330
3D57
100
AcDbEntity
  8
0
100
AcDbBlockBegin
  2
*D11
 70
     1
 10
0.0
 20
0.0
 30
0.0
  3
*D11
  1

  0
LINE
  5
561D
330
3D57
100
AcDbEntity
  8
AM_5
 62
     3
100
AcDbLine
 10
-158.9086335467943
 20
-12.61209445906811
 30
0.0
 11
-158.9086335467943
 21
-29.4794172256178
 31
0.0
  0
LINE
  5
561E
330
3D57
100
AcDbEntity
  8
AM_5
 62
     3
100
AcDbLine
 10
-152.908730742872
 20
-0.8000000000009242
 30
0.0
 11
-152.9087307428719
 21
-29.47941722561778
 31
0.0
  0
LINE
  5
561F
330
3D57
100
AcDbEntity
  8
AM_5
 62
     3
100
AcDbLine
 10
-161.4086335467943
 20
-28.47941722561781
 30
0.0
 11
-163.9086335467943
 21
-28.47941722561781
 31
0.0
  0
LINE
  5
5620
330
3D57
100
AcDbEntity
  8
AM_5
 62
     3
100
AcDbLine
 10
-150.4087307428719
 20
-28.47941722561778
 30
0.0
 11
-147.908730742872
 21
-28.47941722561777
 31
0.0
  0
LINE
  5
5621
330
3D57
100
AcDbEntity
  8
AM_5
 62
     3
100
AcDbLine
 10
-158.9086335467943
 20
-28.4794172256178
 30
0.0
 11
-152.9087307428719
 21
-28.47941722561778
 31
0.0
  0
INSERT
  5
5622
330
3D57
100
AcDbEntity
  8
AM_5
 62
     3
100
AcDbBlockReference
  2
_OPEN30
 10
-158.9086335467943
 20
-28.4794172256178
 30
0.0
 41
2.5
 42
2.5
 43
2.5
 50
0.0000000000001527
  0
INSERT
  5
5623
330
3D57
100
AcDbEntity
  8
AM_5
 62
     3
100
AcDbBlockReference
  2
_OPEN30
 10
-152.9087307428719
 20
-28.47941722561778
 30
0.0
 41
2.5
 42
2.5
 43
2.5
 50
180.0000000000001
  0
MTEXT
  5
5624
330
3D57
100
AcDbEntity
  8
AM_5
 62
     2
100
AcDbMText
 10
-155.9086821448331
 20
-25.07941722561779
 30
0.0
 40
3.799999999999999
 41
0.0
 71
     5
 72
     1
  1
6
1001
ACAD
1000
MTEXTBEGIN
1070
    73
1070
     1
1070
    44
1040
1.0
1070
    74
1070
     0
1000
MTEXTEND
  0
POINT
  5
5625
330
3D57
100
AcDbEntity
  8
DEFPOINTS
 62
     0
100
AcDbPoint
 10
-158.9086335467944
 20
-11.81209445906764
 30
0.0
  0
POINT
  5
5626
330
3D57
100
AcDbEntity
  8
DEFPOINTS
 62
     0
100
AcDbPoint
 10
-152.908730742872
 20
-0.0000000000004793
 30
0.0
  0
POINT
  5
5627
330
3D57
100
AcDbEntity
  8
DEFPOINTS
 62
     0
100
AcDbPoint
 10
-152.908730742872
 20
-28.47941722561733
 30
0.0
  0
ENDBLK
  5
3D64
330
3D57
100
AcDbEntity
  8
0
100
AcDbBlockEnd
  0
BLOCK
  5
3E08
330
3DFE
100
AcDbEntity
  8
0
100
AcDbBlockBegin
  2
*D12
 70
     1
 10
0.0
 20
0.0
 30
0.0
  3
*D12
  1

  0
LINE
  5
5628
330
3DFE
100
AcDbEntity
  8
AM_5
 62
     3
100
AcDbLine
 10
-152.908730742872
 20
-0.8000000000009242
 30
0.0
 11
-152.9087307428719
 21
-29.47941722561757
 31
0.0
  0
LINE
  5
5629
330
3DFE
100
AcDbEntity
  8
AM_5
 62
     3
100
AcDbLine
 10
-107.9087193774695
 20
-0.8000000000007048
 30
0.0
 11
-107.9087193774694
 21
-29.47941722561744
 31
0.0
  0
LINE
  5
562A
330
3DFE
100
AcDbEntity
  8
AM_5
 62
     3
100
AcDbLine
 10
-150.4087307428719
 20
-28.47941722561756
 30
0.0
 11
-110.4087193774694
 21
-28.47941722561745
 31
0.0
  0
INSERT
  5
562B
330
3DFE
100
AcDbEntity
  8
AM_5
 62
     3
100
AcDbBlockReference
  2
_OPEN30
 10
-152.9087307428719
 20
-28.47941722561757
 30
0.0
 41
2.5
 42
2.5
 43
2.5
 50
180.0000000000001
  0
INSERT
  5
562C
330
3DFE
100
AcDbEntity
  8
AM_5
 62
     3
100
AcDbBlockReference
  2
_OPEN30
 10
-107.9087193774694
 20
-28.47941722561744
 30
0.0
 41
2.5
 42
2.5
 43
2.5
 50
0.0000000000001527
  0
MTEXT
  5
562D
330
3DFE
100
AcDbEntity
  8
AM_5
 62
     2
100
AcDbMText
 10
-130.4087250601707
 20
-25.07941722561751
 30
0.0
 40
3.799999999999999
 41
0.0
 71
     5
 72
     1
  1
45
1001
ACAD
1000
MTEXTBEGIN
1070
    73
1070
     1
1070
    44
1040
1.0
1070
    74
1070
     0
1000
MTEXTEND
  0
POINT
  5
562E
330
3DFE
100
AcDbEntity
  8
DEFPOINTS
 62
     0
100
AcDbPoint
 10
-152.908730742872
 20
-0.0000000000004793
 30
0.0
  0
POINT
  5
562F
330
3DFE
100
AcDbEntity
  8
DEFPOINTS
 62
     0
100
AcDbPoint
 10
-107.9087193774695
 20
-0.0000000000003908
 30
0.0
  0
POINT
  5
5630
330
3DFE
100
AcDbEntity
  8
DEFPOINTS
 62
     0
100
AcDbPoint
 10
-107.9087193774695
 20
-28.47941722561713
 30
0.0
  0
ENDBLK
  5
3E09
330
3DFE
100
AcDbEntity
  8
0
100
AcDbBlockEnd
  0
BLOCK
  5
53E3
330
53D9
100
AcDbEntity
  8
0
100
AcDbBlockBegin
  2
*D13
 70
     1
 10
0.0
 20
0.0
 30
0.0
  3
*D13
  1

  0
LINE
  5
5643
330
53D9
100
AcDbEntity
  8
AM_5
 62
     3
100
AcDbLine
 10
-3.908719377469577
 20
-10.77500000000009
 30
0.0
 11
-3.908719377469454
 21
-54.09413867965853
 31
0.0
  0
LINE
  5
5644
330
53D9
100
AcDbEntity
  8
AM_5
 62
     3
100
AcDbLine
 10
-158.9086335467944
 20
-13.20269918202059
 30
0.0
 11
-158.9086335467943
 21
-54.09413867965898
 31
0.0
  0
LINE
  5
5645
330
53D9
100
AcDbEntity
  8
AM_5
 62
     3
100
AcDbLine
 10
-6.408719377469457
 20
-53.09413867965854
 30
0.0
 11
-156.4086335467943
 21
-53.09413867965897
 31
0.0
  0
INSERT
  5
5646
330
53D9
100
AcDbEntity
  8
AM_5
 62
     3
100
AcDbBlockReference
  2
_OPEN30
 10
-3.908719377469457
 20
-53.09413867965854
 30
0.0
 41
2.5
 42
2.5
 43
2.5
 50
0.0000000000001527
  0
INSERT
  5
5647
330
53D9
100
AcDbEntity
  8
AM_5
 62
     3
100
AcDbBlockReference
  2
_OPEN30
 10
-158.9086335467943
 20
-53.09413867965898
 30
0.0
 41
2.5
 42
2.5
 43
2.5
 50
180.0000000000001
  0
MTEXT
  5
5648
330
53D9
100
AcDbEntity
  8
AM_5
 62
     2
100
AcDbMText
 10
-81.40867646213191
 20
-49.69413867965876
 30
0.0
 40
3.799999999999999
 41
0.0
 71
     5
 72
     1
  1
155
1001
ACAD
1000
MTEXTBEGIN
1070
    73
1070
     1
1070
    44
1040
1.0
1070
    74
1070
     0
1000
MTEXTEND
  0
POINT
  5
5649
330
53D9
100
AcDbEntity
  8
DEFPOINTS
 62
     0
100
AcDbPoint
 10
-3.908719377469608
 20
-9.975000000000081
 30
0.0
  0
POINT
  5
564A
330
53D9
100
AcDbEntity
  8
DEFPOINTS
 62
     0
100
AcDbPoint
 10
-158.9086335467944
 20
-12.40269918202013
 30
0.0
  0
POINT
  5
564B
330
53D9
100
AcDbEntity
  8
DEFPOINTS
 62
     0
100
AcDbPoint
 10
-158.9086335467944
 20
-53.09413867965852
 30
0.0
  0
ENDBLK
  5
53E4
330
53D9
100
AcDbEntity
  8
0
100
AcDbBlockEnd
  0
BLOCK
  5
53F0
330
53E6
100
AcDbEntity
  8
0
100
AcDbBlockBegin
  2
*D14
 70
     1
 10
0.0
 20
0.0
 30
0.0
  3
*D14
  1

  0
LINE
  5
563A
330
53E6
100
AcDbEntity
  8
AM_5
 62
     3
100
AcDbLine
 10
-3.908719377469577
 20
-10.77500000000009
 30
0.0
 11
-3.90871937746949
 21
-41.36494089290533
 31
0.0
  0
LINE
  5
563B
330
53E6
100
AcDbEntity
  8
AM_5
 62
     3
100
AcDbLine
 10
-102.9087193774695
 20
-13.89878821133321
 30
0.0
 11
-102.9087193774694
 21
-41.36494089290562
 31
0.0
  0
LINE
  5
563C
330
53E6
100
AcDbEntity
  8
AM_5
 62
     3
100
AcDbLine
 10
-6.408719377469493
 20
-40.36494089290534
 30
0.0
 11
-100.4087193774694
 21
-40.36494089290561
 31
0.0
  0
INSERT
  5
563D
330
53E6
100
AcDbEntity
  8
AM_5
 62
     3
100
AcDbBlockReference
  2
_OPEN30
 10
-3.908719377469493
 20
-40.36494089290534
 30
0.0
 41
2.5
 42
2.5
 43
2.5
 50
0.0000000000001527
  0
INSERT
  5
563E
330
53E6
100
AcDbEntity
  8
AM_5
 62
     3
100
AcDbBlockReference
  2
_OPEN30
 10
-102.9087193774694
 20
-40.36494089290562
 30
0.0
 41
2.5
 42
2.5
 43
2.5
 50
180.0000000000001
  0
MTEXT
  5
563F
330
53E6
100
AcDbEntity
  8
AM_5
 62
     2
100
AcDbMText
 10
-53.40871937746949
 20
-36.96494089290548
 30
0.0
 40
3.799999999999999
 41
0.0
 71
     5
 72
     1
  1
99
1001
ACAD
1000
MTEXTBEGIN
1070
    73
1070
     1
1070
    44
1040
1.0
1070
    74
1070
     0
1000
MTEXTEND
  0
POINT
  5
5640
330
53E6
100
AcDbEntity
  8
DEFPOINTS
 62
     0
100
AcDbPoint
 10
-3.908719377469608
 20
-9.975000000000079
 30
0.0
  0
POINT
  5
5641
330
53E6
100
AcDbEntity
  8
DEFPOINTS
 62
     0
100
AcDbPoint
 10
-102.9087193774695
 20
-13.09878821133291
 30
0.0
  0
POINT
  5
5642
330
53E6
100
AcDbEntity
  8
DEFPOINTS
 62
     0
100
AcDbPoint
 10
-102.9087193774695
 20
-40.36494089290532
 30
0.0
  0
ENDBLK
  5
53F1
330
53E6
100
AcDbEntity
  8
0
100
AcDbBlockEnd
  0
BLOCK
  5
53FD
330
53F3
100
AcDbEntity
  8
0
100
AcDbBlockBegin
  2
*D15
 70
     1
 10
0.0
 20
0.0
 30
0.0
  3
*D15
  1

  0
LINE
  5
560B
330
53F3
100
AcDbEntity
  8
AM_5
 62
     3
100
AcDbLine
 10
-3.908719377469577
 20
13.18197299224395
 30
0.0
 11
-3.908719377469515
 21
38.18854870810407
 31
0.0
  0
LINE
  5
560C
330
53F3
100
AcDbEntity
  8
AM_5
 62
     3
100
AcDbLine
 10
-78.90871937746935
 20
10.32514385214321
 30
0.0
 11
-78.90871937746928
 21
38.18854870810426
 31
0.0
  0
LINE
  5
560D
330
53F3
100
AcDbEntity
  8
AM_5
 62
     3
100
AcDbLine
 10
-6.408719377469519
 20
37.18854870810408
 30
0.0
 11
-76.40871937746929
 21
37.18854870810424
 31
0.0
  0
INSERT
  5
560E
330
53F3
100
AcDbEntity
  8
AM_5
 62
     3
100
AcDbBlockReference
  2
_OPEN30
 10
-3.908719377469518
 20
37.18854870810407
 30
0.0
 41
2.5
 42
2.5
 43
2.5
 50
359.9999999999998
  0
INSERT
  5
560F
330
53F3
100
AcDbEntity
  8
AM_5
 62
     3
100
AcDbBlockReference
  2
_OPEN30
 10
-78.90871937746929
 20
37.18854870810425
 30
0.0
 41
2.5
 42
2.5
 43
2.5
 50
179.9999999999998
  0
MTEXT
  5
5610
330
53F3
100
AcDbEntity
  8
AM_5
 62
     2
100
AcDbMText
 10
-41.4087193774694
 20
40.58854870810416
 30
0.0
 40
3.799999999999999
 41
0.0
 71
     5
 72
     1
  1
75
1001
ACAD
1000
MTEXTBEGIN
1070
    73
1070
     1
1070
    44
1040
1.0
1070
    74
1070
     0
1000
MTEXTEND
  0
POINT
  5
5611
330
53F3
100
AcDbEntity
  8
DEFPOINTS
 62
     0
100
AcDbPoint
 10
-3.908719377469543
 20
12.38197299224396
 30
0.0
  0
POINT
  5
5612
330
53F3
100
AcDbEntity
  8
DEFPOINTS
 62
     0
100
AcDbPoint
 10
-78.90871937746933
 20
9.525143852143447
 30
0.0
  0
POINT
  5
5613
330
53F3
100
AcDbEntity
  8
DEFPOINTS
 62
     0
100
AcDbPoint
 10
-78.90871937746918
 20
37.18854870810448
 30
0.0
  0
ENDBLK
  5
53FE
330
53F3
100
AcDbEntity
  8
0
100
AcDbBlockEnd
  0
BLOCK
  5
540A
330
5400
100
AcDbEntity
  8
0
100
AcDbBlockBegin
  2
*D16
 70
     1
 10
0.0
 20
0.0
 30
0.0
  3
*D16
  1

  0
LINE
  5
5602
330
5400
100
AcDbEntity
  8
AM_5
 62
     3
100
AcDbLine
 10
-3.908719377469548
 20
10.77499999999958
 30
0.0
 11
-3.908719377469481
 21
26.35863753087056
 31
0.0
  0
LINE
  5
5603
330
5400
100
AcDbEntity
  8
AM_5
 62
     3
100
AcDbLine
 10
-75.90871937746939
 20
6.613210504448487
 30
0.0
 11
-75.90871937746931
 21
26.35863753087086
 31
0.0
  0
LINE
  5
5604
330
5400
100
AcDbEntity
  8
AM_5
 62
     3
100
AcDbLine
 10
-6.408719377469486
 20
25.35863753087057
 30
0.0
 11
-73.40871937746932
 21
25.35863753087085
 31
0.0
  0
INSERT
  5
5605
330
5400
100
AcDbEntity
  8
AM_5
 62
     3
100
AcDbBlockReference
  2
_OPEN30
 10
-3.908719377469486
 20
25.35863753087056
 30
0.0
 41
2.5
 42
2.5
 43
2.5
 50
359.9999999999997
  0
INSERT
  5
5606
330
5400
100
AcDbEntity
  8
AM_5
 62
     3
100
AcDbBlockReference
  2
_OPEN30
 10
-75.90871937746932
 20
25.35863753087086
 30
0.0
 41
2.5
 42
2.5
 43
2.5
 50
179.9999999999997
  0
MTEXT
  5
5607
330
5400
100
AcDbEntity
  8
AM_5
 62
     2
100
AcDbMText
 10
-39.90871937746939
 20
28.75863753087071
 30
0.0
 40
3.799999999999999
 41
0.0
 71
     5
 72
     1
  1
72
1001
ACAD
1000
MTEXTBEGIN
1070
    73
1070
     1
1070
    44
1040
1.0
1070
    74
1070
     0
1000
MTEXTEND
  0
POINT
  5
5608
330
5400
100
AcDbEntity
  8
DEFPOINTS
 62
     0
100
AcDbPoint
 10
-3.908719377469522
 20
9.974999999999598
 30
0.0
  0
POINT
  5
5609
330
5400
100
AcDbEntity
  8
DEFPOINTS
 62
     0
100
AcDbPoint
 10
-75.90871937746938
 20
5.813210504448708
 30
0.0
  0
POINT
  5
560A
330
5400
100
AcDbEntity
  8
DEFPOINTS
 62
     0
100
AcDbPoint
 10
-75.90871937746924
 20
25.35863753087108
 30
0.0
  0
ENDBLK
  5
540B
330
5400
100
AcDbEntity
  8
0
100
AcDbBlockEnd
  0
BLOCK
  5
55D1
330
55C5
100
AcDbEntity
  8
0
100
AcDbBlockBegin
  2
*D17
 70
     1
 10
0.0
 20
0.0
 30
0.0
  3
*D17
  1

  0
LINE
  5
55ED
330
55C5
100
AcDbEntity
  8
AM_5
 62
     3
100
AcDbLine
 10
-2.438920368042535
 20
10.74999999999993
 30
0.0
 11
17.388824192936
 21
10.74999999999999
 31
0.0
  0
LINE
  5
55EE
330
55C5
100
AcDbEntity
  8
AM_5
 62
     3
100
AcDbLine
 10
-2.499650124943764
 20
-10.75000000000005
 30
0.0
 11
17.38882419293606
 21
-10.74999999999999
 31
0.0
  0
LINE
  5
55EF
330
55C5
100
AcDbEntity
  8
AM_5
 62
     3
100
AcDbLine
 10
16.38882419293599
 20
13.24999999999999
 30
0.0
 11
16.38882419293598
 21
15.74999999999999
 31
0.0
  0
LINE
  5
55F0
330
55C5
100
AcDbEntity
  8
AM_5
 62
     3
100
AcDbLine
 10
16.38882419293607
 20
-13.24999999999999
 30
0.0
 11
16.38882419293608
 21
-15.75
 31
0.0
  0
LINE
  5
55F1
330
55C5
100
AcDbEntity
  8
AM_5
 62
     3
100
AcDbLine
 10
16.388824192936
 20
10.74999999999999
 30
0.0
 11
16.38882419293606
 21
-10.74999999999999
 31
0.0
  0
INSERT
  5
55F2
330
55C5
100
AcDbEntity
  8
AM_5
 62
     3
100
AcDbBlockReference
  2
_OPEN30
 10
16.388824192936
 20
10.74999999999999
 30
0.0
 41
2.5
 42
2.5
 43
2.5
 50
270.0000000000001
  0
INSERT
  5
55F3
330
55C5
100
AcDbEntity
  8
AM_5
 62
     3
100
AcDbBlockReference
  2
_OPEN30
 10
16.38882419293606
 20
-10.74999999999999
 30
0.0
 41
2.5
 42
2.5
 43
2.5
 50
90.00000000000015
  0
MTEXT
  5
55F4
330
55C5
100
AcDbEntity
  8
AM_5
 62
     2
100
AcDbMText
 10
12.98882419293603
 20
-0.0000000000002962
 30
0.0
 40
3.799999999999999
 41
0.0
 71
     5
 72
     1
  1
%%C21.5
 11
-0.0000000000000028
 21
1.0
 31
0.0
1001
ACAD
1000
MTEXTBEGIN
1070
    73
1070
     1
1070
    44
1040
1.0
1070
    74
1070
     0
1000
MTEXTEND
  0
POINT
  5
55F5
330
55C5
100
AcDbEntity
  8
DEFPOINTS
 62
     0
100
AcDbPoint
 10
-3.238920368042502
 20
10.74999999999994
 30
0.0
  0
POINT
  5
55F6
330
55C5
100
AcDbEntity
  8
DEFPOINTS
 62
     0
100
AcDbPoint
 10
-3.299650124943797
 20
-10.75000000000004
 30
0.0
  0
POINT
  5
55F7
330
55C5
100
AcDbEntity
  8
DEFPOINTS
 62
     0
100
AcDbPoint
 10
16.38882419293603
 20
-10.75000000000005
 30
0.0
  0
ENDBLK
  5
55D2
330
55C5
100
AcDbEntity
  8
0
100
AcDbBlockEnd
  0
ENDSEC
  0
SECTION
  2
ENTITIES
  0
TEXT
  5
19BD
330
1F
100
AcDbEntity
  8
AM_6
100
AcDbText
 10
-102.2897779560524
 20
-73.0658463615807
 30
0.0
 40
5.0
  1
KDS215MAK
 50
0.0000000000001527
 72
     4
 11
-81.09930176557631
 21
-70.56584636158063
 31
0.0
100
AcDbText
  0
LINE
  5
35CA
330
1F
100
AcDbEntity
  8
PV0001_1
  6
CONTINUOUS
 48
0.5
100
AcDbLine
 10
-589.2017441852486
 20
-57.69694534177202
 30
0.0
 11
-567.9171279738763
 21
-62.69376548307545
 31
0.0
  0
LINE
  5
35D1
330
1F
100
AcDbEntity
  8
AM_7
100
AcDbLine
 10
4.745369175493294
 20
-0.0000000000001137
 30
0.0
 11
-166.5084919537721
 21
-0.0000000000005355
 31
0.0
  0
LINE
  5
35EA
330
1F
100
AcDbEntity
  8
PV0001_1
  6
CONTINUOUS
100
AcDbLine
 10
-158.223072220698
 20
-12.47503639174631
 30
0.0
 11
-102.9087193774695
 21
-12.47503639174619
 31
0.0
  0
LINE
  5
35EB
330
1F
100
AcDbEntity
  8
PV0001_1
  6
CONTINUOUS
100
AcDbLine
 10
-102.9087193774695
 20
12.52497362183367
 30
0.0
 11
-158.2230722206981
 21
12.52497362183355
 31
0.0
  0
LINE
  5
35F9
330
1F
100
AcDbEntity
  8
PV0001_1
  6
CONTINUOUS
 48
0.5
100
AcDbLine
 10
-158.2458203601507
 20
0.0249721913229824
 30
0.0
 11
-158.2458203601508
 21
12.52500938462177
 31
0.0
  0
LINE
  5
35FA
330
1F
100
AcDbEntity
  8
PV0001_1
  6
CONTINUOUS
 48
0.5
100
AcDbLine
 10
-158.9087193774695
 20
0.0249721913229824
 30
0.0
 11
-158.9087193774695
 21
11.86209606217258
 31
0.0
  0
LINE
  5
35FB
330
1F
100
AcDbEntity
  8
PV0001_1
  6
CONTINUOUS
 48
0.5
100
AcDbLine
 10
-158.9086335467945
 20
11.86197446869815
 30
0.0
 11
-158.2457059192257
 21
12.52488779114552
 31
0.0
  0
LINE
  5
35FD
330
1F
100
AcDbEntity
  8
PV0001_1
  6
CONTINUOUS
 48
0.5
100
AcDbLine
 10
-158.9086335467944
 20
-11.81209445906764
 30
0.0
 11
-158.2457059192257
 21
-12.47500778151683
 31
0.0
  0
LINE
  5
3601
330
1F
100
AcDbEntity
  8
PV0001_1
  6
CONTINUOUS
 48
0.5
100
AcDbLine
 10
-158.9087193774695
 20
0.0249721913229824
 30
0.0
 11
-158.9087193774694
 21
-11.81215167952617
 31
0.0
  0
LINE
  5
3602
330
1F
100
AcDbEntity
  8
PV0001_1
  6
CONTINUOUS
 48
0.5
100
AcDbLine
 10
-158.2458203601507
 20
0.0249721913229824
 30
0.0
 11
-158.2458203601507
 21
-12.47506500197581
 31
0.0
  0
DIMENSION
  5
36BA
330
1F
100
AcDbEntity
  8
AM_5
100
AcDbDimension
  2
*D8
 10
-2.547791618692583
 20
-7.000000000000091
 30
0.0
 11
28.96875379343816
 21
-0.0000000000000532
 31
0.0
 70
    34
  1
<>
 51
359.9999999999998
  3
AM_JIS$2
100
AcDb2LineAngularDimension
 13
0.0
 23
-0.0000000000000827
 33
0.0
 14
-2.547791618692619
 24
6.999999999999763
 34
0.0
 15
0.0
 25
-0.0000000000002274
 35
0.0
 16
29.44604624940567
 26
-12.70178452588532
 36
0.0
1001
ACAD
1000
DSTYLE
1002
{
1070
   179
1070
     3
1002
}
1001
GENIUS_GENDTOL_13
1000

1000
h7
1000

1040
0.0
  0
DIMENSION
  5
3866
330
1F
100
AcDbEntity
  8
AM_5
100
AcDbDimension
  2
*D9
 10
-175.8555604714218
 20
-12.4748933430613
 30
0.0
 11
-179.2555604714218
 21
0.0250580207802141
 31
0.0
 70
    32
  1
%%C<>
 51
359.9999999999998
  3
AM_JIS$0
100
AcDbAlignedDimension
 13
-158.2230722206981
 23
12.52500938462178
 33
0.0
 14
-158.223072220698
 24
-12.4748933430613
 34
0.0
 50
270.0000000000002
100
AcDbRotatedDimension
1001
ACAD
1000
DSTYLE
1002
{
1070
   271
1070
     3
1002
}
1001
GENIUS_GENDTOL_13
1000

1000
h7
1000

1040
0.0
  0
LINE
  5
395A
330
1F
100
AcDbEntity
  8
PV0001_1
  6
CONTINUOUS
100
AcDbLine
 10
-102.9087193774695
 20
-12.47503639174619
 30
0.0
 11
-102.9087193774695
 21
12.52497362183367
 31
0.0
  0
DIMENSION
  5
3C40
330
1F
100
AcDbEntity
  8
AM_5
100
AcDbDimension
  2
*D10
 10
-158.9086335467944
 20
-40.3606269566305
 30
0.0
 11
-130.9086764621319
 21
-36.9606269566305
 31
0.0
 70
    32
  1
<>
 51
359.9999999999998
  3
AM_JIS$0
100
AcDbAlignedDimension
 13
-102.9087193774695
 23
-12.47503639174619
 33
0.0
 14
-158.9086335467944
 24
-11.81209445906764
 34
0.0
 50
0.0000000000002658
100
AcDbRotatedDimension
1001
ACAD
1000
DSTYLE
1002
{
1070
   271
1070
     3
1002
}
1001
GENIUS_GENDTOL_13
1000

1000
h7
1000

1040
0.0
  0
DIMENSION
  5
3D56
330
1F
100
AcDbEntity
  8
AM_5
100
AcDbDimension
  2
*D11
 10
-152.908730742872
 20
-28.47941722561733
 30
0.0
 11
-155.9086821448332
 21
-28.47941722561733
 31
0.0
 70
   160
  1
<>
 51
359.9999999999998
  3
AM_JIS$0
100
AcDbAlignedDimension
 13
-158.9086335467944
 23
-11.81209445906764
 33
0.0
 14
-152.908730742872
 24
-0.0000000000004793
 34
0.0
 50
0.0000000000002659
100
AcDbRotatedDimension
1001
ACAD
1000
DSTYLE
1002
{
1070
   271
1070
     3
1002
}
1001
GENIUS_GENDTOL_13
1000

1000
h7
1000

1040
0.0
  0
DIMENSION
  5
3DFD
330
1F
100
AcDbEntity
  8
AM_5
100
AcDbDimension
  2
*D12
 10
-107.9087193774695
 20
-28.47941722561713
 30
0.0
 11
-130.4087250601708
 21
-25.07941722561713
 31
0.0
 70
    32
  1
<>
 51
359.9999999999998
  3
AM_JIS$0
100
AcDbAlignedDimension
 13
-152.908730742872
 23
-0.0000000000004793
 33
0.0
 14
-107.9087193774695
 24
-0.0000000000003908
 34
0.0
 50
0.0000000000002658
100
AcDbRotatedDimension
1001
ACAD
1000
DSTYLE
1002
{
1070
   271
1070
     3
1002
}
1001
GENIUS_GENDTOL_13
1000

1000
h7
1000

1040
0.0
  0
LINE
  5
452C
330
1F
100
AcDbEntity
  8
PV0001_1
  6
CONTINUOUS
 48
0.5
100
AcDbLine
 10
-89.38516283146082
 20
-11.11882468753301
 30
0.0
 11
-102.9087193774695
 21
-12.47503639174619
 31
0.0
  0
LINE
  5
48BA
330
1F
100
AcDbEntity
  8
PV0001_1
  6
CONTINUOUS
 48
0.5
100
AcDbLine
 10
-94.87539598236169
 20
11.7072165752201
 30
0.0
 11
-102.9087193774695
 21
12.52497362183367
 31
0.0
  0
ELLIPSE
  5
4BE9
330
1F
100
AcDbEntity
  8
AM_0
100
AcDbEllipse
 10
-95.36488280843194
 20
-5.605455289682979
 30
0.0
 11
-5.6448738840206
 21
3.054388422334471
 31
0.0
210
0.0
220
0.0
230
0.9999999999999998
 40
0.7231285487486172
 41
0.9091123844261947
 42
1.697004501565757
  0
ELLIPSE
  5
4BEC
330
1F
100
AcDbEntity
  8
AM_0
100
AcDbEllipse
 10
-98.4736116964386
 20
-10.94888821198475
 30
0.0
 11
-10.22118156132425
 21
0.1822551071388151
 31
0.0
210
0.0
220
0.0
230
1.0
 40
0.7982884854476826
 41
3.9737429037325
 42
4.685763898008604
  0
LINE
  5
4ED1
330
1F
100
AcDbEntity
  8
AM_0
100
AcDbLine
 10
-112.1733999047775
 20
4.264680527307588
 30
0.0
 11
-148.6511528752008
 21
4.26468052730749
 31
0.0
  0
LINE
  5
4ED6
330
1F
100
AcDbEntity
  8
AM_0
100
AcDbLine
 10
-148.6511528752008
 20
-4.264680527308504
 30
0.0
 11
-112.1733999047775
 21
-4.264680527308407
 31
0.0
  0
ARC
  5
4EF5
330
1F
100
AcDbEntity
  8
AM_0
100
AcDbCircle
 10
-148.6440502155641
 20
-0.0000000000004796
 30
0.0
 40
4.264680527307981
100
AcDbArc
 50
90.0
 51
270.0
  0
ARC
  5
4EF6
330
1F
100
AcDbEntity
  8
AM_0
100
AcDbCircle
 10
-112.1733999047775
 20
-0.0000000000004015
 30
0.0
 40
4.264680527307981
100
AcDbArc
 50
270.0000000000002
 51
90.00000000000019
  0
ARC
  5
509F
330
1F
100
AcDbEntity
  8
AM_0
100
AcDbCircle
 10
-70.78026678181399
 20
29.34342780941207
 30
0.0
 40
40.13455357949114
100
AcDbArc
 50
238.9447664736689
 51
264.3855638426214
  0
ARC
  5
50A0
330
1F
100
AcDbEntity
  8
AM_0
100
AcDbCircle
 10
-90.73495391467922
 20
5.872941091914297
 30
0.0
 40
17.04529378661257
100
AcDbArc
 50
248.9926168053652
 51
274.5419216732894
  0
ARC
  5
50A9
330
1F
100
AcDbEntity
  8
AM_0
100
AcDbCircle
 10
-98.17371922094698
 20
-5.566446742683971
 30
0.0
 40
2.771764418141944
100
AcDbArc
 50
87.56717975894439
 51
209.925410219899
  0
ARC
  5
50AB
330
1F
100
AcDbEntity
  8
AM_0
100
AcDbCircle
 10
-92.79993182629615
 20
11.33467896549065
 30
0.0
 40
22.71168143454896
100
AcDbArc
 50
278.6473828396395
 51
296.5444958451817
  0
DIMENSION
  5
53D8
330
1F
100
AcDbEntity
  8
AM_5
100
AcDbDimension
  2
*D13
 10
-158.9086335467944
 20
-53.09413867965852
 30
0.0
 11
-81.40867646213205
 21
-49.69413867965852
 31
0.0
 70
    32
  1
<>
 51
359.9999999999998
  3
AM_JIS$0
100
AcDbAlignedDimension
 13
-3.908719377469608
 23
-9.975000000000081
 33
0.0
 14
-158.9086335467944
 24
-12.40269918202013
 34
0.0
 50
359.9999999999999
100
AcDbRotatedDimension
1001
ACAD
1000
DSTYLE
1002
{
1070
   271
1070
     3
1002
}
1001
GENIUS_GENDTOL_13
1000

1000
h7
1000

1040
0.0
  0
DIMENSION
  5
53E5
330
1F
100
AcDbEntity
  8
AM_5
100
AcDbDimension
  2
*D14
 10
-102.9087193774695
 20
-40.36494089290532
 30
0.0
 11
-53.4087193774696
 21
-36.96494089290532
 31
0.0
 70
    32
  1
<>
 51
359.9999999999998
  3
AM_JIS$0
100
AcDbAlignedDimension
 13
-3.908719377469608
 23
-9.975000000000079
 33
0.0
 14
-102.9087193774695
 24
-13.09878821133291
 34
0.0
 50
359.9999999999998
100
AcDbRotatedDimension
1001
ACAD
1000
DSTYLE
1002
{
1070
   271
1070
     3
1002
}
1001
GENIUS_GENDTOL_13
1000

1000
h7
1000

1040
0.0
  0
DIMENSION
  5
53F2
330
1F
100
AcDbEntity
  8
AM_5
100
AcDbDimension
  2
*D15
 10
-78.90871937746918
 20
37.18854870810448
 30
0.0
 11
-41.40871937746928
 21
40.58854870810428
 31
0.0
 70
    32
  1
<>
 51
359.9999999999998
  3
AM_JIS$0
100
AcDbAlignedDimension
 13
-3.908719377469543
 23
12.38197299224396
 33
0.0
 14
-78.90871937746933
 24
9.525143852143447
 34
0.0
 50
179.9999999999998
100
AcDbRotatedDimension
1001
ACAD
1000
DSTYLE
1002
{
1070
   271
1070
     3
1002
}
1001
GENIUS_GENDTOL_13
1000

1000
h7
1000

1040
0.0
  0
DIMENSION
  5
53FF
330
1F
100
AcDbEntity
  8
AM_5
100
AcDbDimension
  2
*D16
 10
-75.90871937746924
 20
25.35863753087108
 30
0.0
 11
-39.9087193774693
 21
28.75863753087083
 31
0.0
 70
    32
  1
<>
 51
359.9999999999998
  3
AM_JIS$0
100
AcDbAlignedDimension
 13
-3.908719377469522
 23
9.974999999999598
 33
0.0
 14
-75.90871937746938
 24
5.813210504448708
 34
0.0
 50
179.9999999999998
100
AcDbRotatedDimension
1001
ACAD
1000
DSTYLE
1002
{
1070
   271
1070
     3
1002
}
1001
GENIUS_GENDTOL_13
1000

1000
h7
1000

1040
0.0
  0
LINE
  5
5599
330
1F
100
AcDbEntity
  8
PV0001_1
  6
CONTINUOUS
 48
0.5
100
AcDbLine
 10
-0.0000000000001421
 20
0.0000000000001411
 30
0.0
 11
-3.912679985849578
 21
10.74999999999997
 31
0.0
  0
LINE
  5
559A
330
1F
100
AcDbEntity
  8
PV0001_1
  6
CONTINUOUS
 48
0.5
100
AcDbLine
 10
-0.0000000000001421
 20
-0.0000000000000366
 30
0.0
 11
-3.912679985849507
 21
-10.75000000000002
 31
0.0
  0
DIMENSION
  5
55C4
330
1F
100
AcDbEntity
  8
AM_5
100
AcDbDimension
  2
*D17
 10
16.38882419293603
 20
-10.75000000000005
 30
0.0
 11
16.38882419293603
 21
-0.0000000000003344
 31
0.0
 70
   160
  1
%%C<>
 51
359.9999999999998
  3
AM_JIS$0
100
AcDbAlignedDimension
 13
-3.238920368042502
 23
10.74999999999994
 33
0.0
 14
-3.299650124943797
 24
-10.75000000000004
 34
0.0
 50
89.99999999999856
100
AcDbRotatedDimension
1001
GENIUS_GENDTOL_13
1000

1000
h7
1000

1040
0.0
1001
ACAD
1000
DSTYLE
1002
{
1070
   271
1070
     3
1002
}
  0
LINE
  5
55D3
330
1F
100
AcDbEntity
  8
PV0001_1
  6
CONTINUOUS
 48
0.5
100
AcDbLine
 10
-15.46422038626462
 20
10.75000000000037
 30
0.0
 11
-3.912679985849578
 21
10.74999999999997
 31
0.0
  0
LINE
  5
55D4
330
1F
100
AcDbEntity
  8
PV0001_1
  6
CONTINUOUS
 48
0.5
100
AcDbLine
 10
-3.39098981859234
 20
9.316668033599027
 30
0.0
 11
-15.4671208524632
 21
9.31666803359948
 31
0.0
  0
LINE
  5
55D5
330
1F
100
AcDbEntity
  8
PV0001_1
  6
CONTINUOUS
 48
0.5
100
AcDbLine
 10
-13.11823278043182
 20
3.449906918560257
 30
0.0
 11
-8.148699857552418
 21
1.21225427519085
 31
0.0
  0
ELLIPSE
  5
55D6
330
1F
100
AcDbEntity
  8
AM_0
100
AcDbEllipse
 10
-5.211023771325244
 20
4.350484682113895
 30
0.0
 11
4.374860977982888
 21
0.6935817421851623
 31
0.0
210
0.0
220
0.0
230
0.9999999999999998
 40
0.9269128848305589
 41
3.839851510726094
 42
5.771779708854349
  0
LINE
  5
55D8
330
1F
100
AcDbEntity
  8
AM_0
100
AcDbLine
 10
-2.351730936139038
 20
-2.660253967435376
 30
0.0
 11
-5.675403996502859
 21
-4.655649119818865
 31
0.0
  0
LINE
  5
55D9
330
1F
100
AcDbEntity
  8
PV0001_1
  6
CONTINUOUS
 48
0.5
100
AcDbLine
 10
-16.50871576964738
 20
-9.284090909090499
 30
0.0
 11
-3.724535832884103
 21
-9.28409090909094
 31
0.0
  0
LINE
  5
55DA
330
1F
100
AcDbEntity
  8
PV0001_1
  6
CONTINUOUS
 48
0.5
100
AcDbLine
 10
-16.50871576964742
 20
-10.74999999999954
 30
0.0
 11
-3.912679985849507
 21
-10.75000000000002
 31
0.0
  0
LINE
  5
55DB
330
1F
100
AcDbEntity
  8
PV0001_1
  6
CONTINUOUS
 48
0.5
100
AcDbLine
 10
-2.351730936139038
 20
-2.660253967435376
 30
0.0
 11
-3.724535832884103
 21
-9.28409090909094
 31
0.0
  0
LINE
  5
55DD
330
1F
100
AcDbEntity
  8
AM_0
100
AcDbLine
 10
-3.058077343852688
 20
0.8050967997339414
 30
0.0
 11
-2.351730936139038
 21
-2.660253967435376
 31
0.0
  0
LINE
  5
55DE
330
1F
100
AcDbEntity
  8
PV0001_1
  6
CONTINUOUS
 48
0.5
100
AcDbLine
 10
-8.148699857552172
 20
1.212254275190551
 30
0.0
 11
-3.724535832884103
 21
-9.28409090909094
 31
0.0
  0
LINE
  5
55E8
330
1F
100
AcDbEntity
  8
PV0001_1
  6
CONTINUOUS
 48
0.5
100
AcDbLine
 10
-78.90871937746993
 20
-9.959532724322974
 30
0.0
 11
-78.9087193774694
 21
6.068803021178874
 31
0.0
  0
LINE
  5
55E9
330
1F
100
AcDbEntity
  8
AM_11
 48
0.5
100
AcDbLine
 10
-75.90871937746993
 20
-10.46255266137273
 30
0.0
 11
-75.90871937746921
 21
10.16098422466941
 31
0.0
  0
LINE
  5
55EB
330
1F
100
AcDbEntity
  8
PV0001_1
  6
CONTINUOUS
 48
0.5
100
AcDbLine
 10
-74.65614182924986
 20
-10.5985915492927
 30
0.0
 11
-43.36806488684
 21
-10.59859154929405
 31
0.0
  0
ELLIPSE
  5
56BA
330
1F
100
AcDbEntity
  8
AM_0
100
AcDbEllipse
 10
-107.7060985007014
 20
-63.89755560754158
 30
0.0
 11
-10.71520073831923
 21
76.48001752944693
 31
0.0
210
0.0
220
0.0
230
1.0
 40
0.9235392206088777
 41
-0.7229204452390602
 42
-0.3310475730944724
  0
SPLINE
  5
56BB
330
1F
100
AcDbEntity
  8
PV0001_1
  6
CONTINUOUS
100
AcDbSpline
210
0.0
220
0.0
230
1.0
 70
     8
 71
     3
 72
    54
 73
    50
 74
     0
 42
0.0000000001
 43
0.0000000001
 40
0.8937596859602537
 40
0.8937596859602537
 40
0.8937596859602537
 40
0.8937596859602537
 40
1.010743684496582
 40
2.022833576467832
 40
3.037578957496688
 40
4.056212745003489
 40
5.079857003664532
 40
6.109500240690281
 40
7.145961322679372
 40
8.189895241603872
 40
9.241717795325891
 40
10.30168407291828
 40
11.36983447792315
 40
12.44600489715814
 40
13.52984294512926
 40
14.62081576220742
 40
15.7182257034828
 40
16.82123173843959
 40
17.92886860250316
 40
19.0400688939571
 40
20.15368796660465
 40
21.26852814259644
 40
22.38336992938901
 40
23.49698739941135
 40
24.6081876908653
 40
25.71582455492886
 40
26.81883757994213
 40
27.91624752121713
 40
29.00722033829659
 40
30.09105838626677
 40
31.16722880550176
 40
32.23537921050758
 40
33.29534548809967
 40
34.347168041821
 40
35.39108718934584
 40
36.42754827133493
 40
37.45720575381954
 40
38.48085062012849
 40
39.49948440763516
 40
40.51422944315121
 40
41.52631975251916
 40
42.53706336719636
 40
43.54780698187354
 40
44.55989729124051
 40
45.57464232675757
 40
46.59327611426424
 40
47.6169209805722
 40
48.64656348684535
 40
49.15203936885055
 40
49.15203936885055
 40
49.15203936885055
 40
49.15203936885055
 10
-16.50871576964741
 20
-10.59859154929585
 30
0.0
 10
-18.26885246835732
 20
-10.56996847392266
 30
0.0
 10
-18.79429831108026
 20
-10.54903409629916
 30
0.0
 10
-19.79123843355393
 20
-10.47620867806532
 30
0.0
 10
-21.20374326177088
 20
-10.31216928322723
 30
0.0
 10
-22.6161606698065
 20
-10.08226183247437
 30
0.0
 10
-24.02847656395847
 20
-9.789602012555134
 30
0.0
 10
-25.44066308239193
 20
-9.435491235051211
 30
0.0
 10
-26.85272494880818
 20
-9.173723367079498
 30
0.0
 10
-28.26464964107212
 20
-8.704011601317967
 30
0.0
 10
-29.6764275414034
 20
-8.180648390217454
 30
0.0
 10
-31.08806568673429
 20
-7.606918830553535
 30
0.0
 10
-32.49956785771343
 20
-6.986334186563421
 30
0.0
 10
-33.91095168992974
 20
-6.322757755295913
 30
0.0
 10
-35.3222236452242
 20
-5.620267356095777
 30
0.0
 10
-36.73339680995153
 20
-4.883195316732921
 30
0.0
 10
-38.14448683421332
 20
-4.116088783075345
 30
0.0
 10
-39.55550610248896
 20
-3.323665097359746
 30
0.0
 10
-40.96646830888106
 20
-2.510797973514601
 30
0.0
 10
-42.3773885512851
 20
-1.682490512112935
 30
0.0
 10
-43.78827920481437
 20
-0.8438348070235834
 30
0.0
 10
-45.19916019343049
 20
-0.0000021933889162
 30
0.0
 10
-46.61003484837155
 20
0.8438456097586882
 30
0.0
 10
-48.0209302308988
 20
1.682488254760522
 30
0.0
 10
-49.4318487315028
 20
2.510798223401517
 30
0.0
 10
-50.842813453625
 20
3.323668443908095
 30
0.0
 10
-52.25383857548531
 20
4.116085366940398
 30
0.0
 10
-53.66493082682
 20
4.883195790895557
 30
0.0
 10
-55.07610419527384
 20
5.620267232568909
 30
0.0
 10
-56.48737609921653
 20
6.322757779500121
 30
0.0
 10
-57.89875993504683
 20
6.841106350843279
 30
0.0
 10
-59.31026214197803
 20
7.461690846441948
 30
0.0
 10
-60.72190014161257
 20
8.035420991936241
 30
0.0
 10
-62.13367197464105
 20
8.558779581746426
 30
0.0
 10
-63.54558793578155
 20
9.028497499560032
 30
0.0
 10
-64.9576492783961
 20
9.441682126692207
 30
0.0
 10
-66.36984588031459
 20
9.795752459829808
 30
0.0
 10
-67.78216644035921
 20
10.08850286414936
 30
0.0
 10
-69.19458426709852
 20
10.31813778929467
 30
0.0
 10
-70.60709007676675
 20
10.48317333562091
 30
0.0
 10
-72.019654004376
 20
10.58261945185353
 30
0.0
 10
-73.43224897222089
 20
10.61584110870954
 30
0.0
 10
-74.84484393798735
 20
10.58261945180168
 30
0.0
 10
-76.25740787184401
 20
10.48317333583005
 30
0.0
 10
-77.66991365851104
 20
10.31813778850759
 30
0.0
 10
-79.08233157148754
 20
10.08850286710928
 30
0.0
 10
-80.49464492200234
 20
9.795753875907717
 30
0.0
 10
-81.66414547864894
 20
9.502533721736263
 30
0.0
 10
-82.3623299718948
 20
9.305777417493143
 30
0.0
 10
-84.60856780547031
 20
8.515311107901963
 30
0.0
  0
SPLINE
  5
56BC
330
1F
100
AcDbEntity
  8
PV0001_1
  6
CONTINUOUS
100
AcDbSpline
210
0.0
220
0.0
230
1.0
 70
     8
 71
     3
 72
    25
 73
    21
 74
     0
 42
0.0000000001
 43
0.0000000001
 40
24.56499986022253
 40
24.56499986022253
 40
24.56499986022253
 40
24.56499986022253
 40
24.6081876908653
 40
25.71582455492886
 40
26.81883757994213
 40
27.91624752121713
 40
29.00722033829659
 40
30.09105838626677
 40
31.16722880550176
 40
32.23537921050758
 40
33.29534548809967
 40
34.347168041821
 40
35.39108718934584
 40
36.42754827133493
 40
37.45720575381954
 40
38.48085062012849
 40
39.49948440763516
 40
40.51422944315121
 40
41.52631975251916
 40
42.53706336680078
 40
42.53706336680078
 40
42.53706336680078
 40
42.53706336680078
 10
-13.11823278043182
 20
3.449906918560257
 30
0.0
 10
-13.13695222968656
 20
3.459832406486703
 30
0.0
 10
-13.63579558022056
 20
3.724230223486911
 30
0.0
 10
-14.61417441924948
 20
4.237475942279028
 30
0.0
 10
-16.05542348846912
 20
4.973490612582907
 30
0.0
 10
-17.49573917992796
 20
5.684215913423237
 30
0.0
 10
-18.93494837866001
 20
6.364922508256178
 30
0.0
 10
-20.37288893167223
 20
7.011071346673966
 30
0.0
 10
-21.80341720986173
 20
7.467041980215718
 30
0.0
 10
-23.23834985205169
 20
8.031339693064959
 30
0.0
 10
-24.6715658638293
 20
8.548814316061113
 30
0.0
 10
-26.10292423993218
 20
9.015951470675219
 30
0.0
 10
-27.53230602738499
 20
9.429484189255866
 30
0.0
 10
-28.95959812319772
 20
9.78652206488695
 30
0.0
 10
-30.38468837699089
 20
10.08448651213204
 30
0.0
 10
-31.80747829993314
 20
10.32117406720854
 30
0.0
 10
-33.22787023704968
 20
10.49479163864631
 30
0.0
 10
-34.64579624806951
 20
10.60385685386612
 30
0.0
 10
-36.06118735096484
 20
10.59859154929653
 30
0.0
 10
-37.00326576837386
 20
10.59859154929657
 30
0.0
 10
-37.47355378868619
 20
10.59859154929681
 30
0.0
  0
LINE
  5
56BD
330
1F
100
AcDbEntity
  8
AM_0
100
AcDbLine
 10
-15.5165057317155
 20
4.697086617853239
 30
0.0
 11
-15.45282863934845
 21
10.75000000000009
 31
0.0
  0
LINE
  5
56BE
330
1F
100
AcDbEntity
  8
AM_0
100
AcDbLine
 10
-16.50871576964742
 20
-10.72678307411066
 30
0.0
 11
-16.50871576964698
 21
5.195682807465134
 31
0.0
  0
SPLINE
  5
56BF
330
1F
100
AcDbEntity
  8
PV0001_1
  6
CONTINUOUS
100
AcDbSpline
210
0.0
220
0.0
230
1.0
 70
     8
 71
     3
 72
    11
 73
     7
 74
     0
 42
0.0000000001
 43
0.0000000001
 40
11.27226913003534
 40
11.27226913003534
 40
11.27226913003534
 40
11.2722691300354
 40
12.28301561507924
 40
13.29510212255852
 40
14.30984805882082
 40
15.18258238371378
 40
15.18258238371378
 40
15.18258238371378
 40
15.18258238371378
 10
-43.36806488683993
 20
-10.58587851518216
 30
0.0
 10
-43.83693108741954
 20
-10.53326489125265
 30
0.0
 10
-44.81720235624261
 20
-10.52076038552982
 30
0.0
 10
-46.23671785581648
 20
-10.32950754118127
 30
0.0
 10
-47.71035380573268
 20
-10.00616802477805
 30
0.0
 10
-48.56989684634068
 20
-9.770248255552134
 30
0.0
 10
-48.96599875491851
 20
-9.653710405893493
 30
0.0
  0
SPLINE
  5
56C0
330
1F
100
AcDbEntity
  8
PV0001_1
  6
CONTINUOUS
100
AcDbSpline
210
0.0
220
0.0
230
1.0
 70
     8
 71
     3
 72
    17
 73
    13
 74
     0
 42
0.0000000001
 43
0.0000000001
 40
1.580019955310467
 40
1.580019955310467
 40
1.580019955310467
 40
1.580019955310467
 40
2.030549285115227
 40
3.082371838836284
 40
4.126290986361125
 40
5.162752068350215
 40
6.192395305374981
 40
7.216039564037012
 40
8.234688489606833
 40
9.249433870634691
 40
10.26152376260694
 40
11.27226744710342
 40
11.27226744710342
 40
11.27226744710342
 40
11.27226744710352
 10
-30.2695855798637
 20
-7.933816550845419
 30
0.0
 10
-30.46943996723793
 20
-8.015528270397265
 30
0.0
 10
-31.13702076458646
 20
-8.283349345387764
 30
0.0
 10
-32.27674673877003
 20
-8.703436284315207
 30
0.0
 10
-33.68846596257155
 20
-9.173877927569572
 30
0.0
 10
-35.10057383135356
 20
-9.586863229035429
 30
0.0
 10
-36.51274640242519
 20
-9.941005291251284
 30
0.0
 10
-37.92507282716764
 20
-10.23372806775447
 30
0.0
 10
-39.14537809728496
 20
-10.44399538927187
 30
0.0
 10
-40.54957993425214
 20
-10.53228396878033
 30
0.0
 10
-41.95547039621421
 20
-10.5637097826125
 30
0.0
 10
-42.89740902094911
 20
-10.58587857669462
 30
0.0
 10
-43.36806488683985
 20
-10.58587851518216
 30
0.0
  0
SPLINE
  5
56C1
330
1F
100
AcDbEntity
  8
PV0001_1
  6
CONTINUOUS
100
AcDbSpline
210
0.0
220
0.0
230
1.0
 70
     8
 71
     3
 72
    22
 73
    18
 74
     0
 42
0.0000000001
 43
0.0000000001
 40
17.17441611292
 40
17.17441611292
 40
17.17441611292
 40
17.17441611292
 40
17.38177636558528
 40
18.41823744757437
 40
19.46215659509824
 40
20.51397914882054
 40
21.57394542641293
 40
22.64209583141747
 40
23.71826625065247
 40
24.80210429862395
 40
25.8930771157021
 40
26.99048705697709
 40
28.09349309193389
 40
29.20112995599786
 40
30.31233024745139
 40
31.42594771747373
 40
32.5407895042663
 40
32.54078950426994
 40
32.54078950426994
 40
32.54078950426994
 10
-48.96661651833555
 20
-9.653577804725461
 30
0.0
 10
-49.06120389086396
 20
-9.628692609104751
 30
0.0
 10
-49.62820353199894
 20
-9.477114162558512
 30
0.0
 10
-50.6669149242557
 20
-9.173179648858834
 30
0.0
 10
-52.07883068350033
 20
-8.70346038154185
 30
0.0
 10
-53.49060257149297
 20
-8.180102158160181
 30
0.0
 10
-54.9022405552639
 20
-7.60637191051197
 30
0.0
 10
-56.31374277013747
 20
-6.985787453287403
 30
0.0
 10
-57.72512659006923
 20
-6.322210970332116
 30
0.0
 10
-59.13639855016307
 20
-5.619720589203529
 30
0.0
 10
-60.54757170804041
 20
-4.882648529590153
 30
0.0
 10
-61.95866175505222
 20
-4.115542059231105
 30
0.0
 10
-63.39481369465596
 20
-3.417791513132857
 30
0.0
 10
-64.76148730377445
 20
-2.612895343534324
 30
0.0
 10
-66.15522381920635
 20
-1.802830240518067
 30
0.0
 10
-67.54546569664836
 20
-0.9155326074395176
 30
0.0
 10
-68.42500383241662
 20
-0.3525081820244395
 30
0.0
 10
-69.01333347343463
 20
0.0005467732791937
 30
0.0
  0
LINE
  5
56C2
330
1F
100
AcDbEntity
  8
AM_11
 48
0.5
100
AcDbLine
 10
-50.21938944751113
 20
-10.5985915492944
 30
0.0
 11
-16.50871576964741
 21
-10.59859154929585
 31
0.0
  0
SPLINE
  5
56C3
330
1F
100
AcDbEntity
  8
PV0001_1
  6
CONTINUOUS
 48
0.5
100
AcDbSpline
210
0.0
220
0.0
230
1.0
 70
     8
 71
     3
 72
    15
 73
    11
 74
     0
 42
0.0000000001
 43
0.0000000001
 40
0.0
 40
0.0
 40
0.0
 40
0.0
 40
1.010743614677189
 40
2.022833924044153
 40
3.037578959561199
 40
4.056212747067873
 40
5.079857613375832
 40
6.109500119648989
 40
7.14596120163808
 40
7.295498973234252
 40
7.295498973234252
 40
7.295498973234252
 40
7.295498973234252
 10
-15.46422038626462
 20
10.59859154929572
 30
0.0
 10
-15.93485017861145
 20
10.59852695094105
 30
0.0
 10
-16.87682751462746
 20
10.57646889160138
 30
0.0
 10
-18.28937600604594
 20
10.47698463645925
 30
0.0
 10
-19.70188599547506
 20
10.31195951880366
 30
0.0
 10
-21.1143025902054
 20
10.08232114112514
 30
0.0
 10
-22.52661699533214
 20
9.789575512171957
 30
0.0
 10
-23.93880511741778
 20
9.435497326990267
 30
0.0
 10
-24.9447813364918
 20
9.141140821747651
 30
0.0
 10
-25.48106036866229
 20
8.97200610506078
 30
0.0
 10
-25.70969032712599
 20
8.884076480105592
 30
0.0
  0
LINE
  5
56C4
330
1F
100
AcDbEntity
  8
AM_11
 48
0.5
100
AcDbLine
 10
-37.85471923773402
 20
10.59859154929661
 30
0.0
 11
-15.4642204000971
 21
10.59859154929564
 31
0.0
  0
LINE
  5
56C5
330
1F
100
AcDbEntity
  8
PV0001_1
  6
CONTINUOUS
 48
0.5
100
AcDbLine
 10
-74.1587227179988
 20
10.59859154929862
 30
0.0
 11
-37.4732079297638
 21
10.59859154929681
 31
0.0
  0
VIEWPORT
  5
110
330
101
100
AcDbEntity
 67
     1
  8
0
100
AcDbViewport
 10
420.5
 20
297.0
 30
0.0
 40
948.9782706766916
 41
628.452
 68
     1
 69
     1
1001
ACAD
1000
MVIEW
1002
{
1070
    16
1010
0.0
1020
0.0
1030
0.0
1010
0.0
1020
0.0
1030
1.0
1040
0.0
1040
628.452
1040
420.5
1040
297.0
1040
50.0
1040
0.0
1040
0.0
1070
     0
1070
   100
1070
     1
1070
     1
1070
     0
1070
     0
1070
     0
1070
     0
1040
0.0
1040
0.0
1040
0.0
1040
10.0
1040
10.0
1040
10.0
1040
10.0
1070
     0
1002
{
1002
}
1002
}
  0
ENDSEC
  0
SECTION
  2
OBJECTS
  0
DICTIONARY
  5
C
330
0
100
AcDbDictionary
  3
ACAD_GROUP
350
D
  3
ACAD_LAYOUT
350
1A
  3
ACAD_MLINESTYLE
350
17
  3
ACAD_PLOTSETTINGS
350
19
  3
ACAD_PLOTSTYLENAME
350
E
  3
ACDBVARIABLEDICTIONARY
350
34
  3
ACMDICTIONARY
350
43
  3
AMG
350
2B
  3
AMGSNAPSETTINGS
350
6E
  3
DWGPROPS
350
5700
  3
ACDBHEADERROUNDTRIPXREC
350
5710
  0
DICTIONARY
  5
74
330
1F
100
AcDbDictionary
280
     1
  3
ACAD_INDEX
360
5702
  3
ACAD_LAYOUTSELFREF
360
5733
  0
DICTIONARY
  5
5738
330
101
100
AcDbDictionary
280
     1
  3
ACAD_LAYOUTSELFREF
360
5739
  0
DICTIONARY
  5
D
102
{ACAD_REACTORS
330
C
102
}
330
C
100
AcDbDictionary
  0
DICTIONARY
  5
1A
102
{ACAD_REACTORS
330
C
102
}
330
C
100
AcDbDictionary
  0
DICTIONARY
  5
17
102
{ACAD_REACTORS
330
C
102
}
330
C
100
AcDbDictionary
  3
STANDARD
350
18
  0
DICTIONARY
  5
19
102
{ACAD_REACTORS
330
C
102
}
330
C
100
AcDbDictionary
  0
ACDBDICTIONARYWDFLT
  5
E
102
{ACAD_REACTORS
330
C
102
}
330
C
100
AcDbDictionary
281
     1
  3
Normal
350
F
100
AcDbDictionaryWithDefault
340
F
  0
DICTIONARY
  5
34
102
{ACAD_REACTORS
330
C
102
}
330
C
100
AcDbDictionary
  3
INDEXCTL
350
35
  3
SORTENTS
350
B5E
  0
DICTIONARY
  5
43
102
{ACAD_REACTORS
330
C
102
}
330
C
100
AcDbDictionary
  3
ACMSTDDICTIONARY
350
260
  0
DICTIONARY
  5
2B
102
{ACAD_REACTORS
330
C
102
}
330
C
100
AcDbDictionary
  3
ACMGSETTINGS
350
2C
  0
DICTIONARY
  5
6E
102
{ACAD_REACTORS
330
C
102
}
330
C
100
AcDbDictionary
  0
XRECORD
  5
5700
102
{ACAD_REACTORS
330
C
102
}
330
C
100
AcDbXrecord
  1
DWGPROPS COOKIE
  2

  3

  4

  6

  7

  8

  9

300
AmdtFileType=82
301
=
302
=
303
=
304
=
305
=
306
=
307
=
308
=
309
=
 40
0.523264826388889
 41
2452800.443498622
 42
2453002.906759849
  1

 90
        1
  0
DICTIONARY
  5
5710
102
{ACAD_REACTORS
330
C
102
}
330
C
100
AcDbDictionary
  3
TSTACKALIGN
350
5711
  3
TSTACKSIZE
350
5712
  3
HYPERLINKBASE
350
5713
  3
STYLESHEET
350
5714
  3
LAYOUTDICT
350
5715
  3
PLOTSETDICT
350
5716
  3
PLOTSTYLNAMDICT
350
5717
  3
LWETCUNION
350
5718
  3
INSUNITS
350
5719
  3
CEPSNTYPE
350
571A
  3
FINGERPRINTGUID
350
571B
  3
VERSIONGUID
350
571C
  3
PSVPSCALE
350
571D
  3
DIMSTYLEDATA
350
571E
  3
PUCSORTHOREF
350
571F
  3
PUCSORTHOVIEW
350
5720
  3
PUCSBASE
350
5721
  3
PUCSORGTOP
350
5722
  3
PUCSORGBOTTOM
350
5723
  3
PUCSORGLEFT
350
5724
  3
PUCSORGRIGHT
350
5725
  3
PUCSORGFRONT
350
5726
  3
PUCSORGBACK
350
5727
  3
UCSORTHOREF
350
5728
  3
UCSORTHOVIEW
350
5729
  3
UCSBASE
350
572A
  3
UCSORGTOP
350
572B
  3
UCSORGBOTTOM
350
572C
  3
UCSORGLEFT
350
572D
  3
UCSORGRIGHT
350
572E
  3
UCSORGFRONT
350
572F
  3
UCSORGBACK
350
5730
  0
DICTIONARY
  5
5702
102
{ACAD_REACTORS
330
74
102
}
330
74
100
AcDbDictionary
  3
*A1
350
5703
  0
XRECORD
  5
5733
102
{ACAD_REACTORS
330
74
102
}
330
74
100
AcDbXrecord
340
1F
  0
XRECORD
  5
5739
102
{ACAD_REACTORS
330
5738
102
}
330
5738
100
AcDbXrecord
340
101
  0
MLINESTYLE
  5
18
102
{ACAD_REACTORS
330
17
102
}
330
17
100
AcDbMlineStyle
  2
STANDARD
 70
     0
  3

 62
   256
 51
90.0
 52
90.0
 71
     2
 49
0.5
 62
   256
  6
BYLAYER
 49
-0.5
 62
   256
  6
BYLAYER
  0
ACDBPLACEHOLDER
  5
F
102
{ACAD_REACTORS
330
E
102
}
330
E
100
AcDbPlaceHolder
280
     0
  0
DICTIONARYVAR
  5
35
102
{ACAD_REACTORS
330
34
102
}
330
34
100
DictionaryVariables
280
     0
  1
1
  0
DICTIONARYVAR
  5
B5E
102
{ACAD_REACTORS
330
34
102
}
330
34
100
DictionaryVariables
280
     0
  1
96
  0
DICTIONARY
  5
260
102
{ACAD_REACTORS
330
43
102
}
330
43
100
AcDbDictionary
  0
DICTIONARY
  5
2C
102
{ACAD_REACTORS
330
2B
102
}
330
2B
100
AcDbDictionary
  3
DWGSETTINGS
350
2D
  0
XRECORD
  5
5711
102
{ACAD_REACTORS
330
5710
102
}
330
5710
100
AcDbXrecord
 90
        1
  0
XRECORD
  5
5712
102
{ACAD_REACTORS
330
5710
102
}
330
5710
100
AcDbXrecord
 90
       70
  0
XRECORD
  5
5713
102
{ACAD_REACTORS
330
5710
102
}
330
5710
100
AcDbXrecord
  1

  0
XRECORD
  5
5714
102
{ACAD_REACTORS
330
5710
102
}
330
5710
100
AcDbXrecord
  1
ASAMI.ctb
  0
XRECORD
  5
5715
102
{ACAD_REACTORS
330
5710
102
}
330
5710
100
AcDbXrecord
340
1A
  0
XRECORD
  5
5716
102
{ACAD_REACTORS
330
5710
102
}
330
5710
100
AcDbXrecord
340
19
  0
XRECORD
  5
5717
102
{ACAD_REACTORS
330
5710
102
}
330
5710
100
AcDbXrecord
340
E
  0
XRECORD
  5
5718
102
{ACAD_REACTORS
330
5710
102
}
330
5710
100
AcDbXrecord
 90
    10781
  0
XRECORD
  5
5719
102
{ACAD_REACTORS
330
5710
102
}
330
5710
100
AcDbXrecord
 90
        4
  0
XRECORD
  5
571A
102
{ACAD_REACTORS
330
5710
102
}
330
5710
100
AcDbXrecord
 90
        0
  0
XRECORD
  5
571B
102
{ACAD_REACTORS
330
5710
102
}
330
5710
100
AcDbXrecord
  1
{AFB28963-8C59-40AE-9337-C84526B81ACE}
  0
XRECORD
  5
571C
102
{ACAD_REACTORS
330
5710
102
}
330
5710
100
AcDbXrecord
  1
{EC1417DB-D669-4361-8AC5-4FB632DCD477}
  0
XRECORD
  5
571D
102
{ACAD_REACTORS
330
5710
102
}
330
5710
100
AcDbXrecord
 40
0.0
  0
XRECORD
  5
571E
102
{ACAD_REACTORS
330
5710
102
}
330
5710
100
AcDbXrecord
1000
DSTYLE
1002
{
1070
    79
 70
     2
1070
   341
340
59
1070
   342
340
59
1070
   371
 70
    -1
1070
   372
 70
    -1
1002
}
  0
XRECORD
  5
571F
102
{ACAD_REACTORS
330
5710
102
}
330
5710
100
AcDbXrecord
340
0
  0
XRECORD
  5
5720
102
{ACAD_REACTORS
330
5710
102
}
330
5710
100
AcDbXrecord
 70
     0
  0
XRECORD
  5
5721
102
{ACAD_REACTORS
330
5710
102
}
330
5710
100
AcDbXrecord
340
0
  0
XRECORD
  5
5722
102
{ACAD_REACTORS
330
5710
102
}
330
5710
100
AcDbXrecord
 10
0.0
 20
0.0
 30
0.0
  0
XRECORD
  5
5723
102
{ACAD_REACTORS
330
5710
102
}
330
5710
100
AcDbXrecord
 10
0.0
 20
0.0
 30
0.0
  0
XRECORD
  5
5724
102
{ACAD_REACTORS
330
5710
102
}
330
5710
100
AcDbXrecord
 10
0.0
 20
0.0
 30
0.0
  0
XRECORD
  5
5725
102
{ACAD_REACTORS
330
5710
102
}
330
5710
100
AcDbXrecord
 10
0.0
 20
0.0
 30
0.0
  0
XRECORD
  5
5726
102
{ACAD_REACTORS
330
5710
102
}
330
5710
100
AcDbXrecord
 10
0.0
 20
0.0
 30
0.0
  0
XRECORD
  5
5727
102
{ACAD_REACTORS
330
5710
102
}
330
5710
100
AcDbXrecord
 10
0.0
 20
0.0
 30
0.0
  0
XRECORD
  5
5728
102
{ACAD_REACTORS
330
5710
102
}
330
5710
100
AcDbXrecord
340
0
  0
XRECORD
  5
5729
102
{ACAD_REACTORS
330
5710
102
}
330
5710
100
AcDbXrecord
 70
     0
  0
XRECORD
  5
572A
102
{ACAD_REACTORS
330
5710
102
}
330
5710
100
AcDbXrecord
340
0
  0
XRECORD
  5
572B
102
{ACAD_REACTORS
330
5710
102
}
330
5710
100
AcDbXrecord
 10
0.0
 20
0.0
 30
0.0
  0
XRECORD
  5
572C
102
{ACAD_REACTORS
330
5710
102
}
330
5710
100
AcDbXrecord
 10
0.0
 20
0.0
 30
0.0
  0
XRECORD
  5
572D
102
{ACAD_REACTORS
330
5710
102
}
330
5710
100
AcDbXrecord
 10
0.0
 20
0.0
 30
0.0
  0
XRECORD
  5
572E
102
{ACAD_REACTORS
330
5710
102
}
330
5710
100
AcDbXrecord
 10
0.0
 20
0.0
 30
0.0
  0
XRECORD
  5
572F
102
{ACAD_REACTORS
330
5710
102
}
330
5710
100
AcDbXrecord
 10
0.0
 20
0.0
 30
0.0
  0
XRECORD
  5
5730
102
{ACAD_REACTORS
330
5710
102
}
330
5710
100
AcDbXrecord
 10
0.0
 20
0.0
 30
0.0
  0
LAYER_INDEX
  5
5703
102
{ACAD_REACTORS
330
5702
102
}
330
5702
100
AcDbIndex
 40
2453151.699705023
100
AcDbLayerIndex
  8
0
360
5704
 90
        0
  8
AM_0
360
5705
 90
       16
  8
PV0001_1
360
5706
 90
       30
  8
AM_CL
360
5707
 90
        0
  8
AM_7
360
5708
 90
        1
  8
AM_11
360
5709
 90
        3
  8
AM_5
360
570A
 90
       10
  8
Defpoints
360
570B
 90
        0
  8
AM_6
360
570C
 90
        1
  8
AM_4
360
570D
 90
        0
  8
AM_3
360
570E
 90
        0
  0
XRECORD
  5
2D
102
{ACAD_REACTORS
330
2C
102
}
330
2C
100
AcDbXrecord
  1
VERSION
140
15.0
  1
PRODUCT
  2
AutoCAD Mechanical 2000
  0
IDBUFFER
  5
5704
330
0
100
AcDbIdBuffer
  0
IDBUFFER
  5
5705
330
0
100
AcDbIdBuffer
330
4BE9
330
4BEC
330
4ED1
330
4ED6
330
4EF5
330
4EF6
330
509F
330
50A0
330
50A9
330
50AB
330
55D6
330
55D8
330
55DD
330
56BA
330
56BD
330
56BE
  0
IDBUFFER
  5
5706
330
0
100
AcDbIdBuffer
330
55D5
330
55D9
330
55DA
330
55DB
330
55DE
330
55E8
330
55EB
330
56BB
330
56BC
330
56BF
330
56C0
330
56C1
330
56C3
330
56C5
330
35CA
330
35EA
330
35EB
330
35F9
330
35FA
330
35FB
330
35FD
330
3601
330
3602
330
395A
330
452C
330
48BA
330
5599
330
559A
330
55D3
330
55D4
  0
IDBUFFER
  5
5707
330
0
100
AcDbIdBuffer
  0
IDBUFFER
  5
5708
330
0
100
AcDbIdBuffer
330
35D1
  0
IDBUFFER
  5
5709
330
0
100
AcDbIdBuffer
330
55E9
330
56C2
330
56C4
  0
IDBUFFER
  5
570A
330
0
100
AcDbIdBuffer
330
36BA
330
3866
330
3C40
330
3D56
330
3DFD
330
53D8
330
53E5
330
53F2
330
53FF
330
55C4
  0
IDBUFFER
  5
570B
330
0
100
AcDbIdBuffer
  0
IDBUFFER
  5
570C
330
0
100
AcDbIdBuffer
330
19BD
  0
IDBUFFER
  5
570D
330
0
100
AcDbIdBuffer
  0
IDBUFFER
  5
570E
330
0
100
AcDbIdBuffer
  0
ENDSEC
  0
EOF
