  0
SECTION
  2
HEADER
  9
$ACADVER
  1
AC1014
  9
$ACADMAINTVER
 70
     9
  9
$DWGCODEPAGE
  3
ANSI_932
  9
$INSBASE
 10
0.0
 20
0.0
 30
0.0
  9
$EXTMIN
 10
-276.2505203884103
 20
-77.03809874440503
 30
-0.00000001
  9
$EXTMAX
 10
32.96802519971807
 20
44.51017195807497
 30
0.00000001
  9
$LIMMIN
 10
-313.4266583104131
 20
-117.1070090372304
  9
$LIMMAX
 10
62.40442359442454
 20
73.37646438693991
  9
$ORTHOMODE
 70
     0
  9
$REGENMODE
 70
     1
  9
$FILLMODE
 70
     1
  9
$QTEXTMODE
 70
     0
  9
$MIRRTEXT
 70
     0
  9
$DRAGMODE
 70
     2
  9
$LTSCALE
 40
1.0
  9
$OSMODE
 70
    55
  9
$ATTMODE
 70
     1
  9
$TEXTSIZE
 40
2.5
  9
$TRACEWID
 40
1.0
  9
$TEXTSTYLE
  7
STANDARD
  9
$CLAYER
  8
AM_0
  9
$CELTYPE
  6
BYLAYER
  9
$CECOLOR
 62
   256
  9
$CELTSCALE
 40
1.0
  9
$DELOBJ
 70
     1
  9
$DISPSILH
 70
     0
  9
$DIMSCALE
 40
1.0
  9
$DIMASZ
 40
2.5
  9
$DIMEXO
 40
1.0
  9
$DIMDLI
 40
12.0
  9
$DIMRND
 40
0.0
  9
$DIMDLE
 40
0.0
  9
$DIMEXE
 40
1.0
  9
$DIMTP
 40
0.1
  9
$DIMTM
 40
0.1
  9
$DIMTXT
 40
3.2
  9
$DIMCEN
 40
0.0
  9
$DIMTSZ
 40
0.0
  9
$DIMTOL
 70
     0
  9
$DIMLIM
 70
     0
  9
$DIMTIH
 70
     0
  9
$DIMTOH
 70
     0
  9
$DIMSE1
 70
     0
  9
$DIMSE2
 70
     0
  9
$DIMTAD
 70
     3
  9
$DIMZIN
 70
     8
  9
$DIMBLK
  1
OPEN30
  9
$DIMASO
 70
     1
  9
$DIMSHO
 70
     1
  9
$DIMPOST
  1

  9
$DIMAPOST
  1
"
  9
$DIMALT
 70
     0
  9
$DIMALTD
 70
     2
  9
$DIMALTF
 40
0.0393701
  9
$DIMLFAC
 40
1.0
  9
$DIMTOFL
 70
     1
  9
$DIMTVP
 40
0.0
  9
$DIMTIX
 70
     0
  9
$DIMSOXD
 70
     0
  9
$DIMSAH
 70
     0
  9
$DIMBLK1
  1

  9
$DIMBLK2
  1

  9
$DIMSTYLE
  2
AM_JIS
  9
$DIMCLRD
 70
   256
  9
$DIMCLRE
 70
   256
  9
$DIMCLRT
 70
     2
  9
$DIMTFAC
 40
0.71
  9
$DIMGAP
 40
1.5
  9
$DIMJUST
 70
     0
  9
$DIMSD1
 70
     0
  9
$DIMSD2
 70
     0
  9
$DIMTOLJ
 70
     0
  9
$DIMTZIN
 70
     0
  9
$DIMALTZ
 70
     0
  9
$DIMALTTZ
 70
     0
  9
$DIMFIT
 70
     3
  9
$DIMUPT
 70
     0
  9
$DIMUNIT
 70
     2
  9
$DIMDEC
 70
     3
  9
$DIMTDEC
 70
     3
  9
$DIMALTU
 70
     2
  9
$DIMALTTD
 70
     2
  9
$DIMTXSTY
  7
ASAMI
  9
$DIMAUNIT
 70
     0
  9
$LUNITS
 70
     2
  9
$LUPREC
 70
     2
  9
$SKETCHINC
 40
1.0
  9
$FILLETRAD
 40
2.5
  9
$AUNITS
 70
     0
  9
$AUPREC
 70
     0
  9
$MENU
  1
.
  9
$ELEVATION
 40
0.0
  9
$PELEVATION
 40
0.0
  9
$THICKNESS
 40
0.0
  9
$LIMCHECK
 70
     0
  9
$BLIPMODE
 70
     0
  9
$CHAMFERA
 40
2.5
  9
$CHAMFERB
 40
2.5
  9
$CHAMFERC
 40
20.0
  9
$CHAMFERD
 40
0.0
  9
$SKPOLY
 70
     0
  9
$TDCREATE
 40
2452800.443498622
  9
$TDUPDATE
 40
2453151.715876898
  9
$TDINDWG
 40
0.8297814583
  9
$TDUSRTIMER
 40
0.8297814583
  9
$USRTIMER
 70
     1
  9
$ANGBASE
 50
0.0
  9
$ANGDIR
 70
     0
  9
$PDMODE
 70
     0
  9
$PDSIZE
 40
0.0
  9
$PLINEWID
 40
0.0
  9
$COORDS
 70
     1
  9
$SPLFRAME
 70
     0
  9
$SPLINETYPE
 70
     6
  9
$SPLINESEGS
 70
     8
  9
$ATTDIA
 70
     1
  9
$ATTREQ
 70
     1
  9
$HANDLING
 70
 12289
  9
$HANDSEED
  5
4E97
  9
$SURFTAB1
 70
     6
  9
$SURFTAB2
 70
     6
  9
$SURFTYPE
 70
     6
  9
$SURFU
 70
     6
  9
$SURFV
 70
     6
  9
$UCSNAME
  2

  9
$UCSORG
 10
0.0
 20
0.0
 30
0.0
  9
$UCSXDIR
 10
1.0
 20
0.0000000000000027
 30
0.0
  9
$UCSYDIR
 10
-0.0000000000000027
 20
1.0
 30
0.0
  9
$PUCSNAME
  2

  9
$PUCSORG
 10
0.0
 20
0.0
 30
0.0
  9
$PUCSXDIR
 10
1.0
 20
0.0
 30
0.0
  9
$PUCSYDIR
 10
0.0
 20
1.0
 30
0.0
  9
$USERI1
 70
     0
  9
$USERI2
 70
     0
  9
$USERI3
 70
     0
  9
$USERI4
 70
     0
  9
$USERI5
 70
     0
  9
$USERR1
 40
0.0
  9
$USERR2
 40
0.0
  9
$USERR3
 40
0.0
  9
$USERR4
 40
0.0
  9
$USERR5
 40
0.0
  9
$WORLDVIEW
 70
     1
  9
$SHADEDGE
 70
     3
  9
$SHADEDIF
 70
    70
  9
$TILEMODE
 70
     1
  9
$MAXACTVP
 70
    64
  9
$PINSBASE
 10
0.0
 20
0.0
 30
0.0
  9
$PLIMCHECK
 70
     0
  9
$PEXTMIN
 10
1.000000000000000E+20
 20
1.000000000000000E+20
 30
1.000000000000000E+20
  9
$PEXTMAX
 10
-1.000000000000000E+20
 20
-1.000000000000000E+20
 30
-1.000000000000000E+20
  9
$PLIMMIN
 10
0.0
 20
0.0
  9
$PLIMMAX
 10
841.0
 20
594.0
  9
$UNITMODE
 70
     0
  9
$VISRETAIN
 70
     1
  9
$PLINEGEN
 70
     0
  9
$PSLTSCALE
 70
     0
  9
$TREEDEPTH
 70
  3020
  9
$PICKSTYLE
 70
     0
  9
$CMLSTYLE
  2
STANDARD
  9
$CMLJUST
 70
     0
  9
$CMLSCALE
 40
20.0
  9
$PROXYGRAPHICS
 70
     1
  9
$MEASUREMENT
 70
     1
  0
ENDSEC
  0
SECTION
  2
CLASSES
  0
CLASS
  1
ACDBDICTIONARYWDFLT
  2
AcDbDictionaryWithDefault
  3
AutoCAD 2000
 90
        0
280
     0
281
     0
  0
CLASS
  1
ACDBPLACEHOLDER
  2
AcDbPlaceHolder
  3
AutoCAD 2000
 90
        0
280
     0
281
     0
  0
CLASS
  1
LAYOUT
  2
AcDbLayout
  3
AutoCAD 2000
 90
        0
280
     0
281
     0
  0
CLASS
  1
AMGSETTINGSOBJ
  2
AmgSettingsObj
  3
"AcadM|Product Description: AutoCAD Mechanical 2000|Company: Autodesk"
 90
        0
280
     0
281
     0
  0
CLASS
  1
ACME_DOCUMENT
  2
AcMeDbDoc
  3
AcMeServices
 90
        0
280
     0
281
     0
  0
CLASS
  1
ACMESCOPE
  2
AcMeScope
  3
AcMeServices
 90
        0
280
     0
281
     0
  0
CLASS
  1
ACMECOMMANDHISTORY
  2
AcMeCommandHistory
  3
AcMeServices
 90
        0
280
     0
281
     0
  0
CLASS
  1
DICTIONARYVAR
  2
AcDbDictionaryVar
  3
AutoCAD 2000
 90
        0
280
     0
281
     0
  0
CLASS
  1
ACIMSYSVARMAN
  2
AcImSysVarManager
  3
AcMeServices
 90
        0
280
     0
281
     0
  0
CLASS
  1
ACIMREALSYSVAR
  2
AcImRealSysVar
  3
AcMeServices
 90
        0
280
     0
281
     0
  0
CLASS
  1
ACIMINTSYSVAR
  2
AcImIntSysVar
  3
AcMeServices
 90
        0
280
     0
281
     0
  0
CLASS
  1
ACMEDRAWINGMAN
  2
AcMeDrawingMan
  3
AcMeServices
 90
        0
280
     0
281
     0
  0
CLASS
  1
ACMEVIEW
  2
AcMeView
  3
AcMeServices
 90
        0
280
     0
281
     0
  0
CLASS
  1
ACDBENTITYCACHE
  2
AcMeEntityCache
  3
AcMeServices
 90
        0
280
     0
281
     0
  0
CLASS
  1
GSMANAGER
  2
AcMeGSManager
  3
AcMeServices
 90
        0
280
     0
281
     0
  0
CLASS
  1
AmdtInternalReactor
  2
AmdtInternalReactor
  3
AcMeServices
 90
        0
280
     0
281
     0
  0
CLASS
  1
ACMESTATEMGR
  2
AcMeStateMgr
  3
AcMeServices
 90
        0
280
     0
281
     0
  0
CLASS
  1
ACME_DATABASE
  2
AcMeDbDatabase
  3
AcMeServices
 90
        0
280
     0
281
     0
  0
CLASS
  1
ACRFINSADJUSTERMGR
  2
AcRfInsAdjusterMgr
  3
AcMeServices
 90
        0
280
     0
281
     0
  0
CLASS
  1
ACMDATADICTIONARY
  2
AcmDataDictionary
  3
"AcmSymBB|Product Description: AutoCAD Mechanical 2000|Company: Autodesk"
 90
        0
280
     0
281
     0
  0
CLASS
  1
ACMDATAENTRYBLOCK
  2
AcmDataEntryBlock
  3
"AcmSymBB|Product Description: AutoCAD Mechanical 2000|Company: Autodesk"
 90
        0
280
     0
281
     0
  0
CLASS
  1
AMGOBJPROPCFG
  2
AmgObjPropCfg
  3
"AmgLay|Product Description: AutoCAD Mechanical 2000|Company: Autodesk"
 90
        1
280
     0
281
     0
  0
CLASS
  1
ACAMGFILTERDAT
  2
AcAmgFilterDat
  3
"AcadM|Product Description: AutoCAD Mechanical 2000|Company: Autodesk"
 90
        0
280
     0
281
     0
  0
CLASS
  1
LAYER_INDEX
  2
AcDbLayerIndex
  3
AutoCAD 2000
 90
        0
280
     0
281
     0
  0
CLASS
  1
IDBUFFER
  2
AcDbIdBuffer
  3
AutoCAD 2000
 90
        0
280
     0
281
     0
  0
CLASS
  1
ACIMSTRSYSVAR
  2
AcImStrSysVar
  3
AcMeServices
 90
        0
280
     0
281
     0
  0
CLASS
  1
ACMSTANDARDJIS
  2
AcmStandardJIS
  3
"AcmSymBB|Product Description: AutoCAD Mechanical 2000|Company: Autodesk"
 90
        0
280
     0
281
     0
  0
CLASS
  1
ACMSURFSTANDARDJIS
  2
AcmSurfTextStdJIS
  3
"AcmSymBB|Product Description: AutoCAD Mechanical 2000|Company: Autodesk"
 90
        0
280
     0
281
     0
  0
CLASS
  1
ACMFCFSTANDARDJIS
  2
AcmFCFStdJIS
  3
"AcmSymBB|Product Description: AutoCAD Mechanical 2000|Company: Autodesk"
 90
        0
280
     0
281
     0
  0
CLASS
  1
ACMWELDSTANDARDJIS
  2
AcmWeldingStdJIS
  3
"AcmSymBB|Product Description: AutoCAD Mechanical 2000|Company: Autodesk"
 90
        0
280
     0
281
     0
  0
CLASS
  1
ACMIDSTANDARDJIS
  2
AcmIdStdJIS
  3
"AcmSymBB|Product Description: AutoCAD Mechanical 2000|Company: Autodesk"
 90
        0
280
     0
281
     0
  0
CLASS
  1
ACMDATUMSTANDARDJIS
  2
AcmDatumStdJIS
  3
"AcmSymBB|Product Description: AutoCAD Mechanical 2000|Company: Autodesk"
 90
        0
280
     0
281
     0
  0
CLASS
  1
ACMBOMSTANDARDJIS
  2
AcmBOMStdJIS
  3
"AcmSymBB|Product Description: AutoCAD Mechanical 2000|Company: Autodesk"
 90
        0
280
     0
281
     0
  0
CLASS
  1
ACMSTANDARDANSI
  2
AcmStandardANSI
  3
"AcmSymBB|Product Description: AutoCAD Mechanical 2000|Company: Autodesk"
 90
        0
280
     0
281
     0
  0
CLASS
  1
ACMSURFSTANDARDANSI
  2
AcmSurfTextStdANSI
  3
"AcmSymBB|Product Description: AutoCAD Mechanical 2000|Company: Autodesk"
 90
        0
280
     0
281
     0
  0
CLASS
  1
ACMFCFSTANDARDANSI
  2
AcmFCFStdANSI
  3
"AcmSymBB|Product Description: AutoCAD Mechanical 2000|Company: Autodesk"
 90
        0
280
     0
281
     0
  0
CLASS
  1
ACMWELDSTANDARDANSI
  2
AcmWeldingStdANSI
  3
"AcmSymBB|Product Description: AutoCAD Mechanical 2000|Company: Autodesk"
 90
        0
280
     0
281
     0
  0
CLASS
  1
ACMIDSTANDARDANSI
  2
AcmIdStdANSI
  3
"AcmSymBB|Product Description: AutoCAD Mechanical 2000|Company: Autodesk"
 90
        0
280
     0
281
     0
  0
CLASS
  1
ACMDATUMSTANDARDANSI
  2
AcmDatumStdANSI
  3
"AcmSymBB|Product Description: AutoCAD Mechanical 2000|Company: Autodesk"
 90
        0
280
     0
281
     0
  0
CLASS
  1
ACMBOMSTANDARDANSI
  2
AcmBOMStdANSI
  3
"AcmSymBB|Product Description: AutoCAD Mechanical 2000|Company: Autodesk"
 90
        0
280
     0
281
     0
  0
CLASS
  1
ACMSTANDARDBSI
  2
AcmStandardBSI
  3
"AcmSymBB|Product Description: AutoCAD Mechanical 2000|Company: Autodesk"
 90
        0
280
     0
281
     0
  0
CLASS
  1
ACMSURFSTANDARDBSI
  2
AcmSurfTextStdBSI
  3
"AcmSymBB|Product Description: AutoCAD Mechanical 2000|Company: Autodesk"
 90
        0
280
     0
281
     0
  0
CLASS
  1
ACMFCFSTANDARDBSI
  2
AcmFCFStdBSI
  3
"AcmSymBB|Product Description: AutoCAD Mechanical 2000|Company: Autodesk"
 90
        0
280
     0
281
     0
  0
CLASS
  1
ACMWELDSTANDARDBSI
  2
AcmWeldingStdBSI
  3
"AcmSymBB|Product Description: AutoCAD Mechanical 2000|Company: Autodesk"
 90
        0
280
     0
281
     0
  0
CLASS
  1
ACMIDSTANDARDBSI
  2
AcmIdStdBSI
  3
"AcmSymBB|Product Description: AutoCAD Mechanical 2000|Company: Autodesk"
 90
        0
280
     0
281
     0
  0
CLASS
  1
ACMDATUMSTANDARDBSI
  2
AcmDatumStdBSI
  3
"AcmSymBB|Product Description: AutoCAD Mechanical 2000|Company: Autodesk"
 90
        0
280
     0
281
     0
  0
CLASS
  1
ACMBOMSTANDARDBSI
  2
AcmBOMStdBSI
  3
"AcmSymBB|Product Description: AutoCAD Mechanical 2000|Company: Autodesk"
 90
        0
280
     0
281
     0
  0
CLASS
  1
LONG_TRANSACTION
  2
AcDbLongTransaction
  3
AutoCAD 2000
 90
        0
280
     0
281
     0
  0
CLASS
  1
LWPOLYLINE
  2
AcDbPolyline
  3
AutoCAD 2000
 90
        0
280
     0
281
     1
  0
CLASS
  1
HATCH
  2
AcDbHatch
  3
AutoCAD 2000
 90
        0
280
     0
281
     1
  0
CLASS
  1
XRECORD
  2
AcDbXrecord
  3
AutoCAD 2000
 90
        0
280
     0
281
     0
  0
ENDSEC
  0
SECTION
  2
TABLES
  0
TABLE
  2
VPORT
  5
8
330
0
100
AcDbSymbolTable
 70
     3
  0
VPORT
  5
4E6C
330
8
100
AcDbSymbolTableRecord
100
AcDbViewportTableRecord
  2
*ACTIVE
 70
     0
 10
0.0
 20
0.0
 11
1.0
 21
1.0
 12
-129.1068344455203
 22
0.9732689994261249
 13
0.0
 23
0.0
 14
2.5
 24
2.5
 15
10.0
 25
10.0
 16
0.0
 26
0.0
 36
1.0
 17
0.0
 27
0.0
 37
0.0
 40
228.6076932076369
 41
1.56570841889117
 42
50.0
 43
0.0
 44
0.0
 50
0.0
 51
0.0
 71
     0
 72
   100
 73
     1
 74
     1
 75
     0
 76
     0
 77
     0
 78
     0
  0
ENDTAB
  0
TABLE
  2
LTYPE
  5
5
330
0
100
AcDbSymbolTable
 70
    10
  0
LTYPE
  5
14
330
5
100
AcDbSymbolTableRecord
100
AcDbLinetypeTableRecord
  2
BYBLOCK
 70
     0
  3

 72
    65
 73
     0
 40
0.0
  0
LTYPE
  5
15
330
5
100
AcDbSymbolTableRecord
100
AcDbLinetypeTableRecord
  2
BYLAYER
 70
     0
  3

 72
    65
 73
     0
 40
0.0
  0
LTYPE
  5
16
330
5
100
AcDbSymbolTableRecord
100
AcDbLinetypeTableRecord
  2
CONTINUOUS
 70
     0
  3
Solid line
 72
    65
 73
     0
 40
0.0
  0
LTYPE
  5
4B
330
5
100
AcDbSymbolTableRecord
100
AcDbLinetypeTableRecord
  2
AM_ISO02W050
 70
     0
  3
__ __ __ __ __ __ __ __ __ __ __ __ __ __ __
 72
    65
 73
     2
 40
7.5
 49
6.0
 74
     0
 49
-1.5
 74
     0
  0
LTYPE
  5
4C
330
5
100
AcDbSymbolTableRecord
100
AcDbLinetypeTableRecord
  2
AM_ISO08W050
 70
     0
  3
____ . ____ . ____ . ____ . ____ . ____ . ____
 72
    65
 73
     4
 40
18.0
 49
12.0
 74
     0
 49
-1.5
 74
     0
 49
3.0
 74
     0
 49
-1.5
 74
     0
  0
LTYPE
  5
4D
330
5
100
AcDbSymbolTableRecord
100
AcDbLinetypeTableRecord
  2
AM_ISO09W050
 70
     0
  3
_____ . . _____ . . _____ . . ____ .. ____
 72
    65
 73
     6
 40
22.5
 49
12.0
 74
     0
 49
-1.5
 74
     0
 49
3.0
 74
     0
 49
-1.5
 74
     0
 49
3.0
 74
     0
 49
-1.5
 74
     0
  0
LTYPE
  5
4E
330
5
100
AcDbSymbolTableRecord
100
AcDbLinetypeTableRecord
  2
AMCONSTR
 70
     0
  3
_______________________
 72
    65
 73
     2
 40
9999.0
 49
9999.0
 74
     0
 49
0.0
 74
     0
  0
LTYPE
  5
4F
330
5
100
AcDbSymbolTableRecord
100
AcDbLinetypeTableRecord
  2
AM_ISO02W050X2
 70
     0
  3
 _ _ _ _ _ _ _ _ _ _ _ _
 72
    65
 73
     2
 40
3.75
 49
3.0
 74
     0
 49
-0.75
 74
     0
  0
LTYPE
  5
50
330
5
100
AcDbSymbolTableRecord
100
AcDbLinetypeTableRecord
  2
AM_ISO08W050X2
 70
     0
  3
__ . __ . __ . __ . __ . __
 72
    65
 73
     4
 40
9.0
 49
6.0
 74
     0
 49
-0.75
 74
     0
 49
1.5
 74
     0
 49
-0.75
 74
     0
  0
LTYPE
  5
53
330
5
100
AcDbSymbolTableRecord
100
AcDbLinetypeTableRecord
  2
AMZIGZAG
 70
     0
  3
/\/-/\/-/\/-/\/-/\/-/\/
 72
    65
 73
     2
 40
11.00009999999999
 49
0.0001
 74
     4
 75
   135
340
52
 46
0.04
 50
0.0
 44
0.0
 45
0.0
 49
-11.0
 74
     0
  0
LTYPE
  5
166
330
5
100
AcDbSymbolTableRecord
100
AcDbLinetypeTableRecord
  2
ACJISTGL
 70
     0
  3
_ _ _ _ _
 72
    65
 73
     2
 40
3.0
 49
2.0
 74
     0
 49
-1.0
 74
     0
  0
LTYPE
  5
26A
330
5
100
AcDbSymbolTableRecord
100
AcDbLinetypeTableRecord
  2
ACJISTGB
 70
     0
  3
__ . . __ . .
 72
    65
 73
     6
 40
9.0
 49
4.0
 74
     0
 49
-1.0
 74
     0
 49
1.0
 74
     0
 49
-1.0
 74
     0
 49
1.0
 74
     0
 49
-1.0
 74
     0
  0
ENDTAB
  0
TABLE
  2
LAYER
  5
2
330
0
100
AcDbSymbolTable
 70
    11
  0
LAYER
  5
10
330
2
100
AcDbSymbolTableRecord
100
AcDbLayerTableRecord
  2
0
 70
     0
 62
     7
  6
CONTINUOUS
  0
LAYER
  5
3F9
330
2
100
AcDbSymbolTableRecord
100
AcDbLayerTableRecord
  2
AM_0
 70
     0
 62
     7
  6
CONTINUOUS
  0
LAYER
  5
BA4
330
2
100
AcDbSymbolTableRecord
100
AcDbLayerTableRecord
  2
PV0001_1
 70
     0
 62
     7
  6
CONTINUOUS
  0
LAYER
  5
C6C
330
2
100
AcDbSymbolTableRecord
100
AcDbLayerTableRecord
  2
AM_CL
 70
     0
 62
     1
  6
AMCONSTR
  0
LAYER
  5
C7C
330
2
100
AcDbSymbolTableRecord
100
AcDbLayerTableRecord
  2
AM_7
 70
     0
 62
     4
  6
AM_ISO08W050
  0
LAYER
  5
C97
330
2
100
AcDbSymbolTableRecord
100
AcDbLayerTableRecord
  2
AM_11
 70
     0
 62
     3
  6
AM_ISO09W050
  0
LAYER
  5
CC5
330
2
100
AcDbSymbolTableRecord
100
AcDbLayerTableRecord
  2
AM_5
 70
     0
 62
     3
  6
CONTINUOUS
  0
LAYER
  5
CC7
330
2
100
AcDbSymbolTableRecord
100
AcDbLayerTableRecord
  2
DEFPOINTS
 70
     0
 62
     7
  6
CONTINUOUS
  0
LAYER
  5
19BC
330
2
100
AcDbSymbolTableRecord
100
AcDbLayerTableRecord
  2
AM_6
 70
     0
 62
     2
  6
CONTINUOUS
  0
LAYER
  5
1F8E
330
2
100
AcDbSymbolTableRecord
100
AcDbLayerTableRecord
  2
AM_4
 70
     0
 62
     3
  6
CONTINUOUS
  0
LAYER
  5
3588
330
2
100
AcDbSymbolTableRecord
100
AcDbLayerTableRecord
  2
AM_3
 70
     0
 62
     6
  6
ACJISTGL
  0
ENDTAB
  0
TABLE
  2
STYLE
  5
3
330
0
100
AcDbSymbolTable
 70
     5
  0
STYLE
  5
11
330
3
100
AcDbSymbolTableRecord
100
AcDbTextStyleTableRecord
  2
STANDARD
 70
     0
 40
0.0
 41
1.0
 50
0.0
 71
     0
 42
2.5
  3
simplex.shx
  4
EXTFONT.SHX
  0
STYLE
  5
52
330
3
100
AcDbSymbolTableRecord
100
AcDbTextStyleTableRecord
  2

 70
     1
 40
0.0
 41
1.0
 50
0.0
 71
     0
 42
2.5
  3
ltypeshp.shx
  4

  0
STYLE
  5
6B
330
3
100
AcDbSymbolTableRecord
100
AcDbTextStyleTableRecord
  2
ASAMI
 70
     0
 40
0.0
 41
1.0
 50
0.0
 71
     0
 42
2.5
  3
simplex.shx
  4
EXTFONT.SHX
  0
STYLE
  5
262
330
3
100
AcDbSymbolTableRecord
100
AcDbTextStyleTableRecord
  2
ACJISTS
 70
     0
 40
1.0
 41
1.0
 50
0.0
 71
     0
 42
2.5
  3
simplex.shx
  4
bigfont.shx
  0
STYLE
  5
269
330
3
100
AcDbSymbolTableRecord
100
AcDbTextStyleTableRecord
  2
ACJISGDT
 70
     0
 40
0.0
 41
1.0
 50
0.0
 71
     0
 42
2.5
  3
amgdtans.shx
  4

  0
ENDTAB
  0
TABLE
  2
VIEW
  5
6
330
0
100
AcDbSymbolTable
 70
     0
  0
ENDTAB
  0
TABLE
  2
UCS
  5
7
330
0
100
AcDbSymbolTable
 70
     0
  0
ENDTAB
  0
TABLE
  2
APPID
  5
9
330
0
100
AcDbSymbolTable
 70
    14
  0
APPID
  5
12
330
9
100
AcDbSymbolTableRecord
100
AcDbRegAppTableRecord
  2
ACAD
 70
     0
  0
APPID
  5
30
330
9
100
AcDbSymbolTableRecord
100
AcDbRegAppTableRecord
  2
MCAD_NO_VIS
 70
     0
  0
APPID
  5
31
330
9
100
AcDbSymbolTableRecord
100
AcDbRegAppTableRecord
  2
ACAD_TEMP_GRAPHIC
 70
     0
  0
APPID
  5
2C2
330
9
100
AcDbSymbolTableRecord
100
AcDbRegAppTableRecord
  2
GENIUS_GENDTOL_13
 70
     0
  0
APPID
  5
339
330
9
100
AcDbSymbolTableRecord
100
AcDbRegAppTableRecord
  2
GENIUS_GENODEF_13
 70
     0
  0
APPID
  5
33A
330
9
100
AcDbSymbolTableRecord
100
AcDbRegAppTableRecord
  2
GENIUS_GENOBJ-N-RSBK_13
 70
     0
  0
APPID
  5
33B
330
9
100
AcDbSymbolTableRecord
100
AcDbRegAppTableRecord
  2
GENIUS_GENOBJ-N-LIB_13
 70
     0
  0
APPID
  5
33C
330
9
100
AcDbSymbolTableRecord
100
AcDbRegAppTableRecord
  2
GENIUS_GENSCALE_13
 70
     0
  0
APPID
  5
378
330
9
100
AcDbSymbolTableRecord
100
AcDbRegAppTableRecord
  2
GENIUS_GENDIMSH_14
 70
     0
  0
APPID
  5
C82
330
9
100
AcDbSymbolTableRecord
100
AcDbRegAppTableRecord
  2
GENIUS_GENOBJ-N-CRS_13
 70
     0
  0
APPID
  5
C83
330
9
100
AcDbSymbolTableRecord
100
AcDbRegAppTableRecord
  2
GENIUS_GENOENT_13
 70
     0
  0
APPID
  5
C84
330
9
100
AcDbSymbolTableRecord
100
AcDbRegAppTableRecord
  2
GENIUS_GENOREF_13
 70
     0
  0
APPID
  5
C85
330
9
100
AcDbSymbolTableRecord
100
AcDbRegAppTableRecord
  2
GENIUS_GENOLIS_13
 70
     0
  0
APPID
  5
CA0
330
9
100
AcDbSymbolTableRecord
100
AcDbRegAppTableRecord
  2
GENIUS_GENOBJ-N-CEN_13
 70
     0
  0
ENDTAB
  0
TABLE
  2
DIMSTYLE
  5
A
330
0
100
AcDbSymbolTable
 70
    10
  0
DIMSTYLE
105
58
330
A
100
AcDbSymbolTableRecord
100
AcDbDimStyleTableRecord
  2
AM_JIS
 70
     0
  3

  4
"
  5
OPEN30
  6

  7

 40
1.0
 41
2.5
 42
1.0
 43
12.0
 44
1.0
 45
0.0
 46
0.0
 47
0.1
 48
0.1
140
3.2
141
0.0
142
0.0
143
0.0393701
144
1.0
145
0.0
146
0.71
147
1.5
 71
     0
 72
     0
 73
     0
 74
     0
 75
     0
 76
     0
 77
     3
 78
     8
170
     0
171
     2
172
     1
173
     0
174
     0
175
     0
176
   256
177
   256
178
     2
270
     2
271
     3
272
     3
273
     2
274
     2
340
6B
275
     0
280
     0
281
     0
282
     0
283
     0
284
     0
285
     0
286
     0
287
     3
288
     0
  0
DIMSTYLE
105
5F
330
A
100
AcDbSymbolTableRecord
100
AcDbDimStyleTableRecord
  2
AM_JIS$3
 70
     0
  3

  4
"
  5
OPEN30
  6

  7

 40
1.0
 41
2.5
 42
1.0
 43
10.0
 44
1.0
 45
0.0
 46
0.0
 47
0.1
 48
0.1
140
3.2
141
0.0
142
0.0
143
0.0393701
144
1.0
145
0.0
146
0.71
147
1.5
 71
     0
 72
     0
 73
     0
 74
     1
 75
     0
 76
     0
 77
     3
 78
     8
170
     0
171
     2
172
     0
173
     0
174
     0
175
     0
176
   256
177
   256
178
     2
270
     2
271
     2
272
     3
273
     2
274
     2
340
6B
275
     0
280
     0
281
     0
282
     0
283
     0
284
     0
285
     0
286
     0
287
     0
288
     1
  0
DIMSTYLE
105
60
330
A
100
AcDbSymbolTableRecord
100
AcDbDimStyleTableRecord
  2
AM_JIS$4
 70
     0
  3

  4
"
  5
OPEN30
  6

  7

 40
1.0
 41
2.5
 42
1.0
 43
10.0
 44
1.0
 45
0.0
 46
0.0
 47
0.1
 48
0.1
140
3.2
141
0.0
142
0.0
143
0.0393701
144
1.0
145
0.0
146
0.71
147
1.5
 71
     0
 72
     0
 73
     0
 74
     1
 75
     0
 76
     0
 77
     3
 78
     8
170
     0
171
     2
172
     0
173
     0
174
     0
175
     0
176
   256
177
   256
178
     2
270
     2
271
     2
272
     3
273
     2
274
     2
340
6B
275
     0
280
     0
281
     0
282
     0
283
     0
284
     0
285
     0
286
     0
287
     0
288
     1
  0
DIMSTYLE
105
61
330
A
100
AcDbSymbolTableRecord
100
AcDbDimStyleTableRecord
  2
AM_JIS$6
 70
     0
  3

  4
"
  5
OPEN30
  6

  7

 40
1.0
 41
2.5
 42
1.0
 43
10.0
 44
1.0
 45
0.0
 46
0.0
 47
0.1
 48
0.1
140
3.2
141
0.0
142
0.0
143
0.0393701
144
1.0
145
0.0
146
0.71
147
1.5
 71
     0
 72
     0
 73
     0
 74
     0
 75
     0
 76
     0
 77
     0
 78
     8
170
     0
171
     2
172
     1
173
     0
174
     0
175
     0
176
   256
177
   256
178
     2
270
     2
271
     2
272
     2
273
     2
274
     2
340
6B
275
     0
280
     0
281
     0
282
     0
283
     0
284
     0
285
     0
286
     0
287
     3
288
     0
  0
DIMSTYLE
105
62
330
A
100
AcDbSymbolTableRecord
100
AcDbDimStyleTableRecord
  2
AM_JIS$7
 70
     0
  3

  4
"
  5
OPEN30
  6

  7

 40
1.0
 41
2.5
 42
1.0
 43
10.0
 44
1.0
 45
0.0
 46
0.0
 47
0.1
 48
0.1
140
3.2
141
0.0
142
0.0
143
0.0393701
144
1.0
145
0.0
146
0.71
147
1.5
 71
     0
 72
     0
 73
     0
 74
     0
 75
     0
 76
     0
 77
     3
 78
     8
170
     0
171
     2
172
     1
173
     0
174
     0
175
     0
176
   256
177
   256
178
     2
270
     2
271
     2
272
     3
273
     2
274
     2
340
6B
275
     0
280
     0
281
     0
282
     0
283
     0
284
     0
285
     0
286
     0
287
     3
288
     0
  0
DIMSTYLE
105
63
330
A
100
AcDbSymbolTableRecord
100
AcDbDimStyleTableRecord
  2
AM_JIS$SF
 70
     0
  3

  4
"
  5
OPEN30
  6

  7

 40
1.0
 41
2.5
 42
1.0
 43
10.0
 44
1.0
 45
0.0
 46
0.0
 47
0.1
 48
0.1
140
3.2
141
0.0
142
0.0
143
0.0393701
144
1.0
145
0.0
146
0.71
147
1.5
 71
     0
 72
     0
 73
     0
 74
     0
 75
     1
 76
     1
 77
     3
 78
     8
170
     0
171
     2
172
     1
173
     0
174
     0
175
     0
176
   256
177
   256
178
     2
270
     2
271
     2
272
     2
273
     2
274
     2
340
6B
275
     0
280
     0
281
     0
282
     0
283
     0
284
     0
285
     0
286
     0
287
     3
288
     0
  0
DIMSTYLE
105
68
330
A
100
AcDbSymbolTableRecord
100
AcDbDimStyleTableRecord
  2
AM_JIS$SH
 70
     0
  3

  4
"
  5

  6
GENAXEH
  7
OPEN30
 40
1.0
 41
2.5
 42
1.0
 43
10.0
 44
1.0
 45
0.0
 46
0.0
 47
0.1
 48
0.1
140
3.2
141
0.0
142
0.0
143
0.0393701
144
2.0
145
0.0
146
0.71
147
1.5
 71
     0
 72
     0
 73
     0
 74
     0
 75
     1
 76
     1
 77
     3
 78
     8
170
     0
171
     2
172
     1
173
     1
174
     0
175
     0
176
   256
177
   256
178
     2
270
     2
271
     2
272
     2
273
     2
274
     2
340
6B
275
     0
280
     0
281
     0
282
     0
283
     0
284
     0
285
     0
286
     0
287
     3
288
     0
  0
DIMSTYLE
105
B34
102
{ACAD_REACTORS
330
36BA
102
}
330
A
100
AcDbSymbolTableRecord
100
AcDbDimStyleTableRecord
  2
AM_JIS$2
 70
     0
  3

  4
"
  5
OPEN30
  6

  7

 40
1.0
 41
2.5
 42
1.0
 43
12.0
 44
1.0
 45
0.0
 46
0.0
 47
0.1
 48
0.1
140
3.2
141
0.0
142
0.0
143
0.0393701
144
1.0
145
0.0
146
0.71
147
1.5
 71
     0
 72
     0
 73
     0
 74
     0
 75
     0
 76
     0
 77
     3
 78
     8
170
     0
171
     2
172
     1
173
     0
174
     0
175
     0
176
   256
177
   256
178
     2
270
     2
271
     3
272
     3
273
     2
274
     2
340
6B
275
     0
280
     0
281
     0
282
     0
283
     0
284
     0
285
     0
286
     0
287
     3
288
     0
  0
DIMSTYLE
105
BA5
102
{ACAD_REACTORS
330
378E
330
3990
330
3B0D
330
3BB8
330
3CCB
330
4986
330
4987
330
4988
330
498D
102
}
330
A
100
AcDbSymbolTableRecord
100
AcDbDimStyleTableRecord
  2
AM_JIS$0
 70
     0
  3

  4
"
  5
OPEN30
  6

  7

 40
1.0
 41
2.5
 42
0.8
 43
10.0
 44
1.0
 45
0.0
 46
0.0
 47
0.1
 48
0.1000000001
140
3.799999999999999
141
0.0
142
0.0
143
0.0393701
144
1.0
145
0.0
146
0.71
147
1.5
 71
     0
 72
     0
 73
     0
 74
     0
 75
     0
 76
     0
 77
     3
 78
     9
170
     0
171
     2
172
     1
173
     0
174
     0
175
     0
176
     3
177
     3
178
     2
270
     2
271
     2
272
     2
273
     2
274
     2
340
11
275
     1
280
     0
281
     0
282
     0
283
     0
284
     8
285
     0
286
     0
287
     0
288
     0
  0
DIMSTYLE
105
BA6
330
A
100
AcDbSymbolTableRecord
100
AcDbDimStyleTableRecord
  2
AM_JISORG-1P0$2
 70
     0
  3

  4
"
  5
OPEN30
  6

  7

 40
1.0
 41
2.5
 42
0.0
 43
10.0
 44
1.0
 45
0.0
 46
0.0
 47
0.1
 48
0.1000000001
140
3.799999999999999
141
0.0
142
0.0
143
0.0393701
144
-0.999999980146674
145
0.0
146
0.71
147
1.5
 71
     0
 72
     0
 73
     0
 74
     0
 75
     0
 76
     0
 77
     3
 78
     1
170
     0
171
     2
172
     1
173
     0
174
     0
175
     0
176
     3
177
     3
178
     2
270
     2
271
     2
272
     2
273
     2
274
     2
340
11
275
     1
280
     0
281
     0
282
     0
283
     0
284
     8
285
     0
286
     0
287
     0
288
     0
  0
ENDTAB
  0
TABLE
  2
BLOCK_RECORD
  5
1
330
0
100
AcDbSymbolTable
 70
    18
  0
BLOCK_RECORD
  5
1F
102
{ACAD_XDICTIONARY
360
74
102
}
330
1
100
AcDbSymbolTableRecord
100
AcDbBlockTableRecord
  2
*MODEL_SPACE
  0
BLOCK_RECORD
  5
101
102
{ACAD_XDICTIONARY
360
4E95
102
}
330
1
100
AcDbSymbolTableRecord
100
AcDbBlockTableRecord
  2
*PAPER_SPACE
  0
BLOCK_RECORD
  5
59
330
1
100
AcDbSymbolTableRecord
100
AcDbBlockTableRecord
  2
_OPEN30
  0
BLOCK_RECORD
  5
64
330
1
100
AcDbSymbolTableRecord
100
AcDbBlockTableRecord
  2
GENAXEH
  0
BLOCK_RECORD
  5
C31
330
1
100
AcDbSymbolTableRecord
100
AcDbBlockTableRecord
  2
A$C36D02A34
  0
BLOCK_RECORD
  5
2453
330
1
100
AcDbSymbolTableRecord
100
AcDbBlockTableRecord
  2
*D6
  0
BLOCK_RECORD
  5
245F
330
1
100
AcDbSymbolTableRecord
100
AcDbBlockTableRecord
  2
A$C4FFC6CC0
  0
BLOCK_RECORD
  5
36BB
330
1
100
AcDbSymbolTableRecord
100
AcDbBlockTableRecord
  2
*D8
  0
BLOCK_RECORD
  5
378F
330
1
100
AcDbSymbolTableRecord
100
AcDbBlockTableRecord
  2
*D9
  0
BLOCK_RECORD
  5
3991
330
1
100
AcDbSymbolTableRecord
100
AcDbBlockTableRecord
  2
*D10
  0
BLOCK_RECORD
  5
3B0E
330
1
100
AcDbSymbolTableRecord
100
AcDbBlockTableRecord
  2
*D11
  0
BLOCK_RECORD
  5
3BB9
330
1
100
AcDbSymbolTableRecord
100
AcDbBlockTableRecord
  2
*D12
  0
BLOCK_RECORD
  5
3CCC
330
1
100
AcDbSymbolTableRecord
100
AcDbBlockTableRecord
  2
*D13
  0
BLOCK_RECORD
  5
4997
330
1
100
AcDbSymbolTableRecord
100
AcDbBlockTableRecord
  2
*D14
  0
BLOCK_RECORD
  5
49A3
330
1
100
AcDbSymbolTableRecord
100
AcDbBlockTableRecord
  2
*D15
  0
BLOCK_RECORD
  5
49B1
330
1
100
AcDbSymbolTableRecord
100
AcDbBlockTableRecord
  2
*D16
  0
BLOCK_RECORD
  5
49BD
330
1
100
AcDbSymbolTableRecord
100
AcDbBlockTableRecord
  2
*D17
  0
ENDTAB
  0
ENDSEC
  0
SECTION
  2
BLOCKS
  0
BLOCK
  5
20
330
1F
100
AcDbEntity
  8
0
100
AcDbBlockBegin
  2
*MODEL_SPACE
 70
     0
 10
0.0
 20
0.0
 30
0.0
  3
*MODEL_SPACE
  1

  0
ENDBLK
  5
21
330
1F
100
AcDbEntity
  8
0
100
AcDbBlockEnd
  0
BLOCK
  5
103
330
101
100
AcDbEntity
 67
     1
  8
0
100
AcDbBlockBegin
  2
*PAPER_SPACE
 70
     0
 10
0.0
 20
0.0
 30
0.0
  3
*PAPER_SPACE
  1

  0
ENDBLK
  5
104
330
101
100
AcDbEntity
 67
     1
  8
0
100
AcDbBlockEnd
  0
BLOCK
  5
5D
330
59
100
AcDbEntity
  8
0
100
AcDbBlockBegin
  2
_OPEN30
 70
     0
 10
0.0
 20
0.0
 30
0.0
  3
_OPEN30
  1

  0
LINE
  5
5A
330
59
100
AcDbEntity
  8
0
 62
     0
100
AcDbLine
 10
-1.0
 20
0.26794919
 30
0.0
 11
0.0
 21
0.0
 31
0.0
  0
LINE
  5
5B
330
59
100
AcDbEntity
  8
0
 62
     0
100
AcDbLine
 10
0.0
 20
0.0
 30
0.0
 11
-1.0
 21
-0.26794919
 31
0.0
  0
LINE
  5
5C
330
59
100
AcDbEntity
  8
0
 62
     0
100
AcDbLine
 10
0.0
 20
0.0
 30
0.0
 11
-1.0
 21
0.0
 31
0.0
  0
ENDBLK
  5
5E
330
59
100
AcDbEntity
  8
0
100
AcDbBlockEnd
  0
BLOCK
  5
66
330
64
100
AcDbEntity
  8
0
100
AcDbBlockBegin
  2
GENAXEH
 70
     0
 10
0.0
 20
0.0
 30
0.0
  3
GENAXEH
  1

  0
LINE
  5
65
330
64
100
AcDbEntity
  8
0
100
AcDbLine
 10
-1.0
 20
0.0
 30
0.0
 11
1.0
 21
0.0
 31
0.0
  0
ENDBLK
  5
67
330
64
100
AcDbEntity
  8
0
100
AcDbBlockEnd
  0
BLOCK
  5
C4B
330
C31
100
AcDbEntity
  8
0
100
AcDbBlockBegin
  2
A$C36D02A34
 70
     0
 10
0.0
 20
0.0
 30
0.0
  3
A$C36D02A34
  1

  0
ARC
  5
C32
330
C31
100
AcDbEntity
  8
PV0001_1
  6
CONTINUOUS
 48
0.5
100
AcDbCircle
 10
18.06811523436999
 20
-11.83651161193799
 30
0.0
 40
21.600000381469
100
AcDbArc
 50
123.2290435713209
 51
126.6341524197568
  0
ARC
  5
C33
330
C31
100
AcDbEntity
  8
PV0001_1
  6
CONTINUOUS
 48
0.5
100
AcDbCircle
 10
18.06811523436999
 20
-11.83651161193799
 30
0.0
 40
21.600000381469
100
AcDbArc
 50
135.0736707620117
 51
146.7709980930592
  0
ARC
  5
C34
330
C31
100
AcDbEntity
  8
PV0001_1
  6
CONTINUOUS
 48
0.5
100
AcDbCircle
 10
-18.0680770874
 20
11.8365631103514
 30
0.0
 40
21.600000381469
100
AcDbArc
 50
315.0734847530392
 51
326.770781348241
  0
ARC
  5
C35
330
C31
100
AcDbEntity
  8
PV0001_1
  6
CONTINUOUS
 48
0.5
100
AcDbCircle
 10
-18.0680770874
 20
11.8365631103514
 30
0.0
 40
21.600000381469
100
AcDbArc
 50
303.2288882981993
 51
306.633986901359
  0
ARC
  5
C36
330
C31
100
AcDbEntity
  8
PV0001_1
  6
CONTINUOUS
 48
0.5
100
AcDbCircle
 10
-0.6269836425800009
 20
-2.044216156005997
 30
0.0
 40
2.0
100
AcDbArc
 50
337.4067997351092
 51
43.42231293132884
  0
ARC
  5
C37
330
C31
100
AcDbEntity
  8
PV0001_1
  6
CONTINUOUS
 48
0.5
100
AcDbCircle
 10
0.626953125
 20
2.044223785401001
 30
0.0
 40
2.0
100
AcDbArc
 50
157.4068184044407
 51
223.4222769591536
  0
CIRCLE
  5
C38
330
C31
100
AcDbEntity
  8
PV0001_1
  6
CONTINUOUS
 48
0.5
100
AcDbCircle
 10
3.856727600100001
 20
4.596265792847002
 30
0.0
 40
1.6000000238419
  0
CIRCLE
  5
C39
330
C31
100
AcDbEntity
  8
PV0001_1
  6
CONTINUOUS
 48
0.5
100
AcDbCircle
 10
-3.856727600100001
 20
-4.596265792845997
 30
0.0
 40
1.6000000238419
  0
ARC
  5
C3A
330
C31
100
AcDbEntity
  8
PV0001_1
  6
CONTINUOUS
 48
0.5
100
AcDbCircle
 10
-5.58123779297
 20
5.092639923096001
 30
0.0
 40
5.019082546234099
100
AcDbArc
 50
240.2658959250867
 51
321.5156269706421
  0
ARC
  5
C3B
330
C31
100
AcDbEntity
  8
PV0001_1
  6
CONTINUOUS
 48
0.5
100
AcDbCircle
 10
5.486755371089998
 20
-4.601703643798998
 30
0.0
 40
4.651036739349399
100
AcDbArc
 50
56.25271400417071
 51
145.528859890601
  0
ARC
  5
C3C
330
C31
100
AcDbEntity
  8
PV0001_1
  6
CONTINUOUS
 48
0.5
100
AcDbCircle
 10
-2.11590576172
 20
-3.453323364257997
 30
0.0
 40
4.050000190734899
100
AcDbArc
 50
43.42230610113921
 51
58.50391703385149
  0
ARC
  5
C3D
330
C31
100
AcDbEntity
  8
PV0001_1
  6
CONTINUOUS
 48
0.5
100
AcDbCircle
 10
2.115875244139999
 20
3.453330993653001
 30
0.0
 40
4.050000190734899
100
AcDbArc
 50
223.4222942619974
 51
238.5038164022482
  0
ARC
  5
C3E
330
C31
100
AcDbEntity
  8
PV0001_1
  6
CONTINUOUS
 48
0.5
100
AcDbCircle
 10
-6.70369720459
 20
5.094657897949002
 30
0.0
 40
5.940000057220499
100
AcDbArc
 50
328.2536768887549
 51
31.74641873389623
  0
ARC
  5
C3F
330
C31
100
AcDbEntity
  8
PV0001_1
  6
CONTINUOUS
 48
0.5
100
AcDbCircle
 10
6.703674316410001
 20
-5.094650268553998
 30
0.0
 40
5.940000057220499
100
AcDbArc
 50
148.2533403882529
 51
211.7466423089037
  0
ARC
  5
C40
330
C31
100
AcDbEntity
  8
PV0001_1
  6
CONTINUOUS
 48
0.5
100
AcDbCircle
 10
0.0
 20
0.0
 30
0.0
 40
8.812800407409699
100
AcDbArc
 50
175.2198288164333
 51
272.8622597568298
  0
ARC
  5
C41
330
C31
100
AcDbEntity
  8
PV0001_1
  6
CONTINUOUS
 48
0.5
100
AcDbCircle
 10
0.0
 20
0.0
 30
0.0
 40
9.1800003051758
100
AcDbArc
 50
272.7511362215027
 51
280.3697477877874
  0
ARC
  5
C42
330
C31
100
AcDbEntity
  8
PV0001_1
  6
CONTINUOUS
 48
0.5
100
AcDbCircle
 10
0.0
 20
0.0
 30
0.0
 40
8.812800407409699
100
AcDbArc
 50
355.2198199654955
 51
92.86229572901076
  0
ARC
  5
C43
330
C31
100
AcDbEntity
  8
PV0001_1
  6
CONTINUOUS
 48
0.5
100
AcDbCircle
 10
0.0
 20
0.0
 30
0.0
 40
9.1800003051758
100
AcDbArc
 50
92.75115489083434
 51
100.3697664571193
  0
CIRCLE
  5
C44
330
C31
100
AcDbEntity
  8
PV0001_1
  6
CONTINUOUS
100
AcDbCircle
 10
0.0
 20
0.0
 30
0.0
 40
9.1800003051758
  0
LINE
  5
C45
330
C31
100
AcDbEntity
  8
PV0001_1
  6
CONTINUOUS
 48
0.5
100
AcDbLine
 10
-1.652404785160001
 20
9.030059814453
 30
0.0
 11
-1.652404785160001
 21
8.220062255860002
 31
0.0
  0
LINE
  5
C46
330
C31
100
AcDbEntity
  8
PV0001_1
  6
CONTINUOUS
 48
0.5
100
AcDbLine
 10
1.652404785160001
 20
-8.220058441161999
 30
0.0
 11
1.652404785160001
 21
-9.030055999755997
 31
0.0
  0
LINE
  5
C47
330
C31
100
AcDbEntity
  8
PV0001_1
  6
CONTINUOUS
 48
0.5
100
AcDbLine
 10
-8.78217315674
 20
0.7343807220460015
 30
0.0
 11
-8.070594787600001
 21
0.7343997955320028
 31
0.0
  0
LINE
  5
C48
330
C31
100
AcDbEntity
  8
PV0001_1
  6
CONTINUOUS
 48
0.5
100
AcDbLine
 10
8.07057952881
 20
-0.7343864440919994
 30
0.0
 11
8.78215789795
 21
-0.7343654632569994
 31
0.0
  0
LINE
  5
C49
330
C31
100
AcDbEntity
  8
PV0001_1
  6
CONTINUOUS
 48
0.5
100
AcDbLine
 10
0.4406127929700006
 20
-9.169414520263
 30
0.0
 11
0.4406127929700006
 21
-8.812801361083998
 31
0.0
  0
LINE
  5
C4A
330
C31
100
AcDbEntity
  8
PV0001_1
  6
CONTINUOUS
 48
0.5
100
AcDbLine
 10
-0.4406127929700006
 20
9.169418334961001
 30
0.0
 11
-0.4406127929700006
 21
8.812805175781001
 31
0.0
  0
ENDBLK
  5
C4C
330
C31
100
AcDbEntity
  8
0
100
AcDbBlockEnd
  0
BLOCK
  5
245D
330
2453
100
AcDbEntity
  8
0
100
AcDbBlockBegin
  2
*D6
 70
     1
 10
0.0
 20
0.0
 30
0.0
  3
*D6
  1

  0
LINE
  5
2454
330
2453
100
AcDbEntity
  8
AM_5
 62
     3
100
AcDbLine
 10
-137.574381722344
 20
-5.00000294019065
 30
0.0
 11
-152.8199008769066
 21
-5.000002940190694
 31
0.0
  0
LINE
  5
2455
330
2453
100
AcDbEntity
  8
AM_5
 62
     3
100
AcDbLine
 10
-137.5743817223442
 20
5.00002461040103
 30
0.0
 11
-152.8199008769066
 21
5.000024610400987
 31
0.0
  0
LINE
  5
2456
330
2453
100
AcDbEntity
  8
AM_5
 62
     3
100
AcDbLine
 10
-151.8199008769066
 20
-2.500002940190691
 30
0.0
 11
-151.8199008769066
 21
2.50002461040099
 31
0.0
  0
INSERT
  5
2457
330
2453
100
AcDbEntity
  8
AM_5
 62
     3
100
AcDbBlockReference
  2
_OPEN30
 10
-151.8199008769066
 20
-5.00000294019069
 30
0.0
 41
2.5
 42
2.5
 43
2.5
 50
270.0000000000001
  0
INSERT
  5
2458
330
2453
100
AcDbEntity
  8
AM_5
 62
     3
100
AcDbBlockReference
  2
_OPEN30
 10
-151.8199008769066
 20
5.00002461040099
 30
0.0
 41
2.5
 42
2.5
 43
2.5
 50
90.00000000000015
  0
MTEXT
  5
2459
330
2453
100
AcDbEntity
  8
AM_5
 62
     2
100
AcDbMText
 10
-155.2199008769066
 20
0.000010835105146
 30
0.0
 40
3.799999999999999
 41
0.0
 71
     5
 72
     1
  1
%%c10
 11
-0.0000000000000028
 21
1.0
 31
0.0
1001
ACAD
1000
MTEXTBEGIN
1070
    73
1070
     1
1070
    44
1040
1.0
1070
    74
1070
     0
1000
MTEXTEND
  0
POINT
  5
245A
330
2453
100
AcDbEntity
  8
DEFPOINTS
 62
     0
100
AcDbPoint
 10
-137.5743817223441
 20
-5.000002940190223
 30
0.0
  0
POINT
  5
245B
330
2453
100
AcDbEntity
  8
DEFPOINTS
 62
     0
100
AcDbPoint
 10
-137.5743817223441
 20
5.000024610401458
 30
0.0
  0
POINT
  5
245C
330
2453
100
AcDbEntity
  8
DEFPOINTS
 62
     0
100
AcDbPoint
 10
-151.8199008769066
 20
5.000024610401462
 30
0.0
  0
ENDBLK
  5
245E
330
2453
100
AcDbEntity
  8
0
100
AcDbBlockEnd
  0
BLOCK
  5
246B
330
245F
100
AcDbEntity
  8
0
100
AcDbBlockBegin
  2
A$C4FFC6CC0
 70
     0
 10
0.0
 20
0.0
 30
0.0
  3
A$C4FFC6CC0
  1

  0
DIMENSION
  5
2460
330
245F
100
AcDbEntity
  8
AM_5
100
AcDbDimension
  2
*D6
 10
-70.00000100000002
 20
5.000008477104842
 30
0.0
 11
-70.00000100000002
 21
-0.0000052981910228
 31
0.0
 12
81.81989987690661
 22
-0.0000161332966199
 32
0.0
 70
   128
  1
%%c<>
 51
359.9999999999998
  3
AM_JIS$0
100
AcDbAlignedDimension
 13
-55.75448184543748
 23
-5.000019073486843
 33
0.0
 14
-55.75448184543756
 24
5.000008477104838
 34
0.0
 50
270.0
100
AcDbRotatedDimension
1001
ACAD
1000
DSTYLE
1002
{
1070
   271
1070
     0
1002
}
1001
GENIUS_GENDTOL_13
1000

1000
h7
1000

1040
0.0
  0
LINE
  5
2461
330
245F
100
AcDbEntity
  8
AM_0
 48
0.5
100
AcDbLine
 10
-56.0
 20
-4.754495620727796
 30
0.0
 11
-56.00000000000003
 21
4.754485024345811
 31
0.0
  0
LINE
  5
2462
330
245F
100
AcDbEntity
  8
AM_0
 48
0.5
100
AcDbLine
 10
-55.75448184543751
 20
-5.000019073486843
 30
0.0
 11
-55.75448184543754
 21
5.000008477104838
 31
0.0
  0
LINE
  5
2463
330
245F
100
AcDbEntity
  8
AM_0
100
AcDbLine
 10
-0.0000000000000142
 20
4.999995231627903
 30
0.0
 11
-55.75448184543754
 21
4.999995231627746
 31
0.0
  0
LINE
  5
2464
330
245F
100
AcDbEntity
  8
AM_0
 48
0.5
100
AcDbLine
 10
-55.99996821086117
 20
4.754439989725671
 30
0.0
 11
-55.75443945990975
 21
4.999963442484006
 31
0.0
  0
LINE
  5
2465
330
245F
100
AcDbEntity
  8
AM_0
100
AcDbLine
 10
-55.75448184543751
 20
-5.000008477105588
 30
0.0
 11
0.0000000000000142
 21
-5.00000847710543
 31
0.0
  0
LINE
  5
2466
330
245F
100
AcDbEntity
  8
AM_0
 48
0.5
100
AcDbLine
 10
-55.99996821086114
 20
-4.754474427965309
 30
0.0
 11
-55.75443945990972
 21
-4.999997880724334
 31
0.0
  0
LINE
  5
2467
330
245F
100
AcDbEntity
  8
AM_0
100
AcDbLine
 10
0.7794201296714505
 20
4.549985867772141
 30
0.0
 11
0.7794201296714789
 21
-4.550003370497427
 31
0.0
  0
LINE
  5
2468
330
245F
100
AcDbEntity
  8
AM_0
 48
0.5
100
AcDbLine
 10
0.0000000000000142
 20
-5.00000847710543
 30
0.0
 11
-0.0000000000000142
 21
5.000008477104995
 31
0.0
  0
LINE
  5
2469
330
245F
100
AcDbEntity
  8
AM_0
 48
0.5
100
AcDbLine
 10
0.7794201296714647
 20
-4.550003370497435
 30
0.0
 11
-0.0000105963812445
 21
-5.00000847710543
 31
0.0
  0
LINE
  5
246A
330
245F
100
AcDbEntity
  8
AM_0
 48
0.5
100
AcDbLine
 10
0.7794201296714647
 20
4.549985867772141
 30
0.0
 11
-0.0000000000000142
 21
4.999984635246652
 31
0.0
  0
ENDBLK
  5
246C
330
245F
100
AcDbEntity
  8
0
100
AcDbBlockEnd
  0
BLOCK
  5
36C9
330
36BB
100
AcDbEntity
  8
0
100
AcDbBlockBegin
  2
*D8
 70
     1
 10
0.0
 20
0.0
 30
0.0
  3
*D8
  1

  0
LINE
  5
4D37
330
36BB
100
AcDbEntity
  8
AM_5
100
AcDbLine
 10
0.3420201408161502
 20
-0.9396926216994629
 30
0.0
 11
11.65074289968212
 21
-32.01015330273436
 31
0.0
  0
LINE
  5
4D38
330
36BB
100
AcDbEntity
  8
AM_5
100
AcDbLine
 10
0.3420201408161393
 20
0.939692621699157
 30
0.0
 11
11.65074289968175
 21
32.01015330273419
 31
0.0
  0
ARC
  5
4D39
330
36BB
100
AcDbEntity
  8
AM_5
100
AcDbCircle
 10
0.0000000000000263
 20
-0.000000000000155
 30
0.0
 40
33.06449360520479
100
AcDbArc
 50
294.3331552961364
 51
65.66684470386431
  0
INSERT
  5
4D3A
330
36BB
100
AcDbEntity
  8
AM_5
100
AcDbBlockReference
  2
_OPEN30
 10
11.30872275886599
 20
-31.07046068103505
 30
0.0
 41
2.5
 42
2.5
 43
2.5
 50
202.166577571561
  0
INSERT
  5
4D3B
330
36BB
100
AcDbEntity
  8
AM_5
100
AcDbBlockReference
  2
_OPEN30
 10
11.30872275886563
 20
31.07046068103487
 30
0.0
 41
2.5
 42
2.5
 43
2.5
 50
157.8334224284395
  0
MTEXT
  5
4D3C
330
36BB
100
AcDbEntity
  8
AM_5
 62
     2
100
AcDbMText
 10
29.96449360520482
 20
0.0000000000000419
 30
0.0
 40
3.2
 41
0.0
 71
     5
 72
     1
  1
140°
  7
ASAMI
 11
-0.0000000000000028
 21
1.0
 31
0.0
1001
ACAD
1000
MTEXTBEGIN
1070
    73
1070
     1
1070
    44
1040
1.0
1070
    74
1070
     0
1000
MTEXTEND
  0
POINT
  5
4D3D
330
36BB
100
AcDbEntity
  8
DEFPOINTS
 62
     0
100
AcDbPoint
 10
30.36035058248067
 20
-13.09617691837965
 30
0.0
  0
POINT
  5
4D3E
330
36BB
100
AcDbEntity
  8
DEFPOINTS
 62
     0
100
AcDbPoint
 10
0.0
 20
-0.0000000000002274
 30
0.0
  0
POINT
  5
4D3F
330
36BB
100
AcDbEntity
  8
DEFPOINTS
 62
     0
100
AcDbPoint
 10
0.0
 20
-0.0000000000000827
 30
0.0
  0
POINT
  5
4D40
330
36BB
100
AcDbEntity
  8
DEFPOINTS
 62
     0
100
AcDbPoint
 10
-2.547791618692619
 20
6.999999999999763
 30
0.0
  0
POINT
  5
4D41
330
36BB
100
AcDbEntity
  8
DEFPOINTS
 62
     0
100
AcDbPoint
 10
-2.547791618692583
 20
-7.000000000000091
 30
0.0
  0
ENDBLK
  5
36CA
330
36BB
100
AcDbEntity
  8
0
100
AcDbBlockEnd
  0
BLOCK
  5
3799
330
378F
100
AcDbEntity
  8
0
100
AcDbBlockBegin
  2
*D9
 70
     1
 10
0.0
 20
0.0
 30
0.0
  3
*D9
  1

  0
LINE
  5
4D0A
330
378F
100
AcDbEntity
  8
AM_5
 62
     3
100
AcDbLine
 10
-3.203672300846933
 20
10.99998673618981
 30
0.0
 11
19.5292832503572
 21
10.99998673618987
 31
0.0
  0
LINE
  5
4D0B
330
378F
100
AcDbEntity
  8
AM_5
 62
     3
100
AcDbLine
 10
-3.203684686909136
 20
-11.0000062701989
 30
0.0
 11
19.52928325035726
 21
-11.00000627019883
 31
0.0
  0
LINE
  5
4D0C
330
378F
100
AcDbEntity
  8
AM_5
 62
     3
100
AcDbLine
 10
18.5292832503572
 20
8.499986736189869
 30
0.0
 11
18.52928325035725
 21
-8.500006270198841
 31
0.0
  0
INSERT
  5
4D0D
330
378F
100
AcDbEntity
  8
AM_5
 62
     3
100
AcDbBlockReference
  2
_OPEN30
 10
18.52928325035719
 20
10.99998673618987
 30
0.0
 41
2.5
 42
2.5
 43
2.5
 50
90.00000000000017
  0
INSERT
  5
4D0E
330
378F
100
AcDbEntity
  8
AM_5
 62
     3
100
AcDbBlockReference
  2
_OPEN30
 10
18.52928325035726
 20
-11.00000627019884
 30
0.0
 41
2.5
 42
2.5
 43
2.5
 50
270.0000000000001
  0
MTEXT
  5
4D0F
330
378F
100
AcDbEntity
  8
AM_5
 62
     2
100
AcDbMText
 10
15.12928325035723
 20
-0.0000097670044422
 30
0.0
 40
3.799999999999999
 41
0.0
 71
     5
 72
     1
  1
%%C22
 11
-0.0000000000000028
 21
1.0
 31
0.0
1001
ACAD
1000
MTEXTBEGIN
1070
    73
1070
     1
1070
    44
1040
1.0
1070
    74
1070
     0
1000
MTEXTEND
  0
POINT
  5
4D10
330
378F
100
AcDbEntity
  8
DEFPOINTS
 62
     0
100
AcDbPoint
 10
-4.003672300846899
 20
10.99998673618981
 30
0.0
  0
POINT
  5
4D11
330
378F
100
AcDbEntity
  8
DEFPOINTS
 62
     0
100
AcDbPoint
 10
-4.003684686909171
 20
-11.00000627019889
 30
0.0
  0
POINT
  5
4D12
330
378F
100
AcDbEntity
  8
DEFPOINTS
 62
     0
100
AcDbPoint
 10
18.52928325035722
 20
-11.00000627019889
 30
0.0
  0
ENDBLK
  5
379A
330
378F
100
AcDbEntity
  8
0
100
AcDbBlockEnd
  0
BLOCK
  5
399B
330
3991
100
AcDbEntity
  8
0
100
AcDbBlockBegin
  2
*D10
 70
     1
 10
0.0
 20
0.0
 30
0.0
  3
*D10
  1

  0
LINE
  5
4DB6
330
3991
100
AcDbEntity
  8
AM_5
 62
     3
100
AcDbLine
 10
-4.003672300846933
 20
11.7999867361898
 30
0.0
 11
-4.003672300846979
 21
27.72776011979995
 31
0.0
  0
LINE
  5
4DB7
330
3991
100
AcDbEntity
  8
AM_5
 62
     3
100
AcDbLine
 10
-178.0036792944582
 20
11.79999372980008
 30
0.0
 11
-178.0036792944583
 21
27.72776011979944
 31
0.0
  0
LINE
  5
4DB8
330
3991
100
AcDbEntity
  8
AM_5
 62
     3
100
AcDbLine
 10
-6.503672300846976
 20
26.72776011979994
 30
0.0
 11
-175.5036792944583
 21
26.72776011979945
 31
0.0
  0
INSERT
  5
4DB9
330
3991
100
AcDbEntity
  8
AM_5
 62
     3
100
AcDbBlockReference
  2
_OPEN30
 10
-4.003672300846976
 20
26.72776011979995
 30
0.0
 41
2.5
 42
2.5
 43
2.5
 50
0.0000000000001527
  0
INSERT
  5
4DBA
330
3991
100
AcDbEntity
  8
AM_5
 62
     3
100
AcDbBlockReference
  2
_OPEN30
 10
-178.0036792944583
 20
26.72776011979944
 30
0.0
 41
2.5
 42
2.5
 43
2.5
 50
180.0000000000001
  0
MTEXT
  5
4DBB
330
3991
100
AcDbEntity
  8
AM_5
 62
     2
100
AcDbMText
 10
-91.00367579765265
 20
30.12776011979969
 30
0.0
 40
3.799999999999999
 41
0.0
 71
     5
 72
     1
  1
174
1001
ACAD
1000
MTEXTBEGIN
1070
    73
1070
     1
1070
    44
1040
1.0
1070
    74
1070
     0
1000
MTEXTEND
  0
POINT
  5
4DBC
330
3991
100
AcDbEntity
  8
DEFPOINTS
 62
     0
100
AcDbPoint
 10
-4.003672300846899
 20
10.99998673618981
 30
0.0
  0
POINT
  5
4DBD
330
3991
100
AcDbEntity
  8
DEFPOINTS
 62
     0
100
AcDbPoint
 10
-178.0036792944582
 20
10.9999937298006
 30
0.0
  0
POINT
  5
4DBE
330
3991
100
AcDbEntity
  8
DEFPOINTS
 62
     0
100
AcDbPoint
 10
-178.0036792944582
 20
26.72776011979996
 30
0.0
  0
ENDBLK
  5
399C
330
3991
100
AcDbEntity
  8
0
100
AcDbBlockEnd
  0
BLOCK
  5
3B18
330
3B0E
100
AcDbEntity
  8
0
100
AcDbBlockBegin
  2
*D11
 70
     1
 10
0.0
 20
0.0
 30
0.0
  3
*D11
  1

  0
LINE
  5
4DAD
330
3B0E
100
AcDbEntity
  8
AM_5
 62
     3
100
AcDbLine
 10
-4.003672300846933
 20
11.7999867361898
 30
0.0
 11
-4.003672300847014
 21
40.21017195807521
 31
0.0
  0
LINE
  5
4DAE
330
3B0E
100
AcDbEntity
  8
AM_5
 62
     3
100
AcDbLine
 10
-181.0036792944583
 20
11.90009633569402
 30
0.0
 11
-181.0036792944583
 21
40.2101719580747
 31
0.0
  0
LINE
  5
4DAF
330
3B0E
100
AcDbEntity
  8
AM_5
 62
     3
100
AcDbLine
 10
-6.503672300847011
 20
39.2101719580752
 30
0.0
 11
-178.5036792944583
 21
39.21017195807471
 31
0.0
  0
INSERT
  5
4DB0
330
3B0E
100
AcDbEntity
  8
AM_5
 62
     3
100
AcDbBlockReference
  2
_OPEN30
 10
-4.003672300847011
 20
39.21017195807521
 30
0.0
 41
2.5
 42
2.5
 43
2.5
 50
0.0000000000001527
  0
INSERT
  5
4DB1
330
3B0E
100
AcDbEntity
  8
AM_5
 62
     3
100
AcDbBlockReference
  2
_OPEN30
 10
-181.0036792944583
 20
39.2101719580747
 30
0.0
 41
2.5
 42
2.5
 43
2.5
 50
180.0000000000001
  0
MTEXT
  5
4DB2
330
3B0E
100
AcDbEntity
  8
AM_5
 62
     2
100
AcDbMText
 10
-92.50367579765271
 20
42.61017195807496
 30
0.0
 40
3.799999999999999
 41
0.0
 71
     5
 72
     1
  1
177
1001
ACAD
1000
MTEXTBEGIN
1070
    73
1070
     1
1070
    44
1040
1.0
1070
    74
1070
     0
1000
MTEXTEND
  0
POINT
  5
4DB3
330
3B0E
100
AcDbEntity
  8
DEFPOINTS
 62
     0
100
AcDbPoint
 10
-4.003672300846899
 20
10.99998673618981
 30
0.0
  0
POINT
  5
4DB4
330
3B0E
100
AcDbEntity
  8
DEFPOINTS
 62
     0
100
AcDbPoint
 10
-181.0036792944582
 20
11.10009633569455
 30
0.0
  0
POINT
  5
4DB5
330
3B0E
100
AcDbEntity
  8
DEFPOINTS
 62
     0
100
AcDbPoint
 10
-181.0036792944582
 20
39.21017195807523
 30
0.0
  0
ENDBLK
  5
3B19
330
3B0E
100
AcDbEntity
  8
0
100
AcDbBlockEnd
  0
BLOCK
  5
3BC3
330
3BB9
100
AcDbEntity
  8
0
100
AcDbBlockBegin
  2
*D12
 70
     1
 10
0.0
 20
0.0
 30
0.0
  3
*D12
  1

  0
LINE
  5
4E27
330
3BB9
100
AcDbEntity
  8
AM_5
 62
     3
100
AcDbLine
 10
-4.003679294458198
 20
-11.80000627019891
 30
0.0
 11
-4.003679294458111
 21
-42.4912892199005
 31
0.0
  0
LINE
  5
4E28
330
3BB9
100
AcDbEntity
  8
AM_5
 62
     3
100
AcDbLine
 10
-198.0037651251332
 20
-14.10000858307078
 30
0.0
 11
-198.0037651251331
 21
-42.49128921990106
 31
0.0
  0
LINE
  5
4E29
330
3BB9
100
AcDbEntity
  8
AM_5
 62
     3
100
AcDbLine
 10
-6.503679294458113
 20
-41.4912892199005
 30
0.0
 11
-195.5037651251331
 21
-41.49128921990105
 31
0.0
  0
INSERT
  5
4E2A
330
3BB9
100
AcDbEntity
  8
AM_5
 62
     3
100
AcDbBlockReference
  2
_OPEN30
 10
-4.003679294458113
 20
-41.4912892199005
 30
0.0
 41
2.5
 42
2.5
 43
2.5
 50
0.0000000000001527
  0
INSERT
  5
4E2B
330
3BB9
100
AcDbEntity
  8
AM_5
 62
     3
100
AcDbBlockReference
  2
_OPEN30
 10
-198.0037651251331
 20
-41.49128921990106
 30
0.0
 41
2.5
 42
2.5
 43
2.5
 50
180.0000000000001
  0
MTEXT
  5
4E2C
330
3BB9
100
AcDbEntity
  8
AM_5
 62
     2
100
AcDbMText
 10
-101.0037222097956
 20
-38.09128921990078
 30
0.0
 40
3.799999999999999
 41
0.0
 71
     5
 72
     1
  1
194
1001
ACAD
1000
MTEXTBEGIN
1070
    73
1070
     1
1070
    44
1040
1.0
1070
    74
1070
     0
1000
MTEXTEND
  0
POINT
  5
4E2D
330
3BB9
100
AcDbEntity
  8
DEFPOINTS
 62
     0
100
AcDbPoint
 10
-4.003679294458232
 20
-11.00000627019889
 30
0.0
  0
POINT
  5
4E2E
330
3BB9
100
AcDbEntity
  8
DEFPOINTS
 62
     0
100
AcDbPoint
 10
-198.0037651251333
 20
-13.30000858307021
 30
0.0
  0
POINT
  5
4E2F
330
3BB9
100
AcDbEntity
  8
DEFPOINTS
 62
     0
100
AcDbPoint
 10
-198.0037651251333
 20
-41.49128921990048
 30
0.0
  0
ENDBLK
  5
3BC4
330
3BB9
100
AcDbEntity
  8
0
100
AcDbBlockEnd
  0
BLOCK
  5
3CD6
330
3CCC
100
AcDbEntity
  8
0
100
AcDbBlockBegin
  2
*D13
 70
     1
 10
0.0
 20
0.0
 30
0.0
  3
*D13
  1

  0
LINE
  5
4E30
330
3CCC
100
AcDbEntity
  8
AM_5
 62
     3
100
AcDbLine
 10
-4.003679294458198
 20
-11.80000627019891
 30
0.0
 11
-4.003679294458073
 21
-55.53809874440458
 31
0.0
  0
LINE
  5
4E31
330
3CCC
100
AcDbEntity
  8
AM_5
 62
     3
100
AcDbLine
 10
-254.0036792944581
 20
-12.6370666503927
 30
0.0
 11
-254.003679294458
 21
-55.53809874440531
 31
0.0
  0
LINE
  5
4E32
330
3CCC
100
AcDbEntity
  8
AM_5
 62
     3
100
AcDbLine
 10
-6.503679294458076
 20
-54.53809874440459
 30
0.0
 11
-251.503679294458
 21
-54.5380987444053
 31
0.0
  0
INSERT
  5
4E33
330
3CCC
100
AcDbEntity
  8
AM_5
 62
     3
100
AcDbBlockReference
  2
_OPEN30
 10
-4.003679294458076
 20
-54.53809874440459
 30
0.0
 41
2.5
 42
2.5
 43
2.5
 50
0.0000000000001527
  0
INSERT
  5
4E34
330
3CCC
100
AcDbEntity
  8
AM_5
 62
     3
100
AcDbBlockReference
  2
_OPEN30
 10
-254.003679294458
 20
-54.53809874440531
 30
0.0
 41
2.5
 42
2.5
 43
2.5
 50
180.0000000000001
  0
MTEXT
  5
4E35
330
3CCC
100
AcDbEntity
  8
AM_5
 62
     2
100
AcDbMText
 10
-129.003679294458
 20
-51.13809874440494
 30
0.0
 40
3.799999999999999
 41
0.0
 71
     5
 72
     1
  1
250
1001
ACAD
1000
MTEXTBEGIN
1070
    73
1070
     1
1070
    44
1040
1.0
1070
    74
1070
     0
1000
MTEXTEND
  0
POINT
  5
4E36
330
3CCC
100
AcDbEntity
  8
DEFPOINTS
 62
     0
100
AcDbPoint
 10
-4.003679294458232
 20
-11.00000627019889
 30
0.0
  0
POINT
  5
4E37
330
3CCC
100
AcDbEntity
  8
DEFPOINTS
 62
     0
100
AcDbPoint
 10
-254.0036792944582
 20
-11.83706665039196
 30
0.0
  0
POINT
  5
4E38
330
3CCC
100
AcDbEntity
  8
DEFPOINTS
 62
     0
100
AcDbPoint
 10
-254.0036792944582
 20
-54.53809874440457
 30
0.0
  0
ENDBLK
  5
3CD7
330
3CCC
100
AcDbEntity
  8
0
100
AcDbBlockEnd
  0
BLOCK
  5
49A1
330
4997
100
AcDbEntity
  8
0
100
AcDbBlockBegin
  2
*D14
 70
     1
 10
0.0
 20
0.0
 30
0.0
  3
*D14
  1

  0
LINE
  5
4E15
330
4997
100
AcDbEntity
  8
AM_5
 62
     3
100
AcDbLine
 10
-198.0037651251333
 20
-13.30000858307021
 30
0.0
 11
-198.0037651251333
 21
-42.49128921990103
 31
0.0
  0
LINE
  5
4E16
330
4997
100
AcDbEntity
  8
AM_5
 62
     3
100
AcDbLine
 10
-254.0036792944582
 20
-12.63706665039197
 30
0.0
 11
-254.0036792944582
 21
-42.49128921990103
 31
0.0
  0
LINE
  5
4E17
330
4997
100
AcDbEntity
  8
AM_5
 62
     3
100
AcDbLine
 10
-200.5037651251333
 20
-41.49128921990103
 30
0.0
 11
-251.5036792944582
 21
-41.49128921990103
 31
0.0
  0
INSERT
  5
4E18
330
4997
100
AcDbEntity
  8
AM_5
 62
     3
100
AcDbBlockReference
  2
_OPEN30
 10
-198.0037651251333
 20
-41.49128921990103
 30
0.0
 41
2.5
 42
2.5
 43
2.5
  0
INSERT
  5
4E19
330
4997
100
AcDbEntity
  8
AM_5
 62
     3
100
AcDbBlockReference
  2
_OPEN30
 10
-254.0036792944582
 20
-41.49128921990103
 30
0.0
 41
2.5
 42
2.5
 43
2.5
 50
180.0
  0
MTEXT
  5
4E1A
330
4997
100
AcDbEntity
  8
AM_5
 62
     2
100
AcDbMText
 10
-226.0037222097957
 20
-38.09128921990103
 30
0.0
 40
3.799999999999999
 41
0.0
 71
     5
 72
     1
  1
56
1001
ACAD
1000
MTEXTBEGIN
1070
    73
1070
     1
1070
    44
1040
1.0
1070
    74
1070
     0
1000
MTEXTEND
  0
POINT
  5
4E1B
330
4997
100
AcDbEntity
  8
DEFPOINTS
 62
     0
100
AcDbPoint
 10
-198.0037651251333
 20
-12.50000858307021
 30
0.0
  0
POINT
  5
4E1C
330
4997
100
AcDbEntity
  8
DEFPOINTS
 62
     0
100
AcDbPoint
 10
-254.0036792944582
 20
-11.83706665039196
 30
0.0
  0
POINT
  5
4E1D
330
4997
100
AcDbEntity
  8
DEFPOINTS
 62
     0
100
AcDbPoint
 10
-254.0036792944582
 20
-41.49128921990103
 30
0.0
  0
ENDBLK
  5
49A2
330
4997
100
AcDbEntity
  8
0
100
AcDbBlockEnd
  0
BLOCK
  5
49AF
330
49A3
100
AcDbEntity
  8
0
100
AcDbBlockBegin
  2
*D15
 70
     1
 10
0.0
 20
0.0
 30
0.0
  3
*D15
  1

  0
LINE
  5
4E0A
330
49A3
100
AcDbEntity
  8
AM_5
 62
     3
100
AcDbLine
 10
-254.0036792944582
 20
-12.63706665039197
 30
0.0
 11
-254.0036792944582
 21
-29.50438941694164
 31
0.0
  0
LINE
  5
4E0B
330
49A3
100
AcDbEntity
  8
AM_5
 62
     3
100
AcDbLine
 10
-248.0037764905359
 20
-0.8249721913247707
 30
0.0
 11
-248.0037764905359
 21
-29.50438941694164
 31
0.0
  0
LINE
  5
4E0C
330
49A3
100
AcDbEntity
  8
AM_5
 62
     3
100
AcDbLine
 10
-256.5036792944582
 20
-28.50438941694164
 30
0.0
 11
-259.0036792944582
 21
-28.50438941694164
 31
0.0
  0
LINE
  5
4E0D
330
49A3
100
AcDbEntity
  8
AM_5
 62
     3
100
AcDbLine
 10
-245.5037764905359
 20
-28.50438941694164
 30
0.0
 11
-243.0037764905359
 21
-28.50438941694164
 31
0.0
  0
LINE
  5
4E0E
330
49A3
100
AcDbEntity
  8
AM_5
 62
     3
100
AcDbLine
 10
-254.0036792944582
 20
-28.50438941694164
 30
0.0
 11
-248.0037764905359
 21
-28.50438941694164
 31
0.0
  0
INSERT
  5
4E0F
330
49A3
100
AcDbEntity
  8
AM_5
 62
     3
100
AcDbBlockReference
  2
_OPEN30
 10
-254.0036792944582
 20
-28.50438941694164
 30
0.0
 41
2.5
 42
2.5
 43
2.5
  0
INSERT
  5
4E10
330
49A3
100
AcDbEntity
  8
AM_5
 62
     3
100
AcDbBlockReference
  2
_OPEN30
 10
-248.0037764905359
 20
-28.50438941694164
 30
0.0
 41
2.5
 42
2.5
 43
2.5
 50
180.0
  0
MTEXT
  5
4E11
330
49A3
100
AcDbEntity
  8
AM_5
 62
     2
100
AcDbMText
 10
-251.003727892497
 20
-25.10438941694165
 30
0.0
 40
3.799999999999999
 41
0.0
 71
     5
 72
     1
  1
6
1001
ACAD
1000
MTEXTBEGIN
1070
    73
1070
     1
1070
    44
1040
1.0
1070
    74
1070
     0
1000
MTEXTEND
  0
POINT
  5
4E12
330
49A3
100
AcDbEntity
  8
DEFPOINTS
 62
     0
100
AcDbPoint
 10
-254.0036792944582
 20
-11.83706665039196
 30
0.0
  0
POINT
  5
4E13
330
49A3
100
AcDbEntity
  8
DEFPOINTS
 62
     0
100
AcDbPoint
 10
-248.0037764905359
 20
-0.0249721913247707
 30
0.0
  0
POINT
  5
4E14
330
49A3
100
AcDbEntity
  8
DEFPOINTS
 62
     0
100
AcDbPoint
 10
-248.0037764905359
 20
-28.50438941694164
 30
0.0
  0
ENDBLK
  5
49B0
330
49A3
100
AcDbEntity
  8
0
100
AcDbBlockEnd
  0
BLOCK
  5
49BB
330
49B1
100
AcDbEntity
  8
0
100
AcDbBlockBegin
  2
*D16
 70
     1
 10
0.0
 20
0.0
 30
0.0
  3
*D16
  1

  0
LINE
  5
4E01
330
49B1
100
AcDbEntity
  8
AM_5
 62
     3
100
AcDbLine
 10
-248.0037764905359
 20
-0.8249721913247707
 30
0.0
 11
-248.0037764905359
 21
-29.50438941694118
 31
0.0
  0
LINE
  5
4E02
330
49B1
100
AcDbEntity
  8
AM_5
 62
     3
100
AcDbLine
 10
-203.0037651251333
 20
-0.8249721913244425
 30
0.0
 11
-203.0037651251333
 21
-29.50438941694118
 31
0.0
  0
LINE
  5
4E03
330
49B1
100
AcDbEntity
  8
AM_5
 62
     3
100
AcDbLine
 10
-245.5037764905359
 20
-28.50438941694118
 30
0.0
 11
-205.5037651251333
 21
-28.50438941694118
 31
0.0
  0
INSERT
  5
4E04
330
49B1
100
AcDbEntity
  8
AM_5
 62
     3
100
AcDbBlockReference
  2
_OPEN30
 10
-248.0037764905359
 20
-28.50438941694118
 30
0.0
 41
2.5
 42
2.5
 43
2.5
 50
180.0
  0
INSERT
  5
4E05
330
49B1
100
AcDbEntity
  8
AM_5
 62
     3
100
AcDbBlockReference
  2
_OPEN30
 10
-203.0037651251333
 20
-28.50438941694118
 30
0.0
 41
2.5
 42
2.5
 43
2.5
  0
MTEXT
  5
4E06
330
49B1
100
AcDbEntity
  8
AM_5
 62
     2
100
AcDbMText
 10
-225.5037708078346
 20
-25.10438941694118
 30
0.0
 40
3.799999999999999
 41
0.0
 71
     5
 72
     1
  1
45
1001
ACAD
1000
MTEXTBEGIN
1070
    73
1070
     1
1070
    44
1040
1.0
1070
    74
1070
     0
1000
MTEXTEND
  0
POINT
  5
4E07
330
49B1
100
AcDbEntity
  8
DEFPOINTS
 62
     0
100
AcDbPoint
 10
-248.0037764905359
 20
-0.0249721913247707
 30
0.0
  0
POINT
  5
4E08
330
49B1
100
AcDbEntity
  8
DEFPOINTS
 62
     0
100
AcDbPoint
 10
-203.0037651251333
 20
-0.0249721913244424
 30
0.0
  0
POINT
  5
4E09
330
49B1
100
AcDbEntity
  8
DEFPOINTS
 62
     0
100
AcDbPoint
 10
-203.0037651251333
 20
-28.50438941694118
 30
0.0
  0
ENDBLK
  5
49BC
330
49B1
100
AcDbEntity
  8
0
100
AcDbBlockEnd
  0
BLOCK
  5
49C7
330
49BD
100
AcDbEntity
  8
0
100
AcDbBlockBegin
  2
*D17
 70
     1
 10
0.0
 20
0.0
 30
0.0
  3
*D17
  1

  0
LINE
  5
4E1E
330
49BD
100
AcDbEntity
  8
AM_5
 62
     3
100
AcDbLine
 10
-254.1180321376869
 20
12.50003719329746
 30
0.0
 11
-271.9505203884104
 21
12.50003719329746
 31
0.0
  0
LINE
  5
4E1F
330
49BD
100
AcDbEntity
  8
AM_5
 62
     3
100
AcDbLine
 10
-254.1180321376867
 20
-12.49986553438562
 30
0.0
 11
-271.9505203884104
 21
-12.49986553438562
 31
0.0
  0
LINE
  5
4E20
330
49BD
100
AcDbEntity
  8
AM_5
 62
     3
100
AcDbLine
 10
-270.9505203884104
 20
10.00003719329746
 30
0.0
 11
-270.9505203884104
 21
-9.999865534385621
 31
0.0
  0
INSERT
  5
4E21
330
49BD
100
AcDbEntity
  8
AM_5
 62
     3
100
AcDbBlockReference
  2
_OPEN30
 10
-270.9505203884104
 20
12.50003719329746
 30
0.0
 41
2.5
 42
2.5
 43
2.5
 50
90.0
  0
INSERT
  5
4E22
330
49BD
100
AcDbEntity
  8
AM_5
 62
     3
100
AcDbBlockReference
  2
_OPEN30
 10
-270.9505203884104
 20
-12.49986553438562
 30
0.0
 41
2.5
 42
2.5
 43
2.5
 50
270.0
  0
MTEXT
  5
4E23
330
49BD
100
AcDbEntity
  8
AM_5
 62
     2
100
AcDbMText
 10
-274.3505203884104
 20
0.0000858294558911
 30
0.0
 40
3.799999999999999
 41
0.0
 71
     5
 72
     1
  1
%%C25
 11
0.0000000000000001
 21
1.0
 31
0.0
1001
ACAD
1000
MTEXTBEGIN
1070
    73
1070
     1
1070
    44
1040
1.0
1070
    74
1070
     0
1000
MTEXTEND
  0
POINT
  5
4E24
330
49BD
100
AcDbEntity
  8
DEFPOINTS
 62
     0
100
AcDbPoint
 10
-253.3180321376869
 20
12.50003719329746
 30
0.0
  0
POINT
  5
4E25
330
49BD
100
AcDbEntity
  8
DEFPOINTS
 62
     0
100
AcDbPoint
 10
-253.3180321376867
 20
-12.49986553438562
 30
0.0
  0
POINT
  5
4E26
330
49BD
100
AcDbEntity
  8
DEFPOINTS
 62
     0
100
AcDbPoint
 10
-270.9505203884104
 20
-12.49986553438562
 30
0.0
  0
ENDBLK
  5
49C8
330
49BD
100
AcDbEntity
  8
0
100
AcDbBlockEnd
  0
ENDSEC
  0
SECTION
  2
ENTITIES
  0
TEXT
  5
19BD
330
1F
100
AcDbEntity
  8
AM_6
100
AcDbText
 10
-152.8132031039818
 20
-77.03809874440501
 30
0.0
 40
5.0
  1
KDS220DAK
 50
0.0000000000001527
 72
     4
 11
-131.503679294458
 21
-74.53809874440494
 31
0.0
100
AcDbText
  0
LINE
  5
35D1
330
1F
100
AcDbEntity
  8
AM_7
100
AcDbLine
 10
4.745369175493294
 20
-0.0000000000001137
 30
0.0
 11
-266.8003656115033
 21
-0.0000000000007825
 31
0.0
  0
DIMENSION
  5
36BA
330
1F
100
AcDbEntity
  8
AM_5
100
AcDbDimension
  2
*D8
 10
-2.547791618692583
 20
-7.000000000000091
 30
0.0
 11
29.96449360520482
 21
-0.0000000000000501
 31
0.0
 70
    34
  1
<>
 51
359.9999999999998
  3
AM_JIS$2
100
AcDb2LineAngularDimension
 13
0.0
 23
-0.0000000000000827
 33
0.0
 14
-2.547791618692619
 24
6.999999999999763
 34
0.0
 15
0.0
 25
-0.0000000000002274
 35
0.0
 16
30.36035058248067
 26
-13.09617691837965
 36
0.0
1001
ACAD
1000
DSTYLE
1002
{
1070
   179
1070
     3
1002
}
1001
GENIUS_GENDTOL_13
1000

1000
h7
1000

1040
0.0
  0
DIMENSION
  5
378E
330
1F
100
AcDbEntity
  8
AM_5
100
AcDbDimension
  2
*D9
 10
18.52928325035722
 20
-11.00000627019889
 30
0.0
 11
18.52928325035723
 21
-0.0000097670044866
 31
0.0
 70
   160
  1
%%C<>
 51
359.9999999999998
  3
AM_JIS$0
100
AcDbAlignedDimension
 13
-4.003672300846899
 23
10.99998673618981
 33
0.0
 14
-4.003684686909171
 24
-11.00000627019889
 34
0.0
 50
90.00000000000005
100
AcDbRotatedDimension
1001
GENIUS_GENDTOL_13
1000

1000
h7
1000

1040
0.0
1001
ACAD
1000
DSTYLE
1002
{
1070
   271
1070
     3
1002
}
  0
DIMENSION
  5
3990
330
1F
100
AcDbEntity
  8
AM_5
100
AcDbDimension
  2
*D10
 10
-178.0036792944582
 20
26.72776011979996
 30
0.0
 11
-91.00367579765256
 21
30.12776011979996
 31
0.0
 70
    32
  1
<>
 51
359.9999999999998
  3
AM_JIS$0
100
AcDbAlignedDimension
 13
-4.003672300846899
 23
10.99998673618981
 33
0.0
 14
-178.0036792944582
 24
10.9999937298006
 34
0.0
 50
180.0000000000001
100
AcDbRotatedDimension
1001
ACAD
1000
DSTYLE
1002
{
1070
   271
1070
     3
1002
}
1001
GENIUS_GENDTOL_13
1000

1000
h7
1000

1040
0.0
  0
DIMENSION
  5
3B0D
330
1F
100
AcDbEntity
  8
AM_5
100
AcDbDimension
  2
*D11
 10
-181.0036792944582
 20
39.21017195807523
 30
0.0
 11
-92.50367579765258
 21
42.61017195807522
 31
0.0
 70
    32
  1
<>
 51
359.9999999999998
  3
AM_JIS$0
100
AcDbAlignedDimension
 13
-4.003672300846899
 23
10.99998673618981
 33
0.0
 14
-181.0036792944582
 24
11.10009633569455
 34
0.0
 50
180.0000000000001
100
AcDbRotatedDimension
1001
ACAD
1000
DSTYLE
1002
{
1070
   271
1070
     3
1002
}
1001
GENIUS_GENDTOL_13
1000

1000
h7
1000

1040
0.0
  0
DIMENSION
  5
3BB8
330
1F
100
AcDbEntity
  8
AM_5
100
AcDbDimension
  2
*D12
 10
-198.0037651251333
 20
-41.49128921990048
 30
0.0
 11
-101.0037222097957
 21
-38.09128921990049
 31
0.0
 70
    32
  1
<>
 51
359.9999999999998
  3
AM_JIS$0
100
AcDbAlignedDimension
 13
-4.003679294458232
 23
-11.00000627019889
 33
0.0
 14
-198.0037651251333
 24
-13.30000858307021
 34
0.0
 50
0.0000000000001641
100
AcDbRotatedDimension
1001
ACAD
1000
DSTYLE
1002
{
1070
   271
1070
     3
1002
}
1001
GENIUS_GENDTOL_13
1000

1000
h7
1000

1040
0.0
  0
DIMENSION
  5
3CCB
330
1F
100
AcDbEntity
  8
AM_5
100
AcDbDimension
  2
*D13
 10
-254.0036792944582
 20
-54.53809874440457
 30
0.0
 11
-129.0036792944582
 21
-51.13809874440457
 31
0.0
 70
    32
  1
<>
 51
359.9999999999998
  3
AM_JIS$0
100
AcDbAlignedDimension
 13
-4.003679294458232
 23
-11.00000627019889
 33
0.0
 14
-254.0036792944582
 24
-11.83706665039196
 34
0.0
 50
0.0000000000002659
100
AcDbRotatedDimension
1001
ACAD
1000
DSTYLE
1002
{
1070
   271
1070
     3
1002
}
1001
GENIUS_GENDTOL_13
1000

1000
h7
1000

1040
0.0
  0
SPLINE
  5
408D
330
1F
100
AcDbEntity
  8
PV0001_1
  6
CONTINUOUS
100
AcDbSpline
210
0.0
220
0.0
230
1.0
 70
     8
 71
     3
 72
    29
 73
    25
 74
     0
 42
0.0000000001
 43
0.0000000001
 40
1.050069792586972
 40
1.050069792586972
 40
1.050069792586972
 40
1.050069792586972
 40
2.022833576467832
 40
3.037578957496688
 40
4.056212745003489
 40
5.079857003664532
 40
6.109500240690281
 40
7.145961322679372
 40
8.189895241603872
 40
9.241717795325891
 40
10.30168407291828
 40
11.36983447792315
 40
12.44600489715814
 40
13.52984294512926
 40
14.62081576220742
 40
15.7182257034828
 40
16.82123173843959
 40
17.92886860250316
 40
19.0400688939571
 40
20.15368796660465
 40
21.26852814259644
 40
22.38336992938901
 40
23.49698739941135
 40
24.18722991438619
 40
24.18722991438619
 40
24.18722991438619
 40
24.18722991438619
 10
-13.20367929445822
 20
-10.9635913015771
 30
0.0
 10
-15.71974321370658
 20
-10.94248048250503
 30
0.0
 10
-20.85702276827508
 20
-10.87260978543452
 30
0.0
 10
-28.60718375386786
 20
-10.70692302119861
 30
0.0
 10
-36.45824575686757
 20
-10.47166888554459
 30
0.0
 10
-44.3087434848948
 20
-10.17220302330176
 30
0.0
 10
-52.15852206518093
 20
-9.809857111437512
 30
0.0
 10
-60.00760775488823
 20
-9.387072041164664
 30
0.0
 10
-67.85593094848836
 20
-8.906436745966953
 30
0.0
 10
-75.70343818459715
 20
-8.370902297399037
 30
0.0
 10
-83.55016857870005
 20
-7.783830189836092
 30
0.0
 10
-91.39614314590566
 20
-7.148813344823002
 30
0.0
 10
-99.24145991538182
 20
-6.469804903526174
 30
0.0
 10
-107.0861548059109
 20
-5.750977518298181
 30
0.0
 10
-114.930300559292
 20
-4.996764268717582
 30
0.0
 10
-122.7739841681636
 20
-4.211818048230811
 30
0.0
 10
-130.6172744728806
 20
-3.400965904708071
 30
0.0
 10
-138.4602475934686
 20
-2.569194894261879
 30
0.0
 10
-146.3029874530742
 20
-1.721624468641702
 30
0.0
 10
-154.1455628399905
 20
-0.8634651425039027
 30
0.0
 10
-161.9880845035292
 20
0.0017261706724412
 30
0.0
 10
-170.024158117163
 20
0.85227168043707
 30
0.0
 10
-174.732367443583
 20
1.431765262853446
 30
0.0
 10
-177.9634301748107
 20
1.828088181193834
 30
0.0
 10
-181.5999456388418
 20
2.195078895794933
 30
0.0
  0
LINE
  5
408E
330
1F
100
AcDbEntity
  8
AM_11
  6
AM_ISO09W050
 48
0.5
100
AcDbLine
 10
-181.0036792944581
 20
-11.00000627019938
 30
0.0
 11
-13.20367929445822
 21
-11.0000062701989
 31
0.0
  0
LINE
  5
408F
330
1F
100
AcDbEntity
  8
AM_11
  6
AM_ISO09W050
 48
0.5
100
AcDbLine
 10
-46.8284334011971
 20
10.99999372980095
 30
0.0
 11
-9.851118732654571
 21
10.99999372980105
 31
0.0
  0
SPLINE
  5
4090
330
1F
100
AcDbEntity
  8
PV0001_1
  6
CONTINUOUS
100
AcDbSpline
210
0.0
220
0.0
230
1.0
 70
     8
 71
     3
 72
    25
 73
    21
 74
     0
 42
0.0000000001
 43
0.0000000001
 40
24.56499986022253
 40
24.56499986022253
 40
24.56499986022253
 40
24.56499986022253
 40
24.6081876908653
 40
25.71582455492886
 40
26.81883757994213
 40
27.91624752121713
 40
29.00722033829659
 40
30.09105838626677
 40
31.16722880550176
 40
32.23537921050758
 40
33.29534548809967
 40
34.347168041821
 40
35.39108718934584
 40
36.42754827133493
 40
37.45720575381954
 40
38.48085062012849
 40
39.49948440763516
 40
40.51422944315121
 40
41.52631975251916
 40
42.53706336680078
 40
42.53706336680078
 40
42.53706336680078
 40
42.53706336680078
 10
-5.786847600207779
 20
2.535187040620913
 30
0.0
 10
-5.810881688357572
 20
2.546092670013448
 30
0.0
 10
-6.451356872871436
 20
2.836607429947107
 30
0.0
 10
-7.707793323874998
 20
3.400956788682051
 30
0.0
 10
-9.559688995008331
 20
4.211802012249859
 30
0.0
 10
-11.41167277001833
 20
4.996752213506156
 30
0.0
 10
-13.26376300694686
 20
5.750964851497629
 30
0.0
 10
-15.11598256648106
 20
6.46979238789219
 30
0.0
 10
-16.96834903068377
 20
7.148800830183158
 30
0.0
 10
-18.82087085068139
 20
7.783817523353826
 30
0.0
 10
-20.67357089140336
 20
8.370890230371049
 30
0.0
 10
-22.52644658136031
 20
8.906419950176919
 30
0.0
 10
-24.37951143182369
 20
9.387061540497732
 30
0.0
 10
-26.23276708776479
 20
9.809855112446694
 30
0.0
 10
-28.08620026437196
 20
10.17215963937813
 30
0.0
 10
-29.93979612944849
 20
10.47171819263531
 30
0.0
 10
-31.79351965190555
 20
10.70669346487678
 30
0.0
 10
-33.64735864729231
 20
10.87556704716416
 30
0.0
 10
-35.50127391915445
 20
10.97732586376087
 30
0.0
 10
-36.73751893470557
 20
10.99999372980119
 30
0.0
 10
-37.35522992898374
 20
10.99999372980119
 30
0.0
  0
SPLINE
  5
4092
330
1F
100
AcDbEntity
  8
PV0001_1
  6
CONTINUOUS
 48
0.5
100
AcDbSpline
210
0.0
220
0.0
230
1.0
 70
     8
 71
     3
 72
    15
 73
    11
 74
     0
 42
0.0000000001
 43
0.0000000001
 40
0.9564279681538447
 40
0.9564279681538447
 40
0.9564279681538447
 40
0.9564279681538447
 40
1.010743614677189
 40
2.022833924044153
 40
3.037578959561199
 40
4.056212747067873
 40
5.079857613375832
 40
6.109500119648989
 40
7.14596120163808
 40
7.561184154167792
 40
7.561184154167792
 40
7.561184154167792
 40
7.561184154167792
 10
-11.69319365366002
 20
10.96962219445522
 30
0.0
 10
-11.72636907928446
 20
10.96847462692884
 30
0.0
 10
-12.37769577068763
 20
10.94530399160397
 30
0.0
 10
-13.64786372203017
 20
10.87555874922441
 30
0.0
 10
-15.5017082031317
 20
10.70669583813477
 30
0.0
 10
-17.35543010864189
 20
10.47171703306818
 30
0.0
 10
-19.20901789571515
 20
10.17216336623247
 30
0.0
 10
-21.06243994299114
 20
9.809850804650972
 30
0.0
 10
-22.54105097456847
 20
9.472530630189801
 30
0.0
 10
-23.40176777670839
 20
9.257445816729577
 30
0.0
 10
-23.64759783460059
 20
9.194520530040342
 30
0.0
  0
LINE
  5
4093
330
1F
100
AcDbEntity
  8
PV0001_1
  6
CONTINUOUS
 48
0.5
100
AcDbLine
 10
-3.67003506329807
 20
-10.08332561630979
 30
0.0
 11
-4.003679294458232
 21
-11.00000627019889
 31
0.0
  0
LINE
  5
4094
330
1F
100
AcDbEntity
  8
PV0001_1
  6
CONTINUOUS
 48
0.5
100
AcDbLine
 10
-13.20367929445822
 20
-11.00000627019889
 30
0.0
 11
-4.003684686909171
 21
-11.00000627019889
 31
0.0
  0
LINE
  5
4095
330
1F
100
AcDbEntity
  8
PV0001_1
  6
CONTINUOUS
 48
0.5
100
AcDbLine
 10
-13.20367929445822
 20
-9.500006270198937
 30
0.0
 11
-4.521906203510151
 21
-9.500006270198937
 31
0.0
  0
LINE
  5
4099
330
1F
100
AcDbEntity
  8
AM_0
100
AcDbLine
 10
-11.77788662137655
 20
5.129629826224801
 30
0.0
 11
-11.69275319838194
 21
10.99999372980128
 31
0.0
  0
ARC
  5
409A
330
1F
100
AcDbEntity
  8
AM_0
100
AcDbCircle
 10
-3.864479701082583
 20
3.942481358225617
 30
0.0
 40
3.239111486847919
100
AcDbArc
 50
236.5318133831115
 51
334.8156197533175
  0
LINE
  5
409B
330
1F
100
AcDbEntity
  8
AM_0
100
AcDbLine
 10
-2.989405230020204
 20
0.82381371092417
 30
0.0
 11
-2.054954461312033
 21
-2.722126608969911
 31
0.0
  0
LINE
  5
409C
330
1F
100
AcDbEntity
  8
PV0001_1
  6
CONTINUOUS
 48
0.5
100
AcDbLine
 10
0.0000025241855237
 20
-0.0000062701989229
 30
0.0
 11
-0.9332681331445808
 21
2.56413380836171
 31
0.0
  0
LINE
  5
409D
330
1F
100
AcDbEntity
  8
PV0001_1
  6
CONTINUOUS
 48
0.5
100
AcDbLine
 10
-5.786847600207776
 20
2.535187040620937
 30
0.0
 11
-5.650765101816527
 21
1.240439964879676
 31
0.0
  0
LINE
  5
409E
330
1F
100
AcDbEntity
  8
PV0001_1
  6
CONTINUOUS
 48
0.5
100
AcDbLine
 10
-3.670049050520448
 20
10.08337601841637
 30
0.0
 11
-4.003672300846899
 21
10.99998673618981
 31
0.0
  0
LINE
  5
409F
330
1F
100
AcDbEntity
  8
PV0001_1
  6
CONTINUOUS
 48
0.5
100
AcDbLine
 10
-0.9332681331445808
 20
2.56413380836171
 30
0.0
 11
-4.003670019474315
 21
10.99999372980109
 31
0.0
  0
LINE
  5
40A0
330
1F
100
AcDbEntity
  8
PV0001_1
  6
CONTINUOUS
 48
0.5
100
AcDbLine
 10
-11.69238464500855
 20
10.99999372980103
 30
0.0
 11
-4.003670019474315
 21
10.99999372980109
 31
0.0
  0
LINE
  5
40A1
330
1F
100
AcDbEntity
  8
PV0001_1
  6
CONTINUOUS
 48
0.5
100
AcDbLine
 10
-3.560396213402197
 20
9.533328461855992
 30
0.0
 11
-11.71366349468766
 21
9.533328461855868
 31
0.0
  0
LINE
  5
40A2
330
1F
100
AcDbEntity
  8
AM_0
100
AcDbLine
 10
-13.20367929445822
 20
-10.97624941580042
 30
0.0
 11
-13.20367929445822
 21
5.719298791894003
 31
0.0
  0
LINE
  5
40A3
330
1F
100
AcDbEntity
  8
PV0001_1
  6
CONTINUOUS
 48
0.5
100
AcDbLine
 10
-2.054954461312033
 20
-2.722126608969911
 30
0.0
 11
-4.521906203510151
 21
-9.500006270198937
 31
0.0
  0
LINE
  5
40A4
330
1F
100
AcDbEntity
  8
PV0001_1
  6
CONTINUOUS
 48
0.5
100
AcDbLine
 10
-0.0000009726190365
 20
0.0000007234123861
 30
0.0
 11
-4.003684686909171
 21
-11.00000627019889
 31
0.0
  0
LINE
  5
40A5
330
1F
100
AcDbEntity
  8
PV0001_1
  6
CONTINUOUS
 48
0.5
100
AcDbLine
 10
-5.650765101816527
 20
1.240439964879676
 30
0.0
 11
-4.521906203510151
 21
-9.500006270198937
 31
0.0
  0
LINE
  5
40A6
330
1F
100
AcDbEntity
  8
AM_0
100
AcDbLine
 10
-2.054954461312033
 20
-2.722126608969911
 30
0.0
 11
-5.086335652663217
 21
-4.129783152659643
 31
0.0
  0
LINE
  5
40A7
330
1F
100
AcDbEntity
  8
AM_11
  6
AM_ISO09W050
 48
0.5
100
AcDbLine
 10
-181.0036792944582
 20
10.99999372980059
 30
0.0
 11
-88.31930325988246
 21
10.99999372980085
 31
0.0
  0
LINE
  5
40A8
330
1F
100
AcDbEntity
  8
PV0001_1
  6
CONTINUOUS
 48
0.5
100
AcDbLine
 10
-181.0036792944581
 20
-11.00000627019938
 30
0.0
 11
-46.8284334011971
 21
-10.05228085240917
 31
0.0
  0
LINE
  5
40A9
330
1F
100
AcDbEntity
  8
PV0001_1
  6
CONTINUOUS
 48
0.5
100
AcDbLine
 10
-181.0036792944582
 20
10.99999372980031
 30
0.0
 11
-37.35522992898374
 21
10.99999372980119
 31
0.0
  0
LINE
  5
40AA
330
1F
100
AcDbEntity
  8
AM_0
100
AcDbLine
 10
-181.0036792944582
 20
10.99999372980031
 30
0.0
 11
-198.0036792944583
 21
12.50000143050967
 31
0.0
  0
ELLIPSE
  5
40AB
330
1F
100
AcDbEntity
  8
AM_0
100
AcDbEllipse
 10
-180.508408436695
 20
-4.50304208670645
 30
0.0
 11
-15.42744921823904
 21
3.609743369610671
 31
0.0
210
0.0
220
0.0
230
0.9999999999999998
 40
0.4013311587123087
 41
-1.406665261986333
 42
0.8198664231114918
  0
LINE
  5
40AD
330
1F
100
AcDbEntity
  8
AM_0
100
AcDbLine
 10
-181.0036792944582
 20
10.99999372980033
 30
0.0
 11
-181.0036792944582
 21
1.810856683965811
 31
0.0
  0
LINE
  5
41FF
330
1F
100
AcDbEntity
  8
AM_11
 48
0.5
100
AcDbLine
 10
-178.0036792944582
 20
-11.32122648559074
 30
0.0
 11
-178.0036792944582
 21
10.99999372980033
 31
0.0
  0
ARC
  5
4209
330
1F
100
AcDbEntity
  8
AM_0
100
AcDbCircle
 10
-174.1766030145018
 20
22.16458508603673
 30
0.0
 40
33.8599924742826
100
AcDbArc
 50
238.0513384616912
 51
258.3679037527334
  0
LINE
  5
4333
330
1F
100
AcDbEntity
  8
AM_0
100
AcDbLine
 10
-181.0036792944581
 20
-11.00000627019938
 30
0.0
 11
-198.0036792944581
 21
-12.50000858307021
 31
0.0
  0
DIMENSION
  5
4986
330
1F
100
AcDbEntity
  8
AM_5
100
AcDbDimension
  2
*D14
 10
-254.0036792944582
 20
-41.49128921990103
 30
0.0
 11
-226.0037222097957
 21
-38.09128921990103
 31
0.0
 70
    32
  1
<>
  3
AM_JIS$0
100
AcDbAlignedDimension
 13
-198.0037651251333
 23
-12.50000858307021
 33
0.0
 14
-254.0036792944582
 24
-11.83706665039196
 34
0.0
 50
0.0000000000005711
100
AcDbRotatedDimension
1001
ACAD
1000
DSTYLE
1002
{
1070
   271
1070
     3
1002
}
1001
GENIUS_GENDTOL_13
1000

1000
h7
1000

1040
0.0
  0
DIMENSION
  5
4987
330
1F
100
AcDbEntity
  8
AM_5
100
AcDbDimension
  2
*D15
 10
-248.0037764905359
 20
-28.50438941694164
 30
0.0
 11
-251.003727892497
 21
-28.50438941694164
 31
0.0
 70
   160
  1
<>
  3
AM_JIS$0
100
AcDbAlignedDimension
 13
-254.0036792944582
 23
-11.83706665039196
 33
0.0
 14
-248.0037764905359
 24
-0.0249721913247707
 34
0.0
 50
0.0000000000005711
100
AcDbRotatedDimension
1001
ACAD
1000
DSTYLE
1002
{
1070
   271
1070
     3
1002
}
1001
GENIUS_GENDTOL_13
1000

1000
h7
1000

1040
0.0
  0
DIMENSION
  5
4988
330
1F
100
AcDbEntity
  8
AM_5
100
AcDbDimension
  2
*D16
 10
-203.0037651251333
 20
-28.50438941694118
 30
0.0
 11
-225.5037708078346
 21
-25.10438941694118
 31
0.0
 70
    32
  1
<>
  3
AM_JIS$0
100
AcDbAlignedDimension
 13
-248.0037764905359
 23
-0.0249721913247707
 33
0.0
 14
-203.0037651251333
 24
-0.0249721913244424
 34
0.0
 50
0.0000000000005711
100
AcDbRotatedDimension
1001
ACAD
1000
DSTYLE
1002
{
1070
   271
1070
     3
1002
}
1001
GENIUS_GENDTOL_13
1000

1000
h7
1000

1040
0.0
  0
LINE
  5
4989
330
1F
100
AcDbEntity
  8
PV0001_1
  6
CONTINUOUS
100
AcDbLine
 10
-198.0036792944583
 20
12.50000143050965
 30
0.0
 11
-253.3180321376869
 21
12.50000143050922
 31
0.0
  0
LINE
  5
498A
330
1F
100
AcDbEntity
  8
AM_0
100
AcDbLine
 10
-207.2683598217663
 20
4.239708335983511
 30
0.0
 11
-243.7461127921896
 21
4.23970833598322
 31
0.0
  0
LINE
  5
498B
330
1F
100
AcDbEntity
  8
AM_0
100
AcDbLine
 10
-243.7461127921896
 20
-4.289652718632776
 30
0.0
 11
-207.2683598217662
 21
-4.289652718632485
 31
0.0
  0
LINE
  5
498C
330
1F
100
AcDbEntity
  8
PV0001_1
  6
CONTINUOUS
100
AcDbLine
 10
-253.3180321376867
 20
-12.50000858307063
 30
0.0
 11
-198.0036792944581
 21
-12.50000858307021
 31
0.0
  0
DIMENSION
  5
498D
330
1F
100
AcDbEntity
  8
AM_5
100
AcDbDimension
  2
*D17
 10
-270.9505203884104
 20
-12.49986553438562
 30
0.0
 11
-274.3505203884104
 21
0.0000858294558911
 31
0.0
 70
    32
  1
%%C<>
  3
AM_JIS$0
100
AcDbAlignedDimension
 13
-253.3180321376869
 23
12.50003719329746
 33
0.0
 14
-253.3180321376867
 24
-12.49986553438562
 34
0.0
 50
270.0
100
AcDbRotatedDimension
1001
ACAD
1000
DSTYLE
1002
{
1070
   271
1070
     3
1002
}
1001
GENIUS_GENDTOL_13
1000

1000
h7
1000

1040
0.0
  0
LINE
  5
498E
330
1F
100
AcDbEntity
  8
PV0001_1
  6
CONTINUOUS
 48
0.5
100
AcDbLine
 10
-254.0036792944582
 20
-0.0000000000013429
 30
0.0
 11
-254.0036792944583
 21
11.83712387084825
 31
0.0
  0
LINE
  5
498F
330
1F
100
AcDbEntity
  8
PV0001_1
  6
CONTINUOUS
 48
0.5
100
AcDbLine
 10
-253.3407802771395
 20
-0.0000000000013394
 30
0.0
 11
-253.3407802771396
 21
12.50003719329745
 31
0.0
  0
LINE
  5
4990
330
1F
100
AcDbEntity
  8
PV0001_1
  6
CONTINUOUS
 48
0.5
100
AcDbLine
 10
-254.0036792944582
 20
-0.0000000000013429
 30
0.0
 11
-254.0036792944581
 21
-11.83712387085049
 31
0.0
  0
ARC
  5
4991
330
1F
100
AcDbEntity
  8
AM_0
100
AcDbCircle
 10
-243.7390101325528
 20
-0.0249721913247498
 30
0.0
 40
4.264680527307981
100
AcDbArc
 50
90.0
 51
270.0
  0
LINE
  5
4992
330
1F
100
AcDbEntity
  8
PV0001_1
  6
CONTINUOUS
 48
0.5
100
AcDbLine
 10
-253.3407802771395
 20
-0.0000000000013394
 30
0.0
 11
-253.3407802771394
 21
-12.50003719330013
 31
0.0
  0
LINE
  5
4993
330
1F
100
AcDbEntity
  8
PV0001_1
  6
CONTINUOUS
 48
0.5
100
AcDbLine
 10
-254.0035934637831
 20
-11.83706665039196
 30
0.0
 11
-253.3406658362143
 21
-12.49997997284115
 31
0.0
  0
LINE
  5
4994
330
1F
100
AcDbEntity
  8
PV0001_1
  6
CONTINUOUS
 48
0.5
100
AcDbLine
 10
-254.0035934637833
 20
11.83700227737383
 30
0.0
 11
-253.3406658362145
 21
12.49991559982119
 31
0.0
  0
LINE
  5
4995
330
1F
100
AcDbEntity
  8
PV0001_1
  6
CONTINUOUS
100
AcDbLine
 10
-198.0036792944581
 20
-12.50000858307021
 30
0.0
 11
-198.0036792944583
 21
12.50000143050965
 31
0.0
  0
ARC
  5
4996
330
1F
100
AcDbEntity
  8
AM_0
100
AcDbCircle
 10
-207.2683598217662
 20
-0.0249721913244763
 30
0.0
 40
4.264680527307981
100
AcDbArc
 50
270.0
 51
90.0
  0
VIEWPORT
  5
110
330
101
100
AcDbEntity
 67
     1
  8
0
100
AcDbViewport
 10
420.5
 20
297.0
 30
0.0
 40
948.9782706766916
 41
628.452
 68
     1
 69
     1
1001
ACAD
1000
MVIEW
1002
{
1070
    16
1010
0.0
1020
0.0
1030
0.0
1010
0.0
1020
0.0
1030
1.0
1040
0.0
1040
628.452
1040
420.5
1040
297.0
1040
50.0
1040
0.0
1040
0.0
1070
     0
1070
   100
1070
     1
1070
     1
1070
     0
1070
     0
1070
     0
1070
     0
1040
0.0
1040
0.0
1040
0.0
1040
10.0
1040
10.0
1040
10.0
1040
10.0
1070
     0
1002
{
1002
}
1002
}
  0
ENDSEC
  0
SECTION
  2
OBJECTS
  0
DICTIONARY
  5
C
330
0
100
AcDbDictionary
  3
ACAD_GROUP
350
D
  3
ACAD_LAYOUT
350
1A
  3
ACAD_MLINESTYLE
350
17
  3
ACAD_PLOTSETTINGS
350
19
  3
ACAD_PLOTSTYLENAME
350
E
  3
ACDBVARIABLEDICTIONARY
350
34
  3
ACMDICTIONARY
350
43
  3
AMG
350
2B
  3
AMGSNAPSETTINGS
350
6E
  3
DWGPROPS
350
4E5D
  3
ACDBHEADERROUNDTRIPXREC
350
4E6D
  0
DICTIONARY
  5
74
330
1F
100
AcDbDictionary
280
     1
  3
ACAD_INDEX
360
4E5F
  3
ACAD_LAYOUTSELFREF
360
4E90
  0
DICTIONARY
  5
4E95
330
101
100
AcDbDictionary
280
     1
  3
ACAD_LAYOUTSELFREF
360
4E96
  0
DICTIONARY
  5
D
102
{ACAD_REACTORS
330
C
102
}
330
C
100
AcDbDictionary
  0
DICTIONARY
  5
1A
102
{ACAD_REACTORS
330
C
102
}
330
C
100
AcDbDictionary
  0
DICTIONARY
  5
17
102
{ACAD_REACTORS
330
C
102
}
330
C
100
AcDbDictionary
  3
STANDARD
350
18
  0
DICTIONARY
  5
19
102
{ACAD_REACTORS
330
C
102
}
330
C
100
AcDbDictionary
  0
ACDBDICTIONARYWDFLT
  5
E
102
{ACAD_REACTORS
330
C
102
}
330
C
100
AcDbDictionary
281
     1
  3
Normal
350
F
100
AcDbDictionaryWithDefault
340
F
  0
DICTIONARY
  5
34
102
{ACAD_REACTORS
330
C
102
}
330
C
100
AcDbDictionary
  3
INDEXCTL
350
35
  3
SORTENTS
350
B5E
  0
DICTIONARY
  5
43
102
{ACAD_REACTORS
330
C
102
}
330
C
100
AcDbDictionary
  3
ACMSTDDICTIONARY
350
260
  0
DICTIONARY
  5
2B
102
{ACAD_REACTORS
330
C
102
}
330
C
100
AcDbDictionary
  3
ACMGSETTINGS
350
2C
  0
DICTIONARY
  5
6E
102
{ACAD_REACTORS
330
C
102
}
330
C
100
AcDbDictionary
  0
XRECORD
  5
4E5D
102
{ACAD_REACTORS
330
C
102
}
330
C
100
AcDbXrecord
  1
DWGPROPS COOKIE
  2

  3

  4

  6

  7

  8

  9

300
AmdtFileType=82
301
=
302
=
303
=
304
=
305
=
306
=
307
=
308
=
309
=
 40
0.8296083912037037
 41
2452800.443498622
 42
2453002.026707882
  1

 90
        1
  0
DICTIONARY
  5
4E6D
102
{ACAD_REACTORS
330
C
102
}
330
C
100
AcDbDictionary
  3
TSTACKALIGN
350
4E6E
  3
TSTACKSIZE
350
4E6F
  3
HYPERLINKBASE
350
4E70
  3
STYLESHEET
350
4E71
  3
LAYOUTDICT
350
4E72
  3
PLOTSETDICT
350
4E73
  3
PLOTSTYLNAMDICT
350
4E74
  3
LWETCUNION
350
4E75
  3
INSUNITS
350
4E76
  3
CEPSNTYPE
350
4E77
  3
FINGERPRINTGUID
350
4E78
  3
VERSIONGUID
350
4E79
  3
PSVPSCALE
350
4E7A
  3
DIMSTYLEDATA
350
4E7B
  3
PUCSORTHOREF
350
4E7C
  3
PUCSORTHOVIEW
350
4E7D
  3
PUCSBASE
350
4E7E
  3
PUCSORGTOP
350
4E7F
  3
PUCSORGBOTTOM
350
4E80
  3
PUCSORGLEFT
350
4E81
  3
PUCSORGRIGHT
350
4E82
  3
PUCSORGFRONT
350
4E83
  3
PUCSORGBACK
350
4E84
  3
UCSORTHOREF
350
4E85
  3
UCSORTHOVIEW
350
4E86
  3
UCSBASE
350
4E87
  3
UCSORGTOP
350
4E88
  3
UCSORGBOTTOM
350
4E89
  3
UCSORGLEFT
350
4E8A
  3
UCSORGRIGHT
350
4E8B
  3
UCSORGFRONT
350
4E8C
  3
UCSORGBACK
350
4E8D
  0
DICTIONARY
  5
4E5F
102
{ACAD_REACTORS
330
74
102
}
330
74
100
AcDbDictionary
  3
*A1
350
4E60
  0
XRECORD
  5
4E90
102
{ACAD_REACTORS
330
74
102
}
330
74
100
AcDbXrecord
340
1F
  0
XRECORD
  5
4E96
102
{ACAD_REACTORS
330
4E95
102
}
330
4E95
100
AcDbXrecord
340
101
  0
MLINESTYLE
  5
18
102
{ACAD_REACTORS
330
17
102
}
330
17
100
AcDbMlineStyle
  2
STANDARD
 70
     0
  3

 62
   256
 51
90.0
 52
90.0
 71
     2
 49
0.5
 62
   256
  6
BYLAYER
 49
-0.5
 62
   256
  6
BYLAYER
  0
ACDBPLACEHOLDER
  5
F
102
{ACAD_REACTORS
330
E
102
}
330
E
100
AcDbPlaceHolder
280
     0
  0
DICTIONARYVAR
  5
35
102
{ACAD_REACTORS
330
34
102
}
330
34
100
DictionaryVariables
280
     0
  1
1
  0
DICTIONARYVAR
  5
B5E
102
{ACAD_REACTORS
330
34
102
}
330
34
100
DictionaryVariables
280
     0
  1
96
  0
DICTIONARY
  5
260
102
{ACAD_REACTORS
330
43
102
}
330
43
100
AcDbDictionary
  0
DICTIONARY
  5
2C
102
{ACAD_REACTORS
330
2B
102
}
330
2B
100
AcDbDictionary
  3
DWGSETTINGS
350
2D
  0
XRECORD
  5
4E6E
102
{ACAD_REACTORS
330
4E6D
102
}
330
4E6D
100
AcDbXrecord
 90
        1
  0
XRECORD
  5
4E6F
102
{ACAD_REACTORS
330
4E6D
102
}
330
4E6D
100
AcDbXrecord
 90
       70
  0
XRECORD
  5
4E70
102
{ACAD_REACTORS
330
4E6D
102
}
330
4E6D
100
AcDbXrecord
  1

  0
XRECORD
  5
4E71
102
{ACAD_REACTORS
330
4E6D
102
}
330
4E6D
100
AcDbXrecord
  1
ASAMI.ctb
  0
XRECORD
  5
4E72
102
{ACAD_REACTORS
330
4E6D
102
}
330
4E6D
100
AcDbXrecord
340
1A
  0
XRECORD
  5
4E73
102
{ACAD_REACTORS
330
4E6D
102
}
330
4E6D
100
AcDbXrecord
340
19
  0
XRECORD
  5
4E74
102
{ACAD_REACTORS
330
4E6D
102
}
330
4E6D
100
AcDbXrecord
340
E
  0
XRECORD
  5
4E75
102
{ACAD_REACTORS
330
4E6D
102
}
330
4E6D
100
AcDbXrecord
 90
    10781
  0
XRECORD
  5
4E76
102
{ACAD_REACTORS
330
4E6D
102
}
330
4E6D
100
AcDbXrecord
 90
        4
  0
XRECORD
  5
4E77
102
{ACAD_REACTORS
330
4E6D
102
}
330
4E6D
100
AcDbXrecord
 90
        0
  0
XRECORD
  5
4E78
102
{ACAD_REACTORS
330
4E6D
102
}
330
4E6D
100
AcDbXrecord
  1
{AFB28963-8C59-40AE-9337-C84526B81ACE}
  0
XRECORD
  5
4E79
102
{ACAD_REACTORS
330
4E6D
102
}
330
4E6D
100
AcDbXrecord
  1
{55B851A5-BF0F-4B15-B738-54276213477C}
  0
XRECORD
  5
4E7A
102
{ACAD_REACTORS
330
4E6D
102
}
330
4E6D
100
AcDbXrecord
 40
0.0
  0
XRECORD
  5
4E7B
102
{ACAD_REACTORS
330
4E6D
102
}
330
4E6D
100
AcDbXrecord
1000
DSTYLE
1002
{
1070
    79
 70
     2
1070
   341
340
59
1070
   342
340
59
1070
   371
 70
    -1
1070
   372
 70
    -1
1002
}
  0
XRECORD
  5
4E7C
102
{ACAD_REACTORS
330
4E6D
102
}
330
4E6D
100
AcDbXrecord
340
0
  0
XRECORD
  5
4E7D
102
{ACAD_REACTORS
330
4E6D
102
}
330
4E6D
100
AcDbXrecord
 70
     0
  0
XRECORD
  5
4E7E
102
{ACAD_REACTORS
330
4E6D
102
}
330
4E6D
100
AcDbXrecord
340
0
  0
XRECORD
  5
4E7F
102
{ACAD_REACTORS
330
4E6D
102
}
330
4E6D
100
AcDbXrecord
 10
0.0
 20
0.0
 30
0.0
  0
XRECORD
  5
4E80
102
{ACAD_REACTORS
330
4E6D
102
}
330
4E6D
100
AcDbXrecord
 10
0.0
 20
0.0
 30
0.0
  0
XRECORD
  5
4E81
102
{ACAD_REACTORS
330
4E6D
102
}
330
4E6D
100
AcDbXrecord
 10
0.0
 20
0.0
 30
0.0
  0
XRECORD
  5
4E82
102
{ACAD_REACTORS
330
4E6D
102
}
330
4E6D
100
AcDbXrecord
 10
0.0
 20
0.0
 30
0.0
  0
XRECORD
  5
4E83
102
{ACAD_REACTORS
330
4E6D
102
}
330
4E6D
100
AcDbXrecord
 10
0.0
 20
0.0
 30
0.0
  0
XRECORD
  5
4E84
102
{ACAD_REACTORS
330
4E6D
102
}
330
4E6D
100
AcDbXrecord
 10
0.0
 20
0.0
 30
0.0
  0
XRECORD
  5
4E85
102
{ACAD_REACTORS
330
4E6D
102
}
330
4E6D
100
AcDbXrecord
340
0
  0
XRECORD
  5
4E86
102
{ACAD_REACTORS
330
4E6D
102
}
330
4E6D
100
AcDbXrecord
 70
     0
  0
XRECORD
  5
4E87
102
{ACAD_REACTORS
330
4E6D
102
}
330
4E6D
100
AcDbXrecord
340
0
  0
XRECORD
  5
4E88
102
{ACAD_REACTORS
330
4E6D
102
}
330
4E6D
100
AcDbXrecord
 10
0.0
 20
0.0
 30
0.0
  0
XRECORD
  5
4E89
102
{ACAD_REACTORS
330
4E6D
102
}
330
4E6D
100
AcDbXrecord
 10
0.0
 20
0.0
 30
0.0
  0
XRECORD
  5
4E8A
102
{ACAD_REACTORS
330
4E6D
102
}
330
4E6D
100
AcDbXrecord
 10
0.0
 20
0.0
 30
0.0
  0
XRECORD
  5
4E8B
102
{ACAD_REACTORS
330
4E6D
102
}
330
4E6D
100
AcDbXrecord
 10
0.0
 20
0.0
 30
0.0
  0
XRECORD
  5
4E8C
102
{ACAD_REACTORS
330
4E6D
102
}
330
4E6D
100
AcDbXrecord
 10
0.0
 20
0.0
 30
0.0
  0
XRECORD
  5
4E8D
102
{ACAD_REACTORS
330
4E6D
102
}
330
4E6D
100
AcDbXrecord
 10
0.0
 20
0.0
 30
0.0
  0
LAYER_INDEX
  5
4E60
102
{ACAD_REACTORS
330
4E5F
102
}
330
4E5F
100
AcDbIndex
 40
2453151.715876898
100
AcDbLayerIndex
  8
0
360
4E61
 90
        0
  8
AM_0
360
4E62
 90
       14
  8
PV0001_1
360
4E63
 90
       26
  8
AM_CL
360
4E64
 90
        0
  8
AM_7
360
4E65
 90
        1
  8
AM_11
360
4E66
 90
        4
  8
AM_5
360
4E67
 90
       10
  8
Defpoints
360
4E68
 90
        0
  8
AM_6
360
4E69
 90
        1
  8
AM_4
360
4E6A
 90
        0
  8
AM_3
360
4E6B
 90
        0
  0
XRECORD
  5
2D
102
{ACAD_REACTORS
330
2C
102
}
330
2C
100
AcDbXrecord
  1
VERSION
140
15.0
  1
PRODUCT
  2
AutoCAD Mechanical 2000
  0
IDBUFFER
  5
4E61
330
0
100
AcDbIdBuffer
  0
IDBUFFER
  5
4E62
330
0
100
AcDbIdBuffer
330
4099
330
409A
330
409B
330
40A2
330
40A6
330
40AA
330
40AB
330
40AD
330
4209
330
4333
330
498A
330
498B
330
4991
330
4996
  0
IDBUFFER
  5
4E63
330
0
100
AcDbIdBuffer
330
40A9
330
4989
330
498C
330
498E
330
498F
330
4990
330
4992
330
4993
330
4994
330
4995
330
408D
330
4090
330
4092
330
4093
330
4094
330
4095
330
409C
330
409D
330
409E
330
409F
330
40A0
330
40A1
330
40A3
330
40A4
330
40A5
330
40A8
  0
IDBUFFER
  5
4E64
330
0
100
AcDbIdBuffer
  0
IDBUFFER
  5
4E65
330
0
100
AcDbIdBuffer
330
35D1
  0
IDBUFFER
  5
4E66
330
0
100
AcDbIdBuffer
330
408E
330
408F
330
40A7
330
41FF
  0
IDBUFFER
  5
4E67
330
0
100
AcDbIdBuffer
330
36BA
330
378E
330
3990
330
3B0D
330
3BB8
330
3CCB
330
4986
330
4987
330
4988
330
498D
  0
IDBUFFER
  5
4E68
330
0
100
AcDbIdBuffer
  0
IDBUFFER
  5
4E69
330
0
100
AcDbIdBuffer
330
19BD
  0
IDBUFFER
  5
4E6A
330
0
100
AcDbIdBuffer
  0
IDBUFFER
  5
4E6B
330
0
100
AcDbIdBuffer
  0
ENDSEC
  0
EOF
