  0
SECTION
  2
HEADER
  9
$ACADVER
  1
AC1014
  9
$ACADMAINTVER
 70
     9
  9
$DWGCODEPAGE
  3
ANSI_932
  9
$INSBASE
 10
0.0
 20
0.0
 30
0.0
  9
$EXTMIN
 10
-589.2017441852486
 20
-76.8288860908137
 30
-0.00000001
  9
$EXTMAX
 10
31.97557355863935
 20
43.35339867806008
 30
0.00000001
  9
$LIMMIN
 10
-205.6970855601564
 20
-101.5530196580161
  9
$LIMMAX
 10
50.74579400890593
 20
60.56605409694168
  9
$ORTHOMODE
 70
     0
  9
$REGENMODE
 70
     1
  9
$FILLMODE
 70
     1
  9
$QTEXTMODE
 70
     0
  9
$MIRRTEXT
 70
     0
  9
$DRAGMODE
 70
     2
  9
$LTSCALE
 40
1.0
  9
$OSMODE
 70
    55
  9
$ATTMODE
 70
     1
  9
$TEXTSIZE
 40
2.5
  9
$TRACEWID
 40
1.0
  9
$TEXTSTYLE
  7
STANDARD
  9
$CLAYER
  8
AM_0
  9
$CELTYPE
  6
BYLAYER
  9
$CECOLOR
 62
   256
  9
$CELTSCALE
 40
1.0
  9
$DELOBJ
 70
     1
  9
$DISPSILH
 70
     0
  9
$DIMSCALE
 40
1.0
  9
$DIMASZ
 40
2.5
  9
$DIMEXO
 40
1.0
  9
$DIMDLI
 40
12.0
  9
$DIMRND
 40
0.0
  9
$DIMDLE
 40
0.0
  9
$DIMEXE
 40
1.0
  9
$DIMTP
 40
0.1
  9
$DIMTM
 40
0.1
  9
$DIMTXT
 40
3.2
  9
$DIMCEN
 40
0.0
  9
$DIMTSZ
 40
0.0
  9
$DIMTOL
 70
     0
  9
$DIMLIM
 70
     0
  9
$DIMTIH
 70
     0
  9
$DIMTOH
 70
     0
  9
$DIMSE1
 70
     0
  9
$DIMSE2
 70
     0
  9
$DIMTAD
 70
     3
  9
$DIMZIN
 70
     8
  9
$DIMBLK
  1
OPEN30
  9
$DIMASO
 70
     1
  9
$DIMSHO
 70
     1
  9
$DIMPOST
  1

  9
$DIMAPOST
  1
"
  9
$DIMALT
 70
     0
  9
$DIMALTD
 70
     2
  9
$DIMALTF
 40
0.0393701
  9
$DIMLFAC
 40
1.0
  9
$DIMTOFL
 70
     1
  9
$DIMTVP
 40
0.0
  9
$DIMTIX
 70
     0
  9
$DIMSOXD
 70
     0
  9
$DIMSAH
 70
     0
  9
$DIMBLK1
  1

  9
$DIMBLK2
  1

  9
$DIMSTYLE
  2
AM_JIS
  9
$DIMCLRD
 70
   256
  9
$DIMCLRE
 70
   256
  9
$DIMCLRT
 70
     2
  9
$DIMTFAC
 40
0.71
  9
$DIMGAP
 40
1.5
  9
$DIMJUST
 70
     0
  9
$DIMSD1
 70
     0
  9
$DIMSD2
 70
     0
  9
$DIMTOLJ
 70
     0
  9
$DIMTZIN
 70
     0
  9
$DIMALTZ
 70
     0
  9
$DIMALTTZ
 70
     0
  9
$DIMFIT
 70
     3
  9
$DIMUPT
 70
     0
  9
$DIMUNIT
 70
     2
  9
$DIMDEC
 70
     3
  9
$DIMTDEC
 70
     3
  9
$DIMALTU
 70
     2
  9
$DIMALTTD
 70
     2
  9
$DIMTXSTY
  7
ASAMI
  9
$DIMAUNIT
 70
     0
  9
$LUNITS
 70
     2
  9
$LUPREC
 70
     2
  9
$SKETCHINC
 40
1.0
  9
$FILLETRAD
 40
2.5
  9
$AUNITS
 70
     0
  9
$AUPREC
 70
     0
  9
$MENU
  1
.
  9
$ELEVATION
 40
0.0
  9
$PELEVATION
 40
0.0
  9
$THICKNESS
 40
0.0
  9
$LIMCHECK
 70
     0
  9
$BLIPMODE
 70
     0
  9
$CHAMFERA
 40
2.5
  9
$CHAMFERB
 40
2.5
  9
$CHAMFERC
 40
20.0
  9
$CHAMFERD
 40
0.0
  9
$SKPOLY
 70
     0
  9
$TDCREATE
 40
2452800.443498622
  9
$TDUPDATE
 40
2453151.699906122
  9
$TDINDWG
 40
0.6318105671
  9
$TDUSRTIMER
 40
0.6318105671
  9
$USRTIMER
 70
     1
  9
$ANGBASE
 50
0.0
  9
$ANGDIR
 70
     0
  9
$PDMODE
 70
     0
  9
$PDSIZE
 40
0.0
  9
$PLINEWID
 40
0.0
  9
$COORDS
 70
     1
  9
$SPLFRAME
 70
     0
  9
$SPLINETYPE
 70
     6
  9
$SPLINESEGS
 70
     8
  9
$ATTDIA
 70
     1
  9
$ATTREQ
 70
     1
  9
$HANDLING
 70
 12289
  9
$HANDSEED
  5
5826
  9
$SURFTAB1
 70
     6
  9
$SURFTAB2
 70
     6
  9
$SURFTYPE
 70
     6
  9
$SURFU
 70
     6
  9
$SURFV
 70
     6
  9
$UCSNAME
  2

  9
$UCSORG
 10
-0.0000000000001785
 20
-0.0000000000001254
 30
0.0
  9
$UCSXDIR
 10
1.0
 20
0.0000000000000027
 30
0.0
  9
$UCSYDIR
 10
-0.0000000000000027
 20
1.0
 30
0.0
  9
$PUCSNAME
  2

  9
$PUCSORG
 10
0.0
 20
0.0
 30
0.0
  9
$PUCSXDIR
 10
1.0
 20
0.0
 30
0.0
  9
$PUCSYDIR
 10
0.0
 20
1.0
 30
0.0
  9
$USERI1
 70
     0
  9
$USERI2
 70
     0
  9
$USERI3
 70
     0
  9
$USERI4
 70
     0
  9
$USERI5
 70
     0
  9
$USERR1
 40
0.0
  9
$USERR2
 40
0.0
  9
$USERR3
 40
0.0
  9
$USERR4
 40
0.0
  9
$USERR5
 40
0.0
  9
$WORLDVIEW
 70
     1
  9
$SHADEDGE
 70
     3
  9
$SHADEDIF
 70
    70
  9
$TILEMODE
 70
     1
  9
$MAXACTVP
 70
    64
  9
$PINSBASE
 10
0.0
 20
0.0
 30
0.0
  9
$PLIMCHECK
 70
     0
  9
$PEXTMIN
 10
1.000000000000000E+20
 20
1.000000000000000E+20
 30
1.000000000000000E+20
  9
$PEXTMAX
 10
-1.000000000000000E+20
 20
-1.000000000000000E+20
 30
-1.000000000000000E+20
  9
$PLIMMIN
 10
0.0
 20
0.0
  9
$PLIMMAX
 10
841.0
 20
594.0
  9
$UNITMODE
 70
     0
  9
$VISRETAIN
 70
     1
  9
$PLINEGEN
 70
     0
  9
$PSLTSCALE
 70
     0
  9
$TREEDEPTH
 70
  3020
  9
$PICKSTYLE
 70
     0
  9
$CMLSTYLE
  2
STANDARD
  9
$CMLJUST
 70
     0
  9
$CMLSCALE
 40
20.0
  9
$PROXYGRAPHICS
 70
     1
  9
$MEASUREMENT
 70
     1
  0
ENDSEC
  0
SECTION
  2
CLASSES
  0
CLASS
  1
ACDBDICTIONARYWDFLT
  2
AcDbDictionaryWithDefault
  3
AutoCAD 2000
 90
        0
280
     0
281
     0
  0
CLASS
  1
ACDBPLACEHOLDER
  2
AcDbPlaceHolder
  3
AutoCAD 2000
 90
        0
280
     0
281
     0
  0
CLASS
  1
LAYOUT
  2
AcDbLayout
  3
AutoCAD 2000
 90
        0
280
     0
281
     0
  0
CLASS
  1
AMGSETTINGSOBJ
  2
AmgSettingsObj
  3
"AcadM|Product Description: AutoCAD Mechanical 2000|Company: Autodesk"
 90
        0
280
     0
281
     0
  0
CLASS
  1
ACME_DOCUMENT
  2
AcMeDbDoc
  3
AcMeServices
 90
        0
280
     0
281
     0
  0
CLASS
  1
ACMESCOPE
  2
AcMeScope
  3
AcMeServices
 90
        0
280
     0
281
     0
  0
CLASS
  1
ACMECOMMANDHISTORY
  2
AcMeCommandHistory
  3
AcMeServices
 90
        0
280
     0
281
     0
  0
CLASS
  1
DICTIONARYVAR
  2
AcDbDictionaryVar
  3
AutoCAD 2000
 90
        0
280
     0
281
     0
  0
CLASS
  1
ACIMSYSVARMAN
  2
AcImSysVarManager
  3
AcMeServices
 90
        0
280
     0
281
     0
  0
CLASS
  1
ACIMREALSYSVAR
  2
AcImRealSysVar
  3
AcMeServices
 90
        0
280
     0
281
     0
  0
CLASS
  1
ACIMINTSYSVAR
  2
AcImIntSysVar
  3
AcMeServices
 90
        0
280
     0
281
     0
  0
CLASS
  1
ACMEDRAWINGMAN
  2
AcMeDrawingMan
  3
AcMeServices
 90
        0
280
     0
281
     0
  0
CLASS
  1
ACMEVIEW
  2
AcMeView
  3
AcMeServices
 90
        0
280
     0
281
     0
  0
CLASS
  1
ACDBENTITYCACHE
  2
AcMeEntityCache
  3
AcMeServices
 90
        0
280
     0
281
     0
  0
CLASS
  1
GSMANAGER
  2
AcMeGSManager
  3
AcMeServices
 90
        0
280
     0
281
     0
  0
CLASS
  1
AmdtInternalReactor
  2
AmdtInternalReactor
  3
AcMeServices
 90
        0
280
     0
281
     0
  0
CLASS
  1
ACMESTATEMGR
  2
AcMeStateMgr
  3
AcMeServices
 90
        0
280
     0
281
     0
  0
CLASS
  1
ACME_DATABASE
  2
AcMeDbDatabase
  3
AcMeServices
 90
        0
280
     0
281
     0
  0
CLASS
  1
ACRFINSADJUSTERMGR
  2
AcRfInsAdjusterMgr
  3
AcMeServices
 90
        0
280
     0
281
     0
  0
CLASS
  1
ACMDATADICTIONARY
  2
AcmDataDictionary
  3
"AcmSymBB|Product Description: AutoCAD Mechanical 2000|Company: Autodesk"
 90
        0
280
     0
281
     0
  0
CLASS
  1
ACMDATAENTRYBLOCK
  2
AcmDataEntryBlock
  3
"AcmSymBB|Product Description: AutoCAD Mechanical 2000|Company: Autodesk"
 90
        0
280
     0
281
     0
  0
CLASS
  1
AMGOBJPROPCFG
  2
AmgObjPropCfg
  3
"AmgLay|Product Description: AutoCAD Mechanical 2000|Company: Autodesk"
 90
        1
280
     0
281
     0
  0
CLASS
  1
ACAMGFILTERDAT
  2
AcAmgFilterDat
  3
"AcadM|Product Description: AutoCAD Mechanical 2000|Company: Autodesk"
 90
        0
280
     0
281
     0
  0
CLASS
  1
LAYER_INDEX
  2
AcDbLayerIndex
  3
AutoCAD 2000
 90
        0
280
     0
281
     0
  0
CLASS
  1
IDBUFFER
  2
AcDbIdBuffer
  3
AutoCAD 2000
 90
        0
280
     0
281
     0
  0
CLASS
  1
ACIMSTRSYSVAR
  2
AcImStrSysVar
  3
AcMeServices
 90
        0
280
     0
281
     0
  0
CLASS
  1
ACMSTANDARDJIS
  2
AcmStandardJIS
  3
"AcmSymBB|Product Description: AutoCAD Mechanical 2000|Company: Autodesk"
 90
        0
280
     0
281
     0
  0
CLASS
  1
ACMSURFSTANDARDJIS
  2
AcmSurfTextStdJIS
  3
"AcmSymBB|Product Description: AutoCAD Mechanical 2000|Company: Autodesk"
 90
        0
280
     0
281
     0
  0
CLASS
  1
ACMFCFSTANDARDJIS
  2
AcmFCFStdJIS
  3
"AcmSymBB|Product Description: AutoCAD Mechanical 2000|Company: Autodesk"
 90
        0
280
     0
281
     0
  0
CLASS
  1
ACMWELDSTANDARDJIS
  2
AcmWeldingStdJIS
  3
"AcmSymBB|Product Description: AutoCAD Mechanical 2000|Company: Autodesk"
 90
        0
280
     0
281
     0
  0
CLASS
  1
ACMIDSTANDARDJIS
  2
AcmIdStdJIS
  3
"AcmSymBB|Product Description: AutoCAD Mechanical 2000|Company: Autodesk"
 90
        0
280
     0
281
     0
  0
CLASS
  1
ACMDATUMSTANDARDJIS
  2
AcmDatumStdJIS
  3
"AcmSymBB|Product Description: AutoCAD Mechanical 2000|Company: Autodesk"
 90
        0
280
     0
281
     0
  0
CLASS
  1
ACMBOMSTANDARDJIS
  2
AcmBOMStdJIS
  3
"AcmSymBB|Product Description: AutoCAD Mechanical 2000|Company: Autodesk"
 90
        0
280
     0
281
     0
  0
CLASS
  1
ACMSTANDARDANSI
  2
AcmStandardANSI
  3
"AcmSymBB|Product Description: AutoCAD Mechanical 2000|Company: Autodesk"
 90
        0
280
     0
281
     0
  0
CLASS
  1
ACMSURFSTANDARDANSI
  2
AcmSurfTextStdANSI
  3
"AcmSymBB|Product Description: AutoCAD Mechanical 2000|Company: Autodesk"
 90
        0
280
     0
281
     0
  0
CLASS
  1
ACMFCFSTANDARDANSI
  2
AcmFCFStdANSI
  3
"AcmSymBB|Product Description: AutoCAD Mechanical 2000|Company: Autodesk"
 90
        0
280
     0
281
     0
  0
CLASS
  1
ACMWELDSTANDARDANSI
  2
AcmWeldingStdANSI
  3
"AcmSymBB|Product Description: AutoCAD Mechanical 2000|Company: Autodesk"
 90
        0
280
     0
281
     0
  0
CLASS
  1
ACMIDSTANDARDANSI
  2
AcmIdStdANSI
  3
"AcmSymBB|Product Description: AutoCAD Mechanical 2000|Company: Autodesk"
 90
        0
280
     0
281
     0
  0
CLASS
  1
ACMDATUMSTANDARDANSI
  2
AcmDatumStdANSI
  3
"AcmSymBB|Product Description: AutoCAD Mechanical 2000|Company: Autodesk"
 90
        0
280
     0
281
     0
  0
CLASS
  1
ACMBOMSTANDARDANSI
  2
AcmBOMStdANSI
  3
"AcmSymBB|Product Description: AutoCAD Mechanical 2000|Company: Autodesk"
 90
        0
280
     0
281
     0
  0
CLASS
  1
ACMSTANDARDBSI
  2
AcmStandardBSI
  3
"AcmSymBB|Product Description: AutoCAD Mechanical 2000|Company: Autodesk"
 90
        0
280
     0
281
     0
  0
CLASS
  1
ACMSURFSTANDARDBSI
  2
AcmSurfTextStdBSI
  3
"AcmSymBB|Product Description: AutoCAD Mechanical 2000|Company: Autodesk"
 90
        0
280
     0
281
     0
  0
CLASS
  1
ACMFCFSTANDARDBSI
  2
AcmFCFStdBSI
  3
"AcmSymBB|Product Description: AutoCAD Mechanical 2000|Company: Autodesk"
 90
        0
280
     0
281
     0
  0
CLASS
  1
ACMWELDSTANDARDBSI
  2
AcmWeldingStdBSI
  3
"AcmSymBB|Product Description: AutoCAD Mechanical 2000|Company: Autodesk"
 90
        0
280
     0
281
     0
  0
CLASS
  1
ACMIDSTANDARDBSI
  2
AcmIdStdBSI
  3
"AcmSymBB|Product Description: AutoCAD Mechanical 2000|Company: Autodesk"
 90
        0
280
     0
281
     0
  0
CLASS
  1
ACMDATUMSTANDARDBSI
  2
AcmDatumStdBSI
  3
"AcmSymBB|Product Description: AutoCAD Mechanical 2000|Company: Autodesk"
 90
        0
280
     0
281
     0
  0
CLASS
  1
ACMBOMSTANDARDBSI
  2
AcmBOMStdBSI
  3
"AcmSymBB|Product Description: AutoCAD Mechanical 2000|Company: Autodesk"
 90
        0
280
     0
281
     0
  0
CLASS
  1
LONG_TRANSACTION
  2
AcDbLongTransaction
  3
AutoCAD 2000
 90
        0
280
     0
281
     0
  0
CLASS
  1
LWPOLYLINE
  2
AcDbPolyline
  3
AutoCAD 2000
 90
        0
280
     0
281
     1
  0
CLASS
  1
HATCH
  2
AcDbHatch
  3
AutoCAD 2000
 90
        0
280
     0
281
     1
  0
CLASS
  1
XRECORD
  2
AcDbXrecord
  3
AutoCAD 2000
 90
        0
280
     0
281
     0
  0
ENDSEC
  0
SECTION
  2
TABLES
  0
TABLE
  2
VPORT
  5
8
330
0
100
AcDbSymbolTable
 70
     3
  0
VPORT
  5
57FB
330
8
100
AcDbSymbolTableRecord
100
AcDbViewportTableRecord
  2
*ACTIVE
 70
     0
 10
0.0
 20
0.0
 11
1.0
 21
1.0
 12
-67.63939123703025
 22
-8.618780733332457
 13
0.0
 23
0.0
 14
2.5
 24
2.5
 15
10.0
 25
10.0
 16
0.0
 26
0.0
 36
1.0
 17
0.0
 27
0.0
 37
0.0
 40
195.1862527830191
 41
1.56570841889117
 42
50.0
 43
0.0
 44
0.0
 50
0.0
 51
0.0
 71
     0
 72
   100
 73
     1
 74
     1
 75
     0
 76
     0
 77
     0
 78
     0
  0
ENDTAB
  0
TABLE
  2
LTYPE
  5
5
330
0
100
AcDbSymbolTable
 70
    10
  0
LTYPE
  5
14
330
5
100
AcDbSymbolTableRecord
100
AcDbLinetypeTableRecord
  2
BYBLOCK
 70
     0
  3

 72
    65
 73
     0
 40
0.0
  0
LTYPE
  5
15
330
5
100
AcDbSymbolTableRecord
100
AcDbLinetypeTableRecord
  2
BYLAYER
 70
     0
  3

 72
    65
 73
     0
 40
0.0
  0
LTYPE
  5
16
330
5
100
AcDbSymbolTableRecord
100
AcDbLinetypeTableRecord
  2
CONTINUOUS
 70
     0
  3
Solid line
 72
    65
 73
     0
 40
0.0
  0
LTYPE
  5
4B
330
5
100
AcDbSymbolTableRecord
100
AcDbLinetypeTableRecord
  2
AM_ISO02W050
 70
     0
  3
__ __ __ __ __ __ __ __ __ __ __ __ __ __ __
 72
    65
 73
     2
 40
7.5
 49
6.0
 74
     0
 49
-1.5
 74
     0
  0
LTYPE
  5
4C
330
5
100
AcDbSymbolTableRecord
100
AcDbLinetypeTableRecord
  2
AM_ISO08W050
 70
     0
  3
____ . ____ . ____ . ____ . ____ . ____ . ____
 72
    65
 73
     4
 40
18.0
 49
12.0
 74
     0
 49
-1.5
 74
     0
 49
3.0
 74
     0
 49
-1.5
 74
     0
  0
LTYPE
  5
4D
330
5
100
AcDbSymbolTableRecord
100
AcDbLinetypeTableRecord
  2
AM_ISO09W050
 70
     0
  3
_____ . . _____ . . _____ . . ____ .. ____
 72
    65
 73
     6
 40
22.5
 49
12.0
 74
     0
 49
-1.5
 74
     0
 49
3.0
 74
     0
 49
-1.5
 74
     0
 49
3.0
 74
     0
 49
-1.5
 74
     0
  0
LTYPE
  5
4E
330
5
100
AcDbSymbolTableRecord
100
AcDbLinetypeTableRecord
  2
AMCONSTR
 70
     0
  3
_______________________
 72
    65
 73
     2
 40
9999.0
 49
9999.0
 74
     0
 49
0.0
 74
     0
  0
LTYPE
  5
4F
330
5
100
AcDbSymbolTableRecord
100
AcDbLinetypeTableRecord
  2
AM_ISO02W050X2
 70
     0
  3
 _ _ _ _ _ _ _ _ _ _ _ _
 72
    65
 73
     2
 40
3.75
 49
3.0
 74
     0
 49
-0.75
 74
     0
  0
LTYPE
  5
50
330
5
100
AcDbSymbolTableRecord
100
AcDbLinetypeTableRecord
  2
AM_ISO08W050X2
 70
     0
  3
__ . __ . __ . __ . __ . __
 72
    65
 73
     4
 40
9.0
 49
6.0
 74
     0
 49
-0.75
 74
     0
 49
1.5
 74
     0
 49
-0.75
 74
     0
  0
LTYPE
  5
53
330
5
100
AcDbSymbolTableRecord
100
AcDbLinetypeTableRecord
  2
AMZIGZAG
 70
     0
  3
/\/-/\/-/\/-/\/-/\/-/\/
 72
    65
 73
     2
 40
11.00009999999999
 49
0.0001
 74
     4
 75
   135
340
52
 46
0.04
 50
0.0
 44
0.0
 45
0.0
 49
-11.0
 74
     0
  0
LTYPE
  5
166
330
5
100
AcDbSymbolTableRecord
100
AcDbLinetypeTableRecord
  2
ACJISTGL
 70
     0
  3
_ _ _ _ _
 72
    65
 73
     2
 40
3.0
 49
2.0
 74
     0
 49
-1.0
 74
     0
  0
LTYPE
  5
26A
330
5
100
AcDbSymbolTableRecord
100
AcDbLinetypeTableRecord
  2
ACJISTGB
 70
     0
  3
__ . . __ . .
 72
    65
 73
     6
 40
9.0
 49
4.0
 74
     0
 49
-1.0
 74
     0
 49
1.0
 74
     0
 49
-1.0
 74
     0
 49
1.0
 74
     0
 49
-1.0
 74
     0
  0
ENDTAB
  0
TABLE
  2
LAYER
  5
2
330
0
100
AcDbSymbolTable
 70
    11
  0
LAYER
  5
10
330
2
100
AcDbSymbolTableRecord
100
AcDbLayerTableRecord
  2
0
 70
     0
 62
     7
  6
CONTINUOUS
  0
LAYER
  5
3F9
330
2
100
AcDbSymbolTableRecord
100
AcDbLayerTableRecord
  2
AM_0
 70
     0
 62
     7
  6
CONTINUOUS
  0
LAYER
  5
BA4
330
2
100
AcDbSymbolTableRecord
100
AcDbLayerTableRecord
  2
PV0001_1
 70
     0
 62
     7
  6
CONTINUOUS
  0
LAYER
  5
C6C
330
2
100
AcDbSymbolTableRecord
100
AcDbLayerTableRecord
  2
AM_CL
 70
     0
 62
     1
  6
AMCONSTR
  0
LAYER
  5
C7C
330
2
100
AcDbSymbolTableRecord
100
AcDbLayerTableRecord
  2
AM_7
 70
     0
 62
     4
  6
AM_ISO08W050
  0
LAYER
  5
C97
330
2
100
AcDbSymbolTableRecord
100
AcDbLayerTableRecord
  2
AM_11
 70
     0
 62
     3
  6
AM_ISO09W050
  0
LAYER
  5
CC5
330
2
100
AcDbSymbolTableRecord
100
AcDbLayerTableRecord
  2
AM_5
 70
     0
 62
     3
  6
CONTINUOUS
  0
LAYER
  5
CC7
330
2
100
AcDbSymbolTableRecord
100
AcDbLayerTableRecord
  2
DEFPOINTS
 70
     0
 62
     7
  6
CONTINUOUS
  0
LAYER
  5
19BC
330
2
100
AcDbSymbolTableRecord
100
AcDbLayerTableRecord
  2
AM_6
 70
     0
 62
     2
  6
CONTINUOUS
  0
LAYER
  5
1F8E
330
2
100
AcDbSymbolTableRecord
100
AcDbLayerTableRecord
  2
AM_4
 70
     0
 62
     3
  6
CONTINUOUS
  0
LAYER
  5
3588
330
2
100
AcDbSymbolTableRecord
100
AcDbLayerTableRecord
  2
AM_3
 70
     0
 62
     6
  6
ACJISTGL
  0
ENDTAB
  0
TABLE
  2
STYLE
  5
3
330
0
100
AcDbSymbolTable
 70
     5
  0
STYLE
  5
11
330
3
100
AcDbSymbolTableRecord
100
AcDbTextStyleTableRecord
  2
STANDARD
 70
     0
 40
0.0
 41
1.0
 50
0.0
 71
     0
 42
2.5
  3
simplex.shx
  4
EXTFONT.SHX
  0
STYLE
  5
52
330
3
100
AcDbSymbolTableRecord
100
AcDbTextStyleTableRecord
  2

 70
     1
 40
0.0
 41
1.0
 50
0.0
 71
     0
 42
2.5
  3
ltypeshp.shx
  4

  0
STYLE
  5
6B
330
3
100
AcDbSymbolTableRecord
100
AcDbTextStyleTableRecord
  2
ASAMI
 70
     0
 40
0.0
 41
1.0
 50
0.0
 71
     0
 42
2.5
  3
simplex.shx
  4
EXTFONT.SHX
  0
STYLE
  5
262
330
3
100
AcDbSymbolTableRecord
100
AcDbTextStyleTableRecord
  2
ACJISTS
 70
     0
 40
1.0
 41
1.0
 50
0.0
 71
     0
 42
2.5
  3
simplex.shx
  4
bigfont.shx
  0
STYLE
  5
269
330
3
100
AcDbSymbolTableRecord
100
AcDbTextStyleTableRecord
  2
ACJISGDT
 70
     0
 40
0.0
 41
1.0
 50
0.0
 71
     0
 42
2.5
  3
amgdtans.shx
  4

  0
ENDTAB
  0
TABLE
  2
VIEW
  5
6
330
0
100
AcDbSymbolTable
 70
     0
  0
ENDTAB
  0
TABLE
  2
UCS
  5
7
330
0
100
AcDbSymbolTable
 70
     0
  0
ENDTAB
  0
TABLE
  2
APPID
  5
9
330
0
100
AcDbSymbolTable
 70
    14
  0
APPID
  5
12
330
9
100
AcDbSymbolTableRecord
100
AcDbRegAppTableRecord
  2
ACAD
 70
     0
  0
APPID
  5
30
330
9
100
AcDbSymbolTableRecord
100
AcDbRegAppTableRecord
  2
MCAD_NO_VIS
 70
     0
  0
APPID
  5
31
330
9
100
AcDbSymbolTableRecord
100
AcDbRegAppTableRecord
  2
ACAD_TEMP_GRAPHIC
 70
     0
  0
APPID
  5
2C2
330
9
100
AcDbSymbolTableRecord
100
AcDbRegAppTableRecord
  2
GENIUS_GENDTOL_13
 70
     0
  0
APPID
  5
339
330
9
100
AcDbSymbolTableRecord
100
AcDbRegAppTableRecord
  2
GENIUS_GENODEF_13
 70
     0
  0
APPID
  5
33A
330
9
100
AcDbSymbolTableRecord
100
AcDbRegAppTableRecord
  2
GENIUS_GENOBJ-N-RSBK_13
 70
     0
  0
APPID
  5
33B
330
9
100
AcDbSymbolTableRecord
100
AcDbRegAppTableRecord
  2
GENIUS_GENOBJ-N-LIB_13
 70
     0
  0
APPID
  5
33C
330
9
100
AcDbSymbolTableRecord
100
AcDbRegAppTableRecord
  2
GENIUS_GENSCALE_13
 70
     0
  0
APPID
  5
378
330
9
100
AcDbSymbolTableRecord
100
AcDbRegAppTableRecord
  2
GENIUS_GENDIMSH_14
 70
     0
  0
APPID
  5
C82
330
9
100
AcDbSymbolTableRecord
100
AcDbRegAppTableRecord
  2
GENIUS_GENOBJ-N-CRS_13
 70
     0
  0
APPID
  5
C83
330
9
100
AcDbSymbolTableRecord
100
AcDbRegAppTableRecord
  2
GENIUS_GENOENT_13
 70
     0
  0
APPID
  5
C84
330
9
100
AcDbSymbolTableRecord
100
AcDbRegAppTableRecord
  2
GENIUS_GENOREF_13
 70
     0
  0
APPID
  5
C85
330
9
100
AcDbSymbolTableRecord
100
AcDbRegAppTableRecord
  2
GENIUS_GENOLIS_13
 70
     0
  0
APPID
  5
CA0
330
9
100
AcDbSymbolTableRecord
100
AcDbRegAppTableRecord
  2
GENIUS_GENOBJ-N-CEN_13
 70
     0
  0
ENDTAB
  0
TABLE
  2
DIMSTYLE
  5
A
330
0
100
AcDbSymbolTable
 70
    10
  0
DIMSTYLE
105
58
330
A
100
AcDbSymbolTableRecord
100
AcDbDimStyleTableRecord
  2
AM_JIS
 70
     0
  3

  4
"
  5
OPEN30
  6

  7

 40
1.0
 41
2.5
 42
1.0
 43
12.0
 44
1.0
 45
0.0
 46
0.0
 47
0.1
 48
0.1
140
3.2
141
0.0
142
0.0
143
0.0393701
144
1.0
145
0.0
146
0.71
147
1.5
 71
     0
 72
     0
 73
     0
 74
     0
 75
     0
 76
     0
 77
     3
 78
     8
170
     0
171
     2
172
     1
173
     0
174
     0
175
     0
176
   256
177
   256
178
     2
270
     2
271
     3
272
     3
273
     2
274
     2
340
6B
275
     0
280
     0
281
     0
282
     0
283
     0
284
     0
285
     0
286
     0
287
     3
288
     0
  0
DIMSTYLE
105
5F
330
A
100
AcDbSymbolTableRecord
100
AcDbDimStyleTableRecord
  2
AM_JIS$3
 70
     0
  3

  4
"
  5
OPEN30
  6

  7

 40
1.0
 41
2.5
 42
1.0
 43
10.0
 44
1.0
 45
0.0
 46
0.0
 47
0.1
 48
0.1
140
3.2
141
0.0
142
0.0
143
0.0393701
144
1.0
145
0.0
146
0.71
147
1.5
 71
     0
 72
     0
 73
     0
 74
     1
 75
     0
 76
     0
 77
     3
 78
     8
170
     0
171
     2
172
     0
173
     0
174
     0
175
     0
176
   256
177
   256
178
     2
270
     2
271
     2
272
     3
273
     2
274
     2
340
6B
275
     0
280
     0
281
     0
282
     0
283
     0
284
     0
285
     0
286
     0
287
     0
288
     1
  0
DIMSTYLE
105
60
330
A
100
AcDbSymbolTableRecord
100
AcDbDimStyleTableRecord
  2
AM_JIS$4
 70
     0
  3

  4
"
  5
OPEN30
  6

  7

 40
1.0
 41
2.5
 42
1.0
 43
10.0
 44
1.0
 45
0.0
 46
0.0
 47
0.1
 48
0.1
140
3.2
141
0.0
142
0.0
143
0.0393701
144
1.0
145
0.0
146
0.71
147
1.5
 71
     0
 72
     0
 73
     0
 74
     1
 75
     0
 76
     0
 77
     3
 78
     8
170
     0
171
     2
172
     0
173
     0
174
     0
175
     0
176
   256
177
   256
178
     2
270
     2
271
     2
272
     3
273
     2
274
     2
340
6B
275
     0
280
     0
281
     0
282
     0
283
     0
284
     0
285
     0
286
     0
287
     0
288
     1
  0
DIMSTYLE
105
61
330
A
100
AcDbSymbolTableRecord
100
AcDbDimStyleTableRecord
  2
AM_JIS$6
 70
     0
  3

  4
"
  5
OPEN30
  6

  7

 40
1.0
 41
2.5
 42
1.0
 43
10.0
 44
1.0
 45
0.0
 46
0.0
 47
0.1
 48
0.1
140
3.2
141
0.0
142
0.0
143
0.0393701
144
1.0
145
0.0
146
0.71
147
1.5
 71
     0
 72
     0
 73
     0
 74
     0
 75
     0
 76
     0
 77
     0
 78
     8
170
     0
171
     2
172
     1
173
     0
174
     0
175
     0
176
   256
177
   256
178
     2
270
     2
271
     2
272
     2
273
     2
274
     2
340
6B
275
     0
280
     0
281
     0
282
     0
283
     0
284
     0
285
     0
286
     0
287
     3
288
     0
  0
DIMSTYLE
105
62
330
A
100
AcDbSymbolTableRecord
100
AcDbDimStyleTableRecord
  2
AM_JIS$7
 70
     0
  3

  4
"
  5
OPEN30
  6

  7

 40
1.0
 41
2.5
 42
1.0
 43
10.0
 44
1.0
 45
0.0
 46
0.0
 47
0.1
 48
0.1
140
3.2
141
0.0
142
0.0
143
0.0393701
144
1.0
145
0.0
146
0.71
147
1.5
 71
     0
 72
     0
 73
     0
 74
     0
 75
     0
 76
     0
 77
     3
 78
     8
170
     0
171
     2
172
     1
173
     0
174
     0
175
     0
176
   256
177
   256
178
     2
270
     2
271
     2
272
     3
273
     2
274
     2
340
6B
275
     0
280
     0
281
     0
282
     0
283
     0
284
     0
285
     0
286
     0
287
     3
288
     0
  0
DIMSTYLE
105
63
330
A
100
AcDbSymbolTableRecord
100
AcDbDimStyleTableRecord
  2
AM_JIS$SF
 70
     0
  3

  4
"
  5
OPEN30
  6

  7

 40
1.0
 41
2.5
 42
1.0
 43
10.0
 44
1.0
 45
0.0
 46
0.0
 47
0.1
 48
0.1
140
3.2
141
0.0
142
0.0
143
0.0393701
144
1.0
145
0.0
146
0.71
147
1.5
 71
     0
 72
     0
 73
     0
 74
     0
 75
     1
 76
     1
 77
     3
 78
     8
170
     0
171
     2
172
     1
173
     0
174
     0
175
     0
176
   256
177
   256
178
     2
270
     2
271
     2
272
     2
273
     2
274
     2
340
6B
275
     0
280
     0
281
     0
282
     0
283
     0
284
     0
285
     0
286
     0
287
     3
288
     0
  0
DIMSTYLE
105
68
330
A
100
AcDbSymbolTableRecord
100
AcDbDimStyleTableRecord
  2
AM_JIS$SH
 70
     0
  3

  4
"
  5

  6
GENAXEH
  7
OPEN30
 40
1.0
 41
2.5
 42
1.0
 43
10.0
 44
1.0
 45
0.0
 46
0.0
 47
0.1
 48
0.1
140
3.2
141
0.0
142
0.0
143
0.0393701
144
2.0
145
0.0
146
0.71
147
1.5
 71
     0
 72
     0
 73
     0
 74
     0
 75
     1
 76
     1
 77
     3
 78
     8
170
     0
171
     2
172
     1
173
     1
174
     0
175
     0
176
   256
177
   256
178
     2
270
     2
271
     2
272
     2
273
     2
274
     2
340
6B
275
     0
280
     0
281
     0
282
     0
283
     0
284
     0
285
     0
286
     0
287
     3
288
     0
  0
DIMSTYLE
105
B34
102
{ACAD_REACTORS
330
36BA
102
}
330
A
100
AcDbSymbolTableRecord
100
AcDbDimStyleTableRecord
  2
AM_JIS$2
 70
     0
  3

  4
"
  5
OPEN30
  6

  7

 40
1.0
 41
2.5
 42
1.0
 43
12.0
 44
1.0
 45
0.0
 46
0.0
 47
0.1
 48
0.1
140
3.2
141
0.0
142
0.0
143
0.0393701
144
1.0
145
0.0
146
0.71
147
1.5
 71
     0
 72
     0
 73
     0
 74
     0
 75
     0
 76
     0
 77
     3
 78
     8
170
     0
171
     2
172
     1
173
     0
174
     0
175
     0
176
   256
177
   256
178
     2
270
     2
271
     3
272
     3
273
     2
274
     2
340
6B
275
     0
280
     0
281
     0
282
     0
283
     0
284
     0
285
     0
286
     0
287
     3
288
     0
  0
DIMSTYLE
105
BA5
102
{ACAD_REACTORS
330
3866
330
3C40
330
3D56
330
3DFD
330
53D8
330
53E5
330
53F2
330
53FF
330
55C4
102
}
330
A
100
AcDbSymbolTableRecord
100
AcDbDimStyleTableRecord
  2
AM_JIS$0
 70
     0
  3

  4
"
  5
OPEN30
  6

  7

 40
1.0
 41
2.5
 42
0.8
 43
10.0
 44
1.0
 45
0.0
 46
0.0
 47
0.1
 48
0.1000000001
140
3.799999999999999
141
0.0
142
0.0
143
0.0393701
144
1.0
145
0.0
146
0.71
147
1.5
 71
     0
 72
     0
 73
     0
 74
     0
 75
     0
 76
     0
 77
     3
 78
     9
170
     0
171
     2
172
     1
173
     0
174
     0
175
     0
176
     3
177
     3
178
     2
270
     2
271
     2
272
     2
273
     2
274
     2
340
11
275
     1
280
     0
281
     0
282
     0
283
     0
284
     8
285
     0
286
     0
287
     0
288
     0
  0
DIMSTYLE
105
BA6
330
A
100
AcDbSymbolTableRecord
100
AcDbDimStyleTableRecord
  2
AM_JISORG-1P0$2
 70
     0
  3

  4
"
  5
OPEN30
  6

  7

 40
1.0
 41
2.5
 42
0.0
 43
10.0
 44
1.0
 45
0.0
 46
0.0
 47
0.1
 48
0.1000000001
140
3.799999999999999
141
0.0
142
0.0
143
0.0393701
144
-0.999999980146674
145
0.0
146
0.71
147
1.5
 71
     0
 72
     0
 73
     0
 74
     0
 75
     0
 76
     0
 77
     3
 78
     1
170
     0
171
     2
172
     1
173
     0
174
     0
175
     0
176
     3
177
     3
178
     2
270
     2
271
     2
272
     2
273
     2
274
     2
340
11
275
     1
280
     0
281
     0
282
     0
283
     0
284
     8
285
     0
286
     0
287
     0
288
     0
  0
ENDTAB
  0
TABLE
  2
BLOCK_RECORD
  5
1
330
0
100
AcDbSymbolTable
 70
    19
  0
BLOCK_RECORD
  5
1F
102
{ACAD_XDICTIONARY
360
74
102
}
330
1
100
AcDbSymbolTableRecord
100
AcDbBlockTableRecord
  2
*MODEL_SPACE
  0
BLOCK_RECORD
  5
101
102
{ACAD_XDICTIONARY
360
5824
102
}
330
1
100
AcDbSymbolTableRecord
100
AcDbBlockTableRecord
  2
*PAPER_SPACE
  0
BLOCK_RECORD
  5
59
330
1
100
AcDbSymbolTableRecord
100
AcDbBlockTableRecord
  2
_OPEN30
  0
BLOCK_RECORD
  5
64
330
1
100
AcDbSymbolTableRecord
100
AcDbBlockTableRecord
  2
GENAXEH
  0
BLOCK_RECORD
  5
C31
330
1
100
AcDbSymbolTableRecord
100
AcDbBlockTableRecord
  2
A$C36D02A34
  0
BLOCK_RECORD
  5
2453
330
1
100
AcDbSymbolTableRecord
100
AcDbBlockTableRecord
  2
*D6
  0
BLOCK_RECORD
  5
245F
330
1
100
AcDbSymbolTableRecord
100
AcDbBlockTableRecord
  2
A$C4FFC6CC0
  0
BLOCK_RECORD
  5
36BB
330
1
100
AcDbSymbolTableRecord
100
AcDbBlockTableRecord
  2
*D8
  0
BLOCK_RECORD
  5
3867
330
1
100
AcDbSymbolTableRecord
100
AcDbBlockTableRecord
  2
*D9
  0
BLOCK_RECORD
  5
3C41
330
1
100
AcDbSymbolTableRecord
100
AcDbBlockTableRecord
  2
*D10
  0
BLOCK_RECORD
  5
3D57
330
1
100
AcDbSymbolTableRecord
100
AcDbBlockTableRecord
  2
*D11
  0
BLOCK_RECORD
  5
3DFE
330
1
100
AcDbSymbolTableRecord
100
AcDbBlockTableRecord
  2
*D12
  0
BLOCK_RECORD
  5
53D9
330
1
100
AcDbSymbolTableRecord
100
AcDbBlockTableRecord
  2
*D13
  0
BLOCK_RECORD
  5
53E6
330
1
100
AcDbSymbolTableRecord
100
AcDbBlockTableRecord
  2
*D14
  0
BLOCK_RECORD
  5
53F3
330
1
100
AcDbSymbolTableRecord
100
AcDbBlockTableRecord
  2
*D15
  0
BLOCK_RECORD
  5
5400
330
1
100
AcDbSymbolTableRecord
100
AcDbBlockTableRecord
  2
*D16
  0
BLOCK_RECORD
  5
55C5
330
1
100
AcDbSymbolTableRecord
100
AcDbBlockTableRecord
  2
*D17
  0
ENDTAB
  0
ENDSEC
  0
SECTION
  2
BLOCKS
  0
BLOCK
  5
20
330
1F
100
AcDbEntity
  8
0
100
AcDbBlockBegin
  2
*MODEL_SPACE
 70
     0
 10
0.0
 20
0.0
 30
0.0
  3
*MODEL_SPACE
  1

  0
ENDBLK
  5
21
330
1F
100
AcDbEntity
  8
0
100
AcDbBlockEnd
  0
BLOCK
  5
103
330
101
100
AcDbEntity
 67
     1
  8
0
100
AcDbBlockBegin
  2
*PAPER_SPACE
 70
     0
 10
0.0
 20
0.0
 30
0.0
  3
*PAPER_SPACE
  1

  0
ENDBLK
  5
104
330
101
100
AcDbEntity
 67
     1
  8
0
100
AcDbBlockEnd
  0
BLOCK
  5
5D
330
59
100
AcDbEntity
  8
0
100
AcDbBlockBegin
  2
_OPEN30
 70
     0
 10
0.0
 20
0.0
 30
0.0
  3
_OPEN30
  1

  0
LINE
  5
5A
330
59
100
AcDbEntity
  8
0
 62
     0
100
AcDbLine
 10
-1.0
 20
0.26794919
 30
0.0
 11
0.0
 21
0.0
 31
0.0
  0
LINE
  5
5B
330
59
100
AcDbEntity
  8
0
 62
     0
100
AcDbLine
 10
0.0
 20
0.0
 30
0.0
 11
-1.0
 21
-0.26794919
 31
0.0
  0
LINE
  5
5C
330
59
100
AcDbEntity
  8
0
 62
     0
100
AcDbLine
 10
0.0
 20
0.0
 30
0.0
 11
-1.0
 21
0.0
 31
0.0
  0
ENDBLK
  5
5E
330
59
100
AcDbEntity
  8
0
100
AcDbBlockEnd
  0
BLOCK
  5
66
330
64
100
AcDbEntity
  8
0
100
AcDbBlockBegin
  2
GENAXEH
 70
     0
 10
0.0
 20
0.0
 30
0.0
  3
GENAXEH
  1

  0
LINE
  5
65
330
64
100
AcDbEntity
  8
0
100
AcDbLine
 10
-1.0
 20
0.0
 30
0.0
 11
1.0
 21
0.0
 31
0.0
  0
ENDBLK
  5
67
330
64
100
AcDbEntity
  8
0
100
AcDbBlockEnd
  0
BLOCK
  5
C4B
330
C31
100
AcDbEntity
  8
0
100
AcDbBlockBegin
  2
A$C36D02A34
 70
     0
 10
0.0
 20
0.0
 30
0.0
  3
A$C36D02A34
  1

  0
ARC
  5
C32
330
C31
100
AcDbEntity
  8
PV0001_1
  6
CONTINUOUS
 48
0.5
100
AcDbCircle
 10
18.06811523436999
 20
-11.83651161193799
 30
0.0
 40
21.600000381469
100
AcDbArc
 50
123.2290435713209
 51
126.6341524197568
  0
ARC
  5
C33
330
C31
100
AcDbEntity
  8
PV0001_1
  6
CONTINUOUS
 48
0.5
100
AcDbCircle
 10
18.06811523436999
 20
-11.83651161193799
 30
0.0
 40
21.600000381469
100
AcDbArc
 50
135.0736707620117
 51
146.7709980930592
  0
ARC
  5
C34
330
C31
100
AcDbEntity
  8
PV0001_1
  6
CONTINUOUS
 48
0.5
100
AcDbCircle
 10
-18.0680770874
 20
11.8365631103514
 30
0.0
 40
21.600000381469
100
AcDbArc
 50
315.0734847530392
 51
326.770781348241
  0
ARC
  5
C35
330
C31
100
AcDbEntity
  8
PV0001_1
  6
CONTINUOUS
 48
0.5
100
AcDbCircle
 10
-18.0680770874
 20
11.8365631103514
 30
0.0
 40
21.600000381469
100
AcDbArc
 50
303.2288882981993
 51
306.633986901359
  0
ARC
  5
C36
330
C31
100
AcDbEntity
  8
PV0001_1
  6
CONTINUOUS
 48
0.5
100
AcDbCircle
 10
-0.6269836425800009
 20
-2.044216156005997
 30
0.0
 40
2.0
100
AcDbArc
 50
337.4067997351092
 51
43.42231293132884
  0
ARC
  5
C37
330
C31
100
AcDbEntity
  8
PV0001_1
  6
CONTINUOUS
 48
0.5
100
AcDbCircle
 10
0.626953125
 20
2.044223785401001
 30
0.0
 40
2.0
100
AcDbArc
 50
157.4068184044407
 51
223.4222769591536
  0
CIRCLE
  5
C38
330
C31
100
AcDbEntity
  8
PV0001_1
  6
CONTINUOUS
 48
0.5
100
AcDbCircle
 10
3.856727600100001
 20
4.596265792847002
 30
0.0
 40
1.6000000238419
  0
CIRCLE
  5
C39
330
C31
100
AcDbEntity
  8
PV0001_1
  6
CONTINUOUS
 48
0.5
100
AcDbCircle
 10
-3.856727600100001
 20
-4.596265792845997
 30
0.0
 40
1.6000000238419
  0
ARC
  5
C3A
330
C31
100
AcDbEntity
  8
PV0001_1
  6
CONTINUOUS
 48
0.5
100
AcDbCircle
 10
-5.58123779297
 20
5.092639923096001
 30
0.0
 40
5.019082546234099
100
AcDbArc
 50
240.2658959250867
 51
321.5156269706421
  0
ARC
  5
C3B
330
C31
100
AcDbEntity
  8
PV0001_1
  6
CONTINUOUS
 48
0.5
100
AcDbCircle
 10
5.486755371089998
 20
-4.601703643798998
 30
0.0
 40
4.651036739349399
100
AcDbArc
 50
56.25271400417071
 51
145.528859890601
  0
ARC
  5
C3C
330
C31
100
AcDbEntity
  8
PV0001_1
  6
CONTINUOUS
 48
0.5
100
AcDbCircle
 10
-2.11590576172
 20
-3.453323364257997
 30
0.0
 40
4.050000190734899
100
AcDbArc
 50
43.42230610113921
 51
58.50391703385149
  0
ARC
  5
C3D
330
C31
100
AcDbEntity
  8
PV0001_1
  6
CONTINUOUS
 48
0.5
100
AcDbCircle
 10
2.115875244139999
 20
3.453330993653001
 30
0.0
 40
4.050000190734899
100
AcDbArc
 50
223.4222942619974
 51
238.5038164022482
  0
ARC
  5
C3E
330
C31
100
AcDbEntity
  8
PV0001_1
  6
CONTINUOUS
 48
0.5
100
AcDbCircle
 10
-6.70369720459
 20
5.094657897949002
 30
0.0
 40
5.940000057220499
100
AcDbArc
 50
328.2536768887549
 51
31.74641873389623
  0
ARC
  5
C3F
330
C31
100
AcDbEntity
  8
PV0001_1
  6
CONTINUOUS
 48
0.5
100
AcDbCircle
 10
6.703674316410001
 20
-5.094650268553998
 30
0.0
 40
5.940000057220499
100
AcDbArc
 50
148.2533403882529
 51
211.7466423089037
  0
ARC
  5
C40
330
C31
100
AcDbEntity
  8
PV0001_1
  6
CONTINUOUS
 48
0.5
100
AcDbCircle
 10
0.0
 20
0.0
 30
0.0
 40
8.812800407409699
100
AcDbArc
 50
175.2198288164333
 51
272.8622597568298
  0
ARC
  5
C41
330
C31
100
AcDbEntity
  8
PV0001_1
  6
CONTINUOUS
 48
0.5
100
AcDbCircle
 10
0.0
 20
0.0
 30
0.0
 40
9.1800003051758
100
AcDbArc
 50
272.7511362215027
 51
280.3697477877874
  0
ARC
  5
C42
330
C31
100
AcDbEntity
  8
PV0001_1
  6
CONTINUOUS
 48
0.5
100
AcDbCircle
 10
0.0
 20
0.0
 30
0.0
 40
8.812800407409699
100
AcDbArc
 50
355.2198199654955
 51
92.86229572901076
  0
ARC
  5
C43
330
C31
100
AcDbEntity
  8
PV0001_1
  6
CONTINUOUS
 48
0.5
100
AcDbCircle
 10
0.0
 20
0.0
 30
0.0
 40
9.1800003051758
100
AcDbArc
 50
92.75115489083434
 51
100.3697664571193
  0
CIRCLE
  5
C44
330
C31
100
AcDbEntity
  8
PV0001_1
  6
CONTINUOUS
100
AcDbCircle
 10
0.0
 20
0.0
 30
0.0
 40
9.1800003051758
  0
LINE
  5
C45
330
C31
100
AcDbEntity
  8
PV0001_1
  6
CONTINUOUS
 48
0.5
100
AcDbLine
 10
-1.652404785160001
 20
9.030059814453
 30
0.0
 11
-1.652404785160001
 21
8.220062255860002
 31
0.0
  0
LINE
  5
C46
330
C31
100
AcDbEntity
  8
PV0001_1
  6
CONTINUOUS
 48
0.5
100
AcDbLine
 10
1.652404785160001
 20
-8.220058441161999
 30
0.0
 11
1.652404785160001
 21
-9.030055999755997
 31
0.0
  0
LINE
  5
C47
330
C31
100
AcDbEntity
  8
PV0001_1
  6
CONTINUOUS
 48
0.5
100
AcDbLine
 10
-8.78217315674
 20
0.7343807220460015
 30
0.0
 11
-8.070594787600001
 21
0.7343997955320028
 31
0.0
  0
LINE
  5
C48
330
C31
100
AcDbEntity
  8
PV0001_1
  6
CONTINUOUS
 48
0.5
100
AcDbLine
 10
8.07057952881
 20
-0.7343864440919994
 30
0.0
 11
8.78215789795
 21
-0.7343654632569994
 31
0.0
  0
LINE
  5
C49
330
C31
100
AcDbEntity
  8
PV0001_1
  6
CONTINUOUS
 48
0.5
100
AcDbLine
 10
0.4406127929700006
 20
-9.169414520263
 30
0.0
 11
0.4406127929700006
 21
-8.812801361083998
 31
0.0
  0
LINE
  5
C4A
330
C31
100
AcDbEntity
  8
PV0001_1
  6
CONTINUOUS
 48
0.5
100
AcDbLine
 10
-0.4406127929700006
 20
9.169418334961001
 30
0.0
 11
-0.4406127929700006
 21
8.812805175781001
 31
0.0
  0
ENDBLK
  5
C4C
330
C31
100
AcDbEntity
  8
0
100
AcDbBlockEnd
  0
BLOCK
  5
245D
330
2453
100
AcDbEntity
  8
0
100
AcDbBlockBegin
  2
*D6
 70
     1
 10
0.0
 20
0.0
 30
0.0
  3
*D6
  1

  0
LINE
  5
2454
330
2453
100
AcDbEntity
  8
AM_5
 62
     3
100
AcDbLine
 10
-137.574381722344
 20
-5.00000294019065
 30
0.0
 11
-152.8199008769066
 21
-5.000002940190694
 31
0.0
  0
LINE
  5
2455
330
2453
100
AcDbEntity
  8
AM_5
 62
     3
100
AcDbLine
 10
-137.5743817223442
 20
5.00002461040103
 30
0.0
 11
-152.8199008769066
 21
5.000024610400987
 31
0.0
  0
LINE
  5
2456
330
2453
100
AcDbEntity
  8
AM_5
 62
     3
100
AcDbLine
 10
-151.8199008769066
 20
-2.500002940190691
 30
0.0
 11
-151.8199008769066
 21
2.50002461040099
 31
0.0
  0
INSERT
  5
2457
330
2453
100
AcDbEntity
  8
AM_5
 62
     3
100
AcDbBlockReference
  2
_OPEN30
 10
-151.8199008769066
 20
-5.00000294019069
 30
0.0
 41
2.5
 42
2.5
 43
2.5
 50
270.0000000000001
  0
INSERT
  5
2458
330
2453
100
AcDbEntity
  8
AM_5
 62
     3
100
AcDbBlockReference
  2
_OPEN30
 10
-151.8199008769066
 20
5.00002461040099
 30
0.0
 41
2.5
 42
2.5
 43
2.5
 50
90.00000000000015
  0
MTEXT
  5
2459
330
2453
100
AcDbEntity
  8
AM_5
 62
     2
100
AcDbMText
 10
-155.2199008769066
 20
0.000010835105146
 30
0.0
 40
3.799999999999999
 41
0.0
 71
     5
 72
     1
  1
%%c10
 11
-0.0000000000000028
 21
1.0
 31
0.0
1001
ACAD
1000
MTEXTBEGIN
1070
    73
1070
     1
1070
    44
1040
1.0
1070
    74
1070
     0
1000
MTEXTEND
  0
POINT
  5
245A
330
2453
100
AcDbEntity
  8
DEFPOINTS
 62
     0
100
AcDbPoint
 10
-137.5743817223441
 20
-5.000002940190223
 30
0.0
  0
POINT
  5
245B
330
2453
100
AcDbEntity
  8
DEFPOINTS
 62
     0
100
AcDbPoint
 10
-137.5743817223441
 20
5.000024610401458
 30
0.0
  0
POINT
  5
245C
330
2453
100
AcDbEntity
  8
DEFPOINTS
 62
     0
100
AcDbPoint
 10
-151.8199008769066
 20
5.000024610401462
 30
0.0
  0
ENDBLK
  5
245E
330
2453
100
AcDbEntity
  8
0
100
AcDbBlockEnd
  0
BLOCK
  5
246B
330
245F
100
AcDbEntity
  8
0
100
AcDbBlockBegin
  2
A$C4FFC6CC0
 70
     0
 10
0.0
 20
0.0
 30
0.0
  3
A$C4FFC6CC0
  1

  0
DIMENSION
  5
2460
330
245F
100
AcDbEntity
  8
AM_5
100
AcDbDimension
  2
*D6
 10
-70.00000100000002
 20
5.000008477104842
 30
0.0
 11
-70.00000100000002
 21
-0.0000052981910228
 31
0.0
 12
81.81989987690661
 22
-0.0000161332966199
 32
0.0
 70
   128
  1
%%c<>
 51
359.9999999999998
  3
AM_JIS$0
100
AcDbAlignedDimension
 13
-55.75448184543748
 23
-5.000019073486843
 33
0.0
 14
-55.75448184543756
 24
5.000008477104838
 34
0.0
 50
270.0
100
AcDbRotatedDimension
1001
ACAD
1000
DSTYLE
1002
{
1070
   271
1070
     0
1002
}
1001
GENIUS_GENDTOL_13
1000

1000
h7
1000

1040
0.0
  0
LINE
  5
2461
330
245F
100
AcDbEntity
  8
AM_0
 48
0.5
100
AcDbLine
 10
-56.0
 20
-4.754495620727796
 30
0.0
 11
-56.00000000000003
 21
4.754485024345811
 31
0.0
  0
LINE
  5
2462
330
245F
100
AcDbEntity
  8
AM_0
 48
0.5
100
AcDbLine
 10
-55.75448184543751
 20
-5.000019073486843
 30
0.0
 11
-55.75448184543754
 21
5.000008477104838
 31
0.0
  0
LINE
  5
2463
330
245F
100
AcDbEntity
  8
AM_0
100
AcDbLine
 10
-0.0000000000000142
 20
4.999995231627903
 30
0.0
 11
-55.75448184543754
 21
4.999995231627746
 31
0.0
  0
LINE
  5
2464
330
245F
100
AcDbEntity
  8
AM_0
 48
0.5
100
AcDbLine
 10
-55.99996821086117
 20
4.754439989725671
 30
0.0
 11
-55.75443945990975
 21
4.999963442484006
 31
0.0
  0
LINE
  5
2465
330
245F
100
AcDbEntity
  8
AM_0
100
AcDbLine
 10
-55.75448184543751
 20
-5.000008477105588
 30
0.0
 11
0.0000000000000142
 21
-5.00000847710543
 31
0.0
  0
LINE
  5
2466
330
245F
100
AcDbEntity
  8
AM_0
 48
0.5
100
AcDbLine
 10
-55.99996821086114
 20
-4.754474427965309
 30
0.0
 11
-55.75443945990972
 21
-4.999997880724334
 31
0.0
  0
LINE
  5
2467
330
245F
100
AcDbEntity
  8
AM_0
100
AcDbLine
 10
0.7794201296714505
 20
4.549985867772141
 30
0.0
 11
0.7794201296714789
 21
-4.550003370497427
 31
0.0
  0
LINE
  5
2468
330
245F
100
AcDbEntity
  8
AM_0
 48
0.5
100
AcDbLine
 10
0.0000000000000142
 20
-5.00000847710543
 30
0.0
 11
-0.0000000000000142
 21
5.000008477104995
 31
0.0
  0
LINE
  5
2469
330
245F
100
AcDbEntity
  8
AM_0
 48
0.5
100
AcDbLine
 10
0.7794201296714647
 20
-4.550003370497435
 30
0.0
 11
-0.0000105963812445
 21
-5.00000847710543
 31
0.0
  0
LINE
  5
246A
330
245F
100
AcDbEntity
  8
AM_0
 48
0.5
100
AcDbLine
 10
0.7794201296714647
 20
4.549985867772141
 30
0.0
 11
-0.0000000000000142
 21
4.999984635246652
 31
0.0
  0
ENDBLK
  5
246C
330
245F
100
AcDbEntity
  8
0
100
AcDbBlockEnd
  0
BLOCK
  5
36C9
330
36BB
100
AcDbEntity
  8
0
100
AcDbBlockBegin
  2
*D8
 70
     1
 10
0.0
 20
0.0
 30
0.0
  3
*D8
  1

  0
LINE
  5
4149
330
36BB
100
AcDbEntity
  8
AM_5
100
AcDbLine
 10
0.3420201408161502
 20
-0.9396926216994629
 30
0.0
 11
11.31017982904546
 21
-31.07446394848497
 31
0.0
  0
LINE
  5
414A
330
36BB
100
AcDbEntity
  8
AM_5
100
AcDbLine
 10
0.3420201408161393
 20
0.939692621699157
 30
0.0
 11
11.3101798290451
 21
31.07446394848479
 31
0.0
  0
ARC
  5
414B
330
36BB
100
AcDbEntity
  8
AM_5
100
AcDbCircle
 10
0.0000000000000263
 20
-0.000000000000155
 30
0.0
 40
32.06875379343813
100
AcDbArc
 50
294.4677676365269
 51
65.53223236347371
  0
INSERT
  5
414C
330
36BB
100
AcDbEntity
  8
AM_5
100
AcDbBlockReference
  2
_OPEN30
 10
10.96815968822934
 20
-30.13477132678566
 30
0.0
 41
2.5
 42
2.5
 43
2.5
 50
202.2338837417563
  0
INSERT
  5
414D
330
36BB
100
AcDbEntity
  8
AM_5
100
AcDbBlockReference
  2
_OPEN30
 10
10.96815968822899
 20
30.13477132678548
 30
0.0
 41
2.5
 42
2.5
 43
2.5
 50
157.7661162582443
  0
MTEXT
  5
414E
330
36BB
100
AcDbEntity
  8
AM_5
 62
     2
100
AcDbMText
 10
28.96875379343816
 20
0.0000000000000357
 30
0.0
 40
3.2
 41
0.0
 71
     5
 72
     1
  1
140°
  7
ASAMI
 11
-0.0000000000000028
 21
1.0
 31
0.0
1001
ACAD
1000
MTEXTBEGIN
1070
    73
1070
     1
1070
    44
1040
1.0
1070
    74
1070
     0
1000
MTEXTEND
  0
POINT
  5
414F
330
36BB
100
AcDbEntity
  8
DEFPOINTS
 62
     0
100
AcDbPoint
 10
29.44604624940567
 20
-12.70178452588532
 30
0.0
  0
POINT
  5
4150
330
36BB
100
AcDbEntity
  8
DEFPOINTS
 62
     0
100
AcDbPoint
 10
0.0
 20
-0.0000000000002274
 30
0.0
  0
POINT
  5
4151
330
36BB
100
AcDbEntity
  8
DEFPOINTS
 62
     0
100
AcDbPoint
 10
0.0
 20
-0.0000000000000827
 30
0.0
  0
POINT
  5
4152
330
36BB
100
AcDbEntity
  8
DEFPOINTS
 62
     0
100
AcDbPoint
 10
-2.547791618692619
 20
6.999999999999763
 30
0.0
  0
POINT
  5
4153
330
36BB
100
AcDbEntity
  8
DEFPOINTS
 62
     0
100
AcDbPoint
 10
-2.547791618692583
 20
-7.000000000000091
 30
0.0
  0
ENDBLK
  5
36CA
330
36BB
100
AcDbEntity
  8
0
100
AcDbBlockEnd
  0
BLOCK
  5
3871
330
3867
100
AcDbEntity
  8
0
100
AcDbBlockBegin
  2
*D9
 70
     1
 10
0.0
 20
0.0
 30
0.0
  3
*D9
  1

  0
LINE
  5
568D
330
3867
100
AcDbEntity
  8
AM_5
 62
     3
100
AcDbLine
 10
-164.113972671337
 20
12.52500938462125
 30
0.0
 11
-181.9464609220607
 21
12.5250093846212
 31
0.0
  0
LINE
  5
568E
330
3867
100
AcDbEntity
  8
AM_5
 62
     3
100
AcDbLine
 10
-164.1139726713369
 20
-12.47489334306183
 30
0.0
 11
-181.9464609220606
 21
-12.47489334306188
 31
0.0
  0
LINE
  5
568F
330
3867
100
AcDbEntity
  8
AM_5
 62
     3
100
AcDbLine
 10
-180.9464609220607
 20
10.0250093846212
 30
0.0
 11
-180.9464609220606
 21
-9.974893343061879
 31
0.0
  0
INSERT
  5
5690
330
3867
100
AcDbEntity
  8
AM_5
 62
     3
100
AcDbBlockReference
  2
_OPEN30
 10
-180.9464609220607
 20
12.5250093846212
 30
0.0
 41
2.5
 42
2.5
 43
2.5
 50
90.00000000000017
  0
INSERT
  5
5691
330
3867
100
AcDbEntity
  8
AM_5
 62
     3
100
AcDbBlockReference
  2
_OPEN30
 10
-180.9464609220606
 20
-12.47489334306187
 30
0.0
 41
2.5
 42
2.5
 43
2.5
 50
270.0000000000001
  0
MTEXT
  5
5692
330
3867
100
AcDbEntity
  8
AM_5
 62
     2
100
AcDbMText
 10
-184.3464609220607
 20
0.0250580207796621
 30
0.0
 40
3.799999999999999
 41
0.0
 71
     5
 72
     1
  1
%%C25
 11
-0.0000000000000028
 21
1.0
 31
0.0
1001
ACAD
1000
MTEXTBEGIN
1070
    73
1070
     1
1070
    44
1040
1.0
1070
    74
1070
     0
1000
MTEXTEND
  0
POINT
  5
5693
330
3867
100
AcDbEntity
  8
DEFPOINTS
 62
     0
100
AcDbPoint
 10
-163.313972671337
 20
12.52500938462176
 30
0.0
  0
POINT
  5
5694
330
3867
100
AcDbEntity
  8
DEFPOINTS
 62
     0
100
AcDbPoint
 10
-163.3139726713369
 20
-12.47489334306132
 30
0.0
  0
POINT
  5
5695
330
3867
100
AcDbEntity
  8
DEFPOINTS
 62
     0
100
AcDbPoint
 10
-180.9464609220606
 20
-12.47489334306131
 30
0.0
  0
ENDBLK
  5
3872
330
3867
100
AcDbEntity
  8
0
100
AcDbBlockEnd
  0
BLOCK
  5
3C4B
330
3C41
100
AcDbEntity
  8
0
100
AcDbBlockBegin
  2
*D10
 70
     1
 10
0.0
 20
0.0
 30
0.0
  3
*D10
  1

  0
LINE
  5
56C5
330
3C41
100
AcDbEntity
  8
AM_5
 62
     3
100
AcDbLine
 10
-107.9996198281083
 20
-13.27503639174651
 30
0.0
 11
-107.9996198281082
 21
-42.30366044855486
 31
0.0
  0
LINE
  5
56C6
330
3C41
100
AcDbEntity
  8
AM_5
 62
     3
100
AcDbLine
 10
-163.9995339974332
 20
-12.61209445906814
 30
0.0
 11
-163.9995339974331
 21
-42.30366044855503
 31
0.0
  0
LINE
  5
56C7
330
3C41
100
AcDbEntity
  8
AM_5
 62
     3
100
AcDbLine
 10
-110.4996198281082
 20
-41.30366044855487
 30
0.0
 11
-161.4995339974331
 21
-41.30366044855501
 31
0.0
  0
INSERT
  5
56C8
330
3C41
100
AcDbEntity
  8
AM_5
 62
     3
100
AcDbBlockReference
  2
_OPEN30
 10
-107.9996198281083
 20
-41.30366044855486
 30
0.0
 41
2.5
 42
2.5
 43
2.5
 50
0.0000000000001527
  0
INSERT
  5
56C9
330
3C41
100
AcDbEntity
  8
AM_5
 62
     3
100
AcDbBlockReference
  2
_OPEN30
 10
-163.9995339974331
 20
-41.30366044855502
 30
0.0
 41
2.5
 42
2.5
 43
2.5
 50
180.0000000000001
  0
MTEXT
  5
56CA
330
3C41
100
AcDbEntity
  8
AM_5
 62
     2
100
AcDbMText
 10
-135.9995769127707
 20
-37.90366044855495
 30
0.0
 40
3.799999999999999
 41
0.0
 71
     5
 72
     1
  1
56
1001
ACAD
1000
MTEXTBEGIN
1070
    73
1070
     1
1070
    44
1040
1.0
1070
    74
1070
     0
1000
MTEXTEND
  0
POINT
  5
56CB
330
3C41
100
AcDbEntity
  8
DEFPOINTS
 62
     0
100
AcDbPoint
 10
-107.9996198281084
 20
-12.4750363917462
 30
0.0
  0
POINT
  5
56CC
330
3C41
100
AcDbEntity
  8
DEFPOINTS
 62
     0
100
AcDbPoint
 10
-163.9995339974332
 20
-11.81209445906766
 30
0.0
  0
POINT
  5
56CD
330
3C41
100
AcDbEntity
  8
DEFPOINTS
 62
     0
100
AcDbPoint
 10
-163.9995339974332
 20
-41.30366044855455
 30
0.0
  0
ENDBLK
  5
3C4C
330
3C41
100
AcDbEntity
  8
0
100
AcDbBlockEnd
  0
BLOCK
  5
3D63
330
3D57
100
AcDbEntity
  8
0
100
AcDbBlockBegin
  2
*D11
 70
     1
 10
0.0
 20
0.0
 30
0.0
  3
*D11
  1

  0
LINE
  5
569F
330
3D57
100
AcDbEntity
  8
AM_5
 62
     3
100
AcDbLine
 10
-163.9995339974332
 20
-12.61209445906814
 30
0.0
 11
-163.9995339974332
 21
-29.47941722561783
 31
0.0
  0
LINE
  5
56A0
330
3D57
100
AcDbEntity
  8
AM_5
 62
     3
100
AcDbLine
 10
-157.9996311935109
 20
-0.8000000000009551
 30
0.0
 11
-157.9996311935108
 21
-29.47941722561781
 31
0.0
  0
LINE
  5
56A1
330
3D57
100
AcDbEntity
  8
AM_5
 62
     3
100
AcDbLine
 10
-166.4995339974332
 20
-28.47941722561784
 30
0.0
 11
-168.9995339974332
 21
-28.47941722561785
 31
0.0
  0
LINE
  5
56A2
330
3D57
100
AcDbEntity
  8
AM_5
 62
     3
100
AcDbLine
 10
-155.4996311935108
 20
-28.47941722561781
 30
0.0
 11
-152.9996311935108
 21
-28.4794172256178
 31
0.0
  0
LINE
  5
56A3
330
3D57
100
AcDbEntity
  8
AM_5
 62
     3
100
AcDbLine
 10
-163.9995339974332
 20
-28.47941722561783
 30
0.0
 11
-157.9996311935108
 21
-28.47941722561781
 31
0.0
  0
INSERT
  5
56A4
330
3D57
100
AcDbEntity
  8
AM_5
 62
     3
100
AcDbBlockReference
  2
_OPEN30
 10
-163.9995339974332
 20
-28.47941722561783
 30
0.0
 41
2.5
 42
2.5
 43
2.5
 50
0.0000000000001527
  0
INSERT
  5
56A5
330
3D57
100
AcDbEntity
  8
AM_5
 62
     3
100
AcDbBlockReference
  2
_OPEN30
 10
-157.9996311935108
 20
-28.47941722561781
 30
0.0
 41
2.5
 42
2.5
 43
2.5
 50
180.0000000000001
  0
MTEXT
  5
56A6
330
3D57
100
AcDbEntity
  8
AM_5
 62
     2
100
AcDbMText
 10
-160.999582595472
 20
-25.07941722561783
 30
0.0
 40
3.799999999999999
 41
0.0
 71
     5
 72
     1
  1
6
1001
ACAD
1000
MTEXTBEGIN
1070
    73
1070
     1
1070
    44
1040
1.0
1070
    74
1070
     0
1000
MTEXTEND
  0
POINT
  5
56A7
330
3D57
100
AcDbEntity
  8
DEFPOINTS
 62
     0
100
AcDbPoint
 10
-163.9995339974332
 20
-11.81209445906766
 30
0.0
  0
POINT
  5
56A8
330
3D57
100
AcDbEntity
  8
DEFPOINTS
 62
     0
100
AcDbPoint
 10
-157.9996311935109
 20
-0.0000000000004954
 30
0.0
  0
POINT
  5
56A9
330
3D57
100
AcDbEntity
  8
DEFPOINTS
 62
     0
100
AcDbPoint
 10
-157.9996311935109
 20
-28.47941722561735
 30
0.0
  0
ENDBLK
  5
3D64
330
3D57
100
AcDbEntity
  8
0
100
AcDbBlockEnd
  0
BLOCK
  5
3E08
330
3DFE
100
AcDbEntity
  8
0
100
AcDbBlockBegin
  2
*D12
 70
     1
 10
0.0
 20
0.0
 30
0.0
  3
*D12
  1

  0
LINE
  5
5696
330
3DFE
100
AcDbEntity
  8
AM_5
 62
     3
100
AcDbLine
 10
-157.9996311935109
 20
-0.8000000000009551
 30
0.0
 11
-157.9996311935108
 21
-29.4794172256176
 31
0.0
  0
LINE
  5
5697
330
3DFE
100
AcDbEntity
  8
AM_5
 62
     3
100
AcDbLine
 10
-112.9996198281084
 20
-0.8000000000007357
 30
0.0
 11
-112.9996198281083
 21
-29.47941722561747
 31
0.0
  0
LINE
  5
5698
330
3DFE
100
AcDbEntity
  8
AM_5
 62
     3
100
AcDbLine
 10
-155.4996311935108
 20
-28.4794172256176
 30
0.0
 11
-115.4996198281083
 21
-28.47941722561748
 31
0.0
  0
INSERT
  5
5699
330
3DFE
100
AcDbEntity
  8
AM_5
 62
     3
100
AcDbBlockReference
  2
_OPEN30
 10
-157.9996311935108
 20
-28.4794172256176
 30
0.0
 41
2.5
 42
2.5
 43
2.5
 50
180.0000000000001
  0
INSERT
  5
569A
330
3DFE
100
AcDbEntity
  8
AM_5
 62
     3
100
AcDbBlockReference
  2
_OPEN30
 10
-112.9996198281083
 20
-28.47941722561747
 30
0.0
 41
2.5
 42
2.5
 43
2.5
 50
0.0000000000001527
  0
MTEXT
  5
569B
330
3DFE
100
AcDbEntity
  8
AM_5
 62
     2
100
AcDbMText
 10
-135.4996255108096
 20
-25.07941722561754
 30
0.0
 40
3.799999999999999
 41
0.0
 71
     5
 72
     1
  1
45
1001
ACAD
1000
MTEXTBEGIN
1070
    73
1070
     1
1070
    44
1040
1.0
1070
    74
1070
     0
1000
MTEXTEND
  0
POINT
  5
569C
330
3DFE
100
AcDbEntity
  8
DEFPOINTS
 62
     0
100
AcDbPoint
 10
-157.9996311935109
 20
-0.0000000000004954
 30
0.0
  0
POINT
  5
569D
330
3DFE
100
AcDbEntity
  8
DEFPOINTS
 62
     0
100
AcDbPoint
 10
-112.9996198281084
 20
-0.0000000000004069
 30
0.0
  0
POINT
  5
569E
330
3DFE
100
AcDbEntity
  8
DEFPOINTS
 62
     0
100
AcDbPoint
 10
-112.9996198281084
 20
-28.47941722561714
 30
0.0
  0
ENDBLK
  5
3E09
330
3DFE
100
AcDbEntity
  8
0
100
AcDbBlockEnd
  0
BLOCK
  5
53E3
330
53D9
100
AcDbEntity
  8
0
100
AcDbBlockBegin
  2
*D13
 70
     1
 10
0.0
 20
0.0
 30
0.0
  3
*D13
  1

  0
LINE
  5
56B3
330
53D9
100
AcDbEntity
  8
AM_5
 62
     3
100
AcDbLine
 10
-3.999619828108405
 20
-11.00697674418614
 30
0.0
 11
-3.999619828108279
 21
-55.32888609081338
 31
0.0
  0
LINE
  5
56B4
330
53D9
100
AcDbEntity
  8
AM_5
 62
     3
100
AcDbLine
 10
-163.9995339974332
 20
-13.49113404671876
 30
0.0
 11
-163.9995339974331
 21
-55.32888609081385
 31
0.0
  0
LINE
  5
56B5
330
53D9
100
AcDbEntity
  8
AM_5
 62
     3
100
AcDbLine
 10
-6.499619828108281
 20
-54.32888609081339
 30
0.0
 11
-161.4995339974331
 21
-54.32888609081384
 31
0.0
  0
INSERT
  5
56B6
330
53D9
100
AcDbEntity
  8
AM_5
 62
     3
100
AcDbBlockReference
  2
_OPEN30
 10
-3.999619828108281
 20
-54.32888609081338
 30
0.0
 41
2.5
 42
2.5
 43
2.5
 50
0.0000000000001527
  0
INSERT
  5
56B7
330
53D9
100
AcDbEntity
  8
AM_5
 62
     3
100
AcDbBlockReference
  2
_OPEN30
 10
-163.9995339974331
 20
-54.32888609081384
 30
0.0
 41
2.5
 42
2.5
 43
2.5
 50
180.0000000000001
  0
MTEXT
  5
56B8
330
53D9
100
AcDbEntity
  8
AM_5
 62
     2
100
AcDbMText
 10
-83.99957691277071
 20
-50.92888609081361
 30
0.0
 40
3.799999999999999
 41
0.0
 71
     5
 72
     1
  1
160
1001
ACAD
1000
MTEXTBEGIN
1070
    73
1070
     1
1070
    44
1040
1.0
1070
    74
1070
     0
1000
MTEXTEND
  0
POINT
  5
56B9
330
53D9
100
AcDbEntity
  8
DEFPOINTS
 62
     0
100
AcDbPoint
 10
-3.999619828108437
 20
-10.20697674418612
 30
0.0
  0
POINT
  5
56BA
330
53D9
100
AcDbEntity
  8
DEFPOINTS
 62
     0
100
AcDbPoint
 10
-163.9995339974332
 20
-12.69113404671828
 30
0.0
  0
POINT
  5
56BB
330
53D9
100
AcDbEntity
  8
DEFPOINTS
 62
     0
100
AcDbPoint
 10
-163.9995339974332
 20
-54.32888609081337
 30
0.0
  0
ENDBLK
  5
53E4
330
53D9
100
AcDbEntity
  8
0
100
AcDbBlockEnd
  0
BLOCK
  5
53F0
330
53E6
100
AcDbEntity
  8
0
100
AcDbBlockBegin
  2
*D14
 70
     1
 10
0.0
 20
0.0
 30
0.0
  3
*D14
  1

  0
LINE
  5
56BC
330
53E6
100
AcDbEntity
  8
AM_5
 62
     3
100
AcDbLine
 10
-3.999619828108405
 20
-11.00697674418614
 30
0.0
 11
-3.999619828108316
 21
-42.3036604485543
 31
0.0
  0
LINE
  5
56BD
330
53E6
100
AcDbEntity
  8
AM_5
 62
     3
100
AcDbLine
 10
-107.9996198281083
 20
-13.27503639174652
 30
0.0
 11
-107.9996198281083
 21
-42.3036604485546
 31
0.0
  0
LINE
  5
56BE
330
53E6
100
AcDbEntity
  8
AM_5
 62
     3
100
AcDbLine
 10
-6.499619828108319
 20
-41.3036604485543
 30
0.0
 11
-105.4996198281083
 21
-41.30366044855459
 31
0.0
  0
INSERT
  5
56BF
330
53E6
100
AcDbEntity
  8
AM_5
 62
     3
100
AcDbBlockReference
  2
_OPEN30
 10
-3.999619828108318
 20
-41.3036604485543
 30
0.0
 41
2.5
 42
2.5
 43
2.5
 50
0.0000000000001527
  0
INSERT
  5
56C0
330
53E6
100
AcDbEntity
  8
AM_5
 62
     3
100
AcDbBlockReference
  2
_OPEN30
 10
-107.9996198281083
 20
-41.3036604485546
 30
0.0
 41
2.5
 42
2.5
 43
2.5
 50
180.0000000000001
  0
MTEXT
  5
56C1
330
53E6
100
AcDbEntity
  8
AM_5
 62
     2
100
AcDbMText
 10
-55.99961982810832
 20
-37.90366044855445
 30
0.0
 40
3.799999999999999
 41
0.0
 71
     5
 72
     1
  1
104
1001
ACAD
1000
MTEXTBEGIN
1070
    73
1070
     1
1070
    44
1040
1.0
1070
    74
1070
     0
1000
MTEXTEND
  0
POINT
  5
56C2
330
53E6
100
AcDbEntity
  8
DEFPOINTS
 62
     0
100
AcDbPoint
 10
-3.999619828108437
 20
-10.20697674418612
 30
0.0
  0
POINT
  5
56C3
330
53E6
100
AcDbEntity
  8
DEFPOINTS
 62
     0
100
AcDbPoint
 10
-107.9996198281084
 20
-12.4750363917462
 30
0.0
  0
POINT
  5
56C4
330
53E6
100
AcDbEntity
  8
DEFPOINTS
 62
     0
100
AcDbPoint
 10
-107.9996198281084
 20
-41.30366044855429
 30
0.0
  0
ENDBLK
  5
53F1
330
53E6
100
AcDbEntity
  8
0
100
AcDbBlockEnd
  0
BLOCK
  5
53FD
330
53F3
100
AcDbEntity
  8
0
100
AcDbBlockBegin
  2
*D15
 70
     1
 10
0.0
 20
0.0
 30
0.0
  3
*D15
  1

  0
LINE
  5
57D4
330
53F3
100
AcDbEntity
  8
AM_5
 62
     3
100
AcDbLine
 10
-3.999619828108405
 20
13.46992585252869
 30
0.0
 11
-3.999619828108341
 21
39.05339867805997
 31
0.0
  0
LINE
  5
57D5
330
53F3
100
AcDbEntity
  8
AM_5
 62
     3
100
AcDbLine
 10
-82.99961982810819
 20
7.418492554394926
 30
0.0
 11
-82.99961982810811
 21
39.05339867806016
 31
0.0
  0
LINE
  5
57D6
330
53F3
100
AcDbEntity
  8
AM_5
 62
     3
100
AcDbLine
 10
-6.499619828108343
 20
38.05339867805998
 30
0.0
 11
-80.49961982810811
 21
38.05339867806016
 31
0.0
  0
INSERT
  5
57D7
330
53F3
100
AcDbEntity
  8
AM_5
 62
     3
100
AcDbBlockReference
  2
_OPEN30
 10
-3.999619828108344
 20
38.05339867805997
 30
0.0
 41
2.5
 42
2.5
 43
2.5
 50
359.9999999999998
  0
INSERT
  5
57D8
330
53F3
100
AcDbEntity
  8
AM_5
 62
     3
100
AcDbBlockReference
  2
_OPEN30
 10
-82.99961982810811
 20
38.05339867806017
 30
0.0
 41
2.5
 42
2.5
 43
2.5
 50
179.9999999999998
  0
MTEXT
  5
57D9
330
53F3
100
AcDbEntity
  8
AM_5
 62
     2
100
AcDbMText
 10
-43.49961982810822
 20
41.45339867806007
 30
0.0
 40
3.799999999999999
 41
0.0
 71
     5
 72
     1
  1
79
1001
ACAD
1000
MTEXTBEGIN
1070
    73
1070
     1
1070
    44
1040
1.0
1070
    74
1070
     0
1000
MTEXTEND
  0
POINT
  5
57DA
330
53F3
100
AcDbEntity
  8
DEFPOINTS
 62
     0
100
AcDbPoint
 10
-3.99961982810837
 20
12.66992585252871
 30
0.0
  0
POINT
  5
57DB
330
53F3
100
AcDbEntity
  8
DEFPOINTS
 62
     0
100
AcDbPoint
 10
-82.99961982810819
 20
6.618492554395167
 30
0.0
  0
POINT
  5
57DC
330
53F3
100
AcDbEntity
  8
DEFPOINTS
 62
     0
100
AcDbPoint
 10
-82.99961982810801
 20
38.05339867806041
 30
0.0
  0
ENDBLK
  5
53FE
330
53F3
100
AcDbEntity
  8
0
100
AcDbBlockEnd
  0
BLOCK
  5
540A
330
5400
100
AcDbEntity
  8
0
100
AcDbBlockBegin
  2
*D16
 70
     1
 10
0.0
 20
0.0
 30
0.0
  3
*D16
  1

  0
LINE
  5
5738
330
5400
100
AcDbEntity
  8
AM_5
 62
     3
100
AcDbLine
 10
-3.999619828108374
 20
11.00697674418562
 30
0.0
 11
-3.999619828108306
 21
26.94837328740244
 31
0.0
  0
LINE
  5
5739
330
5400
100
AcDbEntity
  8
AM_5
 62
     3
100
AcDbLine
 10
-79.99961982810845
 20
6.748401446412391
 30
0.0
 11
-79.99961982810837
 21
26.94837328740276
 31
0.0
  0
LINE
  5
573A
330
5400
100
AcDbEntity
  8
AM_5
 62
     3
100
AcDbLine
 10
-6.49961982810831
 20
25.94837328740245
 30
0.0
 11
-77.49961982810837
 21
25.94837328740275
 31
0.0
  0
INSERT
  5
573B
330
5400
100
AcDbEntity
  8
AM_5
 62
     3
100
AcDbBlockReference
  2
_OPEN30
 10
-3.999619828108311
 20
25.94837328740244
 30
0.0
 41
2.5
 42
2.5
 43
2.5
 50
359.9999999999997
  0
INSERT
  5
573C
330
5400
100
AcDbEntity
  8
AM_5
 62
     3
100
AcDbBlockReference
  2
_OPEN30
 10
-79.99961982810837
 20
25.94837328740275
 30
0.0
 41
2.5
 42
2.5
 43
2.5
 50
179.9999999999997
  0
MTEXT
  5
573D
330
5400
100
AcDbEntity
  8
AM_5
 62
     2
100
AcDbMText
 10
-41.99961982810832
 20
29.3483732874026
 30
0.0
 40
3.799999999999999
 41
0.0
 71
     5
 72
     1
  1
76
1001
ACAD
1000
MTEXTBEGIN
1070
    73
1070
     1
1070
    44
1040
1.0
1070
    74
1070
     0
1000
MTEXTEND
  0
POINT
  5
573E
330
5400
100
AcDbEntity
  8
DEFPOINTS
 62
     0
100
AcDbPoint
 10
-3.999619828108348
 20
10.20697674418563
 30
0.0
  0
POINT
  5
573F
330
5400
100
AcDbEntity
  8
DEFPOINTS
 62
     0
100
AcDbPoint
 10
-79.99961982810844
 20
5.948401446412624
 30
0.0
  0
POINT
  5
5740
330
5400
100
AcDbEntity
  8
DEFPOINTS
 62
     0
100
AcDbPoint
 10
-79.99961982810829
 20
25.94837328740299
 30
0.0
  0
ENDBLK
  5
540B
330
5400
100
AcDbEntity
  8
0
100
AcDbBlockEnd
  0
BLOCK
  5
55D1
330
55C5
100
AcDbEntity
  8
0
100
AcDbBlockBegin
  2
*D17
 70
     1
 10
0.0
 20
0.0
 30
0.0
  3
*D17
  1

  0
LINE
  5
564E
330
55C5
100
AcDbEntity
  8
AM_5
 62
     3
100
AcDbLine
 10
-2.514244097531896
 20
10.99999999999994
 30
0.0
 11
17.76995963928335
 21
10.99999999999999
 31
0.0
  0
LINE
  5
564F
330
55C5
100
AcDbEntity
  8
AM_5
 62
     3
100
AcDbLine
 10
-2.57638617436106
 20
-11.00000000000005
 30
0.0
 11
17.76995963928341
 21
-10.99999999999999
 31
0.0
  0
LINE
  5
5650
330
55C5
100
AcDbEntity
  8
AM_5
 62
     3
100
AcDbLine
 10
16.76995963928336
 20
8.499999999999992
 30
0.0
 11
16.76995963928341
 21
-8.499999999999998
 31
0.0
  0
INSERT
  5
5651
330
55C5
100
AcDbEntity
  8
AM_5
 62
     3
100
AcDbBlockReference
  2
_OPEN30
 10
16.76995963928335
 20
10.99999999999999
 30
0.0
 41
2.5
 42
2.5
 43
2.5
 50
90.00000000000017
  0
INSERT
  5
5652
330
55C5
100
AcDbEntity
  8
AM_5
 62
     3
100
AcDbBlockReference
  2
_OPEN30
 10
16.76995963928341
 20
-10.99999999999999
 30
0.0
 41
2.5
 42
2.5
 43
2.5
 50
270.0000000000001
  0
MTEXT
  5
5653
330
55C5
100
AcDbEntity
  8
AM_5
 62
     2
100
AcDbMText
 10
13.36995963928338
 20
-0.000000000000301
 30
0.0
 40
3.799999999999999
 41
0.0
 71
     5
 72
     1
  1
%%C22
 11
-0.0000000000000028
 21
1.0
 31
0.0
1001
ACAD
1000
MTEXTBEGIN
1070
    73
1070
     1
1070
    44
1040
1.0
1070
    74
1070
     0
1000
MTEXTEND
  0
POINT
  5
5654
330
55C5
100
AcDbEntity
  8
DEFPOINTS
 62
     0
100
AcDbPoint
 10
-3.314244097531862
 20
10.99999999999994
 30
0.0
  0
POINT
  5
5655
330
55C5
100
AcDbEntity
  8
DEFPOINTS
 62
     0
100
AcDbPoint
 10
-3.376386174361095
 20
-11.00000000000004
 30
0.0
  0
POINT
  5
5656
330
55C5
100
AcDbEntity
  8
DEFPOINTS
 62
     0
100
AcDbPoint
 10
16.76995963928338
 20
-11.00000000000004
 30
0.0
  0
ENDBLK
  5
55D2
330
55C5
100
AcDbEntity
  8
0
100
AcDbBlockEnd
  0
ENDSEC
  0
SECTION
  2
ENTITIES
  0
TEXT
  5
19BD
330
1F
100
AcDbEntity
  8
AM_6
100
AcDbText
 10
-105.6662435794373
 20
-76.82888609081366
 30
0.0
 40
5.0
  1
KDS220MAK
 50
0.0000000000001527
 72
     4
 11
-83.99957691277064
 21
-74.32888609081361
 31
0.0
100
AcDbText
  0
LINE
  5
35CA
330
1F
100
AcDbEntity
  8
PV0001_1
  6
CONTINUOUS
 48
0.5
100
AcDbLine
 10
-589.2017441852486
 20
-57.69694534177202
 30
0.0
 11
-567.9171279738763
 21
-62.69376548307545
 31
0.0
  0
LINE
  5
35D1
330
1F
100
AcDbEntity
  8
AM_7
100
AcDbLine
 10
4.745369175493294
 20
-0.0000000000001137
 30
0.0
 11
-166.5084919537721
 21
-0.0000000000005355
 31
0.0
  0
LINE
  5
35EA
330
1F
100
AcDbEntity
  8
PV0001_1
  6
CONTINUOUS
100
AcDbLine
 10
-163.3139726713369
 20
-12.47503639174633
 30
0.0
 11
-107.9996198281084
 21
-12.4750363917462
 31
0.0
  0
LINE
  5
35EB
330
1F
100
AcDbEntity
  8
PV0001_1
  6
CONTINUOUS
100
AcDbLine
 10
-107.9996198281084
 20
12.52497362183365
 30
0.0
 11
-163.313972671337
 21
12.52497362183353
 31
0.0
  0
LINE
  5
35F9
330
1F
100
AcDbEntity
  8
PV0001_1
  6
CONTINUOUS
 48
0.5
100
AcDbLine
 10
-163.3367208107896
 20
0.0249721913229662
 30
0.0
 11
-163.3367208107897
 21
12.52500938462175
 31
0.0
  0
LINE
  5
35FA
330
1F
100
AcDbEntity
  8
PV0001_1
  6
CONTINUOUS
 48
0.5
100
AcDbLine
 10
-163.9996198281084
 20
0.0249721913229662
 30
0.0
 11
-163.9996198281084
 21
11.86209606217256
 31
0.0
  0
LINE
  5
35FB
330
1F
100
AcDbEntity
  8
PV0001_1
  6
CONTINUOUS
 48
0.5
100
AcDbLine
 10
-163.9995339974334
 20
11.86197446869813
 30
0.0
 11
-163.3366063698646
 21
12.5248877911455
 31
0.0
  0
LINE
  5
35FD
330
1F
100
AcDbEntity
  8
PV0001_1
  6
CONTINUOUS
 48
0.5
100
AcDbLine
 10
-163.9995339974332
 20
-11.81209445906766
 30
0.0
 11
-163.3366063698646
 21
-12.47500778151684
 31
0.0
  0
LINE
  5
3601
330
1F
100
AcDbEntity
  8
PV0001_1
  6
CONTINUOUS
 48
0.5
100
AcDbLine
 10
-163.9996198281084
 20
0.0249721913229662
 30
0.0
 11
-163.9996198281083
 21
-11.81215167952619
 31
0.0
  0
LINE
  5
3602
330
1F
100
AcDbEntity
  8
PV0001_1
  6
CONTINUOUS
 48
0.5
100
AcDbLine
 10
-163.3367208107896
 20
0.0249721913229662
 30
0.0
 11
-163.3367208107896
 21
-12.47506500197583
 31
0.0
  0
DIMENSION
  5
36BA
330
1F
100
AcDbEntity
  8
AM_5
100
AcDbDimension
  2
*D8
 10
-2.547791618692583
 20
-7.000000000000091
 30
0.0
 11
28.96875379343816
 21
-0.0000000000000532
 31
0.0
 70
    34
  1
<>
 51
359.9999999999998
  3
AM_JIS$2
100
AcDb2LineAngularDimension
 13
0.0
 23
-0.0000000000000827
 33
0.0
 14
-2.547791618692619
 24
6.999999999999763
 34
0.0
 15
0.0
 25
-0.0000000000002274
 35
0.0
 16
29.44604624940567
 26
-12.70178452588532
 36
0.0
1001
ACAD
1000
DSTYLE
1002
{
1070
   179
1070
     3
1002
}
1001
GENIUS_GENDTOL_13
1000

1000
h7
1000

1040
0.0
  0
DIMENSION
  5
3866
330
1F
100
AcDbEntity
  8
AM_5
100
AcDbDimension
  2
*D9
 10
-180.9464609220606
 20
-12.47489334306131
 30
0.0
 11
-184.3464609220607
 21
0.0250580207801984
 31
0.0
 70
    32
  1
%%C<>
 51
359.9999999999998
  3
AM_JIS$0
100
AcDbAlignedDimension
 13
-163.313972671337
 23
12.52500938462176
 33
0.0
 14
-163.3139726713369
 24
-12.47489334306132
 34
0.0
 50
270.0000000000002
100
AcDbRotatedDimension
1001
ACAD
1000
DSTYLE
1002
{
1070
   271
1070
     3
1002
}
1001
GENIUS_GENDTOL_13
1000

1000
h7
1000

1040
0.0
  0
LINE
  5
395A
330
1F
100
AcDbEntity
  8
PV0001_1
  6
CONTINUOUS
100
AcDbLine
 10
-107.9996198281084
 20
-12.4750363917462
 30
0.0
 11
-107.9996198281084
 21
12.52497362183366
 31
0.0
  0
DIMENSION
  5
3C40
330
1F
100
AcDbEntity
  8
AM_5
100
AcDbDimension
  2
*D10
 10
-163.9995339974332
 20
-41.30366044855455
 30
0.0
 11
-135.9995769127708
 21
-37.90366044855455
 31
0.0
 70
    32
  1
<>
 51
359.9999999999998
  3
AM_JIS$0
100
AcDbAlignedDimension
 13
-107.9996198281084
 23
-12.4750363917462
 33
0.0
 14
-163.9995339974332
 24
-11.81209445906766
 34
0.0
 50
0.0000000000002658
100
AcDbRotatedDimension
1001
ACAD
1000
DSTYLE
1002
{
1070
   271
1070
     3
1002
}
1001
GENIUS_GENDTOL_13
1000

1000
h7
1000

1040
0.0
  0
DIMENSION
  5
3D56
330
1F
100
AcDbEntity
  8
AM_5
100
AcDbDimension
  2
*D11
 10
-157.9996311935109
 20
-28.47941722561735
 30
0.0
 11
-160.9995825954721
 21
-28.47941722561735
 31
0.0
 70
   160
  1
<>
 51
359.9999999999998
  3
AM_JIS$0
100
AcDbAlignedDimension
 13
-163.9995339974332
 23
-11.81209445906766
 33
0.0
 14
-157.9996311935109
 24
-0.0000000000004954
 34
0.0
 50
0.0000000000002659
100
AcDbRotatedDimension
1001
ACAD
1000
DSTYLE
1002
{
1070
   271
1070
     3
1002
}
1001
GENIUS_GENDTOL_13
1000

1000
h7
1000

1040
0.0
  0
DIMENSION
  5
3DFD
330
1F
100
AcDbEntity
  8
AM_5
100
AcDbDimension
  2
*D12
 10
-112.9996198281084
 20
-28.47941722561714
 30
0.0
 11
-135.4996255108096
 21
-25.07941722561715
 31
0.0
 70
    32
  1
<>
 51
359.9999999999998
  3
AM_JIS$0
100
AcDbAlignedDimension
 13
-157.9996311935109
 23
-0.0000000000004954
 33
0.0
 14
-112.9996198281084
 24
-0.0000000000004069
 34
0.0
 50
0.0000000000002658
100
AcDbRotatedDimension
1001
ACAD
1000
DSTYLE
1002
{
1070
   271
1070
     3
1002
}
1001
GENIUS_GENDTOL_13
1000

1000
h7
1000

1040
0.0
  0
LINE
  5
48BA
330
1F
100
AcDbEntity
  8
PV0001_1
  6
CONTINUOUS
 48
0.5
100
AcDbLine
 10
-99.63095126994639
 20
12.02288244023727
 30
0.0
 11
-107.9996198281084
 21
12.52497362183365
 31
0.0
  0
LINE
  5
4ED1
330
1F
100
AcDbEntity
  8
AM_0
100
AcDbLine
 10
-117.2643003554164
 20
4.264680527307572
 30
0.0
 11
-153.7420533258397
 21
4.264680527307474
 31
0.0
  0
LINE
  5
4ED6
330
1F
100
AcDbEntity
  8
AM_0
100
AcDbLine
 10
-153.7420533258397
 20
-4.26468052730852
 30
0.0
 11
-117.2643003554164
 21
-4.264680527308423
 31
0.0
  0
ARC
  5
4EF5
330
1F
100
AcDbEntity
  8
AM_0
100
AcDbCircle
 10
-153.7349506662029
 20
-0.0000000000004958
 30
0.0
 40
4.264680527307981
100
AcDbArc
 50
90.0
 51
270.0
  0
ARC
  5
4EF6
330
1F
100
AcDbEntity
  8
AM_0
100
AcDbCircle
 10
-117.2643003554164
 20
-0.0000000000004176
 30
0.0
 40
4.264680527307981
100
AcDbArc
 50
270.0000000000002
 51
90.00000000000019
  0
DIMENSION
  5
53D8
330
1F
100
AcDbEntity
  8
AM_5
100
AcDbDimension
  2
*D13
 10
-163.9995339974332
 20
-54.32888609081337
 30
0.0
 11
-83.99957691277085
 21
-50.92888609081337
 31
0.0
 70
    32
  1
<>
 51
359.9999999999998
  3
AM_JIS$0
100
AcDbAlignedDimension
 13
-3.999619828108437
 23
-10.20697674418612
 33
0.0
 14
-163.9995339974332
 24
-12.69113404671828
 34
0.0
 50
359.9999999999999
100
AcDbRotatedDimension
1001
ACAD
1000
DSTYLE
1002
{
1070
   271
1070
     3
1002
}
1001
GENIUS_GENDTOL_13
1000

1000
h7
1000

1040
0.0
  0
DIMENSION
  5
53E5
330
1F
100
AcDbEntity
  8
AM_5
100
AcDbDimension
  2
*D14
 10
-107.9996198281084
 20
-41.30366044855429
 30
0.0
 11
-55.99961982810842
 21
-37.90366044855429
 31
0.0
 70
    32
  1
<>
 51
359.9999999999998
  3
AM_JIS$0
100
AcDbAlignedDimension
 13
-3.999619828108437
 23
-10.20697674418612
 33
0.0
 14
-107.9996198281084
 24
-12.4750363917462
 34
0.0
 50
359.9999999999998
100
AcDbRotatedDimension
1001
ACAD
1000
DSTYLE
1002
{
1070
   271
1070
     3
1002
}
1001
GENIUS_GENDTOL_13
1000

1000
h7
1000

1040
0.0
  0
DIMENSION
  5
53F2
330
1F
100
AcDbEntity
  8
AM_5
100
AcDbDimension
  2
*D15
 10
-82.99961982810801
 20
38.05339867806041
 30
0.0
 11
-43.4996198281081
 21
41.4533986780602
 31
0.0
 70
    32
  1
<>
 51
359.9999999999998
  3
AM_JIS$0
100
AcDbAlignedDimension
 13
-3.99961982810837
 23
12.66992585252871
 33
0.0
 14
-82.99961982810819
 24
6.618492554395167
 34
0.0
 50
179.9999999999998
100
AcDbRotatedDimension
1001
ACAD
1000
DSTYLE
1002
{
1070
   271
1070
     3
1002
}
1001
GENIUS_GENDTOL_13
1000

1000
h7
1000

1040
0.0
  0
DIMENSION
  5
53FF
330
1F
100
AcDbEntity
  8
AM_5
100
AcDbDimension
  2
*D16
 10
-79.99961982810829
 20
25.94837328740299
 30
0.0
 11
-41.99961982810824
 21
29.34837328740272
 31
0.0
 70
    32
  1
<>
 51
359.9999999999998
  3
AM_JIS$0
100
AcDbAlignedDimension
 13
-3.999619828108348
 23
10.20697674418563
 33
0.0
 14
-79.99961982810844
 24
5.948401446412624
 34
0.0
 50
179.9999999999998
100
AcDbRotatedDimension
1001
ACAD
1000
DSTYLE
1002
{
1070
   271
1070
     3
1002
}
1001
GENIUS_GENDTOL_13
1000

1000
h7
1000

1040
0.0
  0
LINE
  5
5599
330
1F
100
AcDbEntity
  8
PV0001_1
  6
CONTINUOUS
 48
0.5
100
AcDbLine
 10
-0.0000000000001454
 20
0.0000000000001463
 30
0.0
 11
-4.003672543660033
 21
10.99999999999997
 31
0.0
  0
LINE
  5
559A
330
1F
100
AcDbEntity
  8
PV0001_1
  6
CONTINUOUS
 48
0.5
100
AcDbLine
 10
-0.0000000000001454
 20
-0.0000000000000355
 30
0.0
 11
-4.003672543659961
 21
-11.00000000000002
 31
0.0
  0
DIMENSION
  5
55C4
330
1F
100
AcDbEntity
  8
AM_5
100
AcDbDimension
  2
*D17
 10
16.76995963928338
 20
-11.00000000000004
 30
0.0
 11
16.76995963928338
 21
-0.0000000000003403
 31
0.0
 70
   160
  1
%%C<>
 51
359.9999999999998
  3
AM_JIS$0
100
AcDbAlignedDimension
 13
-3.314244097531862
 23
10.99999999999994
 33
0.0
 14
-3.376386174361095
 24
-11.00000000000004
 34
0.0
 50
89.99999999999856
100
AcDbRotatedDimension
1001
GENIUS_GENDTOL_13
1000

1000
h7
1000

1040
0.0
1001
ACAD
1000
DSTYLE
1002
{
1070
   271
1070
     3
1002
}
  0
LINE
  5
55D3
330
1F
100
AcDbEntity
  8
PV0001_1
  6
CONTINUOUS
 48
0.5
100
AcDbLine
 10
-16.11956120720061
 20
11.00000000000039
 30
0.0
 11
-4.003672543660033
 21
10.99999999999997
 31
0.0
  0
LINE
  5
55D4
330
1F
100
AcDbEntity
  8
PV0001_1
  6
CONTINUOUS
 48
0.5
100
AcDbLine
 10
-3.469850046931697
 20
9.53333473205482
 30
0.0
 11
-16.13497683042266
 21
9.533334732055298
 31
0.0
  0
LINE
  5
55D5
330
1F
100
AcDbEntity
  8
PV0001_1
  6
CONTINUOUS
 48
0.5
100
AcDbLine
 10
-13.90831985422338
 20
3.324887542616091
 30
0.0
 11
-8.801080554038108
 21
1.240446235078749
 31
0.0
  0
ELLIPSE
  5
55D6
330
1F
100
AcDbEntity
  8
AM_0
100
AcDbEllipse
 10
-5.656900857849905
 20
4.451658744488638
 30
0.0
 11
-4.817552055077087
 21
0.0713914527943307
 31
0.0
210
0.0
220
0.0
230
1.0
 40
0.8824202449775022
 41
0.8728678368051458
 42
2.819895478595135
  0
LINE
  5
55D8
330
1F
100
AcDbEntity
  8
AM_0
100
AcDbLine
 10
-2.406422353258551
 20
-2.72212033877108
 30
0.0
 11
-5.966984446021879
 21
-4.859733819587588
 31
0.0
  0
LINE
  5
55D9
330
1F
100
AcDbEntity
  8
PV0001_1
  6
CONTINUOUS
 48
0.5
100
AcDbLine
 10
-17.19961639511461
 20
-9.499999999999568
 30
0.0
 11
-3.811152945276757
 21
-9.50000000000003
 31
0.0
  0
LINE
  5
55DA
330
1F
100
AcDbEntity
  8
PV0001_1
  6
CONTINUOUS
 48
0.5
100
AcDbLine
 10
-17.19961639511466
 20
-10.99999999999951
 30
0.0
 11
-4.003672543659961
 21
-11.00000000000002
 31
0.0
  0
LINE
  5
55DB
330
1F
100
AcDbEntity
  8
PV0001_1
  6
CONTINUOUS
 48
0.5
100
AcDbLine
 10
-2.406422353258551
 20
-2.72212033877108
 30
0.0
 11
-3.811152945276757
 21
-9.50000000000003
 31
0.0
  0
LINE
  5
55DD
330
1F
100
AcDbEntity
  8
AM_0
100
AcDbLine
 10
-3.129195421616704
 20
0.8238199811231048
 30
0.0
 11
-2.406422353258551
 21
-2.72212033877108
 31
0.0
  0
LINE
  5
55DE
330
1F
100
AcDbEntity
  8
PV0001_1
  6
CONTINUOUS
 48
0.5
100
AcDbLine
 10
-8.801080554038207
 20
1.240446235078704
 30
0.0
 11
-3.811152945276757
 21
-9.50000000000003
 31
0.0
  0
ELLIPSE
  5
5724
330
1F
100
AcDbEntity
  8
AM_0
100
AcDbEllipse
 10
-97.44623671160161
 20
11.36008502475516
 30
0.0
 11
23.84880938632771
 21
0.000000000000155
 31
0.0
210
0.0
220
0.0
230
1.0
 40
0.9744662593464694
 41
-1.419871024562739
 42
-1.10750747601453
  0
ELLIPSE
  5
5725
330
1F
100
AcDbEntity
  8
AM_0
100
AcDbEllipse
 10
-74.32409157628836
 20
29.78764198132586
 30
0.0
 11
25.00184470231665
 21
32.96700564527046
 31
0.0
210
0.0
220
0.0
230
0.9999999999999998
 40
0.9544937709059768
 41
3.241442305776661
 42
3.71155890443693
  0
ELLIPSE
  5
5726
330
1F
100
AcDbEntity
  8
AM_0
100
AcDbEllipse
 10
-100.1396096014299
 20
-5.974005841003892
 30
0.0
 11
-5.997291250172159
 21
2.992951895113552
 31
0.0
210
0.0
220
0.0
230
0.9999999999999998
 40
0.7124580763520476
 41
0.8777603388726973
 42
1.665652456012268
  0
ELLIPSE
  5
5727
330
1F
100
AcDbEntity
  8
AM_0
100
AcDbEllipse
 10
-103.0890787718431
 20
-5.934090118493275
 30
0.0
 11
-2.996027415922548
 21
0.027770345778372
 31
0.0
210
0.0
220
0.0
230
0.9999999999999998
 40
0.8784576731124966
 41
4.642607452190993
 42
6.861294902747424
  0
ELLIPSE
  5
5728
330
1F
100
AcDbEntity
  8
AM_0
100
AcDbEllipse
 10
-95.27786953266547
 20
5.771329991328192
 30
0.0
 11
-17.89871716994493
 21
0.0000000000003111
 31
0.0
210
0.0
220
0.0
230
1.0
 40
0.9744662593464653
 41
1.20414832282041
 42
1.650067814361501
  0
ELLIPSE
  5
5729
330
1F
100
AcDbEntity
  8
AM_0
100
AcDbEllipse
 10
-103.4039862570068
 20
-11.44170464521965
 30
0.0
 11
-11.00862580058636
 21
0.071407856410266
 31
0.0
210
0.0
220
0.0
230
1.0
 40
0.7396579576255848
 41
3.987441717396575
 42
4.667374790365575
  0
LINE
  5
572A
330
1F
100
AcDbEntity
  8
AM_11
 48
0.5
100
AcDbLine
 10
-79.99961982810884
 20
-10.70586783954398
 30
0.0
 11
-79.99961982810801
 21
10.46625966853719
 31
0.0
  0
LINE
  5
572B
330
1F
100
AcDbEntity
  8
PV0001_1
  6
CONTINUOUS
 48
0.5
100
AcDbLine
 10
-82.99961982810881
 20
-10.1948198224237
 30
0.0
 11
-82.99961982810819
 21
6.618492554395167
 31
0.0
  0
LINE
  5
572C
330
1F
100
AcDbEntity
  8
PV0001_1
  6
CONTINUOUS
 48
0.5
100
AcDbLine
 10
-78.39402384783355
 20
-10.84507042253186
 30
0.0
 11
-45.60578030198384
 21
-10.84507042253332
 31
0.0
  0
LINE
  5
574B
330
1F
100
AcDbEntity
  8
PV0001_1
  6
CONTINUOUS
 48
0.5
100
AcDbLine
 10
-94.14725269182856
 20
-11.64394225353005
 30
0.0
 11
-107.9996198281084
 21
-12.4750363917462
 31
0.0
  0
ELLIPSE
  5
57BA
330
1F
100
AcDbEntity
  8
AM_0
100
AcDbEllipse
 10
-113.0882889127021
 20
-65.38354527283297
 30
0.0
 11
14.96249370546779
 21
77.09256096576027
 31
0.0
210
0.0
220
0.0
230
1.0
 40
0.868174706731731
 41
-0.4133154885332276
 42
0.0224711841449366
  0
SPLINE
  5
57BB
330
1F
100
AcDbEntity
  8
PV0001_1
  6
CONTINUOUS
100
AcDbSpline
210
0.0
220
0.0
230
1.0
 70
     8
 71
     3
 72
    54
 73
    50
 74
     0
 42
0.0000000001
 43
0.0000000001
 40
0.8937596859602537
 40
0.8937596859602537
 40
0.8937596859602537
 40
0.8937596859602537
 40
1.010743684496582
 40
2.022833576467832
 40
3.037578957496688
 40
4.056212745003489
 40
5.079857003664532
 40
6.109500240690281
 40
7.145961322679372
 40
8.189895241603872
 40
9.241717795325891
 40
10.30168407291828
 40
11.36983447792315
 40
12.44600489715814
 40
13.52984294512926
 40
14.62081576220742
 40
15.7182257034828
 40
16.82123173843959
 40
17.92886860250316
 40
19.0400688939571
 40
20.15368796660465
 40
21.26852814259644
 40
22.38336992938901
 40
23.49698739941135
 40
24.6081876908653
 40
25.71582455492886
 40
26.81883757994213
 40
27.91624752121713
 40
29.00722033829659
 40
30.09105838626677
 40
31.16722880550176
 40
32.23537921050758
 40
33.29534548809967
 40
34.347168041821
 40
35.39108718934584
 40
36.42754827133493
 40
37.45720575381954
 40
38.48085062012849
 40
39.49948440763516
 40
40.51422944315121
 40
41.52631975251916
 40
42.53706336719636
 40
43.54780698187354
 40
44.55989729124051
 40
45.57464232675757
 40
46.59327611426424
 40
47.6169209805722
 40
48.64656348684535
 40
49.10867980063175
 40
49.10867980063175
 40
49.10867980063175
 40
49.10867980063175
 10
-17.19961639511466
 20
-10.8450704225353
 30
0.0
 10
-19.2798619763173
 20
-10.81578169424642
 30
0.0
 10
-19.83098860568911
 20
-10.79436047063168
 30
0.0
 10
-20.87665345772626
 20
-10.7198414380203
 30
0.0
 10
-22.35819344082415
 20
-10.55198717353481
 30
0.0
 10
-23.83964173114237
 20
-10.31673303788071
 30
0.0
 10
-25.32098354615911
 20
-10.01726717563776
 30
0.0
 10
-26.80218966231237
 20
-9.654921263773287
 30
0.0
 10
-28.28326503417098
 20
-9.387065770965016
 30
0.0
 10
-29.7641965275895
 20
-8.906430475767166
 30
0.0
 10
-31.2449740547255
 20
-8.370896027199197
 30
0.0
 10
-32.72560499643629
 20
-7.783823919636112
 30
0.0
 10
-34.2060933181469
 20
-7.148807074622967
 30
0.0
 10
-35.68645751737298
 20
-6.469798633325977
 30
0.0
 10
-37.16670437177333
 20
-5.750971248097926
 30
0.0
 10
-38.64684760728886
 20
-4.996757998517325
 30
0.0
 10
-40.12690363890853
 20
-4.211811778030499
 30
0.0
 10
-41.60688545639423
 20
-3.400959634507556
 30
0.0
 10
-43.08680742313804
 20
-2.569188624061358
 30
0.0
 10
-44.56668537493409
 20
-1.721618198441043
 30
0.0
 10
-46.04653229172043
 20
-0.8634588723030978
 30
0.0
 10
-47.52636907122801
 20
-0.0000022443978527
 30
0.0
 10
-49.00619920750671
 20
0.8634699262648165
 30
0.0
 10
-50.48605108441742
 20
1.721615888592279
 30
0.0
 10
-51.96592720928421
 20
2.569188879759813
 30
0.0
 10
-53.44585181471258
 20
3.400963058882827
 30
0.0
 10
-54.92583977187269
 20
4.211808282450771
 30
0.0
 10
-56.40589813941186
 20
4.996758483707215
 30
0.0
 10
-57.88604158861087
 20
5.750971121698555
 30
0.0
 10
-59.36628838914967
 20
6.46979865809329
 30
0.0
 10
-60.84665259216638
 20
7.000201847374665
 30
0.0
 10
-62.3271409515862
 20
7.635218540545401
 30
0.0
 10
-63.80777174047981
 20
8.22229124756282
 30
0.0
 10
-65.28854290377797
 20
8.757820967368596
 30
0.0
 10
-66.76946523934569
 20
9.2384625576895
 30
0.0
 10
-68.25054006180216
 20
9.661256129638703
 30
0.0
 10
-69.73175675426353
 20
10.0235606565702
 30
0.0
 10
-71.21310346321502
 20
10.32311920982743
 30
0.0
 10
-72.6945521927008
 20
10.55809448206914
 30
0.0
 10
-74.17609320521769
 20
10.72696806435646
 30
0.0
 10
-75.65769517614805
 20
10.82872688096659
 30
0.0
 10
-77.13932970438318
 20
10.86272113449368
 30
0.0
 10
-78.62096423043832
 20
10.82872688091354
 30
0.0
 10
-80.10256620792143
 20
10.72696806457049
 30
0.0
 10
-81.58410719631293
 20
10.55809448126379
 30
0.0
 10
-83.06555601625069
 20
10.32311921285622
 30
0.0
 10
-84.54689516331178
 20
10.0235621055802
 30
0.0
 10
-85.75276784351446
 20
9.728607198119865
 30
0.0
 10
-86.46449087691054
 20
9.533547118816183
 30
0.0
 10
-88.30093669459335
 20
8.905565834587314
 30
0.0
  0
LINE
  5
57BC
330
1F
100
AcDbEntity
  8
PV0001_1
  6
CONTINUOUS
 48
0.5
100
AcDbLine
 10
-77.90130933060471
 20
10.84507042253832
 30
0.0
 11
-39.01720847388917
 21
10.84507042253634
 31
0.0
  0
SPLINE
  5
57BD
330
1F
100
AcDbEntity
  8
PV0001_1
  6
CONTINUOUS
100
AcDbSpline
210
0.0
220
0.0
230
1.0
 70
     8
 71
     3
 72
    25
 73
    21
 74
     0
 42
0.0000000001
 43
0.0000000001
 40
24.56499986022253
 40
24.56499986022253
 40
24.56499986022253
 40
24.56499986022253
 40
24.6081876908653
 40
25.71582455492886
 40
26.81883757994213
 40
27.91624752121713
 40
29.00722033829659
 40
30.09105838626677
 40
31.16722880550176
 40
32.23537921050758
 40
33.29534548809967
 40
34.347168041821
 40
35.39108718934584
 40
36.42754827133493
 40
37.45720575381954
 40
38.48085062012849
 40
39.49948440763516
 40
40.51422944315121
 40
41.52631975251916
 40
42.53706336680078
 40
42.53706336680078
 40
42.53706336680078
 40
42.53706336680078
 10
-13.90831985422338
 20
3.324887542616091
 30
0.0
 10
-13.92785759083077
 20
3.335189729876338
 30
0.0
 10
-14.44850795481636
 20
3.609623643196781
 30
0.0
 10
-15.46970783542225
 20
4.142429493460413
 30
0.0
 10
-16.97422908969866
 20
4.90679205491442
 30
0.0
 10
-18.47801430441806
 20
5.645269960992985
 30
0.0
 10
-19.98092733864427
 20
6.353022562588905
 30
0.0
 10
-21.48284172081333
 20
7.025404006576228
 30
0.0
 10
-22.97880863802834
 20
7.503127580129979
 30
0.0
 10
-24.47835444729165
 20
8.091731308374999
 30
0.0
 10
-25.9765495582898
 20
8.632409868820396
 30
0.0
 10
-27.47327983783246
 20
9.12156606999839
 30
0.0
 10
-28.96845190503078
 20
9.555856055836775
 30
0.0
 10
-30.46197489780669
 20
9.9323213321183
 30
0.0
 10
-31.9537559582878
 20
10.24832248377926
 30
0.0
 10
-33.44371295404647
 20
10.50160404596049
 30
0.0
 10
-34.93176068577679
 20
10.69033047429636
 30
0.0
 10
-36.4178421348177
 20
10.81298439955137
 30
0.0
 10
-37.90189444262121
 20
10.86855421286165
 30
0.0
 10
-38.8900967690579
 20
10.86044381544844
 30
0.0
 10
-39.38351626237808
 20
10.84507042253637
 30
0.0
  0
LINE
  5
57BE
330
1F
100
AcDbEntity
  8
AM_11
 48
0.5
100
AcDbLine
 10
-39.01720847388917
 20
10.84507042253606
 30
0.0
 11
-16.13204541232681
 21
10.84507042253507
 31
0.0
  0
SPLINE
  5
57BF
330
1F
100
AcDbEntity
  8
PV0001_1
  6
CONTINUOUS
 48
0.5
100
AcDbSpline
210
0.0
220
0.0
230
1.0
 70
     8
 71
     3
 72
    15
 73
    11
 74
     0
 42
0.0000000001
 43
0.0000000001
 40
0.0
 40
0.0
 40
0.0
 40
0.0
 40
1.010743614677189
 40
2.022833924044153
 40
3.037578959561199
 40
4.056212747067873
 40
5.079857613375832
 40
6.109500119648989
 40
7.14596120163808
 40
7.33152026166171
 40
7.33152026166171
 40
7.33152026166171
 40
7.33152026166171
 10
-16.13204539769839
 20
10.84507042253517
 30
0.0
 10
-16.62567688176139
 20
10.84500432189318
 30
0.0
 10
-17.61369268078803
 20
10.82243328442934
 30
0.0
 10
-19.09527846109493
 20
10.72063544195833
 30
0.0
 10
-20.57682385765552
 20
10.55177253086889
 30
0.0
 10
-22.05827129491875
 20
10.3167937258025
 30
0.0
 10
-23.53961154813522
 20
10.01724005896668
 30
0.0
 10
-25.02081934631802
 20
9.654927497385427
 30
0.0
 10
-26.09311614582216
 20
9.348828632580222
 30
0.0
 10
-26.67261705123489
 20
9.170133602630563
 30
0.0
 10
-27.17754558858267
 20
9.020168465858969
 30
0.0
  0
LINE
  5
57C0
330
1F
100
AcDbEntity
  8
AM_0
100
AcDbLine
 10
-17.19961639511466
 20
-10.97624314560161
 30
0.0
 11
-17.19961639511421
 21
5.014844025530605
 31
0.0
  0
SPLINE
  5
57C1
330
1F
100
AcDbEntity
  8
PV0001_1
  6
CONTINUOUS
100
AcDbSpline
210
0.0
220
0.0
230
1.0
 70
     8
 71
     3
 72
    17
 73
    13
 74
     0
 42
0.0000000001
 43
0.0000000001
 40
1.580019955310467
 40
1.580019955310467
 40
1.580019955310467
 40
1.580019955310467
 40
2.030549285115227
 40
3.082371838836284
 40
4.126290986361125
 40
5.162752068350215
 40
6.192395305374981
 40
7.216039564037012
 40
8.234688489606833
 40
9.249433870634691
 40
10.26152376260694
 40
11.27226744710342
 40
11.27226744710342
 40
11.27226744710342
 40
11.27226744710352
 10
-31.8671222645721
 20
-8.118323912492925
 30
0.0
 10
-32.07674439100846
 20
-8.201935904592486
 30
0.0
 10
-32.77695271841555
 20
-8.475985376675787
 30
0.0
 10
-33.9723819776979
 20
-8.905841779299214
 30
0.0
 10
-35.45309796053109
 20
-9.387223925885072
 30
0.0
 10
-36.93422158308789
 20
-9.80981353668734
 30
0.0
 10
-38.41541307021209
 20
-10.17219146081518
 30
0.0
 10
-39.89676593049429
 20
-10.47172174374868
 30
0.0
 10
-41.17671274069112
 20
-10.68687900297578
 30
0.0
 10
-42.64954392982943
 20
-10.7772208052635
 30
0.0
 10
-44.12414627429151
 20
-10.80937745197549
 30
0.0
 10
-45.1121214700511
 20
-10.83206179940835
 30
0.0
 10
-45.60578030198368
 20
-10.83206173646537
 30
0.0
  0
SPLINE
  5
57C2
330
1F
100
AcDbEntity
  8
PV0001_1
  6
CONTINUOUS
100
AcDbSpline
210
0.0
220
0.0
230
1.0
 70
     8
 71
     3
 72
    11
 73
     7
 74
     0
 42
0.0000000001
 43
0.0000000001
 40
11.27226913003534
 40
11.27226913003534
 40
11.27226913003534
 40
11.2722691300354
 40
12.28301561507924
 40
13.29510212255852
 40
14.30984805882082
 40
15.18258238371378
 40
15.18258238371378
 40
15.18258238371378
 40
15.18258238371378
 10
-45.60578030198377
 20
-10.83206173646537
 30
0.0
 10
-46.09756200000368
 20
-10.77822453988633
 30
0.0
 10
-47.12574332018846
 20
-10.76542923170483
 30
0.0
 10
-48.61463661615023
 20
-10.56972864679002
 30
0.0
 10
-50.160295460437
 20
-10.23886960674951
 30
0.0
 10
-51.06184804731332
 20
-9.99746333126253
 30
0.0
 10
-51.47730915103232
 20
-9.878215299053689
 30
0.0
  0
LINE
  5
57C3
330
1F
100
AcDbEntity
  8
AM_11
 48
0.5
100
AcDbLine
 10
-51.65504633561392
 20
-10.84507042253381
 30
0.0
 11
-17.19961639511466
 21
-10.8450704225353
 31
0.0
  0
LINE
  5
57C4
330
1F
100
AcDbEntity
  8
AM_0
100
AcDbLine
 10
-16.18863408840998
 20
4.506721687548606
 30
0.0
 11
-16.12040197802096
 21
11.00000000000009
 31
0.0
  0
SPLINE
  5
57C5
330
1F
100
AcDbEntity
  8
PV0001_1
  6
CONTINUOUS
100
AcDbSpline
210
0.0
220
0.0
230
1.0
 70
     8
 71
     3
 72
    22
 73
    18
 74
     0
 42
0.0000000001
 43
0.0000000001
 40
17.17441611292
 40
17.17441611292
 40
17.17441611292
 40
17.17441611292
 40
17.38177636558528
 40
18.41823744757437
 40
19.46215659509824
 40
20.51397914882054
 40
21.57394542641293
 40
22.64209583141747
 40
23.71826625065247
 40
24.80210429862395
 40
25.8930771157021
 40
26.99048705697709
 40
28.09349309193389
 40
29.20112995599786
 40
30.31233024745139
 40
31.42594771747373
 40
32.5407895042663
 40
32.54078950426994
 40
32.54078950426994
 40
32.54078950426994
 10
-51.47795710719088
 20
-9.878079614137565
 30
0.0
 10
-51.57716736934192
 20
-9.852615693037302
 30
0.0
 10
-52.1718787090575
 20
-9.697512166338825
 30
0.0
 10
-53.26135637156593
 20
-9.386509408134498
 30
0.0
 10
-54.74227849537025
 20
-8.905866436926416
 30
0.0
 10
-56.2230497163189
 20
-8.37033709207075
 30
0.0
 10
-57.70368048857358
 20
-7.783264280523738
 30
0.0
 10
-59.18416885632392
 20
-7.148247626619528
 30
0.0
 10
-60.66453304266508
 20
-6.469239132432718
 30
0.0
 10
-62.1447799020994
 20
-5.750411765696484
 30
0.0
 10
-63.62492313043012
 20
-4.996198495394421
 30
0.0
 10
-65.1049791859117
 20
-4.211252339678181
 30
0.0
 10
-66.61132201591279
 20
-3.497275036693924
 30
0.0
 10
-68.04479081212902
 20
-2.673660351523329
 30
0.0
 10
-69.50664519468881
 20
-1.844756525181106
 30
0.0
 10
-70.96483414134713
 20
-0.9368240634263077
 30
0.0
 10
-71.8873590692406
 20
-0.360706046722504
 30
0.0
 10
-72.5044428972018
 20
0.0005594889370294
 30
0.0
  0
VIEWPORT
  5
110
330
101
100
AcDbEntity
 67
     1
  8
0
100
AcDbViewport
 10
420.5
 20
297.0
 30
0.0
 40
948.9782706766916
 41
628.452
 68
     1
 69
     1
1001
ACAD
1000
MVIEW
1002
{
1070
    16
1010
0.0
1020
0.0
1030
0.0
1010
0.0
1020
0.0
1030
1.0
1040
0.0
1040
628.452
1040
420.5
1040
297.0
1040
50.0
1040
0.0
1040
0.0
1070
     0
1070
   100
1070
     1
1070
     1
1070
     0
1070
     0
1070
     0
1070
     0
1040
0.0
1040
0.0
1040
0.0
1040
10.0
1040
10.0
1040
10.0
1040
10.0
1070
     0
1002
{
1002
}
1002
}
  0
ENDSEC
  0
SECTION
  2
OBJECTS
  0
DICTIONARY
  5
C
330
0
100
AcDbDictionary
  3
ACAD_GROUP
350
D
  3
ACAD_LAYOUT
350
1A
  3
ACAD_MLINESTYLE
350
17
  3
ACAD_PLOTSETTINGS
350
19
  3
ACAD_PLOTSTYLENAME
350
E
  3
ACDBVARIABLEDICTIONARY
350
34
  3
ACMDICTIONARY
350
43
  3
AMG
350
2B
  3
AMGSNAPSETTINGS
350
6E
  3
DWGPROPS
350
57EC
  3
ACDBHEADERROUNDTRIPXREC
350
57FC
  0
DICTIONARY
  5
74
330
1F
100
AcDbDictionary
280
     1
  3
ACAD_INDEX
360
57EE
  3
ACAD_LAYOUTSELFREF
360
581F
  0
DICTIONARY
  5
5824
330
101
100
AcDbDictionary
280
     1
  3
ACAD_LAYOUTSELFREF
360
5825
  0
DICTIONARY
  5
D
102
{ACAD_REACTORS
330
C
102
}
330
C
100
AcDbDictionary
  0
DICTIONARY
  5
1A
102
{ACAD_REACTORS
330
C
102
}
330
C
100
AcDbDictionary
  0
DICTIONARY
  5
17
102
{ACAD_REACTORS
330
C
102
}
330
C
100
AcDbDictionary
  3
STANDARD
350
18
  0
DICTIONARY
  5
19
102
{ACAD_REACTORS
330
C
102
}
330
C
100
AcDbDictionary
  0
ACDBDICTIONARYWDFLT
  5
E
102
{ACAD_REACTORS
330
C
102
}
330
C
100
AcDbDictionary
281
     1
  3
Normal
350
F
100
AcDbDictionaryWithDefault
340
F
  0
DICTIONARY
  5
34
102
{ACAD_REACTORS
330
C
102
}
330
C
100
AcDbDictionary
  3
INDEXCTL
350
35
  3
SORTENTS
350
B5E
  0
DICTIONARY
  5
43
102
{ACAD_REACTORS
330
C
102
}
330
C
100
AcDbDictionary
  3
ACMSTDDICTIONARY
350
260
  0
DICTIONARY
  5
2B
102
{ACAD_REACTORS
330
C
102
}
330
C
100
AcDbDictionary
  3
ACMGSETTINGS
350
2C
  0
DICTIONARY
  5
6E
102
{ACAD_REACTORS
330
C
102
}
330
C
100
AcDbDictionary
  0
XRECORD
  5
57EC
102
{ACAD_REACTORS
330
C
102
}
330
C
100
AcDbXrecord
  1
DWGPROPS COOKIE
  2

  3

  4

  6

  7

  8

  9

300
AmdtFileType=82
301
=
302
=
303
=
304
=
305
=
306
=
307
=
308
=
309
=
 40
0.6316425578703705
 41
2452800.443498622
 42
2453002.766875602
  1

 90
        1
  0
DICTIONARY
  5
57FC
102
{ACAD_REACTORS
330
C
102
}
330
C
100
AcDbDictionary
  3
TSTACKALIGN
350
57FD
  3
TSTACKSIZE
350
57FE
  3
HYPERLINKBASE
350
57FF
  3
STYLESHEET
350
5800
  3
LAYOUTDICT
350
5801
  3
PLOTSETDICT
350
5802
  3
PLOTSTYLNAMDICT
350
5803
  3
LWETCUNION
350
5804
  3
INSUNITS
350
5805
  3
CEPSNTYPE
350
5806
  3
FINGERPRINTGUID
350
5807
  3
VERSIONGUID
350
5808
  3
PSVPSCALE
350
5809
  3
DIMSTYLEDATA
350
580A
  3
PUCSORTHOREF
350
580B
  3
PUCSORTHOVIEW
350
580C
  3
PUCSBASE
350
580D
  3
PUCSORGTOP
350
580E
  3
PUCSORGBOTTOM
350
580F
  3
PUCSORGLEFT
350
5810
  3
PUCSORGRIGHT
350
5811
  3
PUCSORGFRONT
350
5812
  3
PUCSORGBACK
350
5813
  3
UCSORTHOREF
350
5814
  3
UCSORTHOVIEW
350
5815
  3
UCSBASE
350
5816
  3
UCSORGTOP
350
5817
  3
UCSORGBOTTOM
350
5818
  3
UCSORGLEFT
350
5819
  3
UCSORGRIGHT
350
581A
  3
UCSORGFRONT
350
581B
  3
UCSORGBACK
350
581C
  0
DICTIONARY
  5
57EE
102
{ACAD_REACTORS
330
74
102
}
330
74
100
AcDbDictionary
  3
*A1
350
57EF
  0
XRECORD
  5
581F
102
{ACAD_REACTORS
330
74
102
}
330
74
100
AcDbXrecord
340
1F
  0
XRECORD
  5
5825
102
{ACAD_REACTORS
330
5824
102
}
330
5824
100
AcDbXrecord
340
101
  0
MLINESTYLE
  5
18
102
{ACAD_REACTORS
330
17
102
}
330
17
100
AcDbMlineStyle
  2
STANDARD
 70
     0
  3

 62
   256
 51
90.0
 52
90.0
 71
     2
 49
0.5
 62
   256
  6
BYLAYER
 49
-0.5
 62
   256
  6
BYLAYER
  0
ACDBPLACEHOLDER
  5
F
102
{ACAD_REACTORS
330
E
102
}
330
E
100
AcDbPlaceHolder
280
     0
  0
DICTIONARYVAR
  5
35
102
{ACAD_REACTORS
330
34
102
}
330
34
100
DictionaryVariables
280
     0
  1
1
  0
DICTIONARYVAR
  5
B5E
102
{ACAD_REACTORS
330
34
102
}
330
34
100
DictionaryVariables
280
     0
  1
96
  0
DICTIONARY
  5
260
102
{ACAD_REACTORS
330
43
102
}
330
43
100
AcDbDictionary
  0
DICTIONARY
  5
2C
102
{ACAD_REACTORS
330
2B
102
}
330
2B
100
AcDbDictionary
  3
DWGSETTINGS
350
2D
  0
XRECORD
  5
57FD
102
{ACAD_REACTORS
330
57FC
102
}
330
57FC
100
AcDbXrecord
 90
        1
  0
XRECORD
  5
57FE
102
{ACAD_REACTORS
330
57FC
102
}
330
57FC
100
AcDbXrecord
 90
       70
  0
XRECORD
  5
57FF
102
{ACAD_REACTORS
330
57FC
102
}
330
57FC
100
AcDbXrecord
  1

  0
XRECORD
  5
5800
102
{ACAD_REACTORS
330
57FC
102
}
330
57FC
100
AcDbXrecord
  1
ASAMI.ctb
  0
XRECORD
  5
5801
102
{ACAD_REACTORS
330
57FC
102
}
330
57FC
100
AcDbXrecord
340
1A
  0
XRECORD
  5
5802
102
{ACAD_REACTORS
330
57FC
102
}
330
57FC
100
AcDbXrecord
340
19
  0
XRECORD
  5
5803
102
{ACAD_REACTORS
330
57FC
102
}
330
57FC
100
AcDbXrecord
340
E
  0
XRECORD
  5
5804
102
{ACAD_REACTORS
330
57FC
102
}
330
57FC
100
AcDbXrecord
 90
    10781
  0
XRECORD
  5
5805
102
{ACAD_REACTORS
330
57FC
102
}
330
57FC
100
AcDbXrecord
 90
        4
  0
XRECORD
  5
5806
102
{ACAD_REACTORS
330
57FC
102
}
330
57FC
100
AcDbXrecord
 90
        0
  0
XRECORD
  5
5807
102
{ACAD_REACTORS
330
57FC
102
}
330
57FC
100
AcDbXrecord
  1
{AFB28963-8C59-40AE-9337-C84526B81ACE}
  0
XRECORD
  5
5808
102
{ACAD_REACTORS
330
57FC
102
}
330
57FC
100
AcDbXrecord
  1
{F92FFB16-AF97-4E32-AA25-FD5194C29D46}
  0
XRECORD
  5
5809
102
{ACAD_REACTORS
330
57FC
102
}
330
57FC
100
AcDbXrecord
 40
0.0
  0
XRECORD
  5
580A
102
{ACAD_REACTORS
330
57FC
102
}
330
57FC
100
AcDbXrecord
1000
DSTYLE
1002
{
1070
    79
 70
     2
1070
   341
340
59
1070
   342
340
59
1070
   371
 70
    -1
1070
   372
 70
    -1
1002
}
  0
XRECORD
  5
580B
102
{ACAD_REACTORS
330
57FC
102
}
330
57FC
100
AcDbXrecord
340
0
  0
XRECORD
  5
580C
102
{ACAD_REACTORS
330
57FC
102
}
330
57FC
100
AcDbXrecord
 70
     0
  0
XRECORD
  5
580D
102
{ACAD_REACTORS
330
57FC
102
}
330
57FC
100
AcDbXrecord
340
0
  0
XRECORD
  5
580E
102
{ACAD_REACTORS
330
57FC
102
}
330
57FC
100
AcDbXrecord
 10
0.0
 20
0.0
 30
0.0
  0
XRECORD
  5
580F
102
{ACAD_REACTORS
330
57FC
102
}
330
57FC
100
AcDbXrecord
 10
0.0
 20
0.0
 30
0.0
  0
XRECORD
  5
5810
102
{ACAD_REACTORS
330
57FC
102
}
330
57FC
100
AcDbXrecord
 10
0.0
 20
0.0
 30
0.0
  0
XRECORD
  5
5811
102
{ACAD_REACTORS
330
57FC
102
}
330
57FC
100
AcDbXrecord
 10
0.0
 20
0.0
 30
0.0
  0
XRECORD
  5
5812
102
{ACAD_REACTORS
330
57FC
102
}
330
57FC
100
AcDbXrecord
 10
0.0
 20
0.0
 30
0.0
  0
XRECORD
  5
5813
102
{ACAD_REACTORS
330
57FC
102
}
330
57FC
100
AcDbXrecord
 10
0.0
 20
0.0
 30
0.0
  0
XRECORD
  5
5814
102
{ACAD_REACTORS
330
57FC
102
}
330
57FC
100
AcDbXrecord
340
0
  0
XRECORD
  5
5815
102
{ACAD_REACTORS
330
57FC
102
}
330
57FC
100
AcDbXrecord
 70
     0
  0
XRECORD
  5
5816
102
{ACAD_REACTORS
330
57FC
102
}
330
57FC
100
AcDbXrecord
340
0
  0
XRECORD
  5
5817
102
{ACAD_REACTORS
330
57FC
102
}
330
57FC
100
AcDbXrecord
 10
0.0
 20
0.0
 30
0.0
  0
XRECORD
  5
5818
102
{ACAD_REACTORS
330
57FC
102
}
330
57FC
100
AcDbXrecord
 10
0.0
 20
0.0
 30
0.0
  0
XRECORD
  5
5819
102
{ACAD_REACTORS
330
57FC
102
}
330
57FC
100
AcDbXrecord
 10
0.0
 20
0.0
 30
0.0
  0
XRECORD
  5
581A
102
{ACAD_REACTORS
330
57FC
102
}
330
57FC
100
AcDbXrecord
 10
0.0
 20
0.0
 30
0.0
  0
XRECORD
  5
581B
102
{ACAD_REACTORS
330
57FC
102
}
330
57FC
100
AcDbXrecord
 10
0.0
 20
0.0
 30
0.0
  0
XRECORD
  5
581C
102
{ACAD_REACTORS
330
57FC
102
}
330
57FC
100
AcDbXrecord
 10
0.0
 20
0.0
 30
0.0
  0
LAYER_INDEX
  5
57EF
102
{ACAD_REACTORS
330
57EE
102
}
330
57EE
100
AcDbIndex
 40
2453151.699906122
100
AcDbLayerIndex
  8
0
360
57F0
 90
        0
  8
AM_0
360
57F1
 90
       16
  8
PV0001_1
360
57F2
 90
       30
  8
AM_CL
360
57F3
 90
        0
  8
AM_7
360
57F4
 90
        1
  8
AM_11
360
57F5
 90
        3
  8
AM_5
360
57F6
 90
       10
  8
Defpoints
360
57F7
 90
        0
  8
AM_6
360
57F8
 90
        1
  8
AM_4
360
57F9
 90
        0
  8
AM_3
360
57FA
 90
        0
  0
XRECORD
  5
2D
102
{ACAD_REACTORS
330
2C
102
}
330
2C
100
AcDbXrecord
  1
VERSION
140
15.0
  1
PRODUCT
  2
AutoCAD Mechanical 2000
  0
IDBUFFER
  5
57F0
330
0
100
AcDbIdBuffer
  0
IDBUFFER
  5
57F1
330
0
100
AcDbIdBuffer
330
4ED1
330
4ED6
330
4EF5
330
4EF6
330
55D6
330
55D8
330
55DD
330
5724
330
5725
330
5726
330
5727
330
5728
330
5729
330
57BA
330
57C0
330
57C4
  0
IDBUFFER
  5
57F2
330
0
100
AcDbIdBuffer
330
55D9
330
55DA
330
55DB
330
55DE
330
572B
330
572C
330
574B
330
57BB
330
57BC
330
57BD
330
57BF
330
57C1
330
57C2
330
57C5
330
35CA
330
35EA
330
35EB
330
35F9
330
35FA
330
35FB
330
35FD
330
3601
330
3602
330
395A
330
48BA
330
5599
330
559A
330
55D3
330
55D4
330
55D5
  0
IDBUFFER
  5
57F3
330
0
100
AcDbIdBuffer
  0
IDBUFFER
  5
57F4
330
0
100
AcDbIdBuffer
330
35D1
  0
IDBUFFER
  5
57F5
330
0
100
AcDbIdBuffer
330
572A
330
57BE
330
57C3
  0
IDBUFFER
  5
57F6
330
0
100
AcDbIdBuffer
330
36BA
330
3866
330
3C40
330
3D56
330
3DFD
330
53D8
330
53E5
330
53F2
330
53FF
330
55C4
  0
IDBUFFER
  5
57F7
330
0
100
AcDbIdBuffer
  0
IDBUFFER
  5
57F8
330
0
100
AcDbIdBuffer
330
19BD
  0
IDBUFFER
  5
57F9
330
0
100
AcDbIdBuffer
  0
IDBUFFER
  5
57FA
330
0
100
AcDbIdBuffer
  0
ENDSEC
  0
EOF
