  0
SECTION
  2
HEADER
  9
$ACADVER
  1
AC1014
  9
$ACADMAINTVER
 70
     9
  9
$DWGCODEPAGE
  3
ANSI_932
  9
$INSBASE
 10
0.0
 20
0.0
 30
0.0
  9
$EXTMIN
 10
-236.3961017301088
 20
-75.56850900201722
 30
-0.00000001
  9
$EXTMAX
 10
36.12411063492018
 20
48.17099336361876
 30
0.00000001
  9
$LIMMIN
 10
-246.8525424512408
 20
-113.3898789886729
  9
$LIMMAX
 10
65.43219117688067
 20
72.94775743360219
  9
$ORTHOMODE
 70
     0
  9
$REGENMODE
 70
     1
  9
$FILLMODE
 70
     1
  9
$QTEXTMODE
 70
     0
  9
$MIRRTEXT
 70
     0
  9
$DRAGMODE
 70
     2
  9
$LTSCALE
 40
1.0
  9
$OSMODE
 70
    55
  9
$ATTMODE
 70
     1
  9
$TEXTSIZE
 40
2.5
  9
$TRACEWID
 40
1.0
  9
$TEXTSTYLE
  7
STANDARD
  9
$CLAYER
  8
AM_0
  9
$CELTYPE
  6
BYLAYER
  9
$CECOLOR
 62
   256
  9
$CELTSCALE
 40
1.0
  9
$DELOBJ
 70
     1
  9
$DISPSILH
 70
     0
  9
$DIMSCALE
 40
1.0
  9
$DIMASZ
 40
2.5
  9
$DIMEXO
 40
1.0
  9
$DIMDLI
 40
12.0
  9
$DIMRND
 40
0.0
  9
$DIMDLE
 40
0.0
  9
$DIMEXE
 40
1.0
  9
$DIMTP
 40
0.1
  9
$DIMTM
 40
0.1
  9
$DIMTXT
 40
3.2
  9
$DIMCEN
 40
0.0
  9
$DIMTSZ
 40
0.0
  9
$DIMTOL
 70
     0
  9
$DIMLIM
 70
     0
  9
$DIMTIH
 70
     0
  9
$DIMTOH
 70
     0
  9
$DIMSE1
 70
     0
  9
$DIMSE2
 70
     0
  9
$DIMTAD
 70
     3
  9
$DIMZIN
 70
     8
  9
$DIMBLK
  1
OPEN30
  9
$DIMASO
 70
     1
  9
$DIMSHO
 70
     1
  9
$DIMPOST
  1

  9
$DIMAPOST
  1
"
  9
$DIMALT
 70
     0
  9
$DIMALTD
 70
     2
  9
$DIMALTF
 40
0.0393701
  9
$DIMLFAC
 40
1.0
  9
$DIMTOFL
 70
     1
  9
$DIMTVP
 40
0.0
  9
$DIMTIX
 70
     0
  9
$DIMSOXD
 70
     0
  9
$DIMSAH
 70
     0
  9
$DIMBLK1
  1

  9
$DIMBLK2
  1

  9
$DIMSTYLE
  2
AM_JIS
  9
$DIMCLRD
 70
   256
  9
$DIMCLRE
 70
   256
  9
$DIMCLRT
 70
     2
  9
$DIMTFAC
 40
0.71
  9
$DIMGAP
 40
1.5
  9
$DIMJUST
 70
     0
  9
$DIMSD1
 70
     0
  9
$DIMSD2
 70
     0
  9
$DIMTOLJ
 70
     0
  9
$DIMTZIN
 70
     0
  9
$DIMALTZ
 70
     0
  9
$DIMALTTZ
 70
     0
  9
$DIMFIT
 70
     3
  9
$DIMUPT
 70
     0
  9
$DIMUNIT
 70
     2
  9
$DIMDEC
 70
     3
  9
$DIMTDEC
 70
     3
  9
$DIMALTU
 70
     2
  9
$DIMALTTD
 70
     2
  9
$DIMTXSTY
  7
ASAMI
  9
$DIMAUNIT
 70
     0
  9
$LUNITS
 70
     2
  9
$LUPREC
 70
     2
  9
$SKETCHINC
 40
1.0
  9
$FILLETRAD
 40
2.5
  9
$AUNITS
 70
     0
  9
$AUPREC
 70
     0
  9
$MENU
  1
.
  9
$ELEVATION
 40
0.0
  9
$PELEVATION
 40
0.0
  9
$THICKNESS
 40
0.0
  9
$LIMCHECK
 70
     0
  9
$BLIPMODE
 70
     0
  9
$CHAMFERA
 40
2.5
  9
$CHAMFERB
 40
2.5
  9
$CHAMFERC
 40
20.0
  9
$CHAMFERD
 40
0.0
  9
$SKPOLY
 70
     0
  9
$TDCREATE
 40
2452800.443498622
  9
$TDUPDATE
 40
2453151.708632974
  9
$TDINDWG
 40
0.4869483796
  9
$TDUSRTIMER
 40
0.4869483796
  9
$USRTIMER
 70
     1
  9
$ANGBASE
 50
0.0
  9
$ANGDIR
 70
     0
  9
$PDMODE
 70
     0
  9
$PDSIZE
 40
0.0
  9
$PLINEWID
 40
0.0
  9
$COORDS
 70
     1
  9
$SPLFRAME
 70
     0
  9
$SPLINETYPE
 70
     6
  9
$SPLINESEGS
 70
     8
  9
$ATTDIA
 70
     1
  9
$ATTREQ
 70
     1
  9
$HANDLING
 70
 12289
  9
$HANDSEED
  5
52A6
  9
$SURFTAB1
 70
     6
  9
$SURFTAB2
 70
     6
  9
$SURFTYPE
 70
     6
  9
$SURFU
 70
     6
  9
$SURFV
 70
     6
  9
$UCSNAME
  2

  9
$UCSORG
 10
-0.0000000000002478
 20
-0.0000000000001167
 30
0.0
  9
$UCSXDIR
 10
1.0
 20
0.0000000000000027
 30
0.0
  9
$UCSYDIR
 10
-0.0000000000000027
 20
1.0
 30
0.0
  9
$PUCSNAME
  2

  9
$PUCSORG
 10
0.0
 20
0.0
 30
0.0
  9
$PUCSXDIR
 10
1.0
 20
0.0
 30
0.0
  9
$PUCSYDIR
 10
0.0
 20
1.0
 30
0.0
  9
$USERI1
 70
     0
  9
$USERI2
 70
     0
  9
$USERI3
 70
     0
  9
$USERI4
 70
     0
  9
$USERI5
 70
     0
  9
$USERR1
 40
0.0
  9
$USERR2
 40
0.0
  9
$USERR3
 40
0.0
  9
$USERR4
 40
0.0
  9
$USERR5
 40
0.0
  9
$WORLDVIEW
 70
     1
  9
$SHADEDGE
 70
     3
  9
$SHADEDIF
 70
    70
  9
$TILEMODE
 70
     1
  9
$MAXACTVP
 70
    64
  9
$PINSBASE
 10
0.0
 20
0.0
 30
0.0
  9
$PLIMCHECK
 70
     0
  9
$PEXTMIN
 10
1.000000000000000E+20
 20
1.000000000000000E+20
 30
1.000000000000000E+20
  9
$PEXTMAX
 10
-1.000000000000000E+20
 20
-1.000000000000000E+20
 30
-1.000000000000000E+20
  9
$PLIMMIN
 10
0.0
 20
0.0
  9
$PLIMMAX
 10
841.0
 20
594.0
  9
$UNITMODE
 70
     0
  9
$VISRETAIN
 70
     1
  9
$PLINEGEN
 70
     0
  9
$PSLTSCALE
 70
     0
  9
$TREEDEPTH
 70
  3020
  9
$PICKSTYLE
 70
     0
  9
$CMLSTYLE
  2
STANDARD
  9
$CMLJUST
 70
     0
  9
$CMLSCALE
 40
20.0
  9
$PROXYGRAPHICS
 70
     1
  9
$MEASUREMENT
 70
     1
  0
ENDSEC
  0
SECTION
  2
CLASSES
  0
CLASS
  1
ACDBDICTIONARYWDFLT
  2
AcDbDictionaryWithDefault
  3
AutoCAD 2000
 90
        0
280
     0
281
     0
  0
CLASS
  1
ACDBPLACEHOLDER
  2
AcDbPlaceHolder
  3
AutoCAD 2000
 90
        0
280
     0
281
     0
  0
CLASS
  1
LAYOUT
  2
AcDbLayout
  3
AutoCAD 2000
 90
        0
280
     0
281
     0
  0
CLASS
  1
AMGSETTINGSOBJ
  2
AmgSettingsObj
  3
"AcadM|Product Description: AutoCAD Mechanical 2000|Company: Autodesk"
 90
        0
280
     0
281
     0
  0
CLASS
  1
ACME_DOCUMENT
  2
AcMeDbDoc
  3
AcMeServices
 90
        0
280
     0
281
     0
  0
CLASS
  1
ACMESCOPE
  2
AcMeScope
  3
AcMeServices
 90
        0
280
     0
281
     0
  0
CLASS
  1
ACMECOMMANDHISTORY
  2
AcMeCommandHistory
  3
AcMeServices
 90
        0
280
     0
281
     0
  0
CLASS
  1
DICTIONARYVAR
  2
AcDbDictionaryVar
  3
AutoCAD 2000
 90
        0
280
     0
281
     0
  0
CLASS
  1
ACIMSYSVARMAN
  2
AcImSysVarManager
  3
AcMeServices
 90
        0
280
     0
281
     0
  0
CLASS
  1
ACIMREALSYSVAR
  2
AcImRealSysVar
  3
AcMeServices
 90
        0
280
     0
281
     0
  0
CLASS
  1
ACIMINTSYSVAR
  2
AcImIntSysVar
  3
AcMeServices
 90
        0
280
     0
281
     0
  0
CLASS
  1
ACMEDRAWINGMAN
  2
AcMeDrawingMan
  3
AcMeServices
 90
        0
280
     0
281
     0
  0
CLASS
  1
ACMEVIEW
  2
AcMeView
  3
AcMeServices
 90
        0
280
     0
281
     0
  0
CLASS
  1
ACDBENTITYCACHE
  2
AcMeEntityCache
  3
AcMeServices
 90
        0
280
     0
281
     0
  0
CLASS
  1
GSMANAGER
  2
AcMeGSManager
  3
AcMeServices
 90
        0
280
     0
281
     0
  0
CLASS
  1
AmdtInternalReactor
  2
AmdtInternalReactor
  3
AcMeServices
 90
        0
280
     0
281
     0
  0
CLASS
  1
ACMESTATEMGR
  2
AcMeStateMgr
  3
AcMeServices
 90
        0
280
     0
281
     0
  0
CLASS
  1
ACME_DATABASE
  2
AcMeDbDatabase
  3
AcMeServices
 90
        0
280
     0
281
     0
  0
CLASS
  1
ACRFINSADJUSTERMGR
  2
AcRfInsAdjusterMgr
  3
AcMeServices
 90
        0
280
     0
281
     0
  0
CLASS
  1
ACMDATADICTIONARY
  2
AcmDataDictionary
  3
"AcmSymBB|Product Description: AutoCAD Mechanical 2000|Company: Autodesk"
 90
        0
280
     0
281
     0
  0
CLASS
  1
ACMDATAENTRYBLOCK
  2
AcmDataEntryBlock
  3
"AcmSymBB|Product Description: AutoCAD Mechanical 2000|Company: Autodesk"
 90
        0
280
     0
281
     0
  0
CLASS
  1
AMGOBJPROPCFG
  2
AmgObjPropCfg
  3
"AmgLay|Product Description: AutoCAD Mechanical 2000|Company: Autodesk"
 90
        1
280
     0
281
     0
  0
CLASS
  1
ACAMGFILTERDAT
  2
AcAmgFilterDat
  3
"AcadM|Product Description: AutoCAD Mechanical 2000|Company: Autodesk"
 90
        0
280
     0
281
     0
  0
CLASS
  1
LAYER_INDEX
  2
AcDbLayerIndex
  3
AutoCAD 2000
 90
        0
280
     0
281
     0
  0
CLASS
  1
IDBUFFER
  2
AcDbIdBuffer
  3
AutoCAD 2000
 90
        0
280
     0
281
     0
  0
CLASS
  1
ACIMSTRSYSVAR
  2
AcImStrSysVar
  3
AcMeServices
 90
        0
280
     0
281
     0
  0
CLASS
  1
ACMSTANDARDJIS
  2
AcmStandardJIS
  3
"AcmSymBB|Product Description: AutoCAD Mechanical 2000|Company: Autodesk"
 90
        0
280
     0
281
     0
  0
CLASS
  1
ACMSURFSTANDARDJIS
  2
AcmSurfTextStdJIS
  3
"AcmSymBB|Product Description: AutoCAD Mechanical 2000|Company: Autodesk"
 90
        0
280
     0
281
     0
  0
CLASS
  1
ACMFCFSTANDARDJIS
  2
AcmFCFStdJIS
  3
"AcmSymBB|Product Description: AutoCAD Mechanical 2000|Company: Autodesk"
 90
        0
280
     0
281
     0
  0
CLASS
  1
ACMWELDSTANDARDJIS
  2
AcmWeldingStdJIS
  3
"AcmSymBB|Product Description: AutoCAD Mechanical 2000|Company: Autodesk"
 90
        0
280
     0
281
     0
  0
CLASS
  1
ACMIDSTANDARDJIS
  2
AcmIdStdJIS
  3
"AcmSymBB|Product Description: AutoCAD Mechanical 2000|Company: Autodesk"
 90
        0
280
     0
281
     0
  0
CLASS
  1
ACMDATUMSTANDARDJIS
  2
AcmDatumStdJIS
  3
"AcmSymBB|Product Description: AutoCAD Mechanical 2000|Company: Autodesk"
 90
        0
280
     0
281
     0
  0
CLASS
  1
ACMBOMSTANDARDJIS
  2
AcmBOMStdJIS
  3
"AcmSymBB|Product Description: AutoCAD Mechanical 2000|Company: Autodesk"
 90
        0
280
     0
281
     0
  0
CLASS
  1
ACMSTANDARDANSI
  2
AcmStandardANSI
  3
"AcmSymBB|Product Description: AutoCAD Mechanical 2000|Company: Autodesk"
 90
        0
280
     0
281
     0
  0
CLASS
  1
ACMSURFSTANDARDANSI
  2
AcmSurfTextStdANSI
  3
"AcmSymBB|Product Description: AutoCAD Mechanical 2000|Company: Autodesk"
 90
        0
280
     0
281
     0
  0
CLASS
  1
ACMFCFSTANDARDANSI
  2
AcmFCFStdANSI
  3
"AcmSymBB|Product Description: AutoCAD Mechanical 2000|Company: Autodesk"
 90
        0
280
     0
281
     0
  0
CLASS
  1
ACMWELDSTANDARDANSI
  2
AcmWeldingStdANSI
  3
"AcmSymBB|Product Description: AutoCAD Mechanical 2000|Company: Autodesk"
 90
        0
280
     0
281
     0
  0
CLASS
  1
ACMIDSTANDARDANSI
  2
AcmIdStdANSI
  3
"AcmSymBB|Product Description: AutoCAD Mechanical 2000|Company: Autodesk"
 90
        0
280
     0
281
     0
  0
CLASS
  1
ACMDATUMSTANDARDANSI
  2
AcmDatumStdANSI
  3
"AcmSymBB|Product Description: AutoCAD Mechanical 2000|Company: Autodesk"
 90
        0
280
     0
281
     0
  0
CLASS
  1
ACMBOMSTANDARDANSI
  2
AcmBOMStdANSI
  3
"AcmSymBB|Product Description: AutoCAD Mechanical 2000|Company: Autodesk"
 90
        0
280
     0
281
     0
  0
CLASS
  1
ACMSTANDARDBSI
  2
AcmStandardBSI
  3
"AcmSymBB|Product Description: AutoCAD Mechanical 2000|Company: Autodesk"
 90
        0
280
     0
281
     0
  0
CLASS
  1
ACMSURFSTANDARDBSI
  2
AcmSurfTextStdBSI
  3
"AcmSymBB|Product Description: AutoCAD Mechanical 2000|Company: Autodesk"
 90
        0
280
     0
281
     0
  0
CLASS
  1
ACMFCFSTANDARDBSI
  2
AcmFCFStdBSI
  3
"AcmSymBB|Product Description: AutoCAD Mechanical 2000|Company: Autodesk"
 90
        0
280
     0
281
     0
  0
CLASS
  1
ACMWELDSTANDARDBSI
  2
AcmWeldingStdBSI
  3
"AcmSymBB|Product Description: AutoCAD Mechanical 2000|Company: Autodesk"
 90
        0
280
     0
281
     0
  0
CLASS
  1
ACMIDSTANDARDBSI
  2
AcmIdStdBSI
  3
"AcmSymBB|Product Description: AutoCAD Mechanical 2000|Company: Autodesk"
 90
        0
280
     0
281
     0
  0
CLASS
  1
ACMDATUMSTANDARDBSI
  2
AcmDatumStdBSI
  3
"AcmSymBB|Product Description: AutoCAD Mechanical 2000|Company: Autodesk"
 90
        0
280
     0
281
     0
  0
CLASS
  1
ACMBOMSTANDARDBSI
  2
AcmBOMStdBSI
  3
"AcmSymBB|Product Description: AutoCAD Mechanical 2000|Company: Autodesk"
 90
        0
280
     0
281
     0
  0
CLASS
  1
LONG_TRANSACTION
  2
AcDbLongTransaction
  3
AutoCAD 2000
 90
        0
280
     0
281
     0
  0
CLASS
  1
LWPOLYLINE
  2
AcDbPolyline
  3
AutoCAD 2000
 90
        0
280
     0
281
     1
  0
CLASS
  1
HATCH
  2
AcDbHatch
  3
AutoCAD 2000
 90
        0
280
     0
281
     1
  0
CLASS
  1
XRECORD
  2
AcDbXrecord
  3
AutoCAD 2000
 90
        0
280
     0
281
     0
  0
ENDSEC
  0
SECTION
  2
TABLES
  0
TABLE
  2
VPORT
  5
8
330
0
100
AcDbSymbolTable
 70
     3
  0
VPORT
  5
527B
330
8
100
AcDbSymbolTableRecord
100
AcDbViewportTableRecord
  2
*ACTIVE
 70
     0
 10
0.0
 20
0.0
 11
1.0
 21
1.0
 12
-102.0119211268591
 22
5.876338780750373
 13
0.0
 23
0.0
 14
2.5
 24
2.5
 15
10.0
 25
10.0
 16
0.0
 26
0.0
 36
1.0
 17
0.0
 27
0.0
 37
0.0
 40
236.8149107724741
 41
1.56570841889117
 42
50.0
 43
0.0
 44
0.0
 50
0.0
 51
0.0
 71
     0
 72
   100
 73
     1
 74
     1
 75
     0
 76
     0
 77
     0
 78
     0
  0
ENDTAB
  0
TABLE
  2
LTYPE
  5
5
330
0
100
AcDbSymbolTable
 70
    10
  0
LTYPE
  5
14
330
5
100
AcDbSymbolTableRecord
100
AcDbLinetypeTableRecord
  2
BYBLOCK
 70
     0
  3

 72
    65
 73
     0
 40
0.0
  0
LTYPE
  5
15
330
5
100
AcDbSymbolTableRecord
100
AcDbLinetypeTableRecord
  2
BYLAYER
 70
     0
  3

 72
    65
 73
     0
 40
0.0
  0
LTYPE
  5
16
330
5
100
AcDbSymbolTableRecord
100
AcDbLinetypeTableRecord
  2
CONTINUOUS
 70
     0
  3
Solid line
 72
    65
 73
     0
 40
0.0
  0
LTYPE
  5
4B
330
5
100
AcDbSymbolTableRecord
100
AcDbLinetypeTableRecord
  2
AM_ISO02W050
 70
     0
  3
__ __ __ __ __ __ __ __ __ __ __ __ __ __ __
 72
    65
 73
     2
 40
7.5
 49
6.0
 74
     0
 49
-1.5
 74
     0
  0
LTYPE
  5
4C
330
5
100
AcDbSymbolTableRecord
100
AcDbLinetypeTableRecord
  2
AM_ISO08W050
 70
     0
  3
____ . ____ . ____ . ____ . ____ . ____ . ____
 72
    65
 73
     4
 40
18.0
 49
12.0
 74
     0
 49
-1.5
 74
     0
 49
3.0
 74
     0
 49
-1.5
 74
     0
  0
LTYPE
  5
4D
330
5
100
AcDbSymbolTableRecord
100
AcDbLinetypeTableRecord
  2
AM_ISO09W050
 70
     0
  3
_____ . . _____ . . _____ . . ____ .. ____
 72
    65
 73
     6
 40
22.5
 49
12.0
 74
     0
 49
-1.5
 74
     0
 49
3.0
 74
     0
 49
-1.5
 74
     0
 49
3.0
 74
     0
 49
-1.5
 74
     0
  0
LTYPE
  5
4E
330
5
100
AcDbSymbolTableRecord
100
AcDbLinetypeTableRecord
  2
AMCONSTR
 70
     0
  3
_______________________
 72
    65
 73
     2
 40
9999.0
 49
9999.0
 74
     0
 49
0.0
 74
     0
  0
LTYPE
  5
4F
330
5
100
AcDbSymbolTableRecord
100
AcDbLinetypeTableRecord
  2
AM_ISO02W050X2
 70
     0
  3
 _ _ _ _ _ _ _ _ _ _ _ _
 72
    65
 73
     2
 40
3.75
 49
3.0
 74
     0
 49
-0.75
 74
     0
  0
LTYPE
  5
50
330
5
100
AcDbSymbolTableRecord
100
AcDbLinetypeTableRecord
  2
AM_ISO08W050X2
 70
     0
  3
__ . __ . __ . __ . __ . __
 72
    65
 73
     4
 40
9.0
 49
6.0
 74
     0
 49
-0.75
 74
     0
 49
1.5
 74
     0
 49
-0.75
 74
     0
  0
LTYPE
  5
53
330
5
100
AcDbSymbolTableRecord
100
AcDbLinetypeTableRecord
  2
AMZIGZAG
 70
     0
  3
/\/-/\/-/\/-/\/-/\/-/\/
 72
    65
 73
     2
 40
11.00009999999999
 49
0.0001
 74
     4
 75
   135
340
52
 46
0.04
 50
0.0
 44
0.0
 45
0.0
 49
-11.0
 74
     0
  0
LTYPE
  5
166
330
5
100
AcDbSymbolTableRecord
100
AcDbLinetypeTableRecord
  2
ACJISTGL
 70
     0
  3
_ _ _ _ _
 72
    65
 73
     2
 40
3.0
 49
2.0
 74
     0
 49
-1.0
 74
     0
  0
LTYPE
  5
26A
330
5
100
AcDbSymbolTableRecord
100
AcDbLinetypeTableRecord
  2
ACJISTGB
 70
     0
  3
__ . . __ . .
 72
    65
 73
     6
 40
9.0
 49
4.0
 74
     0
 49
-1.0
 74
     0
 49
1.0
 74
     0
 49
-1.0
 74
     0
 49
1.0
 74
     0
 49
-1.0
 74
     0
  0
ENDTAB
  0
TABLE
  2
LAYER
  5
2
330
0
100
AcDbSymbolTable
 70
    11
  0
LAYER
  5
10
330
2
100
AcDbSymbolTableRecord
100
AcDbLayerTableRecord
  2
0
 70
     0
 62
     7
  6
CONTINUOUS
  0
LAYER
  5
3F9
330
2
100
AcDbSymbolTableRecord
100
AcDbLayerTableRecord
  2
AM_0
 70
     0
 62
     7
  6
CONTINUOUS
  0
LAYER
  5
BA4
330
2
100
AcDbSymbolTableRecord
100
AcDbLayerTableRecord
  2
PV0001_1
 70
     0
 62
     7
  6
CONTINUOUS
  0
LAYER
  5
C6C
330
2
100
AcDbSymbolTableRecord
100
AcDbLayerTableRecord
  2
AM_CL
 70
     0
 62
     1
  6
AMCONSTR
  0
LAYER
  5
C7C
330
2
100
AcDbSymbolTableRecord
100
AcDbLayerTableRecord
  2
AM_7
 70
     0
 62
     4
  6
AM_ISO08W050
  0
LAYER
  5
C97
330
2
100
AcDbSymbolTableRecord
100
AcDbLayerTableRecord
  2
AM_11
 70
     0
 62
     3
  6
AM_ISO09W050
  0
LAYER
  5
CC5
330
2
100
AcDbSymbolTableRecord
100
AcDbLayerTableRecord
  2
AM_5
 70
     0
 62
     3
  6
CONTINUOUS
  0
LAYER
  5
CC7
330
2
100
AcDbSymbolTableRecord
100
AcDbLayerTableRecord
  2
DEFPOINTS
 70
     0
 62
     7
  6
CONTINUOUS
  0
LAYER
  5
19BC
330
2
100
AcDbSymbolTableRecord
100
AcDbLayerTableRecord
  2
AM_6
 70
     0
 62
     2
  6
CONTINUOUS
  0
LAYER
  5
1F8E
330
2
100
AcDbSymbolTableRecord
100
AcDbLayerTableRecord
  2
AM_4
 70
     0
 62
     3
  6
CONTINUOUS
  0
LAYER
  5
3588
330
2
100
AcDbSymbolTableRecord
100
AcDbLayerTableRecord
  2
AM_3
 70
     0
 62
     6
  6
ACJISTGL
  0
ENDTAB
  0
TABLE
  2
STYLE
  5
3
330
0
100
AcDbSymbolTable
 70
     5
  0
STYLE
  5
11
330
3
100
AcDbSymbolTableRecord
100
AcDbTextStyleTableRecord
  2
STANDARD
 70
     0
 40
0.0
 41
1.0
 50
0.0
 71
     0
 42
2.5
  3
simplex.shx
  4
EXTFONT.SHX
  0
STYLE
  5
52
330
3
100
AcDbSymbolTableRecord
100
AcDbTextStyleTableRecord
  2

 70
     1
 40
0.0
 41
1.0
 50
0.0
 71
     0
 42
2.5
  3
ltypeshp.shx
  4

  0
STYLE
  5
6B
330
3
100
AcDbSymbolTableRecord
100
AcDbTextStyleTableRecord
  2
ASAMI
 70
     0
 40
0.0
 41
1.0
 50
0.0
 71
     0
 42
2.5
  3
simplex.shx
  4
EXTFONT.SHX
  0
STYLE
  5
262
330
3
100
AcDbSymbolTableRecord
100
AcDbTextStyleTableRecord
  2
ACJISTS
 70
     0
 40
1.0
 41
1.0
 50
0.0
 71
     0
 42
2.5
  3
simplex.shx
  4
bigfont.shx
  0
STYLE
  5
269
330
3
100
AcDbSymbolTableRecord
100
AcDbTextStyleTableRecord
  2
ACJISGDT
 70
     0
 40
0.0
 41
1.0
 50
0.0
 71
     0
 42
2.5
  3
amgdtans.shx
  4

  0
ENDTAB
  0
TABLE
  2
VIEW
  5
6
330
0
100
AcDbSymbolTable
 70
     0
  0
ENDTAB
  0
TABLE
  2
UCS
  5
7
330
0
100
AcDbSymbolTable
 70
     0
  0
ENDTAB
  0
TABLE
  2
APPID
  5
9
330
0
100
AcDbSymbolTable
 70
    14
  0
APPID
  5
12
330
9
100
AcDbSymbolTableRecord
100
AcDbRegAppTableRecord
  2
ACAD
 70
     0
  0
APPID
  5
30
330
9
100
AcDbSymbolTableRecord
100
AcDbRegAppTableRecord
  2
MCAD_NO_VIS
 70
     0
  0
APPID
  5
31
330
9
100
AcDbSymbolTableRecord
100
AcDbRegAppTableRecord
  2
ACAD_TEMP_GRAPHIC
 70
     0
  0
APPID
  5
2C2
330
9
100
AcDbSymbolTableRecord
100
AcDbRegAppTableRecord
  2
GENIUS_GENDTOL_13
 70
     0
  0
APPID
  5
339
330
9
100
AcDbSymbolTableRecord
100
AcDbRegAppTableRecord
  2
GENIUS_GENODEF_13
 70
     0
  0
APPID
  5
33A
330
9
100
AcDbSymbolTableRecord
100
AcDbRegAppTableRecord
  2
GENIUS_GENOBJ-N-RSBK_13
 70
     0
  0
APPID
  5
33B
330
9
100
AcDbSymbolTableRecord
100
AcDbRegAppTableRecord
  2
GENIUS_GENOBJ-N-LIB_13
 70
     0
  0
APPID
  5
33C
330
9
100
AcDbSymbolTableRecord
100
AcDbRegAppTableRecord
  2
GENIUS_GENSCALE_13
 70
     0
  0
APPID
  5
378
330
9
100
AcDbSymbolTableRecord
100
AcDbRegAppTableRecord
  2
GENIUS_GENDIMSH_14
 70
     0
  0
APPID
  5
C82
330
9
100
AcDbSymbolTableRecord
100
AcDbRegAppTableRecord
  2
GENIUS_GENOBJ-N-CRS_13
 70
     0
  0
APPID
  5
C83
330
9
100
AcDbSymbolTableRecord
100
AcDbRegAppTableRecord
  2
GENIUS_GENOENT_13
 70
     0
  0
APPID
  5
C84
330
9
100
AcDbSymbolTableRecord
100
AcDbRegAppTableRecord
  2
GENIUS_GENOREF_13
 70
     0
  0
APPID
  5
C85
330
9
100
AcDbSymbolTableRecord
100
AcDbRegAppTableRecord
  2
GENIUS_GENOLIS_13
 70
     0
  0
APPID
  5
CA0
330
9
100
AcDbSymbolTableRecord
100
AcDbRegAppTableRecord
  2
GENIUS_GENOBJ-N-CEN_13
 70
     0
  0
ENDTAB
  0
TABLE
  2
DIMSTYLE
  5
A
330
0
100
AcDbSymbolTable
 70
    10
  0
DIMSTYLE
105
58
330
A
100
AcDbSymbolTableRecord
100
AcDbDimStyleTableRecord
  2
AM_JIS
 70
     0
  3

  4
"
  5
OPEN30
  6

  7

 40
1.0
 41
2.5
 42
1.0
 43
12.0
 44
1.0
 45
0.0
 46
0.0
 47
0.1
 48
0.1
140
3.2
141
0.0
142
0.0
143
0.0393701
144
1.0
145
0.0
146
0.71
147
1.5
 71
     0
 72
     0
 73
     0
 74
     0
 75
     0
 76
     0
 77
     3
 78
     8
170
     0
171
     2
172
     1
173
     0
174
     0
175
     0
176
   256
177
   256
178
     2
270
     2
271
     3
272
     3
273
     2
274
     2
340
6B
275
     0
280
     0
281
     0
282
     0
283
     0
284
     0
285
     0
286
     0
287
     3
288
     0
  0
DIMSTYLE
105
5F
330
A
100
AcDbSymbolTableRecord
100
AcDbDimStyleTableRecord
  2
AM_JIS$3
 70
     0
  3

  4
"
  5
OPEN30
  6

  7

 40
1.0
 41
2.5
 42
1.0
 43
10.0
 44
1.0
 45
0.0
 46
0.0
 47
0.1
 48
0.1
140
3.2
141
0.0
142
0.0
143
0.0393701
144
1.0
145
0.0
146
0.71
147
1.5
 71
     0
 72
     0
 73
     0
 74
     1
 75
     0
 76
     0
 77
     3
 78
     8
170
     0
171
     2
172
     0
173
     0
174
     0
175
     0
176
   256
177
   256
178
     2
270
     2
271
     2
272
     3
273
     2
274
     2
340
6B
275
     0
280
     0
281
     0
282
     0
283
     0
284
     0
285
     0
286
     0
287
     0
288
     1
  0
DIMSTYLE
105
60
330
A
100
AcDbSymbolTableRecord
100
AcDbDimStyleTableRecord
  2
AM_JIS$4
 70
     0
  3

  4
"
  5
OPEN30
  6

  7

 40
1.0
 41
2.5
 42
1.0
 43
10.0
 44
1.0
 45
0.0
 46
0.0
 47
0.1
 48
0.1
140
3.2
141
0.0
142
0.0
143
0.0393701
144
1.0
145
0.0
146
0.71
147
1.5
 71
     0
 72
     0
 73
     0
 74
     1
 75
     0
 76
     0
 77
     3
 78
     8
170
     0
171
     2
172
     0
173
     0
174
     0
175
     0
176
   256
177
   256
178
     2
270
     2
271
     2
272
     3
273
     2
274
     2
340
6B
275
     0
280
     0
281
     0
282
     0
283
     0
284
     0
285
     0
286
     0
287
     0
288
     1
  0
DIMSTYLE
105
61
330
A
100
AcDbSymbolTableRecord
100
AcDbDimStyleTableRecord
  2
AM_JIS$6
 70
     0
  3

  4
"
  5
OPEN30
  6

  7

 40
1.0
 41
2.5
 42
1.0
 43
10.0
 44
1.0
 45
0.0
 46
0.0
 47
0.1
 48
0.1
140
3.2
141
0.0
142
0.0
143
0.0393701
144
1.0
145
0.0
146
0.71
147
1.5
 71
     0
 72
     0
 73
     0
 74
     0
 75
     0
 76
     0
 77
     0
 78
     8
170
     0
171
     2
172
     1
173
     0
174
     0
175
     0
176
   256
177
   256
178
     2
270
     2
271
     2
272
     2
273
     2
274
     2
340
6B
275
     0
280
     0
281
     0
282
     0
283
     0
284
     0
285
     0
286
     0
287
     3
288
     0
  0
DIMSTYLE
105
62
330
A
100
AcDbSymbolTableRecord
100
AcDbDimStyleTableRecord
  2
AM_JIS$7
 70
     0
  3

  4
"
  5
OPEN30
  6

  7

 40
1.0
 41
2.5
 42
1.0
 43
10.0
 44
1.0
 45
0.0
 46
0.0
 47
0.1
 48
0.1
140
3.2
141
0.0
142
0.0
143
0.0393701
144
1.0
145
0.0
146
0.71
147
1.5
 71
     0
 72
     0
 73
     0
 74
     0
 75
     0
 76
     0
 77
     3
 78
     8
170
     0
171
     2
172
     1
173
     0
174
     0
175
     0
176
   256
177
   256
178
     2
270
     2
271
     2
272
     3
273
     2
274
     2
340
6B
275
     0
280
     0
281
     0
282
     0
283
     0
284
     0
285
     0
286
     0
287
     3
288
     0
  0
DIMSTYLE
105
63
330
A
100
AcDbSymbolTableRecord
100
AcDbDimStyleTableRecord
  2
AM_JIS$SF
 70
     0
  3

  4
"
  5
OPEN30
  6

  7

 40
1.0
 41
2.5
 42
1.0
 43
10.0
 44
1.0
 45
0.0
 46
0.0
 47
0.1
 48
0.1
140
3.2
141
0.0
142
0.0
143
0.0393701
144
1.0
145
0.0
146
0.71
147
1.5
 71
     0
 72
     0
 73
     0
 74
     0
 75
     1
 76
     1
 77
     3
 78
     8
170
     0
171
     2
172
     1
173
     0
174
     0
175
     0
176
   256
177
   256
178
     2
270
     2
271
     2
272
     2
273
     2
274
     2
340
6B
275
     0
280
     0
281
     0
282
     0
283
     0
284
     0
285
     0
286
     0
287
     3
288
     0
  0
DIMSTYLE
105
68
330
A
100
AcDbSymbolTableRecord
100
AcDbDimStyleTableRecord
  2
AM_JIS$SH
 70
     0
  3

  4
"
  5

  6
GENAXEH
  7
OPEN30
 40
1.0
 41
2.5
 42
1.0
 43
10.0
 44
1.0
 45
0.0
 46
0.0
 47
0.1
 48
0.1
140
3.2
141
0.0
142
0.0
143
0.0393701
144
2.0
145
0.0
146
0.71
147
1.5
 71
     0
 72
     0
 73
     0
 74
     0
 75
     1
 76
     1
 77
     3
 78
     8
170
     0
171
     2
172
     1
173
     1
174
     0
175
     0
176
   256
177
   256
178
     2
270
     2
271
     2
272
     2
273
     2
274
     2
340
6B
275
     0
280
     0
281
     0
282
     0
283
     0
284
     0
285
     0
286
     0
287
     3
288
     0
  0
DIMSTYLE
105
B34
102
{ACAD_REACTORS
330
36BA
102
}
330
A
100
AcDbSymbolTableRecord
100
AcDbDimStyleTableRecord
  2
AM_JIS$2
 70
     0
  3

  4
"
  5
OPEN30
  6

  7

 40
1.0
 41
2.5
 42
1.0
 43
12.0
 44
1.0
 45
0.0
 46
0.0
 47
0.1
 48
0.1
140
3.2
141
0.0
142
0.0
143
0.0393701
144
1.0
145
0.0
146
0.71
147
1.5
 71
     0
 72
     0
 73
     0
 74
     0
 75
     0
 76
     0
 77
     3
 78
     8
170
     0
171
     2
172
     1
173
     0
174
     0
175
     0
176
   256
177
   256
178
     2
270
     2
271
     3
272
     3
273
     2
274
     2
340
6B
275
     0
280
     0
281
     0
282
     0
283
     0
284
     0
285
     0
286
     0
287
     3
288
     0
  0
DIMSTYLE
105
BA5
102
{ACAD_REACTORS
330
3B0D
330
471A
330
4A58
330
4A59
330
4A5A
330
4A5B
330
4A5C
330
4A5D
330
50BB
102
}
330
A
100
AcDbSymbolTableRecord
100
AcDbDimStyleTableRecord
  2
AM_JIS$0
 70
     0
  3

  4
"
  5
OPEN30
  6

  7

 40
1.0
 41
2.5
 42
0.8
 43
10.0
 44
1.0
 45
0.0
 46
0.0
 47
0.1
 48
0.1000000001
140
3.799999999999999
141
0.0
142
0.0
143
0.0393701
144
1.0
145
0.0
146
0.71
147
1.5
 71
     0
 72
     0
 73
     0
 74
     0
 75
     0
 76
     0
 77
     3
 78
     9
170
     0
171
     2
172
     1
173
     0
174
     0
175
     0
176
     3
177
     3
178
     2
270
     2
271
     2
272
     2
273
     2
274
     2
340
11
275
     1
280
     0
281
     0
282
     0
283
     0
284
     8
285
     0
286
     0
287
     0
288
     0
  0
DIMSTYLE
105
BA6
330
A
100
AcDbSymbolTableRecord
100
AcDbDimStyleTableRecord
  2
AM_JISORG-1P0$2
 70
     0
  3

  4
"
  5
OPEN30
  6

  7

 40
1.0
 41
2.5
 42
0.0
 43
10.0
 44
1.0
 45
0.0
 46
0.0
 47
0.1
 48
0.1000000001
140
3.799999999999999
141
0.0
142
0.0
143
0.0393701
144
-0.999999980146674
145
0.0
146
0.71
147
1.5
 71
     0
 72
     0
 73
     0
 74
     0
 75
     0
 76
     0
 77
     3
 78
     1
170
     0
171
     2
172
     1
173
     0
174
     0
175
     0
176
     3
177
     3
178
     2
270
     2
271
     2
272
     2
273
     2
274
     2
340
11
275
     1
280
     0
281
     0
282
     0
283
     0
284
     8
285
     0
286
     0
287
     0
288
     0
  0
ENDTAB
  0
TABLE
  2
BLOCK_RECORD
  5
1
330
0
100
AcDbSymbolTable
 70
    19
  0
BLOCK_RECORD
  5
1F
102
{ACAD_XDICTIONARY
360
74
102
}
330
1
100
AcDbSymbolTableRecord
100
AcDbBlockTableRecord
  2
*MODEL_SPACE
  0
BLOCK_RECORD
  5
101
102
{ACAD_XDICTIONARY
360
52A4
102
}
330
1
100
AcDbSymbolTableRecord
100
AcDbBlockTableRecord
  2
*PAPER_SPACE
  0
BLOCK_RECORD
  5
59
330
1
100
AcDbSymbolTableRecord
100
AcDbBlockTableRecord
  2
_OPEN30
  0
BLOCK_RECORD
  5
64
330
1
100
AcDbSymbolTableRecord
100
AcDbBlockTableRecord
  2
GENAXEH
  0
BLOCK_RECORD
  5
C31
330
1
100
AcDbSymbolTableRecord
100
AcDbBlockTableRecord
  2
A$C36D02A34
  0
BLOCK_RECORD
  5
2453
330
1
100
AcDbSymbolTableRecord
100
AcDbBlockTableRecord
  2
*D6
  0
BLOCK_RECORD
  5
245F
330
1
100
AcDbSymbolTableRecord
100
AcDbBlockTableRecord
  2
A$C4FFC6CC0
  0
BLOCK_RECORD
  5
36BB
330
1
100
AcDbSymbolTableRecord
100
AcDbBlockTableRecord
  2
*D8
  0
BLOCK_RECORD
  5
3B0E
330
1
100
AcDbSymbolTableRecord
100
AcDbBlockTableRecord
  2
*D9
  0
BLOCK_RECORD
  5
471B
330
1
100
AcDbSymbolTableRecord
100
AcDbBlockTableRecord
  2
*D10
  0
BLOCK_RECORD
  5
4A5E
330
1
100
AcDbSymbolTableRecord
100
AcDbBlockTableRecord
  2
*D11
  0
BLOCK_RECORD
  5
4A6A
330
1
100
AcDbSymbolTableRecord
100
AcDbBlockTableRecord
  2
*D12
  0
BLOCK_RECORD
  5
4A78
330
1
100
AcDbSymbolTableRecord
100
AcDbBlockTableRecord
  2
*D13
  0
BLOCK_RECORD
  5
4A84
330
1
100
AcDbSymbolTableRecord
100
AcDbBlockTableRecord
  2
*D14
  0
BLOCK_RECORD
  5
4A90
330
1
100
AcDbSymbolTableRecord
100
AcDbBlockTableRecord
  2
*D15
  0
BLOCK_RECORD
  5
4A9C
330
1
100
AcDbSymbolTableRecord
100
AcDbBlockTableRecord
  2
*D16
  0
BLOCK_RECORD
  5
50BC
330
1
100
AcDbSymbolTableRecord
100
AcDbBlockTableRecord
  2
*D17
  0
ENDTAB
  0
ENDSEC
  0
SECTION
  2
BLOCKS
  0
BLOCK
  5
20
330
1F
100
AcDbEntity
  8
0
100
AcDbBlockBegin
  2
*MODEL_SPACE
 70
     0
 10
0.0
 20
0.0
 30
0.0
  3
*MODEL_SPACE
  1

  0
ENDBLK
  5
21
330
1F
100
AcDbEntity
  8
0
100
AcDbBlockEnd
  0
BLOCK
  5
103
330
101
100
AcDbEntity
 67
     1
  8
0
100
AcDbBlockBegin
  2
*PAPER_SPACE
 70
     0
 10
0.0
 20
0.0
 30
0.0
  3
*PAPER_SPACE
  1

  0
ENDBLK
  5
104
330
101
100
AcDbEntity
 67
     1
  8
0
100
AcDbBlockEnd
  0
BLOCK
  5
5D
330
59
100
AcDbEntity
  8
0
100
AcDbBlockBegin
  2
_OPEN30
 70
     0
 10
0.0
 20
0.0
 30
0.0
  3
_OPEN30
  1

  0
LINE
  5
5A
330
59
100
AcDbEntity
  8
0
 62
     0
100
AcDbLine
 10
-1.0
 20
0.26794919
 30
0.0
 11
0.0
 21
0.0
 31
0.0
  0
LINE
  5
5B
330
59
100
AcDbEntity
  8
0
 62
     0
100
AcDbLine
 10
0.0
 20
0.0
 30
0.0
 11
-1.0
 21
-0.26794919
 31
0.0
  0
LINE
  5
5C
330
59
100
AcDbEntity
  8
0
 62
     0
100
AcDbLine
 10
0.0
 20
0.0
 30
0.0
 11
-1.0
 21
0.0
 31
0.0
  0
ENDBLK
  5
5E
330
59
100
AcDbEntity
  8
0
100
AcDbBlockEnd
  0
BLOCK
  5
66
330
64
100
AcDbEntity
  8
0
100
AcDbBlockBegin
  2
GENAXEH
 70
     0
 10
0.0
 20
0.0
 30
0.0
  3
GENAXEH
  1

  0
LINE
  5
65
330
64
100
AcDbEntity
  8
0
100
AcDbLine
 10
-1.0
 20
0.0
 30
0.0
 11
1.0
 21
0.0
 31
0.0
  0
ENDBLK
  5
67
330
64
100
AcDbEntity
  8
0
100
AcDbBlockEnd
  0
BLOCK
  5
C4B
330
C31
100
AcDbEntity
  8
0
100
AcDbBlockBegin
  2
A$C36D02A34
 70
     0
 10
0.0
 20
0.0
 30
0.0
  3
A$C36D02A34
  1

  0
ARC
  5
C32
330
C31
100
AcDbEntity
  8
PV0001_1
  6
CONTINUOUS
 48
0.5
100
AcDbCircle
 10
18.06811523436999
 20
-11.83651161193799
 30
0.0
 40
21.600000381469
100
AcDbArc
 50
123.2290435713209
 51
126.6341524197568
  0
ARC
  5
C33
330
C31
100
AcDbEntity
  8
PV0001_1
  6
CONTINUOUS
 48
0.5
100
AcDbCircle
 10
18.06811523436999
 20
-11.83651161193799
 30
0.0
 40
21.600000381469
100
AcDbArc
 50
135.0736707620117
 51
146.7709980930592
  0
ARC
  5
C34
330
C31
100
AcDbEntity
  8
PV0001_1
  6
CONTINUOUS
 48
0.5
100
AcDbCircle
 10
-18.0680770874
 20
11.8365631103514
 30
0.0
 40
21.600000381469
100
AcDbArc
 50
315.0734847530392
 51
326.770781348241
  0
ARC
  5
C35
330
C31
100
AcDbEntity
  8
PV0001_1
  6
CONTINUOUS
 48
0.5
100
AcDbCircle
 10
-18.0680770874
 20
11.8365631103514
 30
0.0
 40
21.600000381469
100
AcDbArc
 50
303.2288882981993
 51
306.633986901359
  0
ARC
  5
C36
330
C31
100
AcDbEntity
  8
PV0001_1
  6
CONTINUOUS
 48
0.5
100
AcDbCircle
 10
-0.6269836425800009
 20
-2.044216156005997
 30
0.0
 40
2.0
100
AcDbArc
 50
337.4067997351092
 51
43.42231293132884
  0
ARC
  5
C37
330
C31
100
AcDbEntity
  8
PV0001_1
  6
CONTINUOUS
 48
0.5
100
AcDbCircle
 10
0.626953125
 20
2.044223785401001
 30
0.0
 40
2.0
100
AcDbArc
 50
157.4068184044407
 51
223.4222769591536
  0
CIRCLE
  5
C38
330
C31
100
AcDbEntity
  8
PV0001_1
  6
CONTINUOUS
 48
0.5
100
AcDbCircle
 10
3.856727600100001
 20
4.596265792847002
 30
0.0
 40
1.6000000238419
  0
CIRCLE
  5
C39
330
C31
100
AcDbEntity
  8
PV0001_1
  6
CONTINUOUS
 48
0.5
100
AcDbCircle
 10
-3.856727600100001
 20
-4.596265792845997
 30
0.0
 40
1.6000000238419
  0
ARC
  5
C3A
330
C31
100
AcDbEntity
  8
PV0001_1
  6
CONTINUOUS
 48
0.5
100
AcDbCircle
 10
-5.58123779297
 20
5.092639923096001
 30
0.0
 40
5.019082546234099
100
AcDbArc
 50
240.2658959250867
 51
321.5156269706421
  0
ARC
  5
C3B
330
C31
100
AcDbEntity
  8
PV0001_1
  6
CONTINUOUS
 48
0.5
100
AcDbCircle
 10
5.486755371089998
 20
-4.601703643798998
 30
0.0
 40
4.651036739349399
100
AcDbArc
 50
56.25271400417071
 51
145.528859890601
  0
ARC
  5
C3C
330
C31
100
AcDbEntity
  8
PV0001_1
  6
CONTINUOUS
 48
0.5
100
AcDbCircle
 10
-2.11590576172
 20
-3.453323364257997
 30
0.0
 40
4.050000190734899
100
AcDbArc
 50
43.42230610113921
 51
58.50391703385149
  0
ARC
  5
C3D
330
C31
100
AcDbEntity
  8
PV0001_1
  6
CONTINUOUS
 48
0.5
100
AcDbCircle
 10
2.115875244139999
 20
3.453330993653001
 30
0.0
 40
4.050000190734899
100
AcDbArc
 50
223.4222942619974
 51
238.5038164022482
  0
ARC
  5
C3E
330
C31
100
AcDbEntity
  8
PV0001_1
  6
CONTINUOUS
 48
0.5
100
AcDbCircle
 10
-6.70369720459
 20
5.094657897949002
 30
0.0
 40
5.940000057220499
100
AcDbArc
 50
328.2536768887549
 51
31.74641873389623
  0
ARC
  5
C3F
330
C31
100
AcDbEntity
  8
PV0001_1
  6
CONTINUOUS
 48
0.5
100
AcDbCircle
 10
6.703674316410001
 20
-5.094650268553998
 30
0.0
 40
5.940000057220499
100
AcDbArc
 50
148.2533403882529
 51
211.7466423089037
  0
ARC
  5
C40
330
C31
100
AcDbEntity
  8
PV0001_1
  6
CONTINUOUS
 48
0.5
100
AcDbCircle
 10
0.0
 20
0.0
 30
0.0
 40
8.812800407409699
100
AcDbArc
 50
175.2198288164333
 51
272.8622597568298
  0
ARC
  5
C41
330
C31
100
AcDbEntity
  8
PV0001_1
  6
CONTINUOUS
 48
0.5
100
AcDbCircle
 10
0.0
 20
0.0
 30
0.0
 40
9.1800003051758
100
AcDbArc
 50
272.7511362215027
 51
280.3697477877874
  0
ARC
  5
C42
330
C31
100
AcDbEntity
  8
PV0001_1
  6
CONTINUOUS
 48
0.5
100
AcDbCircle
 10
0.0
 20
0.0
 30
0.0
 40
8.812800407409699
100
AcDbArc
 50
355.2198199654955
 51
92.86229572901076
  0
ARC
  5
C43
330
C31
100
AcDbEntity
  8
PV0001_1
  6
CONTINUOUS
 48
0.5
100
AcDbCircle
 10
0.0
 20
0.0
 30
0.0
 40
9.1800003051758
100
AcDbArc
 50
92.75115489083434
 51
100.3697664571193
  0
CIRCLE
  5
C44
330
C31
100
AcDbEntity
  8
PV0001_1
  6
CONTINUOUS
100
AcDbCircle
 10
0.0
 20
0.0
 30
0.0
 40
9.1800003051758
  0
LINE
  5
C45
330
C31
100
AcDbEntity
  8
PV0001_1
  6
CONTINUOUS
 48
0.5
100
AcDbLine
 10
-1.652404785160001
 20
9.030059814453
 30
0.0
 11
-1.652404785160001
 21
8.220062255860002
 31
0.0
  0
LINE
  5
C46
330
C31
100
AcDbEntity
  8
PV0001_1
  6
CONTINUOUS
 48
0.5
100
AcDbLine
 10
1.652404785160001
 20
-8.220058441161999
 30
0.0
 11
1.652404785160001
 21
-9.030055999755997
 31
0.0
  0
LINE
  5
C47
330
C31
100
AcDbEntity
  8
PV0001_1
  6
CONTINUOUS
 48
0.5
100
AcDbLine
 10
-8.78217315674
 20
0.7343807220460015
 30
0.0
 11
-8.070594787600001
 21
0.7343997955320028
 31
0.0
  0
LINE
  5
C48
330
C31
100
AcDbEntity
  8
PV0001_1
  6
CONTINUOUS
 48
0.5
100
AcDbLine
 10
8.07057952881
 20
-0.7343864440919994
 30
0.0
 11
8.78215789795
 21
-0.7343654632569994
 31
0.0
  0
LINE
  5
C49
330
C31
100
AcDbEntity
  8
PV0001_1
  6
CONTINUOUS
 48
0.5
100
AcDbLine
 10
0.4406127929700006
 20
-9.169414520263
 30
0.0
 11
0.4406127929700006
 21
-8.812801361083998
 31
0.0
  0
LINE
  5
C4A
330
C31
100
AcDbEntity
  8
PV0001_1
  6
CONTINUOUS
 48
0.5
100
AcDbLine
 10
-0.4406127929700006
 20
9.169418334961001
 30
0.0
 11
-0.4406127929700006
 21
8.812805175781001
 31
0.0
  0
ENDBLK
  5
C4C
330
C31
100
AcDbEntity
  8
0
100
AcDbBlockEnd
  0
BLOCK
  5
245D
330
2453
100
AcDbEntity
  8
0
100
AcDbBlockBegin
  2
*D6
 70
     1
 10
0.0
 20
0.0
 30
0.0
  3
*D6
  1

  0
LINE
  5
2454
330
2453
100
AcDbEntity
  8
AM_5
 62
     3
100
AcDbLine
 10
-137.574381722344
 20
-5.00000294019065
 30
0.0
 11
-152.8199008769066
 21
-5.000002940190694
 31
0.0
  0
LINE
  5
2455
330
2453
100
AcDbEntity
  8
AM_5
 62
     3
100
AcDbLine
 10
-137.5743817223442
 20
5.00002461040103
 30
0.0
 11
-152.8199008769066
 21
5.000024610400987
 31
0.0
  0
LINE
  5
2456
330
2453
100
AcDbEntity
  8
AM_5
 62
     3
100
AcDbLine
 10
-151.8199008769066
 20
-2.500002940190691
 30
0.0
 11
-151.8199008769066
 21
2.50002461040099
 31
0.0
  0
INSERT
  5
2457
330
2453
100
AcDbEntity
  8
AM_5
 62
     3
100
AcDbBlockReference
  2
_OPEN30
 10
-151.8199008769066
 20
-5.00000294019069
 30
0.0
 41
2.5
 42
2.5
 43
2.5
 50
270.0000000000001
  0
INSERT
  5
2458
330
2453
100
AcDbEntity
  8
AM_5
 62
     3
100
AcDbBlockReference
  2
_OPEN30
 10
-151.8199008769066
 20
5.00002461040099
 30
0.0
 41
2.5
 42
2.5
 43
2.5
 50
90.00000000000015
  0
MTEXT
  5
2459
330
2453
100
AcDbEntity
  8
AM_5
 62
     2
100
AcDbMText
 10
-155.2199008769066
 20
0.000010835105146
 30
0.0
 40
3.799999999999999
 41
0.0
 71
     5
 72
     1
  1
%%c10
 11
-0.0000000000000028
 21
1.0
 31
0.0
1001
ACAD
1000
MTEXTBEGIN
1070
    73
1070
     1
1070
    44
1040
1.0
1070
    74
1070
     0
1000
MTEXTEND
  0
POINT
  5
245A
330
2453
100
AcDbEntity
  8
DEFPOINTS
 62
     0
100
AcDbPoint
 10
-137.5743817223441
 20
-5.000002940190223
 30
0.0
  0
POINT
  5
245B
330
2453
100
AcDbEntity
  8
DEFPOINTS
 62
     0
100
AcDbPoint
 10
-137.5743817223441
 20
5.000024610401458
 30
0.0
  0
POINT
  5
245C
330
2453
100
AcDbEntity
  8
DEFPOINTS
 62
     0
100
AcDbPoint
 10
-151.8199008769066
 20
5.000024610401462
 30
0.0
  0
ENDBLK
  5
245E
330
2453
100
AcDbEntity
  8
0
100
AcDbBlockEnd
  0
BLOCK
  5
246B
330
245F
100
AcDbEntity
  8
0
100
AcDbBlockBegin
  2
A$C4FFC6CC0
 70
     0
 10
0.0
 20
0.0
 30
0.0
  3
A$C4FFC6CC0
  1

  0
DIMENSION
  5
2460
330
245F
100
AcDbEntity
  8
AM_5
100
AcDbDimension
  2
*D6
 10
-70.00000100000002
 20
5.000008477104842
 30
0.0
 11
-70.00000100000002
 21
-0.0000052981910228
 31
0.0
 12
81.81989987690661
 22
-0.0000161332966199
 32
0.0
 70
   128
  1
%%c<>
 51
359.9999999999998
  3
AM_JIS$0
100
AcDbAlignedDimension
 13
-55.75448184543748
 23
-5.000019073486843
 33
0.0
 14
-55.75448184543756
 24
5.000008477104838
 34
0.0
 50
270.0
100
AcDbRotatedDimension
1001
ACAD
1000
DSTYLE
1002
{
1070
   271
1070
     0
1002
}
1001
GENIUS_GENDTOL_13
1000

1000
h7
1000

1040
0.0
  0
LINE
  5
2461
330
245F
100
AcDbEntity
  8
AM_0
 48
0.5
100
AcDbLine
 10
-56.0
 20
-4.754495620727796
 30
0.0
 11
-56.00000000000003
 21
4.754485024345811
 31
0.0
  0
LINE
  5
2462
330
245F
100
AcDbEntity
  8
AM_0
 48
0.5
100
AcDbLine
 10
-55.75448184543751
 20
-5.000019073486843
 30
0.0
 11
-55.75448184543754
 21
5.000008477104838
 31
0.0
  0
LINE
  5
2463
330
245F
100
AcDbEntity
  8
AM_0
100
AcDbLine
 10
-0.0000000000000142
 20
4.999995231627903
 30
0.0
 11
-55.75448184543754
 21
4.999995231627746
 31
0.0
  0
LINE
  5
2464
330
245F
100
AcDbEntity
  8
AM_0
 48
0.5
100
AcDbLine
 10
-55.99996821086117
 20
4.754439989725671
 30
0.0
 11
-55.75443945990975
 21
4.999963442484006
 31
0.0
  0
LINE
  5
2465
330
245F
100
AcDbEntity
  8
AM_0
100
AcDbLine
 10
-55.75448184543751
 20
-5.000008477105588
 30
0.0
 11
0.0000000000000142
 21
-5.00000847710543
 31
0.0
  0
LINE
  5
2466
330
245F
100
AcDbEntity
  8
AM_0
 48
0.5
100
AcDbLine
 10
-55.99996821086114
 20
-4.754474427965309
 30
0.0
 11
-55.75443945990972
 21
-4.999997880724334
 31
0.0
  0
LINE
  5
2467
330
245F
100
AcDbEntity
  8
AM_0
100
AcDbLine
 10
0.7794201296714505
 20
4.549985867772141
 30
0.0
 11
0.7794201296714789
 21
-4.550003370497427
 31
0.0
  0
LINE
  5
2468
330
245F
100
AcDbEntity
  8
AM_0
 48
0.5
100
AcDbLine
 10
0.0000000000000142
 20
-5.00000847710543
 30
0.0
 11
-0.0000000000000142
 21
5.000008477104995
 31
0.0
  0
LINE
  5
2469
330
245F
100
AcDbEntity
  8
AM_0
 48
0.5
100
AcDbLine
 10
0.7794201296714647
 20
-4.550003370497435
 30
0.0
 11
-0.0000105963812445
 21
-5.00000847710543
 31
0.0
  0
LINE
  5
246A
330
245F
100
AcDbEntity
  8
AM_0
 48
0.5
100
AcDbLine
 10
0.7794201296714647
 20
4.549985867772141
 30
0.0
 11
-0.0000000000000142
 21
4.999984635246652
 31
0.0
  0
ENDBLK
  5
246C
330
245F
100
AcDbEntity
  8
0
100
AcDbBlockEnd
  0
BLOCK
  5
36C9
330
36BB
100
AcDbEntity
  8
0
100
AcDbBlockBegin
  2
*D8
 70
     1
 10
0.0
 20
0.0
 30
0.0
  3
*D8
  1

  0
LINE
  5
4DBC
330
36BB
100
AcDbEntity
  8
AM_5
100
AcDbLine
 10
0.3420201408161528
 20
-0.93969262169946
 30
0.0
 11
12.73376567701368
 21
-34.98573395293323
 31
0.0
  0
LINE
  5
4DBD
330
36BB
100
AcDbEntity
  8
AM_5
100
AcDbLine
 10
0.3420201408161419
 20
0.9396926216991598
 30
0.0
 11
12.73376567701327
 21
34.98573395293309
 31
0.0
  0
ARC
  5
4DBE
330
36BB
100
AcDbEntity
  8
AM_5
100
AcDbCircle
 10
0.0000000000000289
 20
-0.0000000000001521
 30
0.0
 40
36.23104039027792
100
AcDbArc
 50
293.9542854242186
 51
66.04571457578202
  0
INSERT
  5
4DBF
330
36BB
100
AcDbEntity
  8
AM_5
100
AcDbBlockReference
  2
_OPEN30
 10
12.39174553619755
 20
-34.04604133123393
 30
0.0
 41
2.5
 42
2.5
 43
2.5
 50
201.9771426356022
  0
INSERT
  5
4DC0
330
36BB
100
AcDbEntity
  8
AM_5
100
AcDbBlockReference
  2
_OPEN30
 10
12.39174553619716
 20
34.04604133123378
 30
0.0
 41
2.5
 42
2.5
 43
2.5
 50
158.0228573643984
  0
MTEXT
  5
4DC1
330
36BB
100
AcDbEntity
  8
AM_5
 62
     2
100
AcDbMText
 10
33.13104039027795
 20
0.0000000000000646
 30
0.0
 40
3.2
 41
0.0
 71
     5
 72
     1
  1
140°
  7
ASAMI
 11
-0.0000000000000028
 21
1.0
 31
0.0
1001
ACAD
1000
MTEXTBEGIN
1070
    73
1070
     1
1070
    44
1040
1.0
1070
    74
1070
     0
1000
MTEXTEND
  0
POINT
  5
4DC2
330
36BB
100
AcDbEntity
  8
DEFPOINTS
 62
     0
100
AcDbPoint
 10
33.26792484260828
 20
-14.35038203075178
 30
0.0
  0
POINT
  5
4DC3
330
36BB
100
AcDbEntity
  8
DEFPOINTS
 62
     0
100
AcDbPoint
 10
0.0
 20
-0.0000000000002316
 30
0.0
  0
POINT
  5
4DC4
330
36BB
100
AcDbEntity
  8
DEFPOINTS
 62
     0
100
AcDbPoint
 10
0.0
 20
-0.0000000000000725
 30
0.0
  0
POINT
  5
4DC5
330
36BB
100
AcDbEntity
  8
DEFPOINTS
 62
     0
100
AcDbPoint
 10
-2.800374408476802
 20
7.693965517241139
 30
0.0
  0
POINT
  5
4DC6
330
36BB
100
AcDbEntity
  8
DEFPOINTS
 62
     0
100
AcDbPoint
 10
-2.800374408476762
 20
-7.693965517241461
 30
0.0
  0
ENDBLK
  5
36CA
330
36BB
100
AcDbEntity
  8
0
100
AcDbBlockEnd
  0
BLOCK
  5
3B18
330
3B0E
100
AcDbEntity
  8
0
100
AcDbBlockBegin
  2
*D9
 70
     1
 10
0.0
 20
0.0
 30
0.0
  3
*D9
  1

  0
LINE
  5
51EB
330
3B0E
100
AcDbEntity
  8
AM_5
 62
     3
100
AcDbLine
 10
-4.185657659281307
 20
11.25994832041332
 30
0.0
 11
-4.185657659281364
 21
30.98689436348974
 31
0.0
  0
LINE
  5
51EC
330
3B0E
100
AcDbEntity
  8
AM_5
 62
     3
100
AcDbLine
 10
-128.185657659281
 20
12.30000000000221
 30
0.0
 11
-128.185657659281
 21
30.98689436348938
 31
0.0
  0
LINE
  5
51ED
330
3B0E
100
AcDbEntity
  8
AM_5
 62
     3
100
AcDbLine
 10
-6.685657659281361
 20
29.98689436348973
 30
0.0
 11
-125.685657659281
 21
29.98689436348939
 31
0.0
  0
INSERT
  5
51EE
330
3B0E
100
AcDbEntity
  8
AM_5
 62
     3
100
AcDbBlockReference
  2
_OPEN30
 10
-4.185657659281361
 20
29.98689436348974
 30
0.0
 41
2.5
 42
2.5
 43
2.5
 50
0.0000000000001527
  0
INSERT
  5
51EF
330
3B0E
100
AcDbEntity
  8
AM_5
 62
     3
100
AcDbBlockReference
  2
_OPEN30
 10
-128.185657659281
 20
29.98689436348938
 30
0.0
 41
2.5
 42
2.5
 43
2.5
 50
180.0000000000001
  0
MTEXT
  5
51F0
330
3B0E
100
AcDbEntity
  8
AM_5
 62
     2
100
AcDbMText
 10
-66.18565765928123
 20
33.38689436348956
 30
0.0
 40
3.799999999999999
 41
0.0
 71
     5
 72
     1
  1
124
1001
ACAD
1000
MTEXTBEGIN
1070
    73
1070
     1
1070
    44
1040
1.0
1070
    74
1070
     0
1000
MTEXTEND
  0
POINT
  5
51F1
330
3B0E
100
AcDbEntity
  8
DEFPOINTS
 62
     0
100
AcDbPoint
 10
-4.185657659281274
 20
10.45994832041334
 30
0.0
  0
POINT
  5
51F2
330
3B0E
100
AcDbEntity
  8
DEFPOINTS
 62
     0
100
AcDbPoint
 10
-128.185657659281
 20
11.50000000000259
 30
0.0
  0
POINT
  5
51F3
330
3B0E
100
AcDbEntity
  8
DEFPOINTS
 62
     0
100
AcDbPoint
 10
-128.185657659281
 20
29.98689436348975
 30
0.0
  0
ENDBLK
  5
3B19
330
3B0E
100
AcDbEntity
  8
0
100
AcDbBlockEnd
  0
BLOCK
  5
4725
330
471B
100
AcDbEntity
  8
0
100
AcDbBlockBegin
  2
*D10
 70
     1
 10
0.0
 20
0.0
 30
0.0
  3
*D10
  1

  0
LINE
  5
51E2
330
471B
100
AcDbEntity
  8
AM_5
 62
     3
100
AcDbLine
 10
-4.185657659281307
 20
11.25994832041332
 30
0.0
 11
-4.1856576592814
 21
43.87099336361893
 31
0.0
  0
LINE
  5
51E3
330
471B
100
AcDbEntity
  8
AM_5
 62
     3
100
AcDbLine
 10
-133.1856576592811
 20
12.04444444444628
 30
0.0
 11
-133.1856576592812
 21
43.87099336361855
 31
0.0
  0
LINE
  5
51E4
330
471B
100
AcDbEntity
  8
AM_5
 62
     3
100
AcDbLine
 10
-6.685657659281397
 20
42.87099336361893
 30
0.0
 11
-130.6856576592812
 21
42.87099336361857
 31
0.0
  0
INSERT
  5
51E5
330
471B
100
AcDbEntity
  8
AM_5
 62
     3
100
AcDbBlockReference
  2
_OPEN30
 10
-4.185657659281397
 20
42.87099336361893
 30
0.0
 41
2.5
 42
2.5
 43
2.5
 50
0.0000000000001527
  0
INSERT
  5
51E6
330
471B
100
AcDbEntity
  8
AM_5
 62
     3
100
AcDbBlockReference
  2
_OPEN30
 10
-133.1856576592812
 20
42.87099336361856
 30
0.0
 41
2.5
 42
2.5
 43
2.5
 50
180.0000000000001
  0
MTEXT
  5
51E7
330
471B
100
AcDbEntity
  8
AM_5
 62
     2
100
AcDbMText
 10
-68.68565765928133
 20
46.27099336361875
 30
0.0
 40
3.799999999999999
 41
0.0
 71
     5
 72
     1
  1
129
1001
ACAD
1000
MTEXTBEGIN
1070
    73
1070
     1
1070
    44
1040
1.0
1070
    74
1070
     0
1000
MTEXTEND
  0
POINT
  5
51E8
330
471B
100
AcDbEntity
  8
DEFPOINTS
 62
     0
100
AcDbPoint
 10
-4.185657659281274
 20
10.45994832041334
 30
0.0
  0
POINT
  5
51E9
330
471B
100
AcDbEntity
  8
DEFPOINTS
 62
     0
100
AcDbPoint
 10
-133.1856576592811
 20
11.24444444444667
 30
0.0
  0
POINT
  5
51EA
330
471B
100
AcDbEntity
  8
DEFPOINTS
 62
     0
100
AcDbPoint
 10
-133.1856576592811
 20
42.87099336361895
 30
0.0
  0
ENDBLK
  5
4726
330
471B
100
AcDbEntity
  8
0
100
AcDbBlockEnd
  0
BLOCK
  5
4A68
330
4A5E
100
AcDbEntity
  8
0
100
AcDbBlockBegin
  2
*D11
 70
     1
 10
0.0
 20
0.0
 30
0.0
  3
*D11
  1

  0
LINE
  5
5189
330
4A5E
100
AcDbEntity
  8
AM_5
 62
     3
100
AcDbLine
 10
-208.1856690246836
 20
-0.800000000001242
 30
0.0
 11
-208.1856690246836
 21
-29.47941722561777
 31
0.0
  0
LINE
  5
518A
330
4A5E
100
AcDbEntity
  8
AM_5
 62
     3
100
AcDbLine
 10
-163.185657659281
 20
-0.8000000000010334
 30
0.0
 11
-163.185657659281
 21
-29.47941722561777
 31
0.0
  0
LINE
  5
518B
330
4A5E
100
AcDbEntity
  8
AM_5
 62
     3
100
AcDbLine
 10
-205.6856690246836
 20
-28.47941722561778
 30
0.0
 11
-165.6856576592811
 21
-28.47941722561778
 31
0.0
  0
INSERT
  5
518C
330
4A5E
100
AcDbEntity
  8
AM_5
 62
     3
100
AcDbBlockReference
  2
_OPEN30
 10
-208.1856690246836
 20
-28.47941722561778
 30
0.0
 41
2.5
 42
2.5
 43
2.5
 50
180.0
  0
INSERT
  5
518D
330
4A5E
100
AcDbEntity
  8
AM_5
 62
     3
100
AcDbBlockReference
  2
_OPEN30
 10
-163.185657659281
 20
-28.47941722561778
 30
0.0
 41
2.5
 42
2.5
 43
2.5
  0
MTEXT
  5
518E
330
4A5E
100
AcDbEntity
  8
AM_5
 62
     2
100
AcDbMText
 10
-185.6856633419823
 20
-25.07941722561778
 30
0.0
 40
3.799999999999999
 41
0.0
 71
     5
 72
     1
  1
45
1001
ACAD
1000
MTEXTBEGIN
1070
    73
1070
     1
1070
    44
1040
1.0
1070
    74
1070
     0
1000
MTEXTEND
  0
POINT
  5
518F
330
4A5E
100
AcDbEntity
  8
DEFPOINTS
 62
     0
100
AcDbPoint
 10
-208.1856690246836
 20
-0.0000000000012419
 30
0.0
  0
POINT
  5
5190
330
4A5E
100
AcDbEntity
  8
DEFPOINTS
 62
     0
100
AcDbPoint
 10
-163.185657659281
 20
-0.0000000000010335
 30
0.0
  0
POINT
  5
5191
330
4A5E
100
AcDbEntity
  8
DEFPOINTS
 62
     0
100
AcDbPoint
 10
-163.185657659281
 20
-28.47941722561778
 30
0.0
  0
ENDBLK
  5
4A69
330
4A5E
100
AcDbEntity
  8
0
100
AcDbBlockEnd
  0
BLOCK
  5
4A76
330
4A6A
100
AcDbEntity
  8
0
100
AcDbBlockBegin
  2
*D12
 70
     1
 10
0.0
 20
0.0
 30
0.0
  3
*D12
  1

  0
LINE
  5
519B
330
4A6A
100
AcDbEntity
  8
AM_5
 62
     3
100
AcDbLine
 10
-214.1855718286059
 20
-12.61209445906842
 30
0.0
 11
-214.1855718286059
 21
-29.47941722561811
 31
0.0
  0
LINE
  5
519C
330
4A6A
100
AcDbEntity
  8
AM_5
 62
     3
100
AcDbLine
 10
-208.1856690246836
 20
-0.800000000001242
 30
0.0
 11
-208.1856690246836
 21
-29.47941722561811
 31
0.0
  0
LINE
  5
519D
330
4A6A
100
AcDbEntity
  8
AM_5
 62
     3
100
AcDbLine
 10
-216.6855718286059
 20
-28.47941722561811
 30
0.0
 11
-219.1855718286059
 21
-28.47941722561811
 31
0.0
  0
LINE
  5
519E
330
4A6A
100
AcDbEntity
  8
AM_5
 62
     3
100
AcDbLine
 10
-205.6856690246836
 20
-28.47941722561811
 30
0.0
 11
-203.1856690246836
 21
-28.47941722561811
 31
0.0
  0
LINE
  5
519F
330
4A6A
100
AcDbEntity
  8
AM_5
 62
     3
100
AcDbLine
 10
-214.1855718286059
 20
-28.47941722561811
 30
0.0
 11
-208.1856690246836
 21
-28.47941722561811
 31
0.0
  0
INSERT
  5
51A0
330
4A6A
100
AcDbEntity
  8
AM_5
 62
     3
100
AcDbBlockReference
  2
_OPEN30
 10
-214.1855718286059
 20
-28.47941722561811
 30
0.0
 41
2.5
 42
2.5
 43
2.5
  0
INSERT
  5
51A1
330
4A6A
100
AcDbEntity
  8
AM_5
 62
     3
100
AcDbBlockReference
  2
_OPEN30
 10
-208.1856690246836
 20
-28.47941722561811
 30
0.0
 41
2.5
 42
2.5
 43
2.5
 50
180.0
  0
MTEXT
  5
51A2
330
4A6A
100
AcDbEntity
  8
AM_5
 62
     2
100
AcDbMText
 10
-211.1856204266447
 20
-25.07941722561811
 30
0.0
 40
3.799999999999999
 41
0.0
 71
     5
 72
     1
  1
6
1001
ACAD
1000
MTEXTBEGIN
1070
    73
1070
     1
1070
    44
1040
1.0
1070
    74
1070
     0
1000
MTEXTEND
  0
POINT
  5
51A3
330
4A6A
100
AcDbEntity
  8
DEFPOINTS
 62
     0
100
AcDbPoint
 10
-214.1855718286059
 20
-11.81209445906842
 30
0.0
  0
POINT
  5
51A4
330
4A6A
100
AcDbEntity
  8
DEFPOINTS
 62
     0
100
AcDbPoint
 10
-208.1856690246836
 20
-0.0000000000012419
 30
0.0
  0
POINT
  5
51A5
330
4A6A
100
AcDbEntity
  8
DEFPOINTS
 62
     0
100
AcDbPoint
 10
-208.1856690246836
 20
-28.47941722561811
 30
0.0
  0
ENDBLK
  5
4A77
330
4A6A
100
AcDbEntity
  8
0
100
AcDbBlockEnd
  0
BLOCK
  5
4A82
330
4A78
100
AcDbEntity
  8
0
100
AcDbBlockBegin
  2
*D13
 70
     1
 10
0.0
 20
0.0
 30
0.0
  3
*D13
  1

  0
LINE
  5
51AF
330
4A78
100
AcDbEntity
  8
AM_5
 62
     3
100
AcDbLine
 10
-4.18565765928097
 20
-11.88754521963949
 30
0.0
 11
-4.185657659280972
 21
-55.24780920206196
 31
0.0
  0
LINE
  5
51B0
330
4A78
100
AcDbEntity
  8
AM_5
 62
     3
100
AcDbLine
 10
-214.1855718286059
 20
-12.61209445906842
 30
0.0
 11
-214.1855718286059
 21
-55.24780920206196
 31
0.0
  0
LINE
  5
51B1
330
4A78
100
AcDbEntity
  8
AM_5
 62
     3
100
AcDbLine
 10
-6.685657659280972
 20
-54.24780920206195
 30
0.0
 11
-211.6855718286059
 21
-54.24780920206195
 31
0.0
  0
INSERT
  5
51B2
330
4A78
100
AcDbEntity
  8
AM_5
 62
     3
100
AcDbBlockReference
  2
_OPEN30
 10
-4.185657659280972
 20
-54.24780920206195
 30
0.0
 41
2.5
 42
2.5
 43
2.5
  0
INSERT
  5
51B3
330
4A78
100
AcDbEntity
  8
AM_5
 62
     3
100
AcDbBlockReference
  2
_OPEN30
 10
-214.1855718286059
 20
-54.24780920206195
 30
0.0
 41
2.5
 42
2.5
 43
2.5
 50
180.0
  0
MTEXT
  5
51B4
330
4A78
100
AcDbEntity
  8
AM_5
 62
     2
100
AcDbMText
 10
-109.1856147439434
 20
-50.84780920206195
 30
0.0
 40
3.799999999999999
 41
0.0
 71
     5
 72
     1
  1
210
1001
ACAD
1000
MTEXTBEGIN
1070
    73
1070
     1
1070
    44
1040
1.0
1070
    74
1070
     0
1000
MTEXTEND
  0
POINT
  5
51B5
330
4A78
100
AcDbEntity
  8
DEFPOINTS
 62
     0
100
AcDbPoint
 10
-4.18565765928097
 20
-11.08754521963949
 30
0.0
  0
POINT
  5
51B6
330
4A78
100
AcDbEntity
  8
DEFPOINTS
 62
     0
100
AcDbPoint
 10
-214.1855718286059
 20
-11.81209445906842
 30
0.0
  0
POINT
  5
51B7
330
4A78
100
AcDbEntity
  8
DEFPOINTS
 62
     0
100
AcDbPoint
 10
-214.1855718286059
 20
-54.24780920206195
 30
0.0
  0
ENDBLK
  5
4A83
330
4A78
100
AcDbEntity
  8
0
100
AcDbBlockEnd
  0
BLOCK
  5
4A8E
330
4A84
100
AcDbEntity
  8
0
100
AcDbBlockBegin
  2
*D14
 70
     1
 10
0.0
 20
0.0
 30
0.0
  3
*D14
  1

  0
LINE
  5
51C1
330
4A84
100
AcDbEntity
  8
AM_5
 62
     3
100
AcDbLine
 10
-158.185657659281
 20
-13.27503639174681
 30
0.0
 11
-158.185657659281
 21
-43.27275442532755
 31
0.0
  0
LINE
  5
51C2
330
4A84
100
AcDbEntity
  8
AM_5
 62
     3
100
AcDbLine
 10
-214.1855718286059
 20
-12.61209445906842
 30
0.0
 11
-214.1855718286059
 21
-43.27275442532755
 31
0.0
  0
LINE
  5
51C3
330
4A84
100
AcDbEntity
  8
AM_5
 62
     3
100
AcDbLine
 10
-160.685657659281
 20
-42.27275442532755
 30
0.0
 11
-211.6855718286059
 21
-42.27275442532755
 31
0.0
  0
INSERT
  5
51C4
330
4A84
100
AcDbEntity
  8
AM_5
 62
     3
100
AcDbBlockReference
  2
_OPEN30
 10
-158.185657659281
 20
-42.27275442532755
 30
0.0
 41
2.5
 42
2.5
 43
2.5
  0
INSERT
  5
51C5
330
4A84
100
AcDbEntity
  8
AM_5
 62
     3
100
AcDbBlockReference
  2
_OPEN30
 10
-214.1855718286059
 20
-42.27275442532755
 30
0.0
 41
2.5
 42
2.5
 43
2.5
 50
180.0
  0
MTEXT
  5
51C6
330
4A84
100
AcDbEntity
  8
AM_5
 62
     2
100
AcDbMText
 10
-186.1856147439434
 20
-38.87275442532756
 30
0.0
 40
3.799999999999999
 41
0.0
 71
     5
 72
     1
  1
56
1001
ACAD
1000
MTEXTBEGIN
1070
    73
1070
     1
1070
    44
1040
1.0
1070
    74
1070
     0
1000
MTEXTEND
  0
POINT
  5
51C7
330
4A84
100
AcDbEntity
  8
DEFPOINTS
 62
     0
100
AcDbPoint
 10
-158.185657659281
 20
-12.47503639174681
 30
0.0
  0
POINT
  5
51C8
330
4A84
100
AcDbEntity
  8
DEFPOINTS
 62
     0
100
AcDbPoint
 10
-214.1855718286059
 20
-11.81209445906842
 30
0.0
  0
POINT
  5
51C9
330
4A84
100
AcDbEntity
  8
DEFPOINTS
 62
     0
100
AcDbPoint
 10
-214.1855718286059
 20
-42.27275442532755
 30
0.0
  0
ENDBLK
  5
4A8F
330
4A84
100
AcDbEntity
  8
0
100
AcDbBlockEnd
  0
BLOCK
  5
4A9A
330
4A90
100
AcDbEntity
  8
0
100
AcDbBlockBegin
  2
*D15
 70
     1
 10
0.0
 20
0.0
 30
0.0
  3
*D15
  1

  0
LINE
  5
51B8
330
4A90
100
AcDbEntity
  8
AM_5
 62
     3
100
AcDbLine
 10
-4.185657659280978
 20
-11.8875452196383
 30
0.0
 11
-4.185657659280979
 21
-43.27275442532714
 31
0.0
  0
LINE
  5
51B9
330
4A90
100
AcDbEntity
  8
AM_5
 62
     3
100
AcDbLine
 10
-158.185657659281
 20
-13.27503639174681
 30
0.0
 11
-158.185657659281
 21
-43.27275442532714
 31
0.0
  0
LINE
  5
51BA
330
4A90
100
AcDbEntity
  8
AM_5
 62
     3
100
AcDbLine
 10
-6.685657659280979
 20
-42.27275442532714
 30
0.0
 11
-155.685657659281
 21
-42.27275442532714
 31
0.0
  0
INSERT
  5
51BB
330
4A90
100
AcDbEntity
  8
AM_5
 62
     3
100
AcDbBlockReference
  2
_OPEN30
 10
-4.185657659280979
 20
-42.27275442532714
 30
0.0
 41
2.5
 42
2.5
 43
2.5
  0
INSERT
  5
51BC
330
4A90
100
AcDbEntity
  8
AM_5
 62
     3
100
AcDbBlockReference
  2
_OPEN30
 10
-158.185657659281
 20
-42.27275442532714
 30
0.0
 41
2.5
 42
2.5
 43
2.5
 50
180.0
  0
MTEXT
  5
51BD
330
4A90
100
AcDbEntity
  8
AM_5
 62
     2
100
AcDbMText
 10
-81.18565765928101
 20
-38.87275442532714
 30
0.0
 40
3.799999999999999
 41
0.0
 71
     5
 72
     1
  1
154
1001
ACAD
1000
MTEXTBEGIN
1070
    73
1070
     1
1070
    44
1040
1.0
1070
    74
1070
     0
1000
MTEXTEND
  0
POINT
  5
51BE
330
4A90
100
AcDbEntity
  8
DEFPOINTS
 62
     0
100
AcDbPoint
 10
-4.185657659280978
 20
-11.0875452196383
 30
0.0
  0
POINT
  5
51BF
330
4A90
100
AcDbEntity
  8
DEFPOINTS
 62
     0
100
AcDbPoint
 10
-158.185657659281
 20
-12.47503639174681
 30
0.0
  0
POINT
  5
51C0
330
4A90
100
AcDbEntity
  8
DEFPOINTS
 62
     0
100
AcDbPoint
 10
-158.185657659281
 20
-42.27275442532714
 30
0.0
  0
ENDBLK
  5
4A9B
330
4A90
100
AcDbEntity
  8
0
100
AcDbBlockEnd
  0
BLOCK
  5
4AA6
330
4A9C
100
AcDbEntity
  8
0
100
AcDbBlockBegin
  2
*D16
 70
     1
 10
0.0
 20
0.0
 30
0.0
  3
*D16
  1

  0
LINE
  5
51A6
330
4A9C
100
AcDbEntity
  8
AM_5
 62
     3
100
AcDbLine
 10
-214.2636134793852
 20
12.525009384621
 30
0.0
 11
-232.0961017301088
 21
12.52500938462101
 31
0.0
  0
LINE
  5
51A7
330
4A9C
100
AcDbEntity
  8
AM_5
 62
     3
100
AcDbLine
 10
-214.263613479385
 20
-12.47489334306208
 30
0.0
 11
-232.0961017301088
 21
-12.47489334306207
 31
0.0
  0
LINE
  5
51A8
330
4A9C
100
AcDbEntity
  8
AM_5
 62
     3
100
AcDbLine
 10
-231.0961017301088
 20
10.02500938462101
 30
0.0
 11
-231.0961017301088
 21
-9.974893343062074
 31
0.0
  0
INSERT
  5
51A9
330
4A9C
100
AcDbEntity
  8
AM_5
 62
     3
100
AcDbBlockReference
  2
_OPEN30
 10
-231.0961017301088
 20
12.52500938462101
 30
0.0
 41
2.5
 42
2.5
 43
2.5
 50
90.0
  0
INSERT
  5
51AA
330
4A9C
100
AcDbEntity
  8
AM_5
 62
     3
100
AcDbBlockReference
  2
_OPEN30
 10
-231.0961017301088
 20
-12.47489334306207
 30
0.0
 41
2.5
 42
2.5
 43
2.5
 50
270.0
  0
MTEXT
  5
51AB
330
4A9C
100
AcDbEntity
  8
AM_5
 62
     2
100
AcDbMText
 10
-234.4961017301088
 20
0.0250580207794323
 30
0.0
 40
3.799999999999999
 41
0.0
 71
     5
 72
     1
  1
%%C25
 11
0.0000000000000001
 21
1.0
 31
0.0
1001
ACAD
1000
MTEXTBEGIN
1070
    73
1070
     1
1070
    44
1040
1.0
1070
    74
1070
     0
1000
MTEXTEND
  0
POINT
  5
51AC
330
4A9C
100
AcDbEntity
  8
DEFPOINTS
 62
     0
100
AcDbPoint
 10
-213.4636134793852
 20
12.525009384621
 30
0.0
  0
POINT
  5
51AD
330
4A9C
100
AcDbEntity
  8
DEFPOINTS
 62
     0
100
AcDbPoint
 10
-213.463613479385
 20
-12.47489334306208
 30
0.0
  0
POINT
  5
51AE
330
4A9C
100
AcDbEntity
  8
DEFPOINTS
 62
     0
100
AcDbPoint
 10
-231.0961017301088
 20
-12.47489334306207
 30
0.0
  0
ENDBLK
  5
4AA7
330
4A9C
100
AcDbEntity
  8
0
100
AcDbBlockEnd
  0
BLOCK
  5
50C8
330
50BC
100
AcDbEntity
  8
0
100
AcDbBlockBegin
  2
*D17
 70
     1
 10
0.0
 20
0.0
 30
0.0
  3
*D17
  1

  0
LINE
  5
514A
330
50BC
100
AcDbEntity
  8
AM_5
 62
     3
100
AcDbLine
 10
-3.068514805876887
 20
11.49999999999996
 30
0.0
 11
20.4117472531111
 21
11.50000000000002
 31
0.0
  0
LINE
  5
514B
330
50BC
100
AcDbEntity
  8
AM_5
 62
     3
100
AcDbLine
 10
-3.197465299406022
 20
-11.50000000000002
 30
0.0
 11
20.41174725311117
 21
-11.49999999999996
 31
0.0
  0
LINE
  5
514C
330
50BC
100
AcDbEntity
  8
AM_5
 62
     3
100
AcDbLine
 10
19.41174725311111
 20
9.000000000000024
 30
0.0
 11
19.41174725311116
 21
-8.999999999999964
 31
0.0
  0
INSERT
  5
514D
330
50BC
100
AcDbEntity
  8
AM_5
 62
     3
100
AcDbBlockReference
  2
_OPEN30
 10
19.4117472531111
 20
11.50000000000002
 30
0.0
 41
2.5
 42
2.5
 43
2.5
 50
90.00000000000017
  0
INSERT
  5
514E
330
50BC
100
AcDbEntity
  8
AM_5
 62
     3
100
AcDbBlockReference
  2
_OPEN30
 10
19.41174725311117
 20
-11.49999999999996
 30
0.0
 41
2.5
 42
2.5
 43
2.5
 50
270.0000000000001
  0
MTEXT
  5
514F
330
50BC
100
AcDbEntity
  8
AM_5
 62
     2
100
AcDbMText
 10
16.01174725311113
 20
-0.0000000000001227
 30
0.0
 40
3.799999999999999
 41
0.0
 71
     5
 72
     1
  1
%%C23
 11
-0.0000000000000028
 21
1.0
 31
0.0
1001
ACAD
1000
MTEXTBEGIN
1070
    73
1070
     1
1070
    44
1040
1.0
1070
    74
1070
     0
1000
MTEXTEND
  0
POINT
  5
5150
330
50BC
100
AcDbEntity
  8
DEFPOINTS
 62
     0
100
AcDbPoint
 10
-3.868514805876852
 20
11.49999999999997
 30
0.0
  0
POINT
  5
5151
330
50BC
100
AcDbEntity
  8
DEFPOINTS
 62
     0
100
AcDbPoint
 10
-3.997465299406058
 20
-11.50000000000001
 30
0.0
  0
POINT
  5
5152
330
50BC
100
AcDbEntity
  8
DEFPOINTS
 62
     0
100
AcDbPoint
 10
19.41174725311113
 20
-11.50000000000002
 30
0.0
  0
ENDBLK
  5
50C9
330
50BC
100
AcDbEntity
  8
0
100
AcDbBlockEnd
  0
ENDSEC
  0
SECTION
  2
ENTITIES
  0
TEXT
  5
19BD
330
1F
100
AcDbEntity
  8
AM_6
100
AcDbText
 10
-124.8369629616558
 20
-75.56850900201721
 30
0.0
 40
5.0
  1
KDS230LAK
 50
0.0000000000001527
 72
     4
 11
-104.0036296283225
 21
-73.06850900201715
 31
0.0
100
AcDbText
  0
LINE
  5
35D1
330
1F
100
AcDbEntity
  8
AM_7
100
AcDbLine
 10
4.909002595337891
 20
-0.0000000000001046
 30
0.0
 11
-218.2242522183357
 21
-0.0000000000006542
 31
0.0
  0
LINE
  5
35F4
330
1F
100
AcDbEntity
  8
PV0001_1
  6
CONTINUOUS
 48
0.5
100
AcDbLine
 10
-133.1856576592811
 20
11.50000000000263
 30
0.0
 11
-158.1856576592811
 21
12.52497362183304
 31
0.0
  0
LINE
  5
35F5
330
1F
100
AcDbEntity
  8
PV0001_1
  6
CONTINUOUS
 48
0.5
100
AcDbLine
 10
-133.1856576592811
 20
-11.49999999999759
 30
0.0
 11
-158.185657659281
 21
-12.47503639174681
 31
0.0
  0
DIMENSION
  5
36BA
330
1F
100
AcDbEntity
  8
AM_5
100
AcDbDimension
  2
*D8
 10
-2.800374408476762
 20
-7.693965517241461
 30
0.0
 11
33.13104039027795
 21
-0.0000000000000372
 31
0.0
 70
    34
  1
<>
 51
359.9999999999998
  3
AM_JIS$2
100
AcDb2LineAngularDimension
 13
0.0
 23
-0.0000000000000725
 33
0.0
 14
-2.800374408476802
 24
7.693965517241139
 34
0.0
 15
0.0
 25
-0.0000000000002316
 35
0.0
 16
33.26792484260828
 26
-14.35038203075178
 36
0.0
1001
ACAD
1000
DSTYLE
1002
{
1070
   179
1070
     3
1002
}
1001
GENIUS_GENDTOL_13
1000

1000
h7
1000

1040
0.0
  0
DIMENSION
  5
3B0D
330
1F
100
AcDbEntity
  8
AM_5
100
AcDbDimension
  2
*D9
 10
-128.185657659281
 20
29.98689436348975
 30
0.0
 11
-66.18565765928114
 21
33.38689436348976
 31
0.0
 70
    32
  1
<>
 51
359.9999999999998
  3
AM_JIS$0
100
AcDbAlignedDimension
 13
-4.185657659281274
 23
10.45994832041334
 33
0.0
 14
-128.185657659281
 24
11.50000000000259
 34
0.0
 50
180.0000000000001
100
AcDbRotatedDimension
1001
ACAD
1000
DSTYLE
1002
{
1070
   271
1070
     3
1002
}
1001
GENIUS_GENDTOL_13
1000

1000
h7
1000

1040
0.0
  0
LINE
  5
4534
330
1F
100
AcDbEntity
  8
PV0001_1
  6
CONTINUOUS
100
AcDbLine
 10
-133.1856576592811
 20
4.532556575175646
 30
0.0
 11
-133.1856576592811
 21
11.50000000000263
 31
0.0
  0
LINE
  5
4536
330
1F
100
AcDbEntity
  8
PV0001_1
  6
CONTINUOUS
100
AcDbLine
 10
-133.1856576592811
 20
-11.49999999999759
 30
0.0
 11
-133.1856576592811
 21
-9.482088287587577
 31
0.0
  0
LINE
  5
46A5
330
1F
100
AcDbEntity
  8
AM_11
 48
0.5
100
AcDbLine
 10
-128.185657659281
 20
-11.49999999999764
 30
0.0
 11
-128.185657659281
 21
11.50000000000259
 31
0.0
  0
DIMENSION
  5
471A
330
1F
100
AcDbEntity
  8
AM_5
100
AcDbDimension
  2
*D10
 10
-133.1856576592811
 20
42.87099336361895
 30
0.0
 11
-68.68565765928121
 21
46.27099336361895
 31
0.0
 70
    32
  1
<>
 51
359.9999999999998
  3
AM_JIS$0
100
AcDbAlignedDimension
 13
-4.185657659281274
 23
10.45994832041334
 33
0.0
 14
-133.1856576592811
 24
11.24444444444667
 34
0.0
 50
180.0000000000002
100
AcDbRotatedDimension
1001
ACAD
1000
DSTYLE
1002
{
1070
   271
1070
     3
1002
}
1001
GENIUS_GENDTOL_13
1000

1000
h7
1000

1040
0.0
  0
LINE
  5
4A4B
330
1F
100
AcDbEntity
  8
PV0001_1
  6
CONTINUOUS
100
AcDbLine
 10
-158.185657659281
 20
-12.47503639174682
 30
0.0
 11
-158.1856576592811
 21
12.52497362183304
 31
0.0
  0
LINE
  5
4A4C
330
1F
100
AcDbEntity
  8
PV0001_1
  6
CONTINUOUS
 48
0.5
100
AcDbLine
 10
-213.5227586419623
 20
0.0249721913222055
 30
0.0
 11
-213.5227586419622
 21
-12.47506500197658
 31
0.0
  0
LINE
  5
4A4D
330
1F
100
AcDbEntity
  8
PV0001_1
  6
CONTINUOUS
 48
0.5
100
AcDbLine
 10
-214.1855718286059
 20
-11.81209445906842
 30
0.0
 11
-213.5226442010372
 21
-12.4750077815176
 31
0.0
  0
LINE
  5
4A4E
330
1F
100
AcDbEntity
  8
PV0001_1
  6
CONTINUOUS
100
AcDbLine
 10
-213.4454149678232
 20
-12.47503639174708
 30
0.0
 11
-158.1310621245946
 21
-12.47503639174681
 31
0.0
  0
LINE
  5
4A4F
330
1F
100
AcDbEntity
  8
PV0001_1
  6
CONTINUOUS
 48
0.5
100
AcDbLine
 10
-214.185571828606
 20
11.86197446869738
 30
0.0
 11
-213.5226442010373
 21
12.52488779114474
 31
0.0
  0
LINE
  5
4A50
330
1F
100
AcDbEntity
  8
PV0001_1
  6
CONTINUOUS
 48
0.5
100
AcDbLine
 10
-213.5227586419623
 20
0.0249721913222055
 30
0.0
 11
-213.5227586419623
 21
12.525009384621
 31
0.0
  0
LINE
  5
4A51
330
1F
100
AcDbEntity
  8
AM_0
100
AcDbLine
 10
-203.9280911570124
 20
-4.264680527309256
 30
0.0
 11
-167.450338186589
 21
-4.264680527309062
 31
0.0
  0
LINE
  5
4A52
330
1F
100
AcDbEntity
  8
AM_0
100
AcDbLine
 10
-167.4503381865891
 20
4.264680527306931
 30
0.0
 11
-203.9280911570124
 21
4.264680527306739
 31
0.0
  0
ARC
  5
4A53
330
1F
100
AcDbEntity
  8
AM_0
100
AcDbCircle
 10
-203.9209884973756
 20
-0.0000000000012298
 30
0.0
 40
4.264680527307981
100
AcDbArc
 50
90.0
 51
270.0
  0
LINE
  5
4A54
330
1F
100
AcDbEntity
  8
PV0001_1
  6
CONTINUOUS
 48
0.5
100
AcDbLine
 10
-214.1856576592811
 20
0.0249721913222038
 30
0.0
 11
-214.1856576592811
 21
11.8620960621718
 31
0.0
  0
LINE
  5
4A55
330
1F
100
AcDbEntity
  8
PV0001_1
  6
CONTINUOUS
 48
0.5
100
AcDbLine
 10
-214.1856576592811
 20
0.0249721913222038
 30
0.0
 11
-214.185657659281
 21
-11.81215167952695
 31
0.0
  0
ARC
  5
4A56
330
1F
100
AcDbEntity
  8
AM_0
100
AcDbCircle
 10
-167.450338186589
 20
-0.0000000000010539
 30
0.0
 40
4.264680527307981
100
AcDbArc
 50
270.0
 51
90.0
  0
LINE
  5
4A57
330
1F
100
AcDbEntity
  8
PV0001_1
  6
CONTINUOUS
100
AcDbLine
 10
-158.1856576592811
 20
12.52497362183304
 30
0.0
 11
-213.5000105025097
 21
12.52497362183277
 31
0.0
  0
DIMENSION
  5
4A58
330
1F
100
AcDbEntity
  8
AM_5
100
AcDbDimension
  2
*D11
 10
-163.185657659281
 20
-28.47941722561778
 30
0.0
 11
-185.6856633419823
 21
-25.07941722561778
 31
0.0
 70
    32
  1
<>
  3
AM_JIS$0
100
AcDbAlignedDimension
 13
-208.1856690246836
 23
-0.0000000000012419
 33
0.0
 14
-163.185657659281
 24
-0.0000000000010335
 34
0.0
 50
0.0000000000004184
100
AcDbRotatedDimension
1001
ACAD
1000
DSTYLE
1002
{
1070
   271
1070
     3
1002
}
1001
GENIUS_GENDTOL_13
1000

1000
h7
1000

1040
0.0
  0
DIMENSION
  5
4A59
330
1F
100
AcDbEntity
  8
AM_5
100
AcDbDimension
  2
*D12
 10
-208.1856690246836
 20
-28.47941722561811
 30
0.0
 11
-211.1856204266447
 21
-28.47941722561811
 31
0.0
 70
   160
  1
<>
  3
AM_JIS$0
100
AcDbAlignedDimension
 13
-214.1855718286059
 23
-11.81209445906842
 33
0.0
 14
-208.1856690246836
 24
-0.0000000000012419
 34
0.0
 50
0.0000000000004185
100
AcDbRotatedDimension
1001
ACAD
1000
DSTYLE
1002
{
1070
   271
1070
     3
1002
}
1001
GENIUS_GENDTOL_13
1000

1000
h7
1000

1040
0.0
  0
DIMENSION
  5
4A5A
330
1F
100
AcDbEntity
  8
AM_5
100
AcDbDimension
  2
*D13
 10
-214.1855718286059
 20
-54.24780920206195
 30
0.0
 11
-109.1856147439434
 21
-50.84780920206195
 31
0.0
 70
    32
  1
<>
  3
AM_JIS$0
100
AcDbAlignedDimension
 13
-4.18565765928097
 23
-11.08754521963949
 33
0.0
 14
-214.1855718286059
 24
-11.81209445906842
 34
0.0
 50
0.0000000000004184
100
AcDbRotatedDimension
1001
ACAD
1000
DSTYLE
1002
{
1070
   271
1070
     3
1002
}
1001
GENIUS_GENDTOL_13
1000

1000
h7
1000

1040
0.0
  0
DIMENSION
  5
4A5B
330
1F
100
AcDbEntity
  8
AM_5
100
AcDbDimension
  2
*D14
 10
-214.1855718286059
 20
-42.27275442532755
 30
0.0
 11
-186.1856147439434
 21
-38.87275442532756
 31
0.0
 70
    32
  1
<>
  3
AM_JIS$0
100
AcDbAlignedDimension
 13
-158.185657659281
 23
-12.47503639174681
 33
0.0
 14
-214.1855718286059
 24
-11.81209445906842
 34
0.0
 50
0.0000000000004184
100
AcDbRotatedDimension
1001
ACAD
1000
DSTYLE
1002
{
1070
   271
1070
     3
1002
}
1001
GENIUS_GENDTOL_13
1000

1000
h7
1000

1040
0.0
  0
DIMENSION
  5
4A5C
330
1F
100
AcDbEntity
  8
AM_5
100
AcDbDimension
  2
*D15
 10
-158.185657659281
 20
-42.27275442532714
 30
0.0
 11
-81.18565765928101
 21
-38.87275442532714
 31
0.0
 70
    32
  1
<>
  3
AM_JIS$0
100
AcDbAlignedDimension
 13
-4.185657659280978
 23
-11.0875452196383
 33
0.0
 14
-158.185657659281
 24
-12.47503639174681
 34
0.0
 50
0.0000000000003167
100
AcDbRotatedDimension
1001
ACAD
1000
DSTYLE
1002
{
1070
   271
1070
     3
1002
}
1001
GENIUS_GENDTOL_13
1000

1000
h7
1000

1040
0.0
  0
DIMENSION
  5
4A5D
330
1F
100
AcDbEntity
  8
AM_5
100
AcDbDimension
  2
*D16
 10
-231.0961017301088
 20
-12.47489334306207
 30
0.0
 11
-234.4961017301088
 21
0.0250580207794323
 31
0.0
 70
    32
  1
%%C<>
  3
AM_JIS$0
100
AcDbAlignedDimension
 13
-213.4636134793852
 23
12.525009384621
 33
0.0
 14
-213.463613479385
 24
-12.47489334306208
 34
0.0
 50
270.0
100
AcDbRotatedDimension
1001
ACAD
1000
DSTYLE
1002
{
1070
   271
1070
     3
1002
}
1001
GENIUS_GENDTOL_13
1000

1000
h7
1000

1040
0.0
  0
SPLINE
  5
4BDC
330
1F
100
AcDbEntity
  8
AM_0
100
AcDbSpline
210
0.0
220
0.0
230
1.0
 70
     8
 71
     3
 72
    12
 73
     8
 74
     0
 42
0.0000000001
 43
0.0000000001
 40
0.0
 40
0.0
 40
0.0
 40
0.0
 40
3.550288329958888
 40
5.110699985623471
 40
6.310592039948465
 40
8.859663010396623
 40
10.65155104271494
 40
10.65155104271494
 40
10.65155104271494
 40
10.65155104271494
 10
-125.3692023349073
 20
1.8322977852852
 30
0.0
 10
-141.4091808122562
 20
8.205775970819495
 30
0.0
 10
-150.1624733922036
 20
8.533039284293833
 30
0.0
 10
-155.77637587871
 20
6.019012112278067
 30
0.0
 10
-156.5638018504287
 20
2.595656965623235
 30
0.0
 10
-154.8744392433943
 20
-0.3422130926039033
 30
0.0
 10
-145.0876468161475
 20
-6.548967211234408
 30
0.0
 10
-135.1758568986971
 20
-9.010474247524774
 30
0.0
  0
LINE
  5
5081
330
1F
100
AcDbEntity
  8
PV0001_1
  6
CONTINUOUS
 48
0.5
100
AcDbLine
 10
-0.0000000000002542
 20
0.0000000000001037
 30
0.0
 11
-4.185657659281033
 21
11.49999999999996
 31
0.0
  0
LINE
  5
5082
330
1F
100
AcDbEntity
  8
PV0001_1
  6
CONTINUOUS
 48
0.5
100
AcDbLine
 10
-0.0000000000002542
 20
-0.0000000000001142
 30
0.0
 11
-4.185657659280979
 21
-11.50000000000002
 31
0.0
  0
SPLINE
  5
50AE
330
1F
100
AcDbEntity
  8
PV0001_1
  6
CONTINUOUS
100
AcDbSpline
210
0.0
220
0.0
230
1.0
 70
     8
 71
     3
 72
    16
 73
    12
 74
     0
 42
0.0000000001
 43
0.0000000001
 40
0.0
 40
0.0
 40
0.0
 40
0.0
 40
1.010743684496582
 40
2.022833576467832
 40
3.037578957496688
 40
4.056212745003489
 40
5.079857003664532
 40
6.109500240690281
 40
7.145961322679372
 40
8.189895241603872
 40
8.753615341503387
 40
8.753615341503387
 40
8.753615341503387
 40
8.753615341503387
 10
-114.947216474375
 20
-11.4999999430083
 30
0.0
 10
-115.737242406201
 20
-11.49315772161283
 30
0.0
 10
-117.318346503798
 20
-11.47946416568103
 30
0.0
 10
-119.6894272562752
 20
-11.36907873192462
 30
0.0
 10
-122.0604067962551
 20
-11.19359472814437
 30
0.0
 10
-124.431239595879
 20
-10.94764722268784
 30
0.0
 10
-126.8019019979677
 20
-10.63456927579751
 30
0.0
 10
-129.1723472346526
 20
-10.25575309521196
 30
0.0
 10
-131.5425832349677
 20
-9.813750521744935
 30
0.0
 10
-133.543264180457
 20
-9.389571435485921
 30
0.0
 10
-134.752655792502
 20
-9.110709675643576
 30
0.0
 10
-135.1758568986971
 20
-9.010474247524774
 30
0.0
  0
LINE
  5
50AF
330
1F
100
AcDbEntity
  8
AM_0
100
AcDbLine
 10
-133.1856576592811
 20
-11.49999999999754
 30
0.0
 11
-114.947161794791
 21
-11.4999999999979
 31
0.0
  0
LINE
  5
50B0
330
1F
100
AcDbEntity
  8
PV0001_1
  6
CONTINUOUS
 48
0.5
100
AcDbLine
 10
-133.1856576592811
 20
11.50000000000268
 30
0.0
 11
-111.0329717214522
 21
11.50000000000227
 31
0.0
  0
SPLINE
  5
50B1
330
1F
100
AcDbEntity
  8
PV0001_1
  6
CONTINUOUS
100
AcDbSpline
210
0.0
220
0.0
230
1.0
 70
     8
 71
     3
 72
    30
 73
    26
 74
     0
 42
0.0000000001
 43
0.0000000001
 40
0.0
 40
0.0
 40
0.0
 40
0.0
 40
1.010743684496582
 40
2.022833576467832
 40
3.037578957496688
 40
4.056212745003489
 40
5.079857003664532
 40
6.109500240690281
 40
7.145961322679372
 40
8.189895241603872
 40
9.241717795325891
 40
10.30168407291828
 40
11.36983447792315
 40
12.44600489715814
 40
13.52984294512926
 40
14.62081576220742
 40
15.7182257034828
 40
16.82123173843959
 40
17.92886860250316
 40
19.0400688939571
 40
20.15368796660465
 40
21.26852814259644
 40
22.38336992938901
 40
23.49698739941135
 40
23.53853004329818
 40
23.53853004329818
 40
23.53853004329818
 40
23.53853004329818
 10
-80.93035404265227
 20
-11.49999999999834
 30
0.0
 10
-81.60267845485989
 20
-11.49315777860287
 30
0.0
 10
-82.94822274680363
 20
-11.47946422267107
 30
0.0
 10
-84.96604951550418
 20
-11.36907878891468
 30
0.0
 10
-86.98379015078812
 20
-11.19359478513443
 30
0.0
 10
-89.00140590773629
 20
-10.94764727967791
 30
0.0
 10
-91.01887665371952
 20
-10.6345693327876
 30
0.0
 10
-93.03616258855075
 20
-10.25575315220205
 30
0.0
 10
-95.0532704599621
 20
-9.813750578735048
 30
0.0
 10
-97.07018238028311
 20
-9.311268224664596
 30
0.0
 10
-99.0868846106677
 20
-8.751391301161762
 30
0.0
 10
-101.1033872032617
 20
-8.137634097800397
 30
0.0
 10
-103.1196955586613
 20
-7.473752850741235
 30
0.0
 10
-105.1358348690242
 20
-6.763880389385339
 30
0.0
 10
-107.1518143649873
 20
-6.012379032101497
 30
0.0
 10
-109.1676527401997
 20
-5.22388336208546
 30
0.0
 10
-111.1833723505822
 20
-4.403257767940185
 30
0.0
 10
-113.198990887166
 20
-3.555548708802598
 30
0.0
 10
-115.2145279117588
 20
-2.685969925154338
 30
0.0
 10
-117.2300049914632
 20
-1.799873571096777
 30
0.0
 10
-119.2454398039319
 20
-0.9027070028616915
 30
0.0
 10
-121.260860810226
 20
-0.000002346415339
 30
0.0
 10
-123.2762727689661
 20
0.9027185592774142
 30
0.0
 10
-124.6461897091392
 20
1.51252266383554
 30
0.0
 10
-125.3441024883929
 20
1.821199118281067
 30
0.0
 10
-125.3692023349072
 20
1.8322977852852
 30
0.0
  0
LINE
  5
50B2
330
1F
100
AcDbEntity
  8
PV0001_1
  6
CONTINUOUS
 48
0.5
100
AcDbLine
 10
-3.537308634110897
 20
9.966668128966405
 30
0.0
 11
-16.65512116722305
 21
9.966668128966604
 31
0.0
  0
LINE
  5
50B3
330
1F
100
AcDbEntity
  8
PV0001_1
  6
CONTINUOUS
 48
0.5
100
AcDbLine
 10
-16.63585308410677
 20
11.50000000000015
 30
0.0
 11
-4.185657659281033
 21
11.49999999999996
 31
0.0
  0
ELLIPSE
  5
50B5
330
1F
100
AcDbEntity
  8
AM_0
100
AcDbEllipse
 10
-6.154193676940394
 20
4.129766023143588
 30
0.0
 11
-4.913809475620221
 21
0.244839970063748
 31
0.0
210
0.0
220
0.0
230
1.0
 40
0.7474476065998792
 41
0.9448058479818941
 42
3.068183830511351
  0
LINE
  5
50B6
330
1F
100
AcDbEntity
  8
PV0001_1
  6
CONTINUOUS
 48
0.5
100
AcDbLine
 10
-13.03812489563195
 20
3.448559760636956
 30
0.0
 11
-9.181499983933743
 21
1.296830154855159
 31
0.0
  0
LINE
  5
50B7
330
1F
100
AcDbEntity
  8
AM_0
100
AcDbLine
 10
-3.774269409512615
 20
0.8612663439014568
 30
0.0
 11
-2.902498901643666
 21
-2.845853081442447
 31
0.0
  0
LINE
  5
50B9
330
1F
100
AcDbEntity
  8
PV0001_1
  6
CONTINUOUS
 48
0.5
100
AcDbLine
 10
-17.98565969504904
 20
-9.93181818181802
 30
0.0
 11
-4.596810373990519
 21
-9.931818181818201
 31
0.0
  0
LINE
  5
50BA
330
1F
100
AcDbEntity
  8
PV0001_1
  6
CONTINUOUS
 48
0.5
100
AcDbLine
 10
-17.72577297479103
 20
-11.49999999999981
 30
0.0
 11
-4.185657659280979
 21
-11.50000000000002
 31
0.0
  0
DIMENSION
  5
50BB
330
1F
100
AcDbEntity
  8
AM_5
100
AcDbDimension
  2
*D17
 10
19.41174725311113
 20
-11.50000000000002
 30
0.0
 11
19.41174725311114
 21
-0.0000000000001697
 31
0.0
 70
   160
  1
%%C<>
 51
359.9999999999998
  3
AM_JIS$0
100
AcDbAlignedDimension
 13
-3.868514805876852
 23
11.49999999999997
 33
0.0
 14
-3.997465299406058
 24
-11.50000000000001
 34
0.0
 50
89.9999999999992
100
AcDbRotatedDimension
1001
GENIUS_GENDTOL_13
1000

1000
h7
1000

1040
0.0
1001
ACAD
1000
DSTYLE
1002
{
1070
   271
1070
     3
1002
}
  0
LINE
  5
50CB
330
1F
100
AcDbEntity
  8
AM_0
100
AcDbLine
 10
-2.902498901643666
 20
-2.845853081442447
 30
0.0
 11
-6.686123063785037
 21
-4.814752588507025
 31
0.0
  0
LINE
  5
50CC
330
1F
100
AcDbEntity
  8
PV0001_1
  6
CONTINUOUS
 48
0.5
100
AcDbLine
 10
-2.902498901643666
 20
-2.845853081442447
 30
0.0
 11
-4.596810373990519
 21
-9.931818181818201
 31
0.0
  0
LINE
  5
50CD
330
1F
100
AcDbEntity
  8
PV0001_1
  6
CONTINUOUS
 48
0.5
100
AcDbLine
 10
-9.181499983933687
 20
1.296830154854996
 30
0.0
 11
-4.596810373990519
 21
-9.931818181818201
 31
0.0
  0
SPLINE
  5
50D2
330
1F
100
AcDbEntity
  8
PV0001_1
  6
CONTINUOUS
100
AcDbSpline
210
0.0
220
0.0
230
1.0
 70
     8
 71
     3
 72
    16
 73
    12
 74
     0
 42
0.0000000001
 43
0.0000000001
 40
2.625839846755727
 40
2.625839846755727
 40
2.625839846755727
 40
2.625839846755727
 40
3.082371838836284
 40
4.126290986361125
 40
5.162752068350215
 40
6.192395305374981
 40
7.216039564037012
 40
8.234688489606833
 40
9.249433870634691
 40
10.26152376260694
 40
11.27226744710342
 40
11.27226744710342
 40
11.27226744710342
 40
11.27226744710352
 10
-99.34391141110353
 20
-8.667172001473192
 30
0.0
 10
-100.4248076769119
 20
-9.148224946853458
 30
0.0
 10
-101.2598575407967
 20
-9.406300409563936
 30
0.0
 10
-102.6787308761314
 20
-9.813915922515063
 30
0.0
 10
-104.4310274104693
 20
-10.2557141519902
 30
0.0
 10
-106.1834042344228
 20
-10.6345637999421
 30
0.0
 10
-107.9359719766907
 20
-10.94770909573626
 30
0.0
 10
-109.6886607988348
 20
-11.19336305724681
 30
0.0
 10
-111.4414587574151
 20
-11.36993376460664
 30
0.0
 10
-113.1943226680292
 20
-11.476284611667
 30
0.0
 10
-114.3631822319276
 20
-11.50000006580138
 30
0.0
 10
-114.9472230555068
 20
-11.49999999999738
 30
0.0
  0
LINE
  5
50D3
330
1F
100
AcDbEntity
  8
AM_11
 48
0.5
100
AcDbLine
 10
-111.0330416877261
 20
11.50000000000148
 30
0.0
 11
-10.27384295576931
 21
11.50000000000005
 31
0.0
  0
LINE
  5
50D8
330
1F
100
AcDbEntity
  8
AM_11
 48
0.5
100
AcDbLine
 10
-11.66821283201635
 20
-11.49999999999992
 30
0.0
 11
-114.9472181906032
 21
-11.4999999999984
 31
0.0
  0
SPLINE
  5
5247
330
1F
100
AcDbEntity
  8
PV0001_1
  6
CONTINUOUS
100
AcDbSpline
210
0.0
220
0.0
230
1.0
 70
     8
 71
     3
 72
    47
 73
    43
 74
     0
 42
0.0000000001
 43
0.0000000001
 40
0.0
 40
0.0
 40
0.0
 40
0.0
 40
1.010743684496582
 40
2.022833576467832
 40
3.037578957496688
 40
4.056212745003489
 40
5.079857003664532
 40
6.109500240690281
 40
7.145961322679372
 40
8.189895241603872
 40
9.241717795325891
 40
10.30168407291828
 40
11.36983447792315
 40
12.44600489715814
 40
13.52984294512926
 40
14.62081576220742
 40
15.7182257034828
 40
16.82123173843959
 40
17.92886860250316
 40
19.0400688939571
 40
20.15368796660465
 40
21.26852814259644
 40
22.38336992938901
 40
23.49698739941135
 40
24.6081876908653
 40
25.71582455492886
 40
26.81883757994213
 40
27.91624752121713
 40
29.00722033829659
 40
30.09105838626677
 40
31.16722880550176
 40
32.23537921050758
 40
33.29534548809967
 40
34.347168041821
 40
35.39108718934584
 40
36.42754827133493
 40
37.45720575381954
 40
38.48085062012849
 40
39.49948440763516
 40
40.51422944315121
 40
41.52631975251916
 40
42.53706336679711
 40
42.53706336679711
 40
42.53706336679711
 40
42.53706336679711
 10
-46.01799878349602
 20
-11.49999999999937
 30
0.0
 10
-46.57685731023086
 20
-11.49315777860391
 30
0.0
 10
-47.69531870624502
 20
-11.47946422267211
 30
0.0
 10
-49.37260377084541
 20
-11.36907878891572
 30
0.0
 10
-51.04981723847052
 20
-11.19359478513547
 30
0.0
 10
-52.7269269030484
 20
-10.94764727967896
 30
0.0
 10
-54.40391602966461
 20
-10.63456933278864
 30
0.0
 10
-56.08075153507319
 20
-10.25575315220309
 30
0.0
 10
-57.75743902821453
 20
-9.813750578736096
 30
0.0
 10
-59.43396364025912
 20
-9.311268224665651
 30
0.0
 10
-61.11031395101885
 20
-8.75139130116282
 30
0.0
 10
-62.78649831617332
 20
-8.137634097801457
 30
0.0
 10
-64.4625212248785
 20
-7.4737528507423
 30
0.0
 10
-66.13840361769813
 20
-6.763880389386407
 30
0.0
 10
-67.81415316744618
 20
-6.012379032102568
 30
0.0
 10
-69.48978541290874
 20
-5.223883362086533
 30
0.0
 10
-71.16531893707437
 20
-4.403257767941257
 30
0.0
 10
-72.84076844531989
 20
-3.555548708803674
 30
0.0
 10
-74.51615019807338
 20
-2.685969925155417
 30
0.0
 10
-76.19148212263188
 20
-1.799873571097856
 30
0.0
 10
-77.86677891325097
 20
-0.902707002862774
 30
0.0
 10
-79.5420642277163
 20
-0.0000023464164228
 30
0.0
 10
-81.21734202155236
 20
0.9027185592763265
 30
0.0
 10
-82.89264442740115
 20
1.799871156254997
 30
0.0
 10
-84.56797428373986
 20
2.685970192475557
 30
0.0
 10
-86.2433590236805
 20
3.555552288831392
 30
0.0
 10
-87.91881548249419
 20
4.403254113470565
 30
0.0
 10
-89.59435165109445
 20
5.223883869329537
 30
0.0
 10
-91.26998413846264
 20
6.012378899956805
 30
0.0
 10
-92.94573362723538
 20
6.763880415278537
 30
0.0
 10
-94.62161602434633
 20
7.473752877673674
 30
0.0
 10
-96.29763897574115
 20
8.137633965988491
 30
0.0
 10
-97.97382316789516
 20
8.751391796052121
 30
0.0
 10
-99.65016627431706
 20
9.311263775849031
 30
0.0
 10
-101.3266805189933
 20
9.813752711184482
 30
0.0
 10
-103.0033673901706
 20
10.25576417276768
 30
0.0
 10
-104.6802148687467
 20
10.63453708728694
 30
0.0
 10
-106.3572095356611
 20
10.94771193841947
 30
0.0
 10
-108.0343196974093
 20
11.19336790485394
 30
0.0
 10
-109.7115343304133
 20
11.36991755906336
 30
0.0
 10
-111.3888179726555
 20
11.47630177641448
 30
0.0
 10
-112.5072798429776
 20
11.50000000000203
 30
0.0
 10
-113.0661384715559
 20
11.50000000000213
 30
0.0
  0
SPLINE
  5
5248
330
1F
100
AcDbEntity
  8
PV0001_1
  6
CONTINUOUS
100
AcDbSpline
210
0.0
220
0.0
230
1.0
 70
     8
 71
     3
 72
    25
 73
    21
 74
     0
 42
0.0000000001
 43
0.0000000001
 40
24.56499986022253
 40
24.56499986022253
 40
24.56499986022253
 40
24.56499986022253
 40
24.6081876908653
 40
25.71582455492886
 40
26.81883757994213
 40
27.91624752121713
 40
29.00722033829659
 40
30.09105838626677
 40
31.16722880550176
 40
32.23537921050758
 40
33.29534548809967
 40
34.347168041821
 40
35.39108718934584
 40
36.42754827133493
 40
37.45720575381954
 40
38.48085062012849
 40
39.49948440763516
 40
40.51422944315121
 40
41.52631975251916
 40
42.53706336680078
 40
42.53706336680078
 40
42.53706336680078
 40
42.53706336680078
 10
-13.03812489563195
 20
3.448559760636956
 30
0.0
 10
-13.06017275861533
 20
3.459362277082833
 30
0.0
 10
-13.6477147851096
 20
3.747124480391299
 30
0.0
 10
-14.80015195122068
 20
4.305823487475326
 30
0.0
 10
-16.49816096545644
 20
5.10739576522141
 30
0.0
 10
-18.19550941863272
 20
5.881903916881898
 30
0.0
 10
-19.89207548353545
 20
6.624286724783752
 30
0.0
 10
-21.58774697947198
 20
7.329686650018663
 30
0.0
 10
-23.28241305630235
 20
7.993469453240999
 30
0.0
 10
-24.97596207664078
 20
8.611274235299978
 30
0.0
 10
-26.66830173967422
 20
9.178970091295765
 30
0.0
 10
-28.35932683791249
 20
9.692795899657344
 30
0.0
 10
-30.04895396576755
 20
10.14925543954366
 30
0.0
 10
-31.73709999886762
 20
10.5452553979752
 30
0.0
 10
-33.42367742561139
 20
10.87803606264609
 30
0.0
 10
-35.10860831487596
 20
11.14523916637707
 30
0.0
 10
-36.79180846331814
 20
11.34494547265713
 30
0.0
 10
-38.47322344589578
 20
11.47556844891882
 30
0.0
 10
-40.15278885383735
 20
11.53605033618535
 30
0.0
 10
-41.27148052088119
 20
11.5291572050269
 30
0.0
 10
-41.83013019261961
 20
11.51387613813744
 30
0.0
  0
SPLINE
  5
5249
330
1F
100
AcDbEntity
  8
PV0001_1
  6
CONTINUOUS
 48
0.5
100
AcDbSpline
210
0.0
220
0.0
230
1.0
 70
     8
 71
     3
 72
    15
 73
    11
 74
     0
 42
0.0000000001
 43
0.0000000001
 40
0.0
 40
0.0
 40
0.0
 40
0.0
 40
1.010743614677189
 40
2.022833924044153
 40
3.037578959561199
 40
4.056212747067873
 40
5.079857613375832
 40
6.109500119648989
 40
7.14596120163808
 40
7.376952956898612
 40
7.376952956898612
 40
7.376952956898612
 40
7.376952956898612
 10
-16.63697513515865
 20
11.49078778408198
 30
0.0
 10
-17.17059600685973
 20
11.49071867886534
 30
0.0
 10
-18.23865156845298
 20
11.46712168515311
 30
0.0
 10
-19.84026151658665
 20
11.36069666802427
 30
0.0
 10
-21.44182780946209
 20
11.1841581700671
 30
0.0
 10
-23.04328820729768
 20
10.9384985102249
 30
0.0
 10
-24.64463273804156
 20
10.62532876762378
 30
0.0
 10
-26.24583408348866
 20
10.24654745324332
 30
0.0
 10
-27.42838721951707
 20
9.920077984855554
 30
0.0
 10
-28.07802176654537
 20
9.725808172957602
 30
0.0
 10
-28.27645439074645
 20
9.659449289850986
 30
0.0
  0
LINE
  5
524A
330
1F
100
AcDbEntity
  8
AM_0
100
AcDbLine
 10
-17.98565969504906
 20
-11.47516328858372
 30
0.0
 11
-17.98565969504882
 21
5.782574594703826
 31
0.0
  0
LINE
  5
524B
330
1F
100
AcDbEntity
  8
AM_0
100
AcDbLine
 10
-16.71595232657526
 20
5.203808783261438
 30
0.0
 11
-16.63685943703493
 21
11.4999999999999
 31
0.0
  0
LINE
  5
524C
330
1F
100
AcDbEntity
  8
PV0001_1
  6
CONTINUOUS
 48
0.5
100
AcDbLine
 10
-88.26288943586503
 20
-11.49999999999865
 30
0.0
 11
-49.33777627754797
 21
-11.49999999999952
 31
0.0
  0
SPLINE
  5
524D
330
1F
100
AcDbEntity
  8
PV0001_1
  6
CONTINUOUS
100
AcDbSpline
210
0.0
220
0.0
230
1.0
 70
     8
 71
     3
 72
    17
 73
    13
 74
     0
 42
0.0000000001
 43
0.0000000001
 40
1.580019955310467
 40
1.580019955310467
 40
1.580019955310467
 40
1.580019955310467
 40
2.030549285115227
 40
3.082371838836284
 40
4.126290986361125
 40
5.162752068350215
 40
6.192395305374981
 40
7.216039564037012
 40
8.234688489606833
 40
9.249433870634691
 40
10.26152376260694
 40
11.27226744710342
 40
11.27226744710342
 40
11.27226744710342
 40
11.27226744710352
 10
-33.53867797693293
 20
-8.48733863578874
 30
0.0
 10
-33.77598581714126
 20
-8.574751172983745
 30
0.0
 10
-34.56867372989994
 20
-8.861257439252668
 30
0.0
 10
-35.92198857535491
 20
-9.310652769268106
 30
0.0
 10
-37.59826921338577
 20
-9.813915922516992
 30
0.0
 10
-39.27501132990674
 20
-10.25571415199213
 30
0.0
 10
-40.95183027416621
 20
-10.63456379994402
 30
0.0
 10
-42.6288319048445
 20
-10.94770909573817
 30
0.0
 10
-44.30594939475311
 20
-11.19336305724872
 30
0.0
 10
-45.98317131542195
 20
-11.36993376460855
 30
0.0
 10
-47.66045634444627
 20
-11.4762846116689
 30
0.0
 10
-48.77891775818596
 20
-11.50000006580328
 30
0.0
 10
-49.33777627754773
 20
-11.49999999999927
 30
0.0
  0
LINE
  5
524E
330
1F
100
AcDbEntity
  8
PV0001_1
  6
CONTINUOUS
 48
0.5
100
AcDbLine
 10
-84.79017179048806
 20
11.50000000000125
 30
0.0
 11
-42.22203694565878
 21
11.5000000000003
 31
0.0
  0
SPLINE
  5
524F
330
1F
100
AcDbEntity
  8
PV0001_1
  6
CONTINUOUS
100
AcDbSpline
210
0.0
220
0.0
230
1.0
 70
     8
 71
     3
 72
    55
 73
    51
 74
     0
 42
0.0000000001
 43
0.0000000001
 40
0.0
 40
0.0
 40
0.0
 40
0.0
 40
1.010743684496582
 40
2.022833576467832
 40
3.037578957496688
 40
4.056212745003489
 40
5.079857003664532
 40
6.109500240690281
 40
7.145961322679372
 40
8.189895241603872
 40
9.241717795325891
 40
10.30168407291828
 40
11.36983447792315
 40
12.44600489715814
 40
13.52984294512926
 40
14.62081576220742
 40
15.7182257034828
 40
16.82123173843959
 40
17.92886860250316
 40
19.0400688939571
 40
20.15368796660465
 40
21.26852814259644
 40
22.38336992938901
 40
23.49698739941135
 40
24.6081876908653
 40
25.71582455492886
 40
26.81883757994213
 40
27.91624752121713
 40
29.00722033829659
 40
30.09105838626677
 40
31.16722880550176
 40
32.23537921050758
 40
33.29534548809967
 40
34.347168041821
 40
35.39108718934584
 40
36.42754827133493
 40
37.45720575381954
 40
38.48085062012849
 40
39.49948440763516
 40
40.51422944315121
 40
41.52631975251916
 40
42.53706336719636
 40
43.54780698187354
 40
44.55989729124051
 40
45.57464232675757
 40
46.59327611426424
 40
47.6169209805722
 40
48.64656348684535
 40
49.68302456883444
 40
50.58557219878025
 40
50.58557219878025
 40
50.58557219878025
 40
50.58557219878025
 10
-17.98565969504906
 20
-11.50000000000031
 30
0.0
 10
-18.3009032830933
 20
-11.49315777860456
 30
0.0
 10
-19.41936467910747
 20
-11.47946422267275
 30
0.0
 10
-21.09664974370787
 20
-11.36907878891636
 30
0.0
 10
-22.77386321133298
 20
-11.19359478513611
 30
0.0
 10
-24.45097287591085
 20
-10.9476472796796
 30
0.0
 10
-26.12796200252702
 20
-10.63456933278929
 30
0.0
 10
-27.8047975079356
 20
-10.25575315220374
 30
0.0
 10
-29.481485001077
 20
-9.81375057873673
 30
0.0
 10
-31.1580096131216
 20
-9.311268224666299
 30
0.0
 10
-32.83435992388133
 20
-8.751391301163463
 30
0.0
 10
-34.51054428903573
 20
-8.1376340978021
 30
0.0
 10
-36.18656719774094
 20
-7.473752850742941
 30
0.0
 10
-37.86244959056058
 20
-6.763880389387047
 30
0.0
 10
-39.53819914030864
 20
-6.012379032103209
 30
0.0
 10
-41.2138313857712
 20
-5.223883362087175
 30
0.0
 10
-42.88936490993687
 20
-4.4032577679419
 30
0.0
 10
-44.56481441818233
 20
-3.555548708804316
 30
0.0
 10
-46.24019617093586
 20
-2.685969925156058
 30
0.0
 10
-47.91552809549438
 20
-1.7998735710985
 30
0.0
 10
-49.59082488611342
 20
-0.9027070028634163
 30
0.0
 10
-51.26611020057874
 20
-0.0000023464170652
 30
0.0
 10
-52.9413879944148
 20
0.9027185592756834
 30
0.0
 10
-54.61669040026355
 20
1.799871156254355
 30
0.0
 10
-56.29202025660233
 20
2.685970192474917
 30
0.0
 10
-57.96740499654302
 20
3.55555228883075
 30
0.0
 10
-59.64286145535661
 20
4.403254113469921
 30
0.0
 10
-61.31839762395689
 20
5.223883869328894
 30
0.0
 10
-62.99403011132509
 20
6.012378899956162
 30
0.0
 10
-64.66977960009787
 20
6.763880415277889
 30
0.0
 10
-66.34566199720876
 20
7.473752877673033
 30
0.0
 10
-68.02168494860362
 20
8.137633965987852
 30
0.0
 10
-69.69786914075756
 20
8.751391796051478
 30
0.0
 10
-71.37421224717948
 20
9.311263775848384
 30
0.0
 10
-73.05072649185577
 20
9.813752711183839
 30
0.0
 10
-74.72741336303307
 20
10.25576417276704
 30
0.0
 10
-76.40426084160916
 20
10.63453708728629
 30
0.0
 10
-78.08125550852354
 20
10.94771193841883
 30
0.0
 10
-79.75836567027174
 20
11.19336790485329
 30
0.0
 10
-81.43558030327577
 20
11.36991755906272
 30
0.0
 10
-83.11286394573828
 20
11.47630177642783
 30
0.0
 10
-84.79018444549167
 20
11.511841223297
 30
0.0
 10
-86.46750494277711
 20
11.47630177637227
 30
0.0
 10
-88.14478859265788
 20
11.36991755928631
 30
0.0
 10
-89.82200319835014
 20
11.19336790401108
 30
0.0
 10
-91.49911346249664
 20
10.94771194158494
 30
0.0
 10
-93.17609956878861
 20
10.63453860215997
 30
0.0
 10
-94.85294044122392
 20
10.25576804551567
 30
0.0
 10
-96.45339199906828
 20
9.833817233148806
 30
0.0
 10
-97.491783196258
 20
9.525240615079733
 30
0.0
 10
-98.82586774548359
 20
9.033636227059542
 30
0.0
  0
VIEWPORT
  5
110
330
101
100
AcDbEntity
 67
     1
  8
0
100
AcDbViewport
 10
420.5
 20
297.0
 30
0.0
 40
948.9782706766916
 41
628.452
 68
     1
 69
     1
1001
ACAD
1000
MVIEW
1002
{
1070
    16
1010
0.0
1020
0.0
1030
0.0
1010
0.0
1020
0.0
1030
1.0
1040
0.0
1040
628.452
1040
420.5
1040
297.0
1040
50.0
1040
0.0
1040
0.0
1070
     0
1070
   100
1070
     1
1070
     1
1070
     0
1070
     0
1070
     0
1070
     0
1040
0.0
1040
0.0
1040
0.0
1040
10.0
1040
10.0
1040
10.0
1040
10.0
1070
     0
1002
{
1002
}
1002
}
  0
ENDSEC
  0
SECTION
  2
OBJECTS
  0
DICTIONARY
  5
C
330
0
100
AcDbDictionary
  3
ACAD_GROUP
350
D
  3
ACAD_LAYOUT
350
1A
  3
ACAD_MLINESTYLE
350
17
  3
ACAD_PLOTSETTINGS
350
19
  3
ACAD_PLOTSTYLENAME
350
E
  3
ACDBVARIABLEDICTIONARY
350
34
  3
ACMDICTIONARY
350
43
  3
AMG
350
2B
  3
AMGSNAPSETTINGS
350
6E
  3
DWGPROPS
350
526C
  3
ACDBHEADERROUNDTRIPXREC
350
527C
  0
DICTIONARY
  5
74
330
1F
100
AcDbDictionary
280
     1
  3
ACAD_INDEX
360
526E
  3
ACAD_LAYOUTSELFREF
360
529F
  0
DICTIONARY
  5
52A4
330
101
100
AcDbDictionary
280
     1
  3
ACAD_LAYOUTSELFREF
360
52A5
  0
DICTIONARY
  5
D
102
{ACAD_REACTORS
330
C
102
}
330
C
100
AcDbDictionary
  0
DICTIONARY
  5
1A
102
{ACAD_REACTORS
330
C
102
}
330
C
100
AcDbDictionary
  0
DICTIONARY
  5
17
102
{ACAD_REACTORS
330
C
102
}
330
C
100
AcDbDictionary
  3
STANDARD
350
18
  0
DICTIONARY
  5
19
102
{ACAD_REACTORS
330
C
102
}
330
C
100
AcDbDictionary
  0
ACDBDICTIONARYWDFLT
  5
E
102
{ACAD_REACTORS
330
C
102
}
330
C
100
AcDbDictionary
281
     1
  3
Normal
350
F
100
AcDbDictionaryWithDefault
340
F
  0
DICTIONARY
  5
34
102
{ACAD_REACTORS
330
C
102
}
330
C
100
AcDbDictionary
  3
INDEXCTL
350
35
  3
SORTENTS
350
B5E
  0
DICTIONARY
  5
43
102
{ACAD_REACTORS
330
C
102
}
330
C
100
AcDbDictionary
  3
ACMSTDDICTIONARY
350
260
  0
DICTIONARY
  5
2B
102
{ACAD_REACTORS
330
C
102
}
330
C
100
AcDbDictionary
  3
ACMGSETTINGS
350
2C
  0
DICTIONARY
  5
6E
102
{ACAD_REACTORS
330
C
102
}
330
C
100
AcDbDictionary
  0
XRECORD
  5
526C
102
{ACAD_REACTORS
330
C
102
}
330
C
100
AcDbXrecord
  1
DWGPROPS COOKIE
  2

  3

  4

  6

  7

  8

  9

300
AmdtFileType=82
301
=
302
=
303
=
304
=
305
=
306
=
307
=
308
=
309
=
 40
0.4867789236111112
 41
2452800.443498622
 42
2453002.156653761
  1

 90
        1
  0
DICTIONARY
  5
527C
102
{ACAD_REACTORS
330
C
102
}
330
C
100
AcDbDictionary
  3
TSTACKALIGN
350
527D
  3
TSTACKSIZE
350
527E
  3
HYPERLINKBASE
350
527F
  3
STYLESHEET
350
5280
  3
LAYOUTDICT
350
5281
  3
PLOTSETDICT
350
5282
  3
PLOTSTYLNAMDICT
350
5283
  3
LWETCUNION
350
5284
  3
INSUNITS
350
5285
  3
CEPSNTYPE
350
5286
  3
FINGERPRINTGUID
350
5287
  3
VERSIONGUID
350
5288
  3
PSVPSCALE
350
5289
  3
DIMSTYLEDATA
350
528A
  3
PUCSORTHOREF
350
528B
  3
PUCSORTHOVIEW
350
528C
  3
PUCSBASE
350
528D
  3
PUCSORGTOP
350
528E
  3
PUCSORGBOTTOM
350
528F
  3
PUCSORGLEFT
350
5290
  3
PUCSORGRIGHT
350
5291
  3
PUCSORGFRONT
350
5292
  3
PUCSORGBACK
350
5293
  3
UCSORTHOREF
350
5294
  3
UCSORTHOVIEW
350
5295
  3
UCSBASE
350
5296
  3
UCSORGTOP
350
5297
  3
UCSORGBOTTOM
350
5298
  3
UCSORGLEFT
350
5299
  3
UCSORGRIGHT
350
529A
  3
UCSORGFRONT
350
529B
  3
UCSORGBACK
350
529C
  0
DICTIONARY
  5
526E
102
{ACAD_REACTORS
330
74
102
}
330
74
100
AcDbDictionary
  3
*A1
350
526F
  0
XRECORD
  5
529F
102
{ACAD_REACTORS
330
74
102
}
330
74
100
AcDbXrecord
340
1F
  0
XRECORD
  5
52A5
102
{ACAD_REACTORS
330
52A4
102
}
330
52A4
100
AcDbXrecord
340
101
  0
MLINESTYLE
  5
18
102
{ACAD_REACTORS
330
17
102
}
330
17
100
AcDbMlineStyle
  2
STANDARD
 70
     0
  3

 62
   256
 51
90.0
 52
90.0
 71
     2
 49
0.5
 62
   256
  6
BYLAYER
 49
-0.5
 62
   256
  6
BYLAYER
  0
ACDBPLACEHOLDER
  5
F
102
{ACAD_REACTORS
330
E
102
}
330
E
100
AcDbPlaceHolder
280
     0
  0
DICTIONARYVAR
  5
35
102
{ACAD_REACTORS
330
34
102
}
330
34
100
DictionaryVariables
280
     0
  1
1
  0
DICTIONARYVAR
  5
B5E
102
{ACAD_REACTORS
330
34
102
}
330
34
100
DictionaryVariables
280
     0
  1
96
  0
DICTIONARY
  5
260
102
{ACAD_REACTORS
330
43
102
}
330
43
100
AcDbDictionary
  0
DICTIONARY
  5
2C
102
{ACAD_REACTORS
330
2B
102
}
330
2B
100
AcDbDictionary
  3
DWGSETTINGS
350
2D
  0
XRECORD
  5
527D
102
{ACAD_REACTORS
330
527C
102
}
330
527C
100
AcDbXrecord
 90
        1
  0
XRECORD
  5
527E
102
{ACAD_REACTORS
330
527C
102
}
330
527C
100
AcDbXrecord
 90
       70
  0
XRECORD
  5
527F
102
{ACAD_REACTORS
330
527C
102
}
330
527C
100
AcDbXrecord
  1

  0
XRECORD
  5
5280
102
{ACAD_REACTORS
330
527C
102
}
330
527C
100
AcDbXrecord
  1
ASAMI.ctb
  0
XRECORD
  5
5281
102
{ACAD_REACTORS
330
527C
102
}
330
527C
100
AcDbXrecord
340
1A
  0
XRECORD
  5
5282
102
{ACAD_REACTORS
330
527C
102
}
330
527C
100
AcDbXrecord
340
19
  0
XRECORD
  5
5283
102
{ACAD_REACTORS
330
527C
102
}
330
527C
100
AcDbXrecord
340
E
  0
XRECORD
  5
5284
102
{ACAD_REACTORS
330
527C
102
}
330
527C
100
AcDbXrecord
 90
    10781
  0
XRECORD
  5
5285
102
{ACAD_REACTORS
330
527C
102
}
330
527C
100
AcDbXrecord
 90
        4
  0
XRECORD
  5
5286
102
{ACAD_REACTORS
330
527C
102
}
330
527C
100
AcDbXrecord
 90
        0
  0
XRECORD
  5
5287
102
{ACAD_REACTORS
330
527C
102
}
330
527C
100
AcDbXrecord
  1
{AFB28963-8C59-40AE-9337-C84526B81ACE}
  0
XRECORD
  5
5288
102
{ACAD_REACTORS
330
527C
102
}
330
527C
100
AcDbXrecord
  1
{9B2A12EF-D095-4B9B-A69B-D9ADD55EA633}
  0
XRECORD
  5
5289
102
{ACAD_REACTORS
330
527C
102
}
330
527C
100
AcDbXrecord
 40
0.0
  0
XRECORD
  5
528A
102
{ACAD_REACTORS
330
527C
102
}
330
527C
100
AcDbXrecord
1000
DSTYLE
1002
{
1070
    79
 70
     2
1070
   341
340
59
1070
   342
340
59
1070
   371
 70
    -1
1070
   372
 70
    -1
1002
}
  0
XRECORD
  5
528B
102
{ACAD_REACTORS
330
527C
102
}
330
527C
100
AcDbXrecord
340
0
  0
XRECORD
  5
528C
102
{ACAD_REACTORS
330
527C
102
}
330
527C
100
AcDbXrecord
 70
     0
  0
XRECORD
  5
528D
102
{ACAD_REACTORS
330
527C
102
}
330
527C
100
AcDbXrecord
340
0
  0
XRECORD
  5
528E
102
{ACAD_REACTORS
330
527C
102
}
330
527C
100
AcDbXrecord
 10
0.0
 20
0.0
 30
0.0
  0
XRECORD
  5
528F
102
{ACAD_REACTORS
330
527C
102
}
330
527C
100
AcDbXrecord
 10
0.0
 20
0.0
 30
0.0
  0
XRECORD
  5
5290
102
{ACAD_REACTORS
330
527C
102
}
330
527C
100
AcDbXrecord
 10
0.0
 20
0.0
 30
0.0
  0
XRECORD
  5
5291
102
{ACAD_REACTORS
330
527C
102
}
330
527C
100
AcDbXrecord
 10
0.0
 20
0.0
 30
0.0
  0
XRECORD
  5
5292
102
{ACAD_REACTORS
330
527C
102
}
330
527C
100
AcDbXrecord
 10
0.0
 20
0.0
 30
0.0
  0
XRECORD
  5
5293
102
{ACAD_REACTORS
330
527C
102
}
330
527C
100
AcDbXrecord
 10
0.0
 20
0.0
 30
0.0
  0
XRECORD
  5
5294
102
{ACAD_REACTORS
330
527C
102
}
330
527C
100
AcDbXrecord
340
0
  0
XRECORD
  5
5295
102
{ACAD_REACTORS
330
527C
102
}
330
527C
100
AcDbXrecord
 70
     0
  0
XRECORD
  5
5296
102
{ACAD_REACTORS
330
527C
102
}
330
527C
100
AcDbXrecord
340
0
  0
XRECORD
  5
5297
102
{ACAD_REACTORS
330
527C
102
}
330
527C
100
AcDbXrecord
 10
0.0
 20
0.0
 30
0.0
  0
XRECORD
  5
5298
102
{ACAD_REACTORS
330
527C
102
}
330
527C
100
AcDbXrecord
 10
0.0
 20
0.0
 30
0.0
  0
XRECORD
  5
5299
102
{ACAD_REACTORS
330
527C
102
}
330
527C
100
AcDbXrecord
 10
0.0
 20
0.0
 30
0.0
  0
XRECORD
  5
529A
102
{ACAD_REACTORS
330
527C
102
}
330
527C
100
AcDbXrecord
 10
0.0
 20
0.0
 30
0.0
  0
XRECORD
  5
529B
102
{ACAD_REACTORS
330
527C
102
}
330
527C
100
AcDbXrecord
 10
0.0
 20
0.0
 30
0.0
  0
XRECORD
  5
529C
102
{ACAD_REACTORS
330
527C
102
}
330
527C
100
AcDbXrecord
 10
0.0
 20
0.0
 30
0.0
  0
LAYER_INDEX
  5
526F
102
{ACAD_REACTORS
330
526E
102
}
330
526E
100
AcDbIndex
 40
2453151.708632974
100
AcDbLayerIndex
  8
0
360
5270
 90
        0
  8
AM_0
360
5271
 90
       11
  8
PV0001_1
360
5272
 90
       33
  8
AM_CL
360
5273
 90
        0
  8
AM_7
360
5274
 90
        1
  8
AM_11
360
5275
 90
        3
  8
AM_5
360
5276
 90
       10
  8
Defpoints
360
5277
 90
        0
  8
AM_6
360
5278
 90
        1
  8
AM_4
360
5279
 90
        0
  8
AM_3
360
527A
 90
        0
  0
XRECORD
  5
2D
102
{ACAD_REACTORS
330
2C
102
}
330
2C
100
AcDbXrecord
  1
VERSION
140
15.0
  1
PRODUCT
  2
AutoCAD Mechanical 2000
  0
IDBUFFER
  5
5270
330
0
100
AcDbIdBuffer
  0
IDBUFFER
  5
5271
330
0
100
AcDbIdBuffer
330
4A51
330
4A52
330
4A53
330
4A56
330
4BDC
330
50AF
330
50B5
330
50B7
330
50CB
330
524A
330
524B
  0
IDBUFFER
  5
5272
330
0
100
AcDbIdBuffer
330
50B0
330
50B1
330
50B2
330
50B3
330
50B6
330
50B9
330
50BA
330
50CC
330
50CD
330
50D2
330
5247
330
5248
330
5249
330
524C
330
524D
330
524E
330
524F
330
35F4
330
35F5
330
4534
330
4536
330
4A4B
330
4A4C
330
4A4D
330
4A4E
330
4A4F
330
4A50
330
4A54
330
4A55
330
4A57
330
5081
330
5082
330
50AE
  0
IDBUFFER
  5
5273
330
0
100
AcDbIdBuffer
  0
IDBUFFER
  5
5274
330
0
100
AcDbIdBuffer
330
35D1
  0
IDBUFFER
  5
5275
330
0
100
AcDbIdBuffer
330
46A5
330
50D3
330
50D8
  0
IDBUFFER
  5
5276
330
0
100
AcDbIdBuffer
330
36BA
330
3B0D
330
471A
330
4A58
330
4A59
330
4A5A
330
4A5B
330
4A5C
330
4A5D
330
50BB
  0
IDBUFFER
  5
5277
330
0
100
AcDbIdBuffer
  0
IDBUFFER
  5
5278
330
0
100
AcDbIdBuffer
330
19BD
  0
IDBUFFER
  5
5279
330
0
100
AcDbIdBuffer
  0
IDBUFFER
  5
527A
330
0
100
AcDbIdBuffer
  0
ENDSEC
  0
EOF
