  0
SECTION
  2
HEADER
  9
$ACADVER
  1
AC1014
  9
$ACADMAINTVER
 70
     9
  9
$DWGCODEPAGE
  3
ANSI_932
  9
$INSBASE
 10
0.0
 20
0.0
 30
0.0
  9
$EXTMIN
 10
-589.2017441852486
 20
-76.82888609081368
 30
-0.00000001
  9
$EXTMAX
 10
31.97557355863935
 20
43.35339867806008
 30
0.00000001
  9
$LIMMIN
 10
-205.6970855601564
 20
-101.5530196580161
  9
$LIMMAX
 10
50.74579400890593
 20
60.56605409694168
  9
$ORTHOMODE
 70
     0
  9
$REGENMODE
 70
     1
  9
$FILLMODE
 70
     1
  9
$QTEXTMODE
 70
     0
  9
$MIRRTEXT
 70
     0
  9
$DRAGMODE
 70
     2
  9
$LTSCALE
 40
1.0
  9
$OSMODE
 70
    55
  9
$ATTMODE
 70
     1
  9
$TEXTSIZE
 40
2.5
  9
$TRACEWID
 40
1.0
  9
$TEXTSTYLE
  7
STANDARD
  9
$CLAYER
  8
AM_0
  9
$CELTYPE
  6
BYLAYER
  9
$CECOLOR
 62
   256
  9
$CELTSCALE
 40
1.0
  9
$DELOBJ
 70
     1
  9
$DISPSILH
 70
     0
  9
$DIMSCALE
 40
1.0
  9
$DIMASZ
 40
2.5
  9
$DIMEXO
 40
1.0
  9
$DIMDLI
 40
12.0
  9
$DIMRND
 40
0.0
  9
$DIMDLE
 40
0.0
  9
$DIMEXE
 40
1.0
  9
$DIMTP
 40
0.1
  9
$DIMTM
 40
0.1
  9
$DIMTXT
 40
3.2
  9
$DIMCEN
 40
0.0
  9
$DIMTSZ
 40
0.0
  9
$DIMTOL
 70
     0
  9
$DIMLIM
 70
     0
  9
$DIMTIH
 70
     0
  9
$DIMTOH
 70
     0
  9
$DIMSE1
 70
     0
  9
$DIMSE2
 70
     0
  9
$DIMTAD
 70
     3
  9
$DIMZIN
 70
     8
  9
$DIMBLK
  1
OPEN30
  9
$DIMASO
 70
     1
  9
$DIMSHO
 70
     1
  9
$DIMPOST
  1

  9
$DIMAPOST
  1
"
  9
$DIMALT
 70
     0
  9
$DIMALTD
 70
     2
  9
$DIMALTF
 40
0.0393701
  9
$DIMLFAC
 40
1.0
  9
$DIMTOFL
 70
     1
  9
$DIMTVP
 40
0.0
  9
$DIMTIX
 70
     0
  9
$DIMSOXD
 70
     0
  9
$DIMSAH
 70
     0
  9
$DIMBLK1
  1

  9
$DIMBLK2
  1

  9
$DIMSTYLE
  2
AM_JIS
  9
$DIMCLRD
 70
   256
  9
$DIMCLRE
 70
   256
  9
$DIMCLRT
 70
     2
  9
$DIMTFAC
 40
0.71
  9
$DIMGAP
 40
1.5
  9
$DIMJUST
 70
     0
  9
$DIMSD1
 70
     0
  9
$DIMSD2
 70
     0
  9
$DIMTOLJ
 70
     0
  9
$DIMTZIN
 70
     0
  9
$DIMALTZ
 70
     0
  9
$DIMALTTZ
 70
     0
  9
$DIMFIT
 70
     3
  9
$DIMUPT
 70
     0
  9
$DIMUNIT
 70
     2
  9
$DIMDEC
 70
     3
  9
$DIMTDEC
 70
     3
  9
$DIMALTU
 70
     2
  9
$DIMALTTD
 70
     2
  9
$DIMTXSTY
  7
ASAMI
  9
$DIMAUNIT
 70
     0
  9
$LUNITS
 70
     2
  9
$LUPREC
 70
     2
  9
$SKETCHINC
 40
1.0
  9
$FILLETRAD
 40
2.5
  9
$AUNITS
 70
     0
  9
$AUPREC
 70
     0
  9
$MENU
  1
.
  9
$ELEVATION
 40
0.0
  9
$PELEVATION
 40
0.0
  9
$THICKNESS
 40
0.0
  9
$LIMCHECK
 70
     0
  9
$BLIPMODE
 70
     0
  9
$CHAMFERA
 40
2.5
  9
$CHAMFERB
 40
2.5
  9
$CHAMFERC
 40
20.0
  9
$CHAMFERD
 40
0.0
  9
$SKPOLY
 70
     0
  9
$TDCREATE
 40
2452800.443498622
  9
$TDUPDATE
 40
2453151.700504537
  9
$TDINDWG
 40
0.6647539120
  9
$TDUSRTIMER
 40
0.6647539120
  9
$USRTIMER
 70
     1
  9
$ANGBASE
 50
0.0
  9
$ANGDIR
 70
     0
  9
$PDMODE
 70
     0
  9
$PDSIZE
 40
0.0
  9
$PLINEWID
 40
0.0
  9
$COORDS
 70
     1
  9
$SPLFRAME
 70
     0
  9
$SPLINETYPE
 70
     6
  9
$SPLINESEGS
 70
     8
  9
$ATTDIA
 70
     1
  9
$ATTREQ
 70
     1
  9
$HANDLING
 70
 12289
  9
$HANDSEED
  5
5AC6
  9
$SURFTAB1
 70
     6
  9
$SURFTAB2
 70
     6
  9
$SURFTYPE
 70
     6
  9
$SURFU
 70
     6
  9
$SURFV
 70
     6
  9
$UCSNAME
  2

  9
$UCSORG
 10
0.0
 20
-0.0000000000002274
 30
0.0
  9
$UCSXDIR
 10
1.0
 20
0.0000000000000027
 30
0.0
  9
$UCSYDIR
 10
-0.0000000000000027
 20
1.0
 30
0.0
  9
$PUCSNAME
  2

  9
$PUCSORG
 10
0.0
 20
0.0
 30
0.0
  9
$PUCSXDIR
 10
1.0
 20
0.0
 30
0.0
  9
$PUCSYDIR
 10
0.0
 20
1.0
 30
0.0
  9
$USERI1
 70
     0
  9
$USERI2
 70
     0
  9
$USERI3
 70
     0
  9
$USERI4
 70
     0
  9
$USERI5
 70
     0
  9
$USERR1
 40
0.0
  9
$USERR2
 40
0.0
  9
$USERR3
 40
0.0
  9
$USERR4
 40
0.0
  9
$USERR5
 40
0.0
  9
$WORLDVIEW
 70
     1
  9
$SHADEDGE
 70
     3
  9
$SHADEDIF
 70
    70
  9
$TILEMODE
 70
     1
  9
$MAXACTVP
 70
    64
  9
$PINSBASE
 10
0.0
 20
0.0
 30
0.0
  9
$PLIMCHECK
 70
     0
  9
$PEXTMIN
 10
1.000000000000000E+20
 20
1.000000000000000E+20
 30
1.000000000000000E+20
  9
$PEXTMAX
 10
-1.000000000000000E+20
 20
-1.000000000000000E+20
 30
-1.000000000000000E+20
  9
$PLIMMIN
 10
0.0
 20
0.0
  9
$PLIMMAX
 10
841.0
 20
594.0
  9
$UNITMODE
 70
     0
  9
$VISRETAIN
 70
     1
  9
$PLINEGEN
 70
     0
  9
$PSLTSCALE
 70
     0
  9
$TREEDEPTH
 70
  3020
  9
$PICKSTYLE
 70
     0
  9
$CMLSTYLE
  2
STANDARD
  9
$CMLJUST
 70
     0
  9
$CMLSCALE
 40
20.0
  9
$PROXYGRAPHICS
 70
     1
  9
$MEASUREMENT
 70
     1
  0
ENDSEC
  0
SECTION
  2
CLASSES
  0
CLASS
  1
ACDBDICTIONARYWDFLT
  2
AcDbDictionaryWithDefault
  3
AutoCAD 2000
 90
        0
280
     0
281
     0
  0
CLASS
  1
ACDBPLACEHOLDER
  2
AcDbPlaceHolder
  3
AutoCAD 2000
 90
        0
280
     0
281
     0
  0
CLASS
  1
LAYOUT
  2
AcDbLayout
  3
AutoCAD 2000
 90
        0
280
     0
281
     0
  0
CLASS
  1
AMGSETTINGSOBJ
  2
AmgSettingsObj
  3
"AcadM|Product Description: AutoCAD Mechanical 2000|Company: Autodesk"
 90
        0
280
     0
281
     0
  0
CLASS
  1
ACME_DOCUMENT
  2
AcMeDbDoc
  3
AcMeServices
 90
        0
280
     0
281
     0
  0
CLASS
  1
ACMESCOPE
  2
AcMeScope
  3
AcMeServices
 90
        0
280
     0
281
     0
  0
CLASS
  1
ACMECOMMANDHISTORY
  2
AcMeCommandHistory
  3
AcMeServices
 90
        0
280
     0
281
     0
  0
CLASS
  1
DICTIONARYVAR
  2
AcDbDictionaryVar
  3
AutoCAD 2000
 90
        0
280
     0
281
     0
  0
CLASS
  1
ACIMSYSVARMAN
  2
AcImSysVarManager
  3
AcMeServices
 90
        0
280
     0
281
     0
  0
CLASS
  1
ACIMREALSYSVAR
  2
AcImRealSysVar
  3
AcMeServices
 90
        0
280
     0
281
     0
  0
CLASS
  1
ACIMINTSYSVAR
  2
AcImIntSysVar
  3
AcMeServices
 90
        0
280
     0
281
     0
  0
CLASS
  1
ACMEDRAWINGMAN
  2
AcMeDrawingMan
  3
AcMeServices
 90
        0
280
     0
281
     0
  0
CLASS
  1
ACMEVIEW
  2
AcMeView
  3
AcMeServices
 90
        0
280
     0
281
     0
  0
CLASS
  1
ACDBENTITYCACHE
  2
AcMeEntityCache
  3
AcMeServices
 90
        0
280
     0
281
     0
  0
CLASS
  1
GSMANAGER
  2
AcMeGSManager
  3
AcMeServices
 90
        0
280
     0
281
     0
  0
CLASS
  1
AmdtInternalReactor
  2
AmdtInternalReactor
  3
AcMeServices
 90
        0
280
     0
281
     0
  0
CLASS
  1
ACMESTATEMGR
  2
AcMeStateMgr
  3
AcMeServices
 90
        0
280
     0
281
     0
  0
CLASS
  1
ACME_DATABASE
  2
AcMeDbDatabase
  3
AcMeServices
 90
        0
280
     0
281
     0
  0
CLASS
  1
ACRFINSADJUSTERMGR
  2
AcRfInsAdjusterMgr
  3
AcMeServices
 90
        0
280
     0
281
     0
  0
CLASS
  1
ACMDATADICTIONARY
  2
AcmDataDictionary
  3
"AcmSymBB|Product Description: AutoCAD Mechanical 2000|Company: Autodesk"
 90
        0
280
     0
281
     0
  0
CLASS
  1
ACMDATAENTRYBLOCK
  2
AcmDataEntryBlock
  3
"AcmSymBB|Product Description: AutoCAD Mechanical 2000|Company: Autodesk"
 90
        0
280
     0
281
     0
  0
CLASS
  1
AMGOBJPROPCFG
  2
AmgObjPropCfg
  3
"AmgLay|Product Description: AutoCAD Mechanical 2000|Company: Autodesk"
 90
        1
280
     0
281
     0
  0
CLASS
  1
ACAMGFILTERDAT
  2
AcAmgFilterDat
  3
"AcadM|Product Description: AutoCAD Mechanical 2000|Company: Autodesk"
 90
        0
280
     0
281
     0
  0
CLASS
  1
LAYER_INDEX
  2
AcDbLayerIndex
  3
AutoCAD 2000
 90
        0
280
     0
281
     0
  0
CLASS
  1
IDBUFFER
  2
AcDbIdBuffer
  3
AutoCAD 2000
 90
        0
280
     0
281
     0
  0
CLASS
  1
ACIMSTRSYSVAR
  2
AcImStrSysVar
  3
AcMeServices
 90
        0
280
     0
281
     0
  0
CLASS
  1
ACMSTANDARDJIS
  2
AcmStandardJIS
  3
"AcmSymBB|Product Description: AutoCAD Mechanical 2000|Company: Autodesk"
 90
        0
280
     0
281
     0
  0
CLASS
  1
ACMSURFSTANDARDJIS
  2
AcmSurfTextStdJIS
  3
"AcmSymBB|Product Description: AutoCAD Mechanical 2000|Company: Autodesk"
 90
        0
280
     0
281
     0
  0
CLASS
  1
ACMFCFSTANDARDJIS
  2
AcmFCFStdJIS
  3
"AcmSymBB|Product Description: AutoCAD Mechanical 2000|Company: Autodesk"
 90
        0
280
     0
281
     0
  0
CLASS
  1
ACMWELDSTANDARDJIS
  2
AcmWeldingStdJIS
  3
"AcmSymBB|Product Description: AutoCAD Mechanical 2000|Company: Autodesk"
 90
        0
280
     0
281
     0
  0
CLASS
  1
ACMIDSTANDARDJIS
  2
AcmIdStdJIS
  3
"AcmSymBB|Product Description: AutoCAD Mechanical 2000|Company: Autodesk"
 90
        0
280
     0
281
     0
  0
CLASS
  1
ACMDATUMSTANDARDJIS
  2
AcmDatumStdJIS
  3
"AcmSymBB|Product Description: AutoCAD Mechanical 2000|Company: Autodesk"
 90
        0
280
     0
281
     0
  0
CLASS
  1
ACMBOMSTANDARDJIS
  2
AcmBOMStdJIS
  3
"AcmSymBB|Product Description: AutoCAD Mechanical 2000|Company: Autodesk"
 90
        0
280
     0
281
     0
  0
CLASS
  1
ACMSTANDARDANSI
  2
AcmStandardANSI
  3
"AcmSymBB|Product Description: AutoCAD Mechanical 2000|Company: Autodesk"
 90
        0
280
     0
281
     0
  0
CLASS
  1
ACMSURFSTANDARDANSI
  2
AcmSurfTextStdANSI
  3
"AcmSymBB|Product Description: AutoCAD Mechanical 2000|Company: Autodesk"
 90
        0
280
     0
281
     0
  0
CLASS
  1
ACMFCFSTANDARDANSI
  2
AcmFCFStdANSI
  3
"AcmSymBB|Product Description: AutoCAD Mechanical 2000|Company: Autodesk"
 90
        0
280
     0
281
     0
  0
CLASS
  1
ACMWELDSTANDARDANSI
  2
AcmWeldingStdANSI
  3
"AcmSymBB|Product Description: AutoCAD Mechanical 2000|Company: Autodesk"
 90
        0
280
     0
281
     0
  0
CLASS
  1
ACMIDSTANDARDANSI
  2
AcmIdStdANSI
  3
"AcmSymBB|Product Description: AutoCAD Mechanical 2000|Company: Autodesk"
 90
        0
280
     0
281
     0
  0
CLASS
  1
ACMDATUMSTANDARDANSI
  2
AcmDatumStdANSI
  3
"AcmSymBB|Product Description: AutoCAD Mechanical 2000|Company: Autodesk"
 90
        0
280
     0
281
     0
  0
CLASS
  1
ACMBOMSTANDARDANSI
  2
AcmBOMStdANSI
  3
"AcmSymBB|Product Description: AutoCAD Mechanical 2000|Company: Autodesk"
 90
        0
280
     0
281
     0
  0
CLASS
  1
ACMSTANDARDBSI
  2
AcmStandardBSI
  3
"AcmSymBB|Product Description: AutoCAD Mechanical 2000|Company: Autodesk"
 90
        0
280
     0
281
     0
  0
CLASS
  1
ACMSURFSTANDARDBSI
  2
AcmSurfTextStdBSI
  3
"AcmSymBB|Product Description: AutoCAD Mechanical 2000|Company: Autodesk"
 90
        0
280
     0
281
     0
  0
CLASS
  1
ACMFCFSTANDARDBSI
  2
AcmFCFStdBSI
  3
"AcmSymBB|Product Description: AutoCAD Mechanical 2000|Company: Autodesk"
 90
        0
280
     0
281
     0
  0
CLASS
  1
ACMWELDSTANDARDBSI
  2
AcmWeldingStdBSI
  3
"AcmSymBB|Product Description: AutoCAD Mechanical 2000|Company: Autodesk"
 90
        0
280
     0
281
     0
  0
CLASS
  1
ACMIDSTANDARDBSI
  2
AcmIdStdBSI
  3
"AcmSymBB|Product Description: AutoCAD Mechanical 2000|Company: Autodesk"
 90
        0
280
     0
281
     0
  0
CLASS
  1
ACMDATUMSTANDARDBSI
  2
AcmDatumStdBSI
  3
"AcmSymBB|Product Description: AutoCAD Mechanical 2000|Company: Autodesk"
 90
        0
280
     0
281
     0
  0
CLASS
  1
ACMBOMSTANDARDBSI
  2
AcmBOMStdBSI
  3
"AcmSymBB|Product Description: AutoCAD Mechanical 2000|Company: Autodesk"
 90
        0
280
     0
281
     0
  0
CLASS
  1
LONG_TRANSACTION
  2
AcDbLongTransaction
  3
AutoCAD 2000
 90
        0
280
     0
281
     0
  0
CLASS
  1
LWPOLYLINE
  2
AcDbPolyline
  3
AutoCAD 2000
 90
        0
280
     0
281
     1
  0
CLASS
  1
HATCH
  2
AcDbHatch
  3
AutoCAD 2000
 90
        0
280
     0
281
     1
  0
CLASS
  1
XRECORD
  2
AcDbXrecord
  3
AutoCAD 2000
 90
        0
280
     0
281
     0
  0
ENDSEC
  0
SECTION
  2
TABLES
  0
TABLE
  2
VPORT
  5
8
330
0
100
AcDbSymbolTable
 70
     3
  0
VPORT
  5
5A9B
330
8
100
AcDbSymbolTableRecord
100
AcDbViewportTableRecord
  2
*ACTIVE
 70
     0
 10
0.0
 20
0.0
 11
1.0
 21
1.0
 12
-67.86148221040363
 22
3.539951012629359
 13
0.0
 23
0.0
 14
2.5
 24
2.5
 15
10.0
 25
10.0
 16
0.0
 26
0.0
 36
1.0
 17
0.0
 27
0.0
 37
0.0
 40
213.1232054107529
 41
1.56570841889117
 42
50.0
 43
0.0
 44
0.0
 50
0.0
 51
0.0
 71
     0
 72
   100
 73
     1
 74
     1
 75
     0
 76
     0
 77
     0
 78
     0
  0
ENDTAB
  0
TABLE
  2
LTYPE
  5
5
330
0
100
AcDbSymbolTable
 70
    10
  0
LTYPE
  5
14
330
5
100
AcDbSymbolTableRecord
100
AcDbLinetypeTableRecord
  2
BYBLOCK
 70
     0
  3

 72
    65
 73
     0
 40
0.0
  0
LTYPE
  5
15
330
5
100
AcDbSymbolTableRecord
100
AcDbLinetypeTableRecord
  2
BYLAYER
 70
     0
  3

 72
    65
 73
     0
 40
0.0
  0
LTYPE
  5
16
330
5
100
AcDbSymbolTableRecord
100
AcDbLinetypeTableRecord
  2
CONTINUOUS
 70
     0
  3
Solid line
 72
    65
 73
     0
 40
0.0
  0
LTYPE
  5
4B
330
5
100
AcDbSymbolTableRecord
100
AcDbLinetypeTableRecord
  2
AM_ISO02W050
 70
     0
  3
__ __ __ __ __ __ __ __ __ __ __ __ __ __ __
 72
    65
 73
     2
 40
7.5
 49
6.0
 74
     0
 49
-1.5
 74
     0
  0
LTYPE
  5
4C
330
5
100
AcDbSymbolTableRecord
100
AcDbLinetypeTableRecord
  2
AM_ISO08W050
 70
     0
  3
____ . ____ . ____ . ____ . ____ . ____ . ____
 72
    65
 73
     4
 40
18.0
 49
12.0
 74
     0
 49
-1.5
 74
     0
 49
3.0
 74
     0
 49
-1.5
 74
     0
  0
LTYPE
  5
4D
330
5
100
AcDbSymbolTableRecord
100
AcDbLinetypeTableRecord
  2
AM_ISO09W050
 70
     0
  3
_____ . . _____ . . _____ . . ____ .. ____
 72
    65
 73
     6
 40
22.5
 49
12.0
 74
     0
 49
-1.5
 74
     0
 49
3.0
 74
     0
 49
-1.5
 74
     0
 49
3.0
 74
     0
 49
-1.5
 74
     0
  0
LTYPE
  5
4E
330
5
100
AcDbSymbolTableRecord
100
AcDbLinetypeTableRecord
  2
AMCONSTR
 70
     0
  3
_______________________
 72
    65
 73
     2
 40
9999.0
 49
9999.0
 74
     0
 49
0.0
 74
     0
  0
LTYPE
  5
4F
330
5
100
AcDbSymbolTableRecord
100
AcDbLinetypeTableRecord
  2
AM_ISO02W050X2
 70
     0
  3
 _ _ _ _ _ _ _ _ _ _ _ _
 72
    65
 73
     2
 40
3.75
 49
3.0
 74
     0
 49
-0.75
 74
     0
  0
LTYPE
  5
50
330
5
100
AcDbSymbolTableRecord
100
AcDbLinetypeTableRecord
  2
AM_ISO08W050X2
 70
     0
  3
__ . __ . __ . __ . __ . __
 72
    65
 73
     4
 40
9.0
 49
6.0
 74
     0
 49
-0.75
 74
     0
 49
1.5
 74
     0
 49
-0.75
 74
     0
  0
LTYPE
  5
53
330
5
100
AcDbSymbolTableRecord
100
AcDbLinetypeTableRecord
  2
AMZIGZAG
 70
     0
  3
/\/-/\/-/\/-/\/-/\/-/\/
 72
    65
 73
     2
 40
11.00009999999999
 49
0.0001
 74
     4
 75
   135
340
52
 46
0.04
 50
0.0
 44
0.0
 45
0.0
 49
-11.0
 74
     0
  0
LTYPE
  5
166
330
5
100
AcDbSymbolTableRecord
100
AcDbLinetypeTableRecord
  2
ACJISTGL
 70
     0
  3
_ _ _ _ _
 72
    65
 73
     2
 40
3.0
 49
2.0
 74
     0
 49
-1.0
 74
     0
  0
LTYPE
  5
26A
330
5
100
AcDbSymbolTableRecord
100
AcDbLinetypeTableRecord
  2
ACJISTGB
 70
     0
  3
__ . . __ . .
 72
    65
 73
     6
 40
9.0
 49
4.0
 74
     0
 49
-1.0
 74
     0
 49
1.0
 74
     0
 49
-1.0
 74
     0
 49
1.0
 74
     0
 49
-1.0
 74
     0
  0
ENDTAB
  0
TABLE
  2
LAYER
  5
2
330
0
100
AcDbSymbolTable
 70
    11
  0
LAYER
  5
10
330
2
100
AcDbSymbolTableRecord
100
AcDbLayerTableRecord
  2
0
 70
     0
 62
     7
  6
CONTINUOUS
  0
LAYER
  5
3F9
330
2
100
AcDbSymbolTableRecord
100
AcDbLayerTableRecord
  2
AM_0
 70
     0
 62
     7
  6
CONTINUOUS
  0
LAYER
  5
BA4
330
2
100
AcDbSymbolTableRecord
100
AcDbLayerTableRecord
  2
PV0001_1
 70
     0
 62
     7
  6
CONTINUOUS
  0
LAYER
  5
C6C
330
2
100
AcDbSymbolTableRecord
100
AcDbLayerTableRecord
  2
AM_CL
 70
     0
 62
     1
  6
AMCONSTR
  0
LAYER
  5
C7C
330
2
100
AcDbSymbolTableRecord
100
AcDbLayerTableRecord
  2
AM_7
 70
     0
 62
     4
  6
AM_ISO08W050
  0
LAYER
  5
C97
330
2
100
AcDbSymbolTableRecord
100
AcDbLayerTableRecord
  2
AM_11
 70
     0
 62
     3
  6
AM_ISO09W050
  0
LAYER
  5
CC5
330
2
100
AcDbSymbolTableRecord
100
AcDbLayerTableRecord
  2
AM_5
 70
     0
 62
     3
  6
CONTINUOUS
  0
LAYER
  5
CC7
330
2
100
AcDbSymbolTableRecord
100
AcDbLayerTableRecord
  2
DEFPOINTS
 70
     0
 62
     7
  6
CONTINUOUS
  0
LAYER
  5
19BC
330
2
100
AcDbSymbolTableRecord
100
AcDbLayerTableRecord
  2
AM_6
 70
     0
 62
     2
  6
CONTINUOUS
  0
LAYER
  5
1F8E
330
2
100
AcDbSymbolTableRecord
100
AcDbLayerTableRecord
  2
AM_4
 70
     0
 62
     3
  6
CONTINUOUS
  0
LAYER
  5
3588
330
2
100
AcDbSymbolTableRecord
100
AcDbLayerTableRecord
  2
AM_3
 70
     0
 62
     6
  6
ACJISTGL
  0
ENDTAB
  0
TABLE
  2
STYLE
  5
3
330
0
100
AcDbSymbolTable
 70
     5
  0
STYLE
  5
11
330
3
100
AcDbSymbolTableRecord
100
AcDbTextStyleTableRecord
  2
STANDARD
 70
     0
 40
0.0
 41
1.0
 50
0.0
 71
     0
 42
2.5
  3
simplex.shx
  4
EXTFONT.SHX
  0
STYLE
  5
52
330
3
100
AcDbSymbolTableRecord
100
AcDbTextStyleTableRecord
  2

 70
     1
 40
0.0
 41
1.0
 50
0.0
 71
     0
 42
2.5
  3
ltypeshp.shx
  4

  0
STYLE
  5
6B
330
3
100
AcDbSymbolTableRecord
100
AcDbTextStyleTableRecord
  2
ASAMI
 70
     0
 40
0.0
 41
1.0
 50
0.0
 71
     0
 42
2.5
  3
simplex.shx
  4
EXTFONT.SHX
  0
STYLE
  5
262
330
3
100
AcDbSymbolTableRecord
100
AcDbTextStyleTableRecord
  2
ACJISTS
 70
     0
 40
1.0
 41
1.0
 50
0.0
 71
     0
 42
2.5
  3
simplex.shx
  4
bigfont.shx
  0
STYLE
  5
269
330
3
100
AcDbSymbolTableRecord
100
AcDbTextStyleTableRecord
  2
ACJISGDT
 70
     0
 40
0.0
 41
1.0
 50
0.0
 71
     0
 42
2.5
  3
amgdtans.shx
  4

  0
ENDTAB
  0
TABLE
  2
VIEW
  5
6
330
0
100
AcDbSymbolTable
 70
     0
  0
ENDTAB
  0
TABLE
  2
UCS
  5
7
330
0
100
AcDbSymbolTable
 70
     0
  0
ENDTAB
  0
TABLE
  2
APPID
  5
9
330
0
100
AcDbSymbolTable
 70
    14
  0
APPID
  5
12
330
9
100
AcDbSymbolTableRecord
100
AcDbRegAppTableRecord
  2
ACAD
 70
     0
  0
APPID
  5
30
330
9
100
AcDbSymbolTableRecord
100
AcDbRegAppTableRecord
  2
MCAD_NO_VIS
 70
     0
  0
APPID
  5
31
330
9
100
AcDbSymbolTableRecord
100
AcDbRegAppTableRecord
  2
ACAD_TEMP_GRAPHIC
 70
     0
  0
APPID
  5
2C2
330
9
100
AcDbSymbolTableRecord
100
AcDbRegAppTableRecord
  2
GENIUS_GENDTOL_13
 70
     0
  0
APPID
  5
339
330
9
100
AcDbSymbolTableRecord
100
AcDbRegAppTableRecord
  2
GENIUS_GENODEF_13
 70
     0
  0
APPID
  5
33A
330
9
100
AcDbSymbolTableRecord
100
AcDbRegAppTableRecord
  2
GENIUS_GENOBJ-N-RSBK_13
 70
     0
  0
APPID
  5
33B
330
9
100
AcDbSymbolTableRecord
100
AcDbRegAppTableRecord
  2
GENIUS_GENOBJ-N-LIB_13
 70
     0
  0
APPID
  5
33C
330
9
100
AcDbSymbolTableRecord
100
AcDbRegAppTableRecord
  2
GENIUS_GENSCALE_13
 70
     0
  0
APPID
  5
378
330
9
100
AcDbSymbolTableRecord
100
AcDbRegAppTableRecord
  2
GENIUS_GENDIMSH_14
 70
     0
  0
APPID
  5
C82
330
9
100
AcDbSymbolTableRecord
100
AcDbRegAppTableRecord
  2
GENIUS_GENOBJ-N-CRS_13
 70
     0
  0
APPID
  5
C83
330
9
100
AcDbSymbolTableRecord
100
AcDbRegAppTableRecord
  2
GENIUS_GENOENT_13
 70
     0
  0
APPID
  5
C84
330
9
100
AcDbSymbolTableRecord
100
AcDbRegAppTableRecord
  2
GENIUS_GENOREF_13
 70
     0
  0
APPID
  5
C85
330
9
100
AcDbSymbolTableRecord
100
AcDbRegAppTableRecord
  2
GENIUS_GENOLIS_13
 70
     0
  0
APPID
  5
CA0
330
9
100
AcDbSymbolTableRecord
100
AcDbRegAppTableRecord
  2
GENIUS_GENOBJ-N-CEN_13
 70
     0
  0
ENDTAB
  0
TABLE
  2
DIMSTYLE
  5
A
330
0
100
AcDbSymbolTable
 70
    10
  0
DIMSTYLE
105
58
330
A
100
AcDbSymbolTableRecord
100
AcDbDimStyleTableRecord
  2
AM_JIS
 70
     0
  3

  4
"
  5
OPEN30
  6

  7

 40
1.0
 41
2.5
 42
1.0
 43
12.0
 44
1.0
 45
0.0
 46
0.0
 47
0.1
 48
0.1
140
3.2
141
0.0
142
0.0
143
0.0393701
144
1.0
145
0.0
146
0.71
147
1.5
 71
     0
 72
     0
 73
     0
 74
     0
 75
     0
 76
     0
 77
     3
 78
     8
170
     0
171
     2
172
     1
173
     0
174
     0
175
     0
176
   256
177
   256
178
     2
270
     2
271
     3
272
     3
273
     2
274
     2
340
6B
275
     0
280
     0
281
     0
282
     0
283
     0
284
     0
285
     0
286
     0
287
     3
288
     0
  0
DIMSTYLE
105
5F
330
A
100
AcDbSymbolTableRecord
100
AcDbDimStyleTableRecord
  2
AM_JIS$3
 70
     0
  3

  4
"
  5
OPEN30
  6

  7

 40
1.0
 41
2.5
 42
1.0
 43
10.0
 44
1.0
 45
0.0
 46
0.0
 47
0.1
 48
0.1
140
3.2
141
0.0
142
0.0
143
0.0393701
144
1.0
145
0.0
146
0.71
147
1.5
 71
     0
 72
     0
 73
     0
 74
     1
 75
     0
 76
     0
 77
     3
 78
     8
170
     0
171
     2
172
     0
173
     0
174
     0
175
     0
176
   256
177
   256
178
     2
270
     2
271
     2
272
     3
273
     2
274
     2
340
6B
275
     0
280
     0
281
     0
282
     0
283
     0
284
     0
285
     0
286
     0
287
     0
288
     1
  0
DIMSTYLE
105
60
330
A
100
AcDbSymbolTableRecord
100
AcDbDimStyleTableRecord
  2
AM_JIS$4
 70
     0
  3

  4
"
  5
OPEN30
  6

  7

 40
1.0
 41
2.5
 42
1.0
 43
10.0
 44
1.0
 45
0.0
 46
0.0
 47
0.1
 48
0.1
140
3.2
141
0.0
142
0.0
143
0.0393701
144
1.0
145
0.0
146
0.71
147
1.5
 71
     0
 72
     0
 73
     0
 74
     1
 75
     0
 76
     0
 77
     3
 78
     8
170
     0
171
     2
172
     0
173
     0
174
     0
175
     0
176
   256
177
   256
178
     2
270
     2
271
     2
272
     3
273
     2
274
     2
340
6B
275
     0
280
     0
281
     0
282
     0
283
     0
284
     0
285
     0
286
     0
287
     0
288
     1
  0
DIMSTYLE
105
61
330
A
100
AcDbSymbolTableRecord
100
AcDbDimStyleTableRecord
  2
AM_JIS$6
 70
     0
  3

  4
"
  5
OPEN30
  6

  7

 40
1.0
 41
2.5
 42
1.0
 43
10.0
 44
1.0
 45
0.0
 46
0.0
 47
0.1
 48
0.1
140
3.2
141
0.0
142
0.0
143
0.0393701
144
1.0
145
0.0
146
0.71
147
1.5
 71
     0
 72
     0
 73
     0
 74
     0
 75
     0
 76
     0
 77
     0
 78
     8
170
     0
171
     2
172
     1
173
     0
174
     0
175
     0
176
   256
177
   256
178
     2
270
     2
271
     2
272
     2
273
     2
274
     2
340
6B
275
     0
280
     0
281
     0
282
     0
283
     0
284
     0
285
     0
286
     0
287
     3
288
     0
  0
DIMSTYLE
105
62
330
A
100
AcDbSymbolTableRecord
100
AcDbDimStyleTableRecord
  2
AM_JIS$7
 70
     0
  3

  4
"
  5
OPEN30
  6

  7

 40
1.0
 41
2.5
 42
1.0
 43
10.0
 44
1.0
 45
0.0
 46
0.0
 47
0.1
 48
0.1
140
3.2
141
0.0
142
0.0
143
0.0393701
144
1.0
145
0.0
146
0.71
147
1.5
 71
     0
 72
     0
 73
     0
 74
     0
 75
     0
 76
     0
 77
     3
 78
     8
170
     0
171
     2
172
     1
173
     0
174
     0
175
     0
176
   256
177
   256
178
     2
270
     2
271
     2
272
     3
273
     2
274
     2
340
6B
275
     0
280
     0
281
     0
282
     0
283
     0
284
     0
285
     0
286
     0
287
     3
288
     0
  0
DIMSTYLE
105
63
330
A
100
AcDbSymbolTableRecord
100
AcDbDimStyleTableRecord
  2
AM_JIS$SF
 70
     0
  3

  4
"
  5
OPEN30
  6

  7

 40
1.0
 41
2.5
 42
1.0
 43
10.0
 44
1.0
 45
0.0
 46
0.0
 47
0.1
 48
0.1
140
3.2
141
0.0
142
0.0
143
0.0393701
144
1.0
145
0.0
146
0.71
147
1.5
 71
     0
 72
     0
 73
     0
 74
     0
 75
     1
 76
     1
 77
     3
 78
     8
170
     0
171
     2
172
     1
173
     0
174
     0
175
     0
176
   256
177
   256
178
     2
270
     2
271
     2
272
     2
273
     2
274
     2
340
6B
275
     0
280
     0
281
     0
282
     0
283
     0
284
     0
285
     0
286
     0
287
     3
288
     0
  0
DIMSTYLE
105
68
330
A
100
AcDbSymbolTableRecord
100
AcDbDimStyleTableRecord
  2
AM_JIS$SH
 70
     0
  3

  4
"
  5

  6
GENAXEH
  7
OPEN30
 40
1.0
 41
2.5
 42
1.0
 43
10.0
 44
1.0
 45
0.0
 46
0.0
 47
0.1
 48
0.1
140
3.2
141
0.0
142
0.0
143
0.0393701
144
2.0
145
0.0
146
0.71
147
1.5
 71
     0
 72
     0
 73
     0
 74
     0
 75
     1
 76
     1
 77
     3
 78
     8
170
     0
171
     2
172
     1
173
     1
174
     0
175
     0
176
   256
177
   256
178
     2
270
     2
271
     2
272
     2
273
     2
274
     2
340
6B
275
     0
280
     0
281
     0
282
     0
283
     0
284
     0
285
     0
286
     0
287
     3
288
     0
  0
DIMSTYLE
105
B34
102
{ACAD_REACTORS
330
36BA
102
}
330
A
100
AcDbSymbolTableRecord
100
AcDbDimStyleTableRecord
  2
AM_JIS$2
 70
     0
  3

  4
"
  5
OPEN30
  6

  7

 40
1.0
 41
2.5
 42
1.0
 43
12.0
 44
1.0
 45
0.0
 46
0.0
 47
0.1
 48
0.1
140
3.2
141
0.0
142
0.0
143
0.0393701
144
1.0
145
0.0
146
0.71
147
1.5
 71
     0
 72
     0
 73
     0
 74
     0
 75
     0
 76
     0
 77
     3
 78
     8
170
     0
171
     2
172
     1
173
     0
174
     0
175
     0
176
   256
177
   256
178
     2
270
     2
271
     3
272
     3
273
     2
274
     2
340
6B
275
     0
280
     0
281
     0
282
     0
283
     0
284
     0
285
     0
286
     0
287
     3
288
     0
  0
DIMSTYLE
105
BA5
102
{ACAD_REACTORS
330
3866
330
3C40
330
3D56
330
3DFD
330
53D8
330
53E5
330
53FF
330
53F2
330
5939
102
}
330
A
100
AcDbSymbolTableRecord
100
AcDbDimStyleTableRecord
  2
AM_JIS$0
 70
     0
  3

  4
"
  5
OPEN30
  6

  7

 40
1.0
 41
2.5
 42
0.8
 43
10.0
 44
1.0
 45
0.0
 46
0.0
 47
0.1
 48
0.1000000001
140
3.799999999999999
141
0.0
142
0.0
143
0.0393701
144
1.0
145
0.0
146
0.71
147
1.5
 71
     0
 72
     0
 73
     0
 74
     0
 75
     0
 76
     0
 77
     3
 78
     9
170
     0
171
     2
172
     1
173
     0
174
     0
175
     0
176
     3
177
     3
178
     2
270
     2
271
     2
272
     2
273
     2
274
     2
340
11
275
     1
280
     0
281
     0
282
     0
283
     0
284
     8
285
     0
286
     0
287
     0
288
     0
  0
DIMSTYLE
105
BA6
330
A
100
AcDbSymbolTableRecord
100
AcDbDimStyleTableRecord
  2
AM_JISORG-1P0$2
 70
     0
  3

  4
"
  5
OPEN30
  6

  7

 40
1.0
 41
2.5
 42
0.0
 43
10.0
 44
1.0
 45
0.0
 46
0.0
 47
0.1
 48
0.1000000001
140
3.799999999999999
141
0.0
142
0.0
143
0.0393701
144
-0.999999980146674
145
0.0
146
0.71
147
1.5
 71
     0
 72
     0
 73
     0
 74
     0
 75
     0
 76
     0
 77
     3
 78
     1
170
     0
171
     2
172
     1
173
     0
174
     0
175
     0
176
     3
177
     3
178
     2
270
     2
271
     2
272
     2
273
     2
274
     2
340
11
275
     1
280
     0
281
     0
282
     0
283
     0
284
     8
285
     0
286
     0
287
     0
288
     0
  0
ENDTAB
  0
TABLE
  2
BLOCK_RECORD
  5
1
330
0
100
AcDbSymbolTable
 70
    18
  0
BLOCK_RECORD
  5
1F
102
{ACAD_XDICTIONARY
360
74
102
}
330
1
100
AcDbSymbolTableRecord
100
AcDbBlockTableRecord
  2
*MODEL_SPACE
  0
BLOCK_RECORD
  5
101
102
{ACAD_XDICTIONARY
360
5AC4
102
}
330
1
100
AcDbSymbolTableRecord
100
AcDbBlockTableRecord
  2
*PAPER_SPACE
  0
BLOCK_RECORD
  5
59
330
1
100
AcDbSymbolTableRecord
100
AcDbBlockTableRecord
  2
_OPEN30
  0
BLOCK_RECORD
  5
64
330
1
100
AcDbSymbolTableRecord
100
AcDbBlockTableRecord
  2
GENAXEH
  0
BLOCK_RECORD
  5
C31
330
1
100
AcDbSymbolTableRecord
100
AcDbBlockTableRecord
  2
A$C36D02A34
  0
BLOCK_RECORD
  5
2453
330
1
100
AcDbSymbolTableRecord
100
AcDbBlockTableRecord
  2
*D6
  0
BLOCK_RECORD
  5
245F
330
1
100
AcDbSymbolTableRecord
100
AcDbBlockTableRecord
  2
A$C4FFC6CC0
  0
BLOCK_RECORD
  5
36BB
330
1
100
AcDbSymbolTableRecord
100
AcDbBlockTableRecord
  2
*D8
  0
BLOCK_RECORD
  5
3867
330
1
100
AcDbSymbolTableRecord
100
AcDbBlockTableRecord
  2
*D9
  0
BLOCK_RECORD
  5
3C41
330
1
100
AcDbSymbolTableRecord
100
AcDbBlockTableRecord
  2
*D10
  0
BLOCK_RECORD
  5
3D57
330
1
100
AcDbSymbolTableRecord
100
AcDbBlockTableRecord
  2
*D11
  0
BLOCK_RECORD
  5
3DFE
330
1
100
AcDbSymbolTableRecord
100
AcDbBlockTableRecord
  2
*D12
  0
BLOCK_RECORD
  5
53D9
330
1
100
AcDbSymbolTableRecord
100
AcDbBlockTableRecord
  2
*D13
  0
BLOCK_RECORD
  5
53E6
330
1
100
AcDbSymbolTableRecord
100
AcDbBlockTableRecord
  2
*D14
  0
BLOCK_RECORD
  5
53F3
330
1
100
AcDbSymbolTableRecord
100
AcDbBlockTableRecord
  2
*D15
  0
BLOCK_RECORD
  5
5400
330
1
100
AcDbSymbolTableRecord
100
AcDbBlockTableRecord
  2
*D16
  0
BLOCK_RECORD
  5
593A
330
1
100
AcDbSymbolTableRecord
100
AcDbBlockTableRecord
  2
*D17
  0
ENDTAB
  0
ENDSEC
  0
SECTION
  2
BLOCKS
  0
BLOCK
  5
20
330
1F
100
AcDbEntity
  8
0
100
AcDbBlockBegin
  2
*MODEL_SPACE
 70
     0
 10
0.0
 20
0.0
 30
0.0
  3
*MODEL_SPACE
  1

  0
ENDBLK
  5
21
330
1F
100
AcDbEntity
  8
0
100
AcDbBlockEnd
  0
BLOCK
  5
103
330
101
100
AcDbEntity
 67
     1
  8
0
100
AcDbBlockBegin
  2
*PAPER_SPACE
 70
     0
 10
0.0
 20
0.0
 30
0.0
  3
*PAPER_SPACE
  1

  0
ENDBLK
  5
104
330
101
100
AcDbEntity
 67
     1
  8
0
100
AcDbBlockEnd
  0
BLOCK
  5
5D
330
59
100
AcDbEntity
  8
0
100
AcDbBlockBegin
  2
_OPEN30
 70
     0
 10
0.0
 20
0.0
 30
0.0
  3
_OPEN30
  1

  0
LINE
  5
5A
330
59
100
AcDbEntity
  8
0
 62
     0
100
AcDbLine
 10
-1.0
 20
0.26794919
 30
0.0
 11
0.0
 21
0.0
 31
0.0
  0
LINE
  5
5B
330
59
100
AcDbEntity
  8
0
 62
     0
100
AcDbLine
 10
0.0
 20
0.0
 30
0.0
 11
-1.0
 21
-0.26794919
 31
0.0
  0
LINE
  5
5C
330
59
100
AcDbEntity
  8
0
 62
     0
100
AcDbLine
 10
0.0
 20
0.0
 30
0.0
 11
-1.0
 21
0.0
 31
0.0
  0
ENDBLK
  5
5E
330
59
100
AcDbEntity
  8
0
100
AcDbBlockEnd
  0
BLOCK
  5
66
330
64
100
AcDbEntity
  8
0
100
AcDbBlockBegin
  2
GENAXEH
 70
     0
 10
0.0
 20
0.0
 30
0.0
  3
GENAXEH
  1

  0
LINE
  5
65
330
64
100
AcDbEntity
  8
0
100
AcDbLine
 10
-1.0
 20
0.0
 30
0.0
 11
1.0
 21
0.0
 31
0.0
  0
ENDBLK
  5
67
330
64
100
AcDbEntity
  8
0
100
AcDbBlockEnd
  0
BLOCK
  5
C4B
330
C31
100
AcDbEntity
  8
0
100
AcDbBlockBegin
  2
A$C36D02A34
 70
     0
 10
0.0
 20
0.0
 30
0.0
  3
A$C36D02A34
  1

  0
ARC
  5
C32
330
C31
100
AcDbEntity
  8
PV0001_1
  6
CONTINUOUS
 48
0.5
100
AcDbCircle
 10
18.06811523436999
 20
-11.83651161193799
 30
0.0
 40
21.600000381469
100
AcDbArc
 50
123.2290435713209
 51
126.6341524197568
  0
ARC
  5
C33
330
C31
100
AcDbEntity
  8
PV0001_1
  6
CONTINUOUS
 48
0.5
100
AcDbCircle
 10
18.06811523436999
 20
-11.83651161193799
 30
0.0
 40
21.600000381469
100
AcDbArc
 50
135.0736707620117
 51
146.7709980930592
  0
ARC
  5
C34
330
C31
100
AcDbEntity
  8
PV0001_1
  6
CONTINUOUS
 48
0.5
100
AcDbCircle
 10
-18.0680770874
 20
11.8365631103514
 30
0.0
 40
21.600000381469
100
AcDbArc
 50
315.0734847530392
 51
326.770781348241
  0
ARC
  5
C35
330
C31
100
AcDbEntity
  8
PV0001_1
  6
CONTINUOUS
 48
0.5
100
AcDbCircle
 10
-18.0680770874
 20
11.8365631103514
 30
0.0
 40
21.600000381469
100
AcDbArc
 50
303.2288882981993
 51
306.633986901359
  0
ARC
  5
C36
330
C31
100
AcDbEntity
  8
PV0001_1
  6
CONTINUOUS
 48
0.5
100
AcDbCircle
 10
-0.6269836425800009
 20
-2.044216156005997
 30
0.0
 40
2.0
100
AcDbArc
 50
337.4067997351092
 51
43.42231293132884
  0
ARC
  5
C37
330
C31
100
AcDbEntity
  8
PV0001_1
  6
CONTINUOUS
 48
0.5
100
AcDbCircle
 10
0.626953125
 20
2.044223785401001
 30
0.0
 40
2.0
100
AcDbArc
 50
157.4068184044407
 51
223.4222769591536
  0
CIRCLE
  5
C38
330
C31
100
AcDbEntity
  8
PV0001_1
  6
CONTINUOUS
 48
0.5
100
AcDbCircle
 10
3.856727600100001
 20
4.596265792847002
 30
0.0
 40
1.6000000238419
  0
CIRCLE
  5
C39
330
C31
100
AcDbEntity
  8
PV0001_1
  6
CONTINUOUS
 48
0.5
100
AcDbCircle
 10
-3.856727600100001
 20
-4.596265792845997
 30
0.0
 40
1.6000000238419
  0
ARC
  5
C3A
330
C31
100
AcDbEntity
  8
PV0001_1
  6
CONTINUOUS
 48
0.5
100
AcDbCircle
 10
-5.58123779297
 20
5.092639923096001
 30
0.0
 40
5.019082546234099
100
AcDbArc
 50
240.2658959250867
 51
321.5156269706421
  0
ARC
  5
C3B
330
C31
100
AcDbEntity
  8
PV0001_1
  6
CONTINUOUS
 48
0.5
100
AcDbCircle
 10
5.486755371089998
 20
-4.601703643798998
 30
0.0
 40
4.651036739349399
100
AcDbArc
 50
56.25271400417071
 51
145.528859890601
  0
ARC
  5
C3C
330
C31
100
AcDbEntity
  8
PV0001_1
  6
CONTINUOUS
 48
0.5
100
AcDbCircle
 10
-2.11590576172
 20
-3.453323364257997
 30
0.0
 40
4.050000190734899
100
AcDbArc
 50
43.42230610113921
 51
58.50391703385149
  0
ARC
  5
C3D
330
C31
100
AcDbEntity
  8
PV0001_1
  6
CONTINUOUS
 48
0.5
100
AcDbCircle
 10
2.115875244139999
 20
3.453330993653001
 30
0.0
 40
4.050000190734899
100
AcDbArc
 50
223.4222942619974
 51
238.5038164022482
  0
ARC
  5
C3E
330
C31
100
AcDbEntity
  8
PV0001_1
  6
CONTINUOUS
 48
0.5
100
AcDbCircle
 10
-6.70369720459
 20
5.094657897949002
 30
0.0
 40
5.940000057220499
100
AcDbArc
 50
328.2536768887549
 51
31.74641873389623
  0
ARC
  5
C3F
330
C31
100
AcDbEntity
  8
PV0001_1
  6
CONTINUOUS
 48
0.5
100
AcDbCircle
 10
6.703674316410001
 20
-5.094650268553998
 30
0.0
 40
5.940000057220499
100
AcDbArc
 50
148.2533403882529
 51
211.7466423089037
  0
ARC
  5
C40
330
C31
100
AcDbEntity
  8
PV0001_1
  6
CONTINUOUS
 48
0.5
100
AcDbCircle
 10
0.0
 20
0.0
 30
0.0
 40
8.812800407409699
100
AcDbArc
 50
175.2198288164333
 51
272.8622597568298
  0
ARC
  5
C41
330
C31
100
AcDbEntity
  8
PV0001_1
  6
CONTINUOUS
 48
0.5
100
AcDbCircle
 10
0.0
 20
0.0
 30
0.0
 40
9.1800003051758
100
AcDbArc
 50
272.7511362215027
 51
280.3697477877874
  0
ARC
  5
C42
330
C31
100
AcDbEntity
  8
PV0001_1
  6
CONTINUOUS
 48
0.5
100
AcDbCircle
 10
0.0
 20
0.0
 30
0.0
 40
8.812800407409699
100
AcDbArc
 50
355.2198199654955
 51
92.86229572901076
  0
ARC
  5
C43
330
C31
100
AcDbEntity
  8
PV0001_1
  6
CONTINUOUS
 48
0.5
100
AcDbCircle
 10
0.0
 20
0.0
 30
0.0
 40
9.1800003051758
100
AcDbArc
 50
92.75115489083434
 51
100.3697664571193
  0
CIRCLE
  5
C44
330
C31
100
AcDbEntity
  8
PV0001_1
  6
CONTINUOUS
100
AcDbCircle
 10
0.0
 20
0.0
 30
0.0
 40
9.1800003051758
  0
LINE
  5
C45
330
C31
100
AcDbEntity
  8
PV0001_1
  6
CONTINUOUS
 48
0.5
100
AcDbLine
 10
-1.652404785160001
 20
9.030059814453
 30
0.0
 11
-1.652404785160001
 21
8.220062255860002
 31
0.0
  0
LINE
  5
C46
330
C31
100
AcDbEntity
  8
PV0001_1
  6
CONTINUOUS
 48
0.5
100
AcDbLine
 10
1.652404785160001
 20
-8.220058441161999
 30
0.0
 11
1.652404785160001
 21
-9.030055999755997
 31
0.0
  0
LINE
  5
C47
330
C31
100
AcDbEntity
  8
PV0001_1
  6
CONTINUOUS
 48
0.5
100
AcDbLine
 10
-8.78217315674
 20
0.7343807220460015
 30
0.0
 11
-8.070594787600001
 21
0.7343997955320028
 31
0.0
  0
LINE
  5
C48
330
C31
100
AcDbEntity
  8
PV0001_1
  6
CONTINUOUS
 48
0.5
100
AcDbLine
 10
8.07057952881
 20
-0.7343864440919994
 30
0.0
 11
8.78215789795
 21
-0.7343654632569994
 31
0.0
  0
LINE
  5
C49
330
C31
100
AcDbEntity
  8
PV0001_1
  6
CONTINUOUS
 48
0.5
100
AcDbLine
 10
0.4406127929700006
 20
-9.169414520263
 30
0.0
 11
0.4406127929700006
 21
-8.812801361083998
 31
0.0
  0
LINE
  5
C4A
330
C31
100
AcDbEntity
  8
PV0001_1
  6
CONTINUOUS
 48
0.5
100
AcDbLine
 10
-0.4406127929700006
 20
9.169418334961001
 30
0.0
 11
-0.4406127929700006
 21
8.812805175781001
 31
0.0
  0
ENDBLK
  5
C4C
330
C31
100
AcDbEntity
  8
0
100
AcDbBlockEnd
  0
BLOCK
  5
245D
330
2453
100
AcDbEntity
  8
0
100
AcDbBlockBegin
  2
*D6
 70
     1
 10
0.0
 20
0.0
 30
0.0
  3
*D6
  1

  0
LINE
  5
2454
330
2453
100
AcDbEntity
  8
AM_5
 62
     3
100
AcDbLine
 10
-137.574381722344
 20
-5.00000294019065
 30
0.0
 11
-152.8199008769066
 21
-5.000002940190694
 31
0.0
  0
LINE
  5
2455
330
2453
100
AcDbEntity
  8
AM_5
 62
     3
100
AcDbLine
 10
-137.5743817223442
 20
5.00002461040103
 30
0.0
 11
-152.8199008769066
 21
5.000024610400987
 31
0.0
  0
LINE
  5
2456
330
2453
100
AcDbEntity
  8
AM_5
 62
     3
100
AcDbLine
 10
-151.8199008769066
 20
-2.500002940190691
 30
0.0
 11
-151.8199008769066
 21
2.50002461040099
 31
0.0
  0
INSERT
  5
2457
330
2453
100
AcDbEntity
  8
AM_5
 62
     3
100
AcDbBlockReference
  2
_OPEN30
 10
-151.8199008769066
 20
-5.00000294019069
 30
0.0
 41
2.5
 42
2.5
 43
2.5
 50
270.0000000000001
  0
INSERT
  5
2458
330
2453
100
AcDbEntity
  8
AM_5
 62
     3
100
AcDbBlockReference
  2
_OPEN30
 10
-151.8199008769066
 20
5.00002461040099
 30
0.0
 41
2.5
 42
2.5
 43
2.5
 50
90.00000000000015
  0
MTEXT
  5
2459
330
2453
100
AcDbEntity
  8
AM_5
 62
     2
100
AcDbMText
 10
-155.2199008769066
 20
0.000010835105146
 30
0.0
 40
3.799999999999999
 41
0.0
 71
     5
 72
     1
  1
%%c10
 11
-0.0000000000000028
 21
1.0
 31
0.0
1001
ACAD
1000
MTEXTBEGIN
1070
    73
1070
     1
1070
    44
1040
1.0
1070
    74
1070
     0
1000
MTEXTEND
  0
POINT
  5
245A
330
2453
100
AcDbEntity
  8
DEFPOINTS
 62
     0
100
AcDbPoint
 10
-137.5743817223441
 20
-5.000002940190223
 30
0.0
  0
POINT
  5
245B
330
2453
100
AcDbEntity
  8
DEFPOINTS
 62
     0
100
AcDbPoint
 10
-137.5743817223441
 20
5.000024610401458
 30
0.0
  0
POINT
  5
245C
330
2453
100
AcDbEntity
  8
DEFPOINTS
 62
     0
100
AcDbPoint
 10
-151.8199008769066
 20
5.000024610401462
 30
0.0
  0
ENDBLK
  5
245E
330
2453
100
AcDbEntity
  8
0
100
AcDbBlockEnd
  0
BLOCK
  5
246B
330
245F
100
AcDbEntity
  8
0
100
AcDbBlockBegin
  2
A$C4FFC6CC0
 70
     0
 10
0.0
 20
0.0
 30
0.0
  3
A$C4FFC6CC0
  1

  0
DIMENSION
  5
2460
330
245F
100
AcDbEntity
  8
AM_5
100
AcDbDimension
  2
*D6
 10
-70.00000100000002
 20
5.000008477104842
 30
0.0
 11
-70.00000100000002
 21
-0.0000052981910228
 31
0.0
 12
81.81989987690661
 22
-0.0000161332966199
 32
0.0
 70
   128
  1
%%c<>
 51
359.9999999999998
  3
AM_JIS$0
100
AcDbAlignedDimension
 13
-55.75448184543748
 23
-5.000019073486843
 33
0.0
 14
-55.75448184543756
 24
5.000008477104838
 34
0.0
 50
270.0
100
AcDbRotatedDimension
1001
ACAD
1000
DSTYLE
1002
{
1070
   271
1070
     0
1002
}
1001
GENIUS_GENDTOL_13
1000

1000
h7
1000

1040
0.0
  0
LINE
  5
2461
330
245F
100
AcDbEntity
  8
AM_0
 48
0.5
100
AcDbLine
 10
-56.0
 20
-4.754495620727796
 30
0.0
 11
-56.00000000000003
 21
4.754485024345811
 31
0.0
  0
LINE
  5
2462
330
245F
100
AcDbEntity
  8
AM_0
 48
0.5
100
AcDbLine
 10
-55.75448184543751
 20
-5.000019073486843
 30
0.0
 11
-55.75448184543754
 21
5.000008477104838
 31
0.0
  0
LINE
  5
2463
330
245F
100
AcDbEntity
  8
AM_0
100
AcDbLine
 10
-0.0000000000000142
 20
4.999995231627903
 30
0.0
 11
-55.75448184543754
 21
4.999995231627746
 31
0.0
  0
LINE
  5
2464
330
245F
100
AcDbEntity
  8
AM_0
 48
0.5
100
AcDbLine
 10
-55.99996821086117
 20
4.754439989725671
 30
0.0
 11
-55.75443945990975
 21
4.999963442484006
 31
0.0
  0
LINE
  5
2465
330
245F
100
AcDbEntity
  8
AM_0
100
AcDbLine
 10
-55.75448184543751
 20
-5.000008477105588
 30
0.0
 11
0.0000000000000142
 21
-5.00000847710543
 31
0.0
  0
LINE
  5
2466
330
245F
100
AcDbEntity
  8
AM_0
 48
0.5
100
AcDbLine
 10
-55.99996821086114
 20
-4.754474427965309
 30
0.0
 11
-55.75443945990972
 21
-4.999997880724334
 31
0.0
  0
LINE
  5
2467
330
245F
100
AcDbEntity
  8
AM_0
100
AcDbLine
 10
0.7794201296714505
 20
4.549985867772141
 30
0.0
 11
0.7794201296714789
 21
-4.550003370497427
 31
0.0
  0
LINE
  5
2468
330
245F
100
AcDbEntity
  8
AM_0
 48
0.5
100
AcDbLine
 10
0.0000000000000142
 20
-5.00000847710543
 30
0.0
 11
-0.0000000000000142
 21
5.000008477104995
 31
0.0
  0
LINE
  5
2469
330
245F
100
AcDbEntity
  8
AM_0
 48
0.5
100
AcDbLine
 10
0.7794201296714647
 20
-4.550003370497435
 30
0.0
 11
-0.0000105963812445
 21
-5.00000847710543
 31
0.0
  0
LINE
  5
246A
330
245F
100
AcDbEntity
  8
AM_0
 48
0.5
100
AcDbLine
 10
0.7794201296714647
 20
4.549985867772141
 30
0.0
 11
-0.0000000000000142
 21
4.999984635246652
 31
0.0
  0
ENDBLK
  5
246C
330
245F
100
AcDbEntity
  8
0
100
AcDbBlockEnd
  0
BLOCK
  5
36C9
330
36BB
100
AcDbEntity
  8
0
100
AcDbBlockBegin
  2
*D8
 70
     1
 10
0.0
 20
0.0
 30
0.0
  3
*D8
  1

  0
LINE
  5
4149
330
36BB
100
AcDbEntity
  8
AM_5
100
AcDbLine
 10
0.3420201408161502
 20
-0.9396926216994629
 30
0.0
 11
11.31017982904546
 21
-31.07446394848497
 31
0.0
  0
LINE
  5
414A
330
36BB
100
AcDbEntity
  8
AM_5
100
AcDbLine
 10
0.3420201408161393
 20
0.939692621699157
 30
0.0
 11
11.3101798290451
 21
31.07446394848479
 31
0.0
  0
ARC
  5
414B
330
36BB
100
AcDbEntity
  8
AM_5
100
AcDbCircle
 10
0.0000000000000263
 20
-0.000000000000155
 30
0.0
 40
32.06875379343813
100
AcDbArc
 50
294.4677676365269
 51
65.53223236347371
  0
INSERT
  5
414C
330
36BB
100
AcDbEntity
  8
AM_5
100
AcDbBlockReference
  2
_OPEN30
 10
10.96815968822934
 20
-30.13477132678566
 30
0.0
 41
2.5
 42
2.5
 43
2.5
 50
202.2338837417563
  0
INSERT
  5
414D
330
36BB
100
AcDbEntity
  8
AM_5
100
AcDbBlockReference
  2
_OPEN30
 10
10.96815968822899
 20
30.13477132678548
 30
0.0
 41
2.5
 42
2.5
 43
2.5
 50
157.7661162582443
  0
MTEXT
  5
414E
330
36BB
100
AcDbEntity
  8
AM_5
 62
     2
100
AcDbMText
 10
28.96875379343816
 20
0.0000000000000357
 30
0.0
 40
3.2
 41
0.0
 71
     5
 72
     1
  1
140°
  7
ASAMI
 11
-0.0000000000000028
 21
1.0
 31
0.0
1001
ACAD
1000
MTEXTBEGIN
1070
    73
1070
     1
1070
    44
1040
1.0
1070
    74
1070
     0
1000
MTEXTEND
  0
POINT
  5
414F
330
36BB
100
AcDbEntity
  8
DEFPOINTS
 62
     0
100
AcDbPoint
 10
29.44604624940567
 20
-12.70178452588532
 30
0.0
  0
POINT
  5
4150
330
36BB
100
AcDbEntity
  8
DEFPOINTS
 62
     0
100
AcDbPoint
 10
0.0
 20
-0.0000000000002274
 30
0.0
  0
POINT
  5
4151
330
36BB
100
AcDbEntity
  8
DEFPOINTS
 62
     0
100
AcDbPoint
 10
0.0
 20
-0.0000000000000827
 30
0.0
  0
POINT
  5
4152
330
36BB
100
AcDbEntity
  8
DEFPOINTS
 62
     0
100
AcDbPoint
 10
-2.547791618692619
 20
6.999999999999763
 30
0.0
  0
POINT
  5
4153
330
36BB
100
AcDbEntity
  8
DEFPOINTS
 62
     0
100
AcDbPoint
 10
-2.547791618692583
 20
-7.000000000000091
 30
0.0
  0
ENDBLK
  5
36CA
330
36BB
100
AcDbEntity
  8
0
100
AcDbBlockEnd
  0
BLOCK
  5
3871
330
3867
100
AcDbEntity
  8
0
100
AcDbBlockBegin
  2
*D9
 70
     1
 10
0.0
 20
0.0
 30
0.0
  3
*D9
  1

  0
LINE
  5
59B4
330
3867
100
AcDbEntity
  8
AM_5
 62
     3
100
AcDbLine
 10
-164.3910030603197
 20
12.52500938462125
 30
0.0
 11
-182.2234913110434
 21
12.5250093846212
 31
0.0
  0
LINE
  5
59B5
330
3867
100
AcDbEntity
  8
AM_5
 62
     3
100
AcDbLine
 10
-164.3910030603195
 20
-12.47489334306183
 30
0.0
 11
-182.2234913110433
 21
-12.47489334306188
 31
0.0
  0
LINE
  5
59B6
330
3867
100
AcDbEntity
  8
AM_5
 62
     3
100
AcDbLine
 10
-181.2234913110433
 20
10.0250093846212
 30
0.0
 11
-181.2234913110433
 21
-9.974893343061879
 31
0.0
  0
INSERT
  5
59B7
330
3867
100
AcDbEntity
  8
AM_5
 62
     3
100
AcDbBlockReference
  2
_OPEN30
 10
-181.2234913110433
 20
12.5250093846212
 30
0.0
 41
2.5
 42
2.5
 43
2.5
 50
90.00000000000017
  0
INSERT
  5
59B8
330
3867
100
AcDbEntity
  8
AM_5
 62
     3
100
AcDbBlockReference
  2
_OPEN30
 10
-181.2234913110433
 20
-12.47489334306187
 30
0.0
 41
2.5
 42
2.5
 43
2.5
 50
270.0000000000001
  0
MTEXT
  5
59B9
330
3867
100
AcDbEntity
  8
AM_5
 62
     2
100
AcDbMText
 10
-184.6234913110433
 20
0.0250580207796613
 30
0.0
 40
3.799999999999999
 41
0.0
 71
     5
 72
     1
  1
%%C25
 11
-0.0000000000000028
 21
1.0
 31
0.0
1001
ACAD
1000
MTEXTBEGIN
1070
    73
1070
     1
1070
    44
1040
1.0
1070
    74
1070
     0
1000
MTEXTEND
  0
POINT
  5
59BA
330
3867
100
AcDbEntity
  8
DEFPOINTS
 62
     0
100
AcDbPoint
 10
-163.5910030603197
 20
12.52500938462176
 30
0.0
  0
POINT
  5
59BB
330
3867
100
AcDbEntity
  8
DEFPOINTS
 62
     0
100
AcDbPoint
 10
-163.5910030603195
 20
-12.47489334306132
 30
0.0
  0
POINT
  5
59BC
330
3867
100
AcDbEntity
  8
DEFPOINTS
 62
     0
100
AcDbPoint
 10
-181.2234913110433
 20
-12.47489334306131
 30
0.0
  0
ENDBLK
  5
3872
330
3867
100
AcDbEntity
  8
0
100
AcDbBlockEnd
  0
BLOCK
  5
3C4B
330
3C41
100
AcDbEntity
  8
0
100
AcDbBlockBegin
  2
*D10
 70
     1
 10
0.0
 20
0.0
 30
0.0
  3
*D10
  1

  0
LINE
  5
598E
330
3C41
100
AcDbEntity
  8
AM_5
 62
     3
100
AcDbLine
 10
-108.276650217091
 20
-13.27503639174651
 30
0.0
 11
-108.2766502170909
 21
-42.30366044855486
 31
0.0
  0
LINE
  5
598F
330
3C41
100
AcDbEntity
  8
AM_5
 62
     3
100
AcDbLine
 10
-164.2765643864159
 20
-12.61209445906814
 30
0.0
 11
-164.2765643864158
 21
-42.30366044855503
 31
0.0
  0
LINE
  5
5990
330
3C41
100
AcDbEntity
  8
AM_5
 62
     3
100
AcDbLine
 10
-110.7766502170909
 20
-41.30366044855487
 30
0.0
 11
-161.7765643864158
 21
-41.30366044855501
 31
0.0
  0
INSERT
  5
5991
330
3C41
100
AcDbEntity
  8
AM_5
 62
     3
100
AcDbBlockReference
  2
_OPEN30
 10
-108.2766502170909
 20
-41.30366044855486
 30
0.0
 41
2.5
 42
2.5
 43
2.5
 50
0.0000000000001527
  0
INSERT
  5
5992
330
3C41
100
AcDbEntity
  8
AM_5
 62
     3
100
AcDbBlockReference
  2
_OPEN30
 10
-164.2765643864158
 20
-41.30366044855502
 30
0.0
 41
2.5
 42
2.5
 43
2.5
 50
180.0000000000001
  0
MTEXT
  5
5993
330
3C41
100
AcDbEntity
  8
AM_5
 62
     2
100
AcDbMText
 10
-136.2766073017534
 20
-37.90366044855495
 30
0.0
 40
3.799999999999999
 41
0.0
 71
     5
 72
     1
  1
56
1001
ACAD
1000
MTEXTBEGIN
1070
    73
1070
     1
1070
    44
1040
1.0
1070
    74
1070
     0
1000
MTEXTEND
  0
POINT
  5
5994
330
3C41
100
AcDbEntity
  8
DEFPOINTS
 62
     0
100
AcDbPoint
 10
-108.276650217091
 20
-12.4750363917462
 30
0.0
  0
POINT
  5
5995
330
3C41
100
AcDbEntity
  8
DEFPOINTS
 62
     0
100
AcDbPoint
 10
-164.2765643864159
 20
-11.81209445906766
 30
0.0
  0
POINT
  5
5996
330
3C41
100
AcDbEntity
  8
DEFPOINTS
 62
     0
100
AcDbPoint
 10
-164.2765643864159
 20
-41.30366044855455
 30
0.0
  0
ENDBLK
  5
3C4C
330
3C41
100
AcDbEntity
  8
0
100
AcDbBlockEnd
  0
BLOCK
  5
3D63
330
3D57
100
AcDbEntity
  8
0
100
AcDbBlockBegin
  2
*D11
 70
     1
 10
0.0
 20
0.0
 30
0.0
  3
*D11
  1

  0
LINE
  5
59A9
330
3D57
100
AcDbEntity
  8
AM_5
 62
     3
100
AcDbLine
 10
-164.2765643864159
 20
-12.61209445906814
 30
0.0
 11
-164.2765643864158
 21
-29.47941722561783
 31
0.0
  0
LINE
  5
59AA
330
3D57
100
AcDbEntity
  8
AM_5
 62
     3
100
AcDbLine
 10
-158.2766615824936
 20
-0.800000000000956
 30
0.0
 11
-158.2766615824935
 21
-29.47941722561782
 31
0.0
  0
LINE
  5
59AB
330
3D57
100
AcDbEntity
  8
AM_5
 62
     3
100
AcDbLine
 10
-166.7765643864158
 20
-28.47941722561784
 30
0.0
 11
-169.2765643864158
 21
-28.47941722561785
 31
0.0
  0
LINE
  5
59AC
330
3D57
100
AcDbEntity
  8
AM_5
 62
     3
100
AcDbLine
 10
-155.7766615824935
 20
-28.47941722561781
 30
0.0
 11
-153.2766615824935
 21
-28.4794172256178
 31
0.0
  0
LINE
  5
59AD
330
3D57
100
AcDbEntity
  8
AM_5
 62
     3
100
AcDbLine
 10
-164.2765643864158
 20
-28.47941722561783
 30
0.0
 11
-158.2766615824935
 21
-28.47941722561781
 31
0.0
  0
INSERT
  5
59AE
330
3D57
100
AcDbEntity
  8
AM_5
 62
     3
100
AcDbBlockReference
  2
_OPEN30
 10
-164.2765643864158
 20
-28.47941722561783
 30
0.0
 41
2.5
 42
2.5
 43
2.5
 50
0.0000000000001527
  0
INSERT
  5
59AF
330
3D57
100
AcDbEntity
  8
AM_5
 62
     3
100
AcDbBlockReference
  2
_OPEN30
 10
-158.2766615824935
 20
-28.47941722561781
 30
0.0
 41
2.5
 42
2.5
 43
2.5
 50
180.0000000000001
  0
MTEXT
  5
59B0
330
3D57
100
AcDbEntity
  8
AM_5
 62
     2
100
AcDbMText
 10
-161.2766129844547
 20
-25.07941722561783
 30
0.0
 40
3.799999999999999
 41
0.0
 71
     5
 72
     1
  1
6
1001
ACAD
1000
MTEXTBEGIN
1070
    73
1070
     1
1070
    44
1040
1.0
1070
    74
1070
     0
1000
MTEXTEND
  0
POINT
  5
59B1
330
3D57
100
AcDbEntity
  8
DEFPOINTS
 62
     0
100
AcDbPoint
 10
-164.2765643864159
 20
-11.81209445906766
 30
0.0
  0
POINT
  5
59B2
330
3D57
100
AcDbEntity
  8
DEFPOINTS
 62
     0
100
AcDbPoint
 10
-158.2766615824936
 20
-0.0000000000004954
 30
0.0
  0
POINT
  5
59B3
330
3D57
100
AcDbEntity
  8
DEFPOINTS
 62
     0
100
AcDbPoint
 10
-158.2766615824936
 20
-28.47941722561735
 30
0.0
  0
ENDBLK
  5
3D64
330
3D57
100
AcDbEntity
  8
0
100
AcDbBlockEnd
  0
BLOCK
  5
3E08
330
3DFE
100
AcDbEntity
  8
0
100
AcDbBlockBegin
  2
*D12
 70
     1
 10
0.0
 20
0.0
 30
0.0
  3
*D12
  1

  0
LINE
  5
5997
330
3DFE
100
AcDbEntity
  8
AM_5
 62
     3
100
AcDbLine
 10
-158.2766615824936
 20
-0.800000000000956
 30
0.0
 11
-158.2766615824935
 21
-29.47941722561761
 31
0.0
  0
LINE
  5
5998
330
3DFE
100
AcDbEntity
  8
AM_5
 62
     3
100
AcDbLine
 10
-113.2766502170911
 20
-0.8000000000007364
 30
0.0
 11
-113.276650217091
 21
-29.47941722561747
 31
0.0
  0
LINE
  5
5999
330
3DFE
100
AcDbEntity
  8
AM_5
 62
     3
100
AcDbLine
 10
-155.7766615824935
 20
-28.4794172256176
 30
0.0
 11
-115.776650217091
 21
-28.47941722561748
 31
0.0
  0
INSERT
  5
599A
330
3DFE
100
AcDbEntity
  8
AM_5
 62
     3
100
AcDbBlockReference
  2
_OPEN30
 10
-158.2766615824935
 20
-28.47941722561761
 30
0.0
 41
2.5
 42
2.5
 43
2.5
 50
180.0000000000001
  0
INSERT
  5
599B
330
3DFE
100
AcDbEntity
  8
AM_5
 62
     3
100
AcDbBlockReference
  2
_OPEN30
 10
-113.276650217091
 20
-28.47941722561747
 30
0.0
 41
2.5
 42
2.5
 43
2.5
 50
0.0000000000001527
  0
MTEXT
  5
599C
330
3DFE
100
AcDbEntity
  8
AM_5
 62
     2
100
AcDbMText
 10
-135.7766558997923
 20
-25.07941722561754
 30
0.0
 40
3.799999999999999
 41
0.0
 71
     5
 72
     1
  1
45
1001
ACAD
1000
MTEXTBEGIN
1070
    73
1070
     1
1070
    44
1040
1.0
1070
    74
1070
     0
1000
MTEXTEND
  0
POINT
  5
599D
330
3DFE
100
AcDbEntity
  8
DEFPOINTS
 62
     0
100
AcDbPoint
 10
-158.2766615824936
 20
-0.0000000000004954
 30
0.0
  0
POINT
  5
599E
330
3DFE
100
AcDbEntity
  8
DEFPOINTS
 62
     0
100
AcDbPoint
 10
-113.2766502170911
 20
-0.0000000000004069
 30
0.0
  0
POINT
  5
599F
330
3DFE
100
AcDbEntity
  8
DEFPOINTS
 62
     0
100
AcDbPoint
 10
-113.2766502170911
 20
-28.47941722561714
 30
0.0
  0
ENDBLK
  5
3E09
330
3DFE
100
AcDbEntity
  8
0
100
AcDbBlockEnd
  0
BLOCK
  5
53E3
330
53D9
100
AcDbEntity
  8
0
100
AcDbBlockBegin
  2
*D13
 70
     1
 10
0.0
 20
0.0
 30
0.0
  3
*D13
  1

  0
LINE
  5
59A0
330
53D9
100
AcDbEntity
  8
AM_5
 62
     3
100
AcDbLine
 10
-4.276650217091119
 20
-12.05000000000002
 30
0.0
 11
-4.276650217090995
 21
-55.32888609081338
 31
0.0
  0
LINE
  5
59A1
330
53D9
100
AcDbEntity
  8
AM_5
 62
     3
100
AcDbLine
 10
-164.2765643864159
 20
-13.49113404671876
 30
0.0
 11
-164.2765643864157
 21
-55.32888609081385
 31
0.0
  0
LINE
  5
59A2
330
53D9
100
AcDbEntity
  8
AM_5
 62
     3
100
AcDbLine
 10
-6.776650217090998
 20
-54.32888609081339
 30
0.0
 11
-161.7765643864157
 21
-54.32888609081384
 31
0.0
  0
INSERT
  5
59A3
330
53D9
100
AcDbEntity
  8
AM_5
 62
     3
100
AcDbBlockReference
  2
_OPEN30
 10
-4.276650217090998
 20
-54.32888609081338
 30
0.0
 41
2.5
 42
2.5
 43
2.5
 50
0.0000000000001527
  0
INSERT
  5
59A4
330
53D9
100
AcDbEntity
  8
AM_5
 62
     3
100
AcDbBlockReference
  2
_OPEN30
 10
-164.2765643864157
 20
-54.32888609081384
 30
0.0
 41
2.5
 42
2.5
 43
2.5
 50
180.0000000000001
  0
MTEXT
  5
59A5
330
53D9
100
AcDbEntity
  8
AM_5
 62
     2
100
AcDbMText
 10
-84.2766073017534
 20
-50.92888609081362
 30
0.0
 40
3.799999999999999
 41
0.0
 71
     5
 72
     1
  1
160
1001
ACAD
1000
MTEXTBEGIN
1070
    73
1070
     1
1070
    44
1040
1.0
1070
    74
1070
     0
1000
MTEXTEND
  0
POINT
  5
59A6
330
53D9
100
AcDbEntity
  8
DEFPOINTS
 62
     0
100
AcDbPoint
 10
-4.276650217091154
 20
-11.25000000000001
 30
0.0
  0
POINT
  5
59A7
330
53D9
100
AcDbEntity
  8
DEFPOINTS
 62
     0
100
AcDbPoint
 10
-164.2765643864159
 20
-12.69113404671828
 30
0.0
  0
POINT
  5
59A8
330
53D9
100
AcDbEntity
  8
DEFPOINTS
 62
     0
100
AcDbPoint
 10
-164.2765643864159
 20
-54.32888609081337
 30
0.0
  0
ENDBLK
  5
53E4
330
53D9
100
AcDbEntity
  8
0
100
AcDbBlockEnd
  0
BLOCK
  5
53F0
330
53E6
100
AcDbEntity
  8
0
100
AcDbBlockBegin
  2
*D14
 70
     1
 10
0.0
 20
0.0
 30
0.0
  3
*D14
  1

  0
LINE
  5
5985
330
53E6
100
AcDbEntity
  8
AM_5
 62
     3
100
AcDbLine
 10
-4.276650217091042
 20
-12.05000000000002
 30
0.0
 11
-4.276650217090955
 21
-42.3036604485543
 31
0.0
  0
LINE
  5
5986
330
53E6
100
AcDbEntity
  8
AM_5
 62
     3
100
AcDbLine
 10
-108.276650217091
 20
-13.27503639174652
 30
0.0
 11
-108.2766502170909
 21
-42.3036604485546
 31
0.0
  0
LINE
  5
5987
330
53E6
100
AcDbEntity
  8
AM_5
 62
     3
100
AcDbLine
 10
-6.776650217090959
 20
-41.3036604485543
 30
0.0
 11
-105.7766502170909
 21
-41.30366044855459
 31
0.0
  0
INSERT
  5
5988
330
53E6
100
AcDbEntity
  8
AM_5
 62
     3
100
AcDbBlockReference
  2
_OPEN30
 10
-4.276650217090959
 20
-41.3036604485543
 30
0.0
 41
2.5
 42
2.5
 43
2.5
 50
0.0000000000001527
  0
INSERT
  5
5989
330
53E6
100
AcDbEntity
  8
AM_5
 62
     3
100
AcDbBlockReference
  2
_OPEN30
 10
-108.2766502170909
 20
-41.3036604485546
 30
0.0
 41
2.5
 42
2.5
 43
2.5
 50
180.0000000000001
  0
MTEXT
  5
598A
330
53E6
100
AcDbEntity
  8
AM_5
 62
     2
100
AcDbMText
 10
-56.27665021709097
 20
-37.90366044855445
 30
0.0
 40
3.799999999999999
 41
0.0
 71
     5
 72
     1
  1
104
1001
ACAD
1000
MTEXTBEGIN
1070
    73
1070
     1
1070
    44
1040
1.0
1070
    74
1070
     0
1000
MTEXTEND
  0
POINT
  5
598B
330
53E6
100
AcDbEntity
  8
DEFPOINTS
 62
     0
100
AcDbPoint
 10
-4.276650217091077
 20
-11.25000000000001
 30
0.0
  0
POINT
  5
598C
330
53E6
100
AcDbEntity
  8
DEFPOINTS
 62
     0
100
AcDbPoint
 10
-108.276650217091
 20
-12.4750363917462
 30
0.0
  0
POINT
  5
598D
330
53E6
100
AcDbEntity
  8
DEFPOINTS
 62
     0
100
AcDbPoint
 10
-108.276650217091
 20
-41.30366044855429
 30
0.0
  0
ENDBLK
  5
53F1
330
53E6
100
AcDbEntity
  8
0
100
AcDbBlockEnd
  0
BLOCK
  5
53FD
330
53F3
100
AcDbEntity
  8
0
100
AcDbBlockBegin
  2
*D15
 70
     1
 10
0.0
 20
0.0
 30
0.0
  3
*D15
  1

  0
LINE
  5
5973
330
53F3
100
AcDbEntity
  8
AM_5
 62
     3
100
AcDbLine
 10
-4.276650217091077
 20
13.46992585252869
 30
0.0
 11
-4.276650217091014
 21
39.05339867805997
 31
0.0
  0
LINE
  5
5974
330
53F3
100
AcDbEntity
  8
AM_5
 62
     3
100
AcDbLine
 10
-86.27665021709077
 20
9.201337064446606
 30
0.0
 11
-86.2766502170907
 21
39.05339867806017
 31
0.0
  0
LINE
  5
5975
330
53F3
100
AcDbEntity
  8
AM_5
 62
     3
100
AcDbLine
 10
-6.776650217091016
 20
38.05339867805998
 30
0.0
 11
-83.77665021709072
 21
38.05339867806017
 31
0.0
  0
INSERT
  5
5976
330
53F3
100
AcDbEntity
  8
AM_5
 62
     3
100
AcDbBlockReference
  2
_OPEN30
 10
-4.276650217091016
 20
38.05339867805997
 30
0.0
 41
2.5
 42
2.5
 43
2.5
 50
359.9999999999998
  0
INSERT
  5
5977
330
53F3
100
AcDbEntity
  8
AM_5
 62
     3
100
AcDbBlockReference
  2
_OPEN30
 10
-86.27665021709072
 20
38.05339867806017
 30
0.0
 41
2.5
 42
2.5
 43
2.5
 50
179.9999999999998
  0
MTEXT
  5
5978
330
53F3
100
AcDbEntity
  8
AM_5
 62
     2
100
AcDbMText
 10
-45.27665021709085
 20
41.45339867806007
 30
0.0
 40
3.799999999999999
 41
0.0
 71
     5
 72
     1
  1
82
1001
ACAD
1000
MTEXTBEGIN
1070
    73
1070
     1
1070
    44
1040
1.0
1070
    74
1070
     0
1000
MTEXTEND
  0
POINT
  5
5979
330
53F3
100
AcDbEntity
  8
DEFPOINTS
 62
     0
100
AcDbPoint
 10
-4.276650217091042
 20
12.66992585252871
 30
0.0
  0
POINT
  5
597A
330
53F3
100
AcDbEntity
  8
DEFPOINTS
 62
     0
100
AcDbPoint
 10
-86.27665021709075
 20
8.401337064446856
 30
0.0
  0
POINT
  5
597B
330
53F3
100
AcDbEntity
  8
DEFPOINTS
 62
     0
100
AcDbPoint
 10
-86.27665021709061
 20
38.05339867806043
 30
0.0
  0
ENDBLK
  5
53FE
330
53F3
100
AcDbEntity
  8
0
100
AcDbBlockEnd
  0
BLOCK
  5
540A
330
5400
100
AcDbEntity
  8
0
100
AcDbBlockBegin
  2
*D16
 70
     1
 10
0.0
 20
0.0
 30
0.0
  3
*D16
  1

  0
LINE
  5
59E0
330
5400
100
AcDbEntity
  8
AM_5
 62
     3
100
AcDbLine
 10
-4.276650217091076
 20
12.04999999999984
 30
0.0
 11
-4.276650217091013
 21
26.94837328740244
 31
0.0
  0
LINE
  5
59E1
330
5400
100
AcDbEntity
  8
AM_5
 62
     3
100
AcDbLine
 10
-78.27665021709059
 20
12.19931229922293
 30
0.0
 11
-78.27665021709053
 21
26.94837328740275
 31
0.0
  0
LINE
  5
59E2
330
5400
100
AcDbEntity
  8
AM_5
 62
     3
100
AcDbLine
 10
-6.776650217091017
 20
25.94837328740245
 30
0.0
 11
-75.77665021709053
 21
25.94837328740274
 31
0.0
  0
INSERT
  5
59E3
330
5400
100
AcDbEntity
  8
AM_5
 62
     3
100
AcDbBlockReference
  2
_OPEN30
 10
-4.276650217091017
 20
25.94837328740243
 30
0.0
 41
2.5
 42
2.5
 43
2.5
 50
359.9999999999997
  0
INSERT
  5
59E4
330
5400
100
AcDbEntity
  8
AM_5
 62
     3
100
AcDbBlockReference
  2
_OPEN30
 10
-78.27665021709053
 20
25.94837328740275
 30
0.0
 41
2.5
 42
2.5
 43
2.5
 50
179.9999999999997
  0
MTEXT
  5
59E5
330
5400
100
AcDbEntity
  8
AM_5
 62
     2
100
AcDbMText
 10
-41.27665021709076
 20
29.34837328740259
 30
0.0
 40
3.799999999999999
 41
0.0
 71
     5
 72
     1
  1
74
1001
ACAD
1000
MTEXTBEGIN
1070
    73
1070
     1
1070
    44
1040
1.0
1070
    74
1070
     0
1000
MTEXTEND
  0
POINT
  5
59E6
330
5400
100
AcDbEntity
  8
DEFPOINTS
 62
     0
100
AcDbPoint
 10
-4.276650217091047
 20
11.24999999999985
 30
0.0
  0
POINT
  5
59E7
330
5400
100
AcDbEntity
  8
DEFPOINTS
 62
     0
100
AcDbPoint
 10
-78.27665021709056
 20
11.39931229922316
 30
0.0
  0
POINT
  5
59E8
330
5400
100
AcDbEntity
  8
DEFPOINTS
 62
     0
100
AcDbPoint
 10
-78.27665021709046
 20
25.94837328740298
 30
0.0
  0
ENDBLK
  5
540B
330
5400
100
AcDbEntity
  8
0
100
AcDbBlockEnd
  0
BLOCK
  5
5944
330
593A
100
AcDbEntity
  8
0
100
AcDbBlockBegin
  2
*D17
 70
     1
 10
0.0
 20
0.0
 30
0.0
  3
*D17
  1

  0
LINE
  5
59C6
330
593A
100
AcDbEntity
  8
AM_5
 62
     3
100
AcDbLine
 10
-3.476650217091114
 20
11.74999999999996
 30
0.0
 11
17.76995963928334
 21
11.75000000000002
 31
0.0
  0
LINE
  5
59C7
330
593A
100
AcDbEntity
  8
AM_5
 62
     3
100
AcDbLine
 10
-3.476650217091007
 20
-11.74999999999998
 30
0.0
 11
17.76995963928342
 21
-11.74999999999992
 31
0.0
  0
LINE
  5
59C8
330
593A
100
AcDbEntity
  8
AM_5
 62
     3
100
AcDbLine
 10
16.76995963928335
 20
9.250000000000024
 30
0.0
 11
16.76995963928341
 21
-9.24999999999993
 31
0.0
  0
INSERT
  5
59C9
330
593A
100
AcDbEntity
  8
AM_5
 62
     3
100
AcDbBlockReference
  2
_OPEN30
 10
16.76995963928335
 20
11.75000000000002
 30
0.0
 41
2.5
 42
2.5
 43
2.5
 50
90.00000000000017
  0
INSERT
  5
59CA
330
593A
100
AcDbEntity
  8
AM_5
 62
     3
100
AcDbBlockReference
  2
_OPEN30
 10
16.76995963928342
 20
-11.74999999999993
 30
0.0
 41
2.5
 42
2.5
 43
2.5
 50
270.0000000000001
  0
MTEXT
  5
59CB
330
593A
100
AcDbEntity
  8
AM_5
 62
     2
100
AcDbMText
 10
13.36995963928338
 20
-0.0000000000004576
 30
0.0
 40
3.799999999999999
 41
0.0
 71
     5
 72
     1
  1
%%C23.5
 11
-0.0000000000000028
 21
1.0
 31
0.0
1001
ACAD
1000
MTEXTBEGIN
1070
    73
1070
     1
1070
    44
1040
1.0
1070
    74
1070
     0
1000
MTEXTEND
  0
POINT
  5
59CC
330
593A
100
AcDbEntity
  8
DEFPOINTS
 62
     0
100
AcDbPoint
 10
-4.276650217091077
 20
11.74999999999998
 30
0.0
  0
POINT
  5
59CD
330
593A
100
AcDbEntity
  8
DEFPOINTS
 62
     0
100
AcDbPoint
 10
-4.276650217091043
 20
-11.74999999999997
 30
0.0
  0
POINT
  5
59CE
330
593A
100
AcDbEntity
  8
DEFPOINTS
 62
     0
100
AcDbPoint
 10
16.76995963928338
 20
-11.74999999999998
 30
0.0
  0
ENDBLK
  5
5945
330
593A
100
AcDbEntity
  8
0
100
AcDbBlockEnd
  0
ENDSEC
  0
SECTION
  2
ENTITIES
  0
TEXT
  5
19BD
330
1F
100
AcDbEntity
  8
AM_6
100
AcDbText
 10
-105.6662435794373
 20
-76.82888609081366
 30
0.0
 40
5.0
  1
KDS235MAK
 50
0.0000000000001527
 72
     4
 11
-83.99957691277064
 21
-74.32888609081361
 31
0.0
100
AcDbText
  0
LINE
  5
35CA
330
1F
100
AcDbEntity
  8
PV0001_1
  6
CONTINUOUS
 48
0.5
100
AcDbLine
 10
-589.2017441852486
 20
-57.69694534177202
 30
0.0
 11
-567.9171279738763
 21
-62.69376548307545
 31
0.0
  0
LINE
  5
35D1
330
1F
100
AcDbEntity
  8
AM_7
100
AcDbLine
 10
4.745369175493294
 20
-0.0000000000001137
 30
0.0
 11
-166.5084919537721
 21
-0.0000000000005355
 31
0.0
  0
LINE
  5
35EA
330
1F
100
AcDbEntity
  8
PV0001_1
  6
CONTINUOUS
100
AcDbLine
 10
-163.5910030603195
 20
-12.47503639174633
 30
0.0
 11
-108.276650217091
 21
-12.4750363917462
 31
0.0
  0
LINE
  5
35EB
330
1F
100
AcDbEntity
  8
PV0001_1
  6
CONTINUOUS
100
AcDbLine
 10
-108.2766502170911
 20
12.52497362183365
 30
0.0
 11
-163.5910030603197
 21
12.52497362183353
 31
0.0
  0
LINE
  5
35F9
330
1F
100
AcDbEntity
  8
PV0001_1
  6
CONTINUOUS
 48
0.5
100
AcDbLine
 10
-163.6137511997723
 20
0.0249721913229664
 30
0.0
 11
-163.6137511997723
 21
12.52500938462175
 31
0.0
  0
LINE
  5
35FA
330
1F
100
AcDbEntity
  8
PV0001_1
  6
CONTINUOUS
 48
0.5
100
AcDbLine
 10
-164.2766502170911
 20
0.0249721913229664
 30
0.0
 11
-164.2766502170911
 21
11.86209606217256
 31
0.0
  0
LINE
  5
35FB
330
1F
100
AcDbEntity
  8
PV0001_1
  6
CONTINUOUS
 48
0.5
100
AcDbLine
 10
-164.276564386416
 20
11.86197446869814
 30
0.0
 11
-163.6136367588473
 21
12.5248877911455
 31
0.0
  0
LINE
  5
35FD
330
1F
100
AcDbEntity
  8
PV0001_1
  6
CONTINUOUS
 48
0.5
100
AcDbLine
 10
-164.2765643864159
 20
-11.81209445906766
 30
0.0
 11
-163.6136367588472
 21
-12.47500778151684
 31
0.0
  0
LINE
  5
3601
330
1F
100
AcDbEntity
  8
PV0001_1
  6
CONTINUOUS
 48
0.5
100
AcDbLine
 10
-164.2766502170911
 20
0.0249721913229664
 30
0.0
 11
-164.276650217091
 21
-11.81215167952619
 31
0.0
  0
LINE
  5
3602
330
1F
100
AcDbEntity
  8
PV0001_1
  6
CONTINUOUS
 48
0.5
100
AcDbLine
 10
-163.6137511997723
 20
0.0249721913229664
 30
0.0
 11
-163.6137511997722
 21
-12.47506500197583
 31
0.0
  0
DIMENSION
  5
36BA
330
1F
100
AcDbEntity
  8
AM_5
100
AcDbDimension
  2
*D8
 10
-2.547791618692583
 20
-7.000000000000091
 30
0.0
 11
28.96875379343816
 21
-0.0000000000000532
 31
0.0
 70
    34
  1
<>
 51
359.9999999999998
  3
AM_JIS$2
100
AcDb2LineAngularDimension
 13
0.0
 23
-0.0000000000000827
 33
0.0
 14
-2.547791618692619
 24
6.999999999999763
 34
0.0
 15
0.0
 25
-0.0000000000002274
 35
0.0
 16
29.44604624940567
 26
-12.70178452588532
 36
0.0
1001
ACAD
1000
DSTYLE
1002
{
1070
   179
1070
     3
1002
}
1001
GENIUS_GENDTOL_13
1000

1000
h7
1000

1040
0.0
  0
DIMENSION
  5
3866
330
1F
100
AcDbEntity
  8
AM_5
100
AcDbDimension
  2
*D9
 10
-181.2234913110433
 20
-12.47489334306131
 30
0.0
 11
-184.6234913110433
 21
0.0250580207801985
 31
0.0
 70
    32
  1
%%C<>
 51
359.9999999999998
  3
AM_JIS$0
100
AcDbAlignedDimension
 13
-163.5910030603197
 23
12.52500938462176
 33
0.0
 14
-163.5910030603195
 24
-12.47489334306132
 34
0.0
 50
270.0000000000002
100
AcDbRotatedDimension
1001
ACAD
1000
DSTYLE
1002
{
1070
   271
1070
     3
1002
}
1001
GENIUS_GENDTOL_13
1000

1000
h7
1000

1040
0.0
  0
LINE
  5
395A
330
1F
100
AcDbEntity
  8
PV0001_1
  6
CONTINUOUS
100
AcDbLine
 10
-108.276650217091
 20
-12.4750363917462
 30
0.0
 11
-108.2766502170911
 21
12.52497362183366
 31
0.0
  0
DIMENSION
  5
3C40
330
1F
100
AcDbEntity
  8
AM_5
100
AcDbDimension
  2
*D10
 10
-164.2765643864159
 20
-41.30366044855455
 30
0.0
 11
-136.2766073017535
 21
-37.90366044855455
 31
0.0
 70
    32
  1
<>
 51
359.9999999999998
  3
AM_JIS$0
100
AcDbAlignedDimension
 13
-108.276650217091
 23
-12.4750363917462
 33
0.0
 14
-164.2765643864159
 24
-11.81209445906766
 34
0.0
 50
0.0000000000002658
100
AcDbRotatedDimension
1001
ACAD
1000
DSTYLE
1002
{
1070
   271
1070
     3
1002
}
1001
GENIUS_GENDTOL_13
1000

1000
h7
1000

1040
0.0
  0
DIMENSION
  5
3D56
330
1F
100
AcDbEntity
  8
AM_5
100
AcDbDimension
  2
*D11
 10
-158.2766615824936
 20
-28.47941722561735
 30
0.0
 11
-161.2766129844548
 21
-28.47941722561735
 31
0.0
 70
   160
  1
<>
 51
359.9999999999998
  3
AM_JIS$0
100
AcDbAlignedDimension
 13
-164.2765643864159
 23
-11.81209445906766
 33
0.0
 14
-158.2766615824936
 24
-0.0000000000004954
 34
0.0
 50
0.0000000000002659
100
AcDbRotatedDimension
1001
ACAD
1000
DSTYLE
1002
{
1070
   271
1070
     3
1002
}
1001
GENIUS_GENDTOL_13
1000

1000
h7
1000

1040
0.0
  0
DIMENSION
  5
3DFD
330
1F
100
AcDbEntity
  8
AM_5
100
AcDbDimension
  2
*D12
 10
-113.2766502170911
 20
-28.47941722561714
 30
0.0
 11
-135.7766558997923
 21
-25.07941722561715
 31
0.0
 70
    32
  1
<>
 51
359.9999999999998
  3
AM_JIS$0
100
AcDbAlignedDimension
 13
-158.2766615824936
 23
-0.0000000000004954
 33
0.0
 14
-113.2766502170911
 24
-0.0000000000004069
 34
0.0
 50
0.0000000000002658
100
AcDbRotatedDimension
1001
ACAD
1000
DSTYLE
1002
{
1070
   271
1070
     3
1002
}
1001
GENIUS_GENDTOL_13
1000

1000
h7
1000

1040
0.0
  0
LINE
  5
48BA
330
1F
100
AcDbEntity
  8
PV0001_1
  6
CONTINUOUS
 48
0.5
100
AcDbLine
 10
-99.98633301105819
 20
12.02758325049123
 30
0.0
 11
-108.2766502170911
 21
12.52497362183365
 31
0.0
  0
LINE
  5
4ED1
330
1F
100
AcDbEntity
  8
AM_0
100
AcDbLine
 10
-117.5413307443991
 20
4.264680527307573
 30
0.0
 11
-154.0190837148224
 21
4.264680527307474
 31
0.0
  0
LINE
  5
4ED6
330
1F
100
AcDbEntity
  8
AM_0
100
AcDbLine
 10
-154.0190837148224
 20
-4.26468052730852
 30
0.0
 11
-117.541330744399
 21
-4.264680527308423
 31
0.0
  0
ARC
  5
4EF5
330
1F
100
AcDbEntity
  8
AM_0
100
AcDbCircle
 10
-154.0119810551856
 20
-0.0000000000004956
 30
0.0
 40
4.264680527307981
100
AcDbArc
 50
90.0
 51
270.0
  0
ARC
  5
4EF6
330
1F
100
AcDbEntity
  8
AM_0
100
AcDbCircle
 10
-117.541330744399
 20
-0.0000000000004174
 30
0.0
 40
4.264680527307981
100
AcDbArc
 50
270.0000000000002
 51
90.00000000000019
  0
DIMENSION
  5
53D8
330
1F
100
AcDbEntity
  8
AM_5
100
AcDbDimension
  2
*D13
 10
-164.2765643864159
 20
-54.32888609081337
 30
0.0
 11
-84.27660730175354
 21
-50.92888609081337
 31
0.0
 70
    32
  1
<>
 51
359.9999999999998
  3
AM_JIS$0
100
AcDbAlignedDimension
 13
-4.276650217091154
 23
-11.25000000000001
 33
0.0
 14
-164.2765643864159
 24
-12.69113404671828
 34
0.0
 50
359.9999999999999
100
AcDbRotatedDimension
1001
ACAD
1000
DSTYLE
1002
{
1070
   271
1070
     3
1002
}
1001
GENIUS_GENDTOL_13
1000

1000
h7
1000

1040
0.0
  0
DIMENSION
  5
53E5
330
1F
100
AcDbEntity
  8
AM_5
100
AcDbDimension
  2
*D14
 10
-108.276650217091
 20
-41.30366044855429
 30
0.0
 11
-56.27665021709109
 21
-37.90366044855429
 31
0.0
 70
    32
  1
<>
 51
359.9999999999998
  3
AM_JIS$0
100
AcDbAlignedDimension
 13
-4.276650217091077
 23
-11.25000000000001
 33
0.0
 14
-108.276650217091
 24
-12.4750363917462
 34
0.0
 50
359.9999999999998
100
AcDbRotatedDimension
1001
ACAD
1000
DSTYLE
1002
{
1070
   271
1070
     3
1002
}
1001
GENIUS_GENDTOL_13
1000

1000
h7
1000

1040
0.0
  0
DIMENSION
  5
53F2
330
1F
100
AcDbEntity
  8
AM_5
100
AcDbDimension
  2
*D15
 10
-86.27665021709061
 20
38.05339867806043
 30
0.0
 11
-45.27665021709073
 21
41.45339867806021
 31
0.0
 70
    32
  1
<>
 51
359.9999999999998
  3
AM_JIS$0
100
AcDbAlignedDimension
 13
-4.276650217091042
 23
12.66992585252871
 33
0.0
 14
-86.27665021709075
 24
8.401337064446856
 34
0.0
 50
179.9999999999998
100
AcDbRotatedDimension
1001
ACAD
1000
DSTYLE
1002
{
1070
   271
1070
     3
1002
}
1001
GENIUS_GENDTOL_13
1000

1000
h7
1000

1040
0.0
  0
DIMENSION
  5
53FF
330
1F
100
AcDbEntity
  8
AM_5
100
AcDbDimension
  2
*D16
 10
-78.27665021709046
 20
25.94837328740298
 30
0.0
 11
-41.27665021709068
 21
29.34837328740271
 31
0.0
 70
    32
  1
<>
 51
359.9999999999998
  3
AM_JIS$0
100
AcDbAlignedDimension
 13
-4.276650217091047
 23
11.24999999999985
 33
0.0
 14
-78.27665021709056
 24
11.39931229922316
 34
0.0
 50
179.9999999999998
100
AcDbRotatedDimension
1001
ACAD
1000
DSTYLE
1002
{
1070
   271
1070
     3
1002
}
1001
GENIUS_GENDTOL_13
1000

1000
h7
1000

1040
0.0
  0
ELLIPSE
  5
5724
330
1F
100
AcDbEntity
  8
AM_0
100
AcDbEllipse
 10
-97.72326710058429
 20
11.36008502475516
 30
0.0
 11
23.84880938632771
 21
0.000000000000155
 31
0.0
210
0.0
220
0.0
230
1.0
 40
0.9744662593464694
 41
-1.419871024562739
 42
-1.141093482595945
  0
ELLIPSE
  5
5725
330
1F
100
AcDbEntity
  8
AM_0
100
AcDbEllipse
 10
-74.60112196527105
 20
29.78764198132586
 30
0.0
 11
11.25436207977993
 21
40.15852487388666
 31
0.0
210
0.0
220
0.0
230
0.9999999999999998
 40
0.9048707924779771
 41
2.833600301540296
 42
3.337254449750358
  0
ELLIPSE
  5
5726
330
1F
100
AcDbEntity
  8
AM_0
100
AcDbEllipse
 10
-100.4166399904126
 20
-5.974005841003892
 30
0.0
 11
-5.997291250172159
 21
2.992951895113552
 31
0.0
210
0.0
220
0.0
230
1.0
 40
0.7124580763520476
 41
0.8777603388726973
 42
1.665652456012268
  0
ELLIPSE
  5
5727
330
1F
100
AcDbEntity
  8
AM_0
100
AcDbEllipse
 10
-103.3661091608258
 20
-5.934090118493275
 30
0.0
 11
-2.912381757177097
 21
0.1807826692978329
 31
0.0
210
0.0
220
0.0
230
1.0
 40
0.9708981330266919
 41
4.68371438542879
 42
6.86990374747403
  0
ELLIPSE
  5
5728
330
1F
100
AcDbEntity
  8
AM_0
100
AcDbEllipse
 10
-95.55489992164815
 20
5.771329991328192
 30
0.0
 11
-17.89871716994493
 21
0.0000000000003111
 31
0.0
210
0.0
220
0.0
230
1.0
 40
0.9744662593464653
 41
1.20414832282041
 42
1.650067814361501
  0
ELLIPSE
  5
5729
330
1F
100
AcDbEntity
  8
AM_0
100
AcDbEllipse
 10
-103.6810166459895
 20
-11.44170464521965
 30
0.0
 11
9.93993087116539
 21
1.624522006326785
 31
0.0
210
0.0
220
0.0
230
1.0
 40
0.8218427563705141
 41
0.6163267857233335
 42
1.380028531762942
  0
LINE
  5
574B
330
1F
100
AcDbEntity
  8
PV0001_1
  6
CONTINUOUS
 48
0.5
100
AcDbLine
 10
-94.42428308081124
 20
-11.64394225353005
 30
0.0
 11
-108.276650217091
 21
-12.4750363917462
 31
0.0
  0
LINE
  5
590E
330
1F
100
AcDbEntity
  8
PV0001_1
  6
CONTINUOUS
 48
0.5
100
AcDbLine
 10
0.0
 20
-0.0000000000002274
 30
0.0
 11
-4.276650217091043
 21
-11.74999999999997
 31
0.0
  0
LINE
  5
590F
330
1F
100
AcDbEntity
  8
PV0001_1
  6
CONTINUOUS
 48
0.5
100
AcDbLine
 10
0.0
 20
-0.0000000000000426
 30
0.0
 11
-4.276650217091375
 21
11.75000000000003
 31
0.0
  0
DIMENSION
  5
5939
330
1F
100
AcDbEntity
  8
AM_5
100
AcDbDimension
  2
*D17
 10
16.76995963928338
 20
-11.74999999999998
 30
0.0
 11
16.76995963928338
 21
-0.0000000000004969
 31
0.0
 70
   160
  1
%%C<>
 51
359.9999999999998
  3
AM_JIS$0
100
AcDbAlignedDimension
 13
-4.276650217091077
 23
11.74999999999998
 33
0.0
 14
-4.276650217091043
 24
-11.74999999999997
 34
0.0
 50
89.99999999999822
100
AcDbRotatedDimension
1001
GENIUS_GENDTOL_13
1000

1000
h7
1000

1040
0.0
1001
ACAD
1000
DSTYLE
1002
{
1070
   271
1070
     3
1002
}
  0
LINE
  5
5946
330
1F
100
AcDbEntity
  8
PV0001_1
  6
CONTINUOUS
 48
0.5
100
AcDbLine
 10
-17.00677139643532
 20
11.7500000000006
 30
0.0
 11
-4.276650217091375
 21
11.75000000000003
 31
0.0
  0
LINE
  5
5947
330
1F
100
AcDbEntity
  8
PV0001_1
  6
CONTINUOUS
 48
0.5
100
AcDbLine
 10
-3.706430731949736
 20
10.18333482742223
 30
0.0
 11
-17.02204165468153
 21
10.18333482742289
 31
0.0
  0
LINE
  5
5948
330
1F
100
AcDbEntity
  8
PV0001_1
  6
CONTINUOUS
 48
0.5
100
AcDbLine
 10
-14.67156125394496
 20
3.812827648254379
 30
0.0
 11
-8.880148368120995
 21
1.325022114743624
 31
0.0
  0
ELLIPSE
  5
5949
330
1F
100
AcDbEntity
  8
AM_0
100
AcDbEllipse
 10
-5.470658017549112
 20
4.755180931612902
 30
0.0
 11
3.940343432227177
 21
2.821183459883389
 31
0.0
210
0.0
220
0.0
230
0.9999999999999998
 40
0.9339109552413061
 41
3.320225956083099
 42
5.280516630916226
  0
LINE
  5
594B
330
1F
100
AcDbEntity
  8
AM_0
100
AcDbLine
 10
-2.406422353258573
 20
-2.907719452778173
 30
0.0
 11
-6.204430131255709
 21
-5.343351316919947
 31
0.0
  0
LINE
  5
594C
330
1F
100
AcDbEntity
  8
PV0001_1
  6
CONTINUOUS
 48
0.5
100
AcDbLine
 10
-18.07664965319224
 20
-10.14772727272661
 30
0.0
 11
-4.276650217091116
 21
-10.14772727272724
 31
0.0
  0
LINE
  5
594D
330
1F
100
AcDbEntity
  8
PV0001_1
  6
CONTINUOUS
 48
0.5
100
AcDbLine
 10
-18.07664965319229
 20
-11.74999999999928
 30
0.0
 11
-4.276650217091043
 21
-11.74999999999997
 31
0.0
  0
LINE
  5
594E
330
1F
100
AcDbEntity
  8
PV0001_1
  6
CONTINUOUS
 48
0.5
100
AcDbLine
 10
-2.406422353258573
 20
-2.907719452778173
 30
0.0
 11
-4.276650217091116
 21
-10.14772727272723
 31
0.0
  0
LINE
  5
5950
330
1F
100
AcDbEntity
  8
PV0001_1
  6
CONTINUOUS
 48
0.5
100
AcDbLine
 10
-8.880148368120671
 20
1.325022114743239
 30
0.0
 11
-4.276650217091116
 21
-10.14772727272723
 31
0.0
  0
LINE
  5
5951
330
1F
100
AcDbEntity
  8
AM_0
100
AcDbLine
 10
-3.129195421616698
 20
0.8799895252906219
 30
0.0
 11
-2.406422353258573
 21
-2.907719452778173
 31
0.0
  0
LINE
  5
595B
330
1F
100
AcDbEntity
  8
PV0001_1
  6
CONTINUOUS
 48
0.5
100
AcDbLine
 10
-86.27665021709153
 20
-10.24993203863129
 30
0.0
 11
-86.27665021709075
 21
7.817318051243651
 31
0.0
  0
LINE
  5
595C
330
1F
100
AcDbEntity
  8
AM_11
 48
0.5
100
AcDbLine
 10
-78.27665021709157
 20
-11.58450704224929
 30
0.0
 11
-78.27665021709056
 21
11.39931229922316
 31
0.0
  0
LINE
  5
595D
330
1F
100
AcDbEntity
  8
PV0001_1
  6
CONTINUOUS
 48
0.5
100
AcDbLine
 10
-78.39402384783364
 20
-11.58450704224928
 30
0.0
 11
-46.21582523375161
 21
-11.58450704225108
 31
0.0
  0
ELLIPSE
  5
5A46
330
1F
100
AcDbEntity
  8
AM_0
100
AcDbEllipse
 10
-113.0640686163934
 20
-65.38354527283297
 30
0.0
 11
8.13707380019267
 21
78.07810905566554
 31
0.0
210
0.0
220
0.0
230
0.9999999999999998
 40
0.895930021130805
 41
-0.4917672869306409
 42
-0.0709412759563408
  0
SPLINE
  5
5A47
330
1F
100
AcDbEntity
  8
PV0001_1
  6
CONTINUOUS
100
AcDbSpline
210
0.0
220
0.0
230
1.0
 70
     8
 71
     3
 72
    54
 73
    50
 74
     0
 42
0.0000000001
 43
0.0000000001
 40
0.8937596859602537
 40
0.8937596859602537
 40
0.8937596859602537
 40
0.8937596859602537
 40
1.010743684496582
 40
2.022833576467832
 40
3.037578957496688
 40
4.056212745003489
 40
5.079857003664532
 40
6.109500240690281
 40
7.145961322679372
 40
8.189895241603872
 40
9.241717795325891
 40
10.30168407291828
 40
11.36983447792315
 40
12.44600489715814
 40
13.52984294512926
 40
14.62081576220742
 40
15.7182257034828
 40
16.82123173843959
 40
17.92886860250316
 40
19.0400688939571
 40
20.15368796660465
 40
21.26852814259644
 40
22.38336992938901
 40
23.49698739941135
 40
24.6081876908653
 40
25.71582455492886
 40
26.81883757994213
 40
27.91624752121713
 40
29.00722033829659
 40
30.09105838626677
 40
31.16722880550176
 40
32.23537921050758
 40
33.29534548809967
 40
34.347168041821
 40
35.39108718934584
 40
36.42754827133493
 40
37.45720575381954
 40
38.48085062012849
 40
39.49948440763516
 40
40.51422944315121
 40
41.52631975251916
 40
42.53706336719636
 40
43.54780698187354
 40
44.55989729124051
 40
45.57464232675757
 40
46.59327611426424
 40
47.6169209805722
 40
48.64656348684535
 40
49.13102905222811
 40
49.13102905222811
 40
49.13102905222811
 40
49.13102905222811
 10
-18.07664965319229
 20
-11.58450704225351
 30
0.0
 10
-20.13734309466008
 20
-11.55322135521765
 30
0.0
 10
-20.68328970828447
 20
-11.53033959362916
 30
0.0
 10
-21.71912640085448
 20
-11.45073971788518
 30
0.0
 10
-23.18674145266825
 20
-11.27144084445749
 30
0.0
 10
-24.6542656735189
 20
-11.02014665409969
 30
0.0
 10
-26.12168441982488
 20
-10.70026266488562
 30
0.0
 10
-27.58896874269524
 20
-10.31321134993945
 30
0.0
 10
-29.056123550131
 20
-10.02709298262151
 30
0.0
 10
-30.52313583143404
 20
-9.513687099114711
 30
0.0
 10
-31.98999559357706
 20
-8.94163893814437
 30
0.0
 10
-33.45671014804506
 20
-8.314539186883786
 30
0.0
 10
-34.92328342299221
 20
-7.63622573880155
 30
0.0
 10
-36.38973374207677
 20
-6.910921267416116
 30
0.0
 10
-37.85606781925463
 20
-6.143082924104321
 30
0.0
 10
-39.32229925145715
 20
-5.337446043870483
 30
0.0
 10
-40.78844429938953
 20
-4.498980762895905
 30
0.0
 10
-42.25451583072342
 20
-3.632843245950932
 30
0.0
 10
-43.72052807384998
 20
-2.744360575701572
 30
0.0
 10
-45.18649671572343
 20
-1.839001257425313
 30
0.0
 10
-46.65243461428391
 20
-0.9223310681415853
 30
0.0
 10
-48.11836247084544
 20
-0.0000023974246062
 30
0.0
 10
-49.58428374661757
 20
0.9223428757832584
 30
0.0
 10
-51.05022655868239
 20
1.838998790087607
 30
0.0
 10
-52.51619339079782
 20
2.744360848834758
 30
0.0
 10
-53.98220824780807
 20
3.632846903807081
 30
0.0
 10
-55.44828586110983
 20
4.498977028981946
 30
0.0
 10
-56.91443322300649
 20
5.337446562142249
 30
0.0
 10
-58.3806648668841
 20
6.143082789087558
 30
0.0
 10
-59.84699889070665
 20
6.910921293872855
 30
0.0
 10
-61.31344921354621
 20
7.477488336968884
 30
0.0
 10
-62.78002252584813
 20
8.155801622855818
 30
0.0
 10
-64.24673692893529
 20
8.782902014442617
 30
0.0
 10
-65.71359038705392
 20
9.354945124235168
 30
0.0
 10
-67.18059359658036
 20
9.868357732077964
 30
0.0
 10
-68.64774785977781
 20
10.31997813847825
 30
0.0
 10
-70.11504265955
 20
10.70698524679147
 30
0.0
 10
-71.58246625379286
 20
11.0269682468617
 30
0.0
 10
-73.04999090968336
 20
11.27796456039264
 30
0.0
 10
-74.51760698124066
 20
11.45835225056319
 30
0.0
 10
-75.98528343826592
 20
11.56704916830584
 30
0.0
 10
-77.45299214659121
 20
11.60336121184615
 30
0.0
 10
-78.92070085275699
 20
11.5670491682492
 30
0.0
 10
-80.38837731627339
 20
11.45835225079186
 30
0.0
 10
-81.85599336393208
 20
11.27796455953244
 30
0.0
 10
-83.32351810942437
 20
11.0269682500971
 30
0.0
 10
-84.79093421285073
 20
10.70698679459773
 30
0.0
 10
-85.99608637136446
 20
10.38912198236774
 30
0.0
 10
-86.71163112807048
 20
10.17731365702172
 30
0.0
 10
-89.16130085551687
 20
9.167359289262135
 30
0.0
  0
LINE
  5
5A48
330
1F
100
AcDbEntity
  8
PV0001_1
  6
CONTINUOUS
 48
0.5
100
AcDbLine
 10
-78.20780995871652
 20
11.58450704225748
 30
0.0
 11
-39.6891791120254
 21
11.58450704225502
 31
0.0
  0
SPLINE
  5
5A49
330
1F
100
AcDbEntity
  8
PV0001_1
  6
CONTINUOUS
100
AcDbSpline
210
0.0
220
0.0
230
1.0
 70
     8
 71
     3
 72
    25
 73
    21
 74
     0
 42
0.0000000001
 43
0.0000000001
 40
24.56499986022253
 40
24.56499986022253
 40
24.56499986022253
 40
24.56499986022253
 40
24.6081876908653
 40
25.71582455492886
 40
26.81883757994213
 40
27.91624752121713
 40
29.00722033829659
 40
30.09105838626677
 40
31.16722880550176
 40
32.23537921050758
 40
33.29534548809967
 40
34.347168041821
 40
35.39108718934584
 40
36.42754827133493
 40
37.45720575381954
 40
38.48085062012849
 40
39.49948440763516
 40
40.51422944315121
 40
41.52631975251916
 40
42.53706336680078
 40
42.53706336680078
 40
42.53706336680078
 40
42.53706336680078
 10
-14.67156125394496
 20
3.812827648254379
 30
0.0
 10
-14.69108082728677
 20
3.823631028497893
 30
0.0
 10
-15.21124551282156
 20
4.1114139276238
 30
0.0
 10
-16.23140524635845
 20
4.670030695244299
 30
0.0
 10
-17.73406397615814
 20
5.471018650033188
 30
0.0
 10
-19.23557907398451
 20
6.244369576737059
 30
0.0
 10
-20.73573816157434
 20
6.984915102411569
 30
0.0
 10
-22.23434155867509
 20
7.687694795522201
 30
0.0
 10
-23.72393617757031
 20
8.182642623789105
 30
0.0
 10
-25.21885166876993
 20
8.795972770071156
 30
0.0
 10
-26.71166169547571
 20
9.35813312576861
 30
0.0
 10
-28.20219559239822
 20
9.865283092919135
 30
0.0
 10
-29.69030730869755
 20
10.31385242141327
 30
0.0
 10
-31.17585945954213
 20
10.70068239778084
 30
0.0
 10
-32.65871779243433
 20
11.02295510201694
 30
0.0
 10
-34.13876482799103
 20
11.27826255943747
 30
0.0
 10
-35.61588677289304
 20
11.4646452972155
 30
0.0
 10
-37.09075765630574
 20
11.56190697829448
 30
0.0
 10
-38.56103457683857
 20
11.58450704225466
 30
0.0
 10
-39.53984434822428
 20
11.58450704225472
 30
0.0
 10
-40.02839271501906
 20
11.58450704225506
 30
0.0
  0
LINE
  5
5A4A
330
1F
100
AcDbEntity
  8
AM_11
 48
0.5
100
AcDbLine
 10
-39.6891791120254
 20
11.58450704225473
 30
0.0
 11
-17.01911272466259
 21
11.58450704225347
 31
0.0
  0
SPLINE
  5
5A4B
330
1F
100
AcDbEntity
  8
PV0001_1
  6
CONTINUOUS
 48
0.5
100
AcDbSpline
210
0.0
220
0.0
230
1.0
 70
     8
 71
     3
 72
    15
 73
    11
 74
     0
 42
0.0000000001
 43
0.0000000001
 40
0.0
 40
0.0
 40
0.0
 40
0.0
 40
1.010743614677189
 40
2.022833924044153
 40
3.037578959561199
 40
4.056212747067873
 40
5.079857613375832
 40
6.109500119648989
 40
7.14596120163808
 40
7.300662935053722
 40
7.300662935053722
 40
7.300662935053722
 40
7.300662935053722
 10
-17.0191127101437
 20
11.58450704225357
 30
0.0
 10
-17.50810457288451
 20
11.58443643474963
 30
0.0
 10
-18.48683405344117
 20
11.56032646291326
 30
0.0
 10
-19.95449447201794
 20
11.4515878584556
 30
0.0
 10
-21.42211488641351
 20
11.27121156706463
 30
0.0
 10
-22.88963826222698
 20
11.02021147983463
 30
0.0
 10
-24.35705546141202
 20
10.70023369935094
 30
0.0
 10
-25.82434145050257
 20
10.31321800857097
 30
0.0
 10
-26.87200288250338
 20
9.990729631769694
 30
0.0
 10
-27.4316214529805
 20
9.805001213994945
 30
0.0
 10
-27.70565393059482
 20
9.693147390209675
 30
0.0
  0
LINE
  5
5A4C
330
1F
100
AcDbEntity
  8
AM_0
100
AcDbLine
 10
-18.07664965319229
 20
-11.72462336007435
 30
0.0
 11
-18.07664965319172
 21
5.645329511327584
 31
0.0
  0
SPLINE
  5
5A4D
330
1F
100
AcDbEntity
  8
PV0001_1
  6
CONTINUOUS
100
AcDbSpline
210
0.0
220
0.0
230
1.0
 70
     8
 71
     3
 72
    17
 73
    13
 74
     0
 42
0.0000000001
 43
0.0000000001
 40
1.580019955310467
 40
1.580019955310467
 40
1.580019955310467
 40
1.580019955310467
 40
2.030549285115227
 40
3.082371838836284
 40
4.126290986361125
 40
5.162752068350215
 40
6.192395305374981
 40
7.216039564037012
 40
8.234688489606833
 40
9.249433870634691
 40
10.26152376260694
 40
11.27226744710342
 40
11.27226744710342
 40
11.27226744710342
 40
11.27226744710352
 10
-32.60629625886228
 20
-8.671845997435394
 30
0.0
 10
-32.81394815584849
 20
-8.7611588071781
 30
0.0
 10
-33.50757525496951
 20
-9.053893470539804
 30
0.0
 10
-34.69176872549123
 20
-9.513058264251181
 30
0.0
 10
-36.15856752178373
 20
-10.02726192083151
 30
0.0
 10
-37.62577012641147
 20
-10.47866445964301
 30
0.0
 10
-39.09303995775039
 20
-10.86574996950684
 30
0.0
 10
-40.56046964550785
 20
-11.18570277173124
 30
0.0
 10
-41.82838629007792
 20
-11.41552984408745
 30
0.0
 10
-43.28737440151612
 20
-11.51203131471296
 30
0.0
 10
-44.74811702126455
 20
-11.54638046006438
 30
0.0
 10
-45.72680628018251
 20
-11.57061146754947
 30
0.0
 10
-46.21582523375145
 20
-11.57061140031492
 30
0.0
  0
SPLINE
  5
5A4E
330
1F
100
AcDbEntity
  8
PV0001_1
  6
CONTINUOUS
100
AcDbSpline
210
0.0
220
0.0
230
1.0
 70
     8
 71
     3
 72
    11
 73
     7
 74
     0
 42
0.0000000001
 43
0.0000000001
 40
11.27226913003534
 40
11.27226913003534
 40
11.27226913003534
 40
11.2722691300354
 40
12.28301561507924
 40
13.29510212255852
 40
14.30984805882082
 40
15.18258238371378
 40
15.18258238371378
 40
15.18258238371378
 40
15.18258238371378
 10
-46.21582523375153
 20
-11.57061140031492
 30
0.0
 10
-46.7029846965096
 20
-11.51310348578732
 30
0.0
 10
-47.72150218419946
 20
-11.49943577022979
 30
0.0
 10
-49.19640143540229
 20
-11.29039196361623
 30
0.0
 10
-50.7275326979559
 20
-10.93697435266386
 30
0.0
 10
-51.62061163041554
 20
-10.67910855839366
 30
0.0
 10
-52.03216783289225
 20
-10.55172997853421
 30
0.0
  0
LINE
  5
5A4F
330
1F
100
AcDbEntity
  8
AM_11
 48
0.5
100
AcDbLine
 10
-52.20823447323599
 20
-11.58450704225162
 30
0.0
 11
-18.07664965319229
 21
-11.58450704225351
 31
0.0
  0
LINE
  5
5A50
330
1F
100
AcDbEntity
  8
AM_0
100
AcDbLine
 10
-17.07221561497468
 20
5.117121278792909
 30
0.0
 11
-17.00757872650052
 21
11.75000000000019
 31
0.0
  0
SPLINE
  5
5A51
330
1F
100
AcDbEntity
  8
PV0001_1
  6
CONTINUOUS
100
AcDbSpline
210
0.0
220
0.0
230
1.0
 70
     8
 71
     3
 72
    22
 73
    18
 74
     0
 42
0.0000000001
 43
0.0000000001
 40
17.17441611292
 40
17.17441611292
 40
17.17441611292
 40
17.17441611292
 40
17.38177636558528
 40
18.41823744757437
 40
19.46215659509824
 40
20.51397914882054
 40
21.57394542641293
 40
22.64209583141747
 40
23.71826625065247
 40
24.80210429862395
 40
25.8930771157021
 40
26.99048705697709
 40
28.09349309193389
 40
29.20112995599786
 40
30.31233024745139
 40
31.42594771747373
 40
32.5407895042663
 40
32.54078950426994
 40
32.54078950426994
 40
32.54078950426994
 10
-52.03280969893844
 20
-10.55158504237381
 30
0.0
 10
-52.13108748805542
 20
-10.52438494483489
 30
0.0
 10
-52.72020916118494
 20
-10.35870617767969
 30
0.0
 10
-53.79944686948418
 20
-10.02649868596142
 30
0.0
 10
-55.26644986923759
 20
-9.513084603080057
 30
0.0
 10
-56.73330338446485
 20
-8.941041893802397
 30
0.0
 10
-58.20001777106948
 20
-8.313941390558987
 30
0.0
 10
-59.66659109162362
 20
-7.635628146615839
 30
0.0
 10
-61.13304139794435
 20
-6.91032361873446
 30
0.0
 10
-62.59937548010886
 20
-6.142485295175287
 30
0.0
 10
-64.06560690519412
 20
-5.33684839280716
 30
0.0
 10
-65.53175197676413
 20
-4.498383181019346
 30
0.0
 10
-67.02393675457803
 20
-3.735725607377059
 30
0.0
 10
-68.44393243855096
 20
-2.855955375490275
 30
0.0
 10
-69.89204691394874
 20
-1.97053537917016
 30
0.0
 10
-71.3365304047212
 20
-1.000698431386612
 30
0.0
 10
-72.25038456005681
 20
-0.3852996408166318
 30
0.0
 10
-72.86166844336657
 20
0.0005976359106025
 30
0.0
  0
VIEWPORT
  5
110
330
101
100
AcDbEntity
 67
     1
  8
0
100
AcDbViewport
 10
420.5
 20
297.0
 30
0.0
 40
948.9782706766916
 41
628.452
 68
     1
 69
     1
1001
ACAD
1000
MVIEW
1002
{
1070
    16
1010
0.0
1020
0.0
1030
0.0
1010
0.0
1020
0.0
1030
1.0
1040
0.0
1040
628.452
1040
420.5
1040
297.0
1040
50.0
1040
0.0
1040
0.0
1070
     0
1070
   100
1070
     1
1070
     1
1070
     0
1070
     0
1070
     0
1070
     0
1040
0.0
1040
0.0
1040
0.0
1040
10.0
1040
10.0
1040
10.0
1040
10.0
1070
     0
1002
{
1002
}
1002
}
  0
ENDSEC
  0
SECTION
  2
OBJECTS
  0
DICTIONARY
  5
C
330
0
100
AcDbDictionary
  3
ACAD_GROUP
350
D
  3
ACAD_LAYOUT
350
1A
  3
ACAD_MLINESTYLE
350
17
  3
ACAD_PLOTSETTINGS
350
19
  3
ACAD_PLOTSTYLENAME
350
E
  3
ACDBVARIABLEDICTIONARY
350
34
  3
ACMDICTIONARY
350
43
  3
AMG
350
2B
  3
AMGSNAPSETTINGS
350
6E
  3
DWGPROPS
350
5A8C
  3
ACDBHEADERROUNDTRIPXREC
350
5A9C
  0
DICTIONARY
  5
74
330
1F
100
AcDbDictionary
280
     1
  3
ACAD_INDEX
360
5A8E
  3
ACAD_LAYOUTSELFREF
360
5ABF
  0
DICTIONARY
  5
5AC4
330
101
100
AcDbDictionary
280
     1
  3
ACAD_LAYOUTSELFREF
360
5AC5
  0
DICTIONARY
  5
D
102
{ACAD_REACTORS
330
C
102
}
330
C
100
AcDbDictionary
  0
DICTIONARY
  5
1A
102
{ACAD_REACTORS
330
C
102
}
330
C
100
AcDbDictionary
  0
DICTIONARY
  5
17
102
{ACAD_REACTORS
330
C
102
}
330
C
100
AcDbDictionary
  3
STANDARD
350
18
  0
DICTIONARY
  5
19
102
{ACAD_REACTORS
330
C
102
}
330
C
100
AcDbDictionary
  0
ACDBDICTIONARYWDFLT
  5
E
102
{ACAD_REACTORS
330
C
102
}
330
C
100
AcDbDictionary
281
     1
  3
Normal
350
F
100
AcDbDictionaryWithDefault
340
F
  0
DICTIONARY
  5
34
102
{ACAD_REACTORS
330
C
102
}
330
C
100
AcDbDictionary
  3
INDEXCTL
350
35
  3
SORTENTS
350
B5E
  0
DICTIONARY
  5
43
102
{ACAD_REACTORS
330
C
102
}
330
C
100
AcDbDictionary
  3
ACMSTDDICTIONARY
350
260
  0
DICTIONARY
  5
2B
102
{ACAD_REACTORS
330
C
102
}
330
C
100
AcDbDictionary
  3
ACMGSETTINGS
350
2C
  0
DICTIONARY
  5
6E
102
{ACAD_REACTORS
330
C
102
}
330
C
100
AcDbDictionary
  0
XRECORD
  5
5A8C
102
{ACAD_REACTORS
330
C
102
}
330
C
100
AcDbXrecord
  1
DWGPROPS COOKIE
  2

  3

  4

  6

  7

  8

  9

300
AmdtFileType=82
301
=
302
=
303
=
304
=
305
=
306
=
307
=
308
=
309
=
 40
0.6645891666666667
 41
2452800.443498622
 42
2453002.908462651
  1

 90
        1
  0
DICTIONARY
  5
5A9C
102
{ACAD_REACTORS
330
C
102
}
330
C
100
AcDbDictionary
  3
TSTACKALIGN
350
5A9D
  3
TSTACKSIZE
350
5A9E
  3
HYPERLINKBASE
350
5A9F
  3
STYLESHEET
350
5AA0
  3
LAYOUTDICT
350
5AA1
  3
PLOTSETDICT
350
5AA2
  3
PLOTSTYLNAMDICT
350
5AA3
  3
LWETCUNION
350
5AA4
  3
INSUNITS
350
5AA5
  3
CEPSNTYPE
350
5AA6
  3
FINGERPRINTGUID
350
5AA7
  3
VERSIONGUID
350
5AA8
  3
PSVPSCALE
350
5AA9
  3
DIMSTYLEDATA
350
5AAA
  3
PUCSORTHOREF
350
5AAB
  3
PUCSORTHOVIEW
350
5AAC
  3
PUCSBASE
350
5AAD
  3
PUCSORGTOP
350
5AAE
  3
PUCSORGBOTTOM
350
5AAF
  3
PUCSORGLEFT
350
5AB0
  3
PUCSORGRIGHT
350
5AB1
  3
PUCSORGFRONT
350
5AB2
  3
PUCSORGBACK
350
5AB3
  3
UCSORTHOREF
350
5AB4
  3
UCSORTHOVIEW
350
5AB5
  3
UCSBASE
350
5AB6
  3
UCSORGTOP
350
5AB7
  3
UCSORGBOTTOM
350
5AB8
  3
UCSORGLEFT
350
5AB9
  3
UCSORGRIGHT
350
5ABA
  3
UCSORGFRONT
350
5ABB
  3
UCSORGBACK
350
5ABC
  0
DICTIONARY
  5
5A8E
102
{ACAD_REACTORS
330
74
102
}
330
74
100
AcDbDictionary
  3
*A1
350
5A8F
  0
XRECORD
  5
5ABF
102
{ACAD_REACTORS
330
74
102
}
330
74
100
AcDbXrecord
340
1F
  0
XRECORD
  5
5AC5
102
{ACAD_REACTORS
330
5AC4
102
}
330
5AC4
100
AcDbXrecord
340
101
  0
MLINESTYLE
  5
18
102
{ACAD_REACTORS
330
17
102
}
330
17
100
AcDbMlineStyle
  2
STANDARD
 70
     0
  3

 62
   256
 51
90.0
 52
90.0
 71
     2
 49
0.5
 62
   256
  6
BYLAYER
 49
-0.5
 62
   256
  6
BYLAYER
  0
ACDBPLACEHOLDER
  5
F
102
{ACAD_REACTORS
330
E
102
}
330
E
100
AcDbPlaceHolder
280
     0
  0
DICTIONARYVAR
  5
35
102
{ACAD_REACTORS
330
34
102
}
330
34
100
DictionaryVariables
280
     0
  1
1
  0
DICTIONARYVAR
  5
B5E
102
{ACAD_REACTORS
330
34
102
}
330
34
100
DictionaryVariables
280
     0
  1
96
  0
DICTIONARY
  5
260
102
{ACAD_REACTORS
330
43
102
}
330
43
100
AcDbDictionary
  0
DICTIONARY
  5
2C
102
{ACAD_REACTORS
330
2B
102
}
330
2B
100
AcDbDictionary
  3
DWGSETTINGS
350
2D
  0
XRECORD
  5
5A9D
102
{ACAD_REACTORS
330
5A9C
102
}
330
5A9C
100
AcDbXrecord
 90
        1
  0
XRECORD
  5
5A9E
102
{ACAD_REACTORS
330
5A9C
102
}
330
5A9C
100
AcDbXrecord
 90
       70
  0
XRECORD
  5
5A9F
102
{ACAD_REACTORS
330
5A9C
102
}
330
5A9C
100
AcDbXrecord
  1

  0
XRECORD
  5
5AA0
102
{ACAD_REACTORS
330
5A9C
102
}
330
5A9C
100
AcDbXrecord
  1
ASAMI.ctb
  0
XRECORD
  5
5AA1
102
{ACAD_REACTORS
330
5A9C
102
}
330
5A9C
100
AcDbXrecord
340
1A
  0
XRECORD
  5
5AA2
102
{ACAD_REACTORS
330
5A9C
102
}
330
5A9C
100
AcDbXrecord
340
19
  0
XRECORD
  5
5AA3
102
{ACAD_REACTORS
330
5A9C
102
}
330
5A9C
100
AcDbXrecord
340
E
  0
XRECORD
  5
5AA4
102
{ACAD_REACTORS
330
5A9C
102
}
330
5A9C
100
AcDbXrecord
 90
    10781
  0
XRECORD
  5
5AA5
102
{ACAD_REACTORS
330
5A9C
102
}
330
5A9C
100
AcDbXrecord
 90
        4
  0
XRECORD
  5
5AA6
102
{ACAD_REACTORS
330
5A9C
102
}
330
5A9C
100
AcDbXrecord
 90
        0
  0
XRECORD
  5
5AA7
102
{ACAD_REACTORS
330
5A9C
102
}
330
5A9C
100
AcDbXrecord
  1
{AFB28963-8C59-40AE-9337-C84526B81ACE}
  0
XRECORD
  5
5AA8
102
{ACAD_REACTORS
330
5A9C
102
}
330
5A9C
100
AcDbXrecord
  1
{E5E83472-A4D4-4C9B-9952-9E03547FD581}
  0
XRECORD
  5
5AA9
102
{ACAD_REACTORS
330
5A9C
102
}
330
5A9C
100
AcDbXrecord
 40
0.0
  0
XRECORD
  5
5AAA
102
{ACAD_REACTORS
330
5A9C
102
}
330
5A9C
100
AcDbXrecord
1000
DSTYLE
1002
{
1070
    79
 70
     2
1070
   341
340
59
1070
   342
340
59
1070
   371
 70
    -1
1070
   372
 70
    -1
1002
}
  0
XRECORD
  5
5AAB
102
{ACAD_REACTORS
330
5A9C
102
}
330
5A9C
100
AcDbXrecord
340
0
  0
XRECORD
  5
5AAC
102
{ACAD_REACTORS
330
5A9C
102
}
330
5A9C
100
AcDbXrecord
 70
     0
  0
XRECORD
  5
5AAD
102
{ACAD_REACTORS
330
5A9C
102
}
330
5A9C
100
AcDbXrecord
340
0
  0
XRECORD
  5
5AAE
102
{ACAD_REACTORS
330
5A9C
102
}
330
5A9C
100
AcDbXrecord
 10
0.0
 20
0.0
 30
0.0
  0
XRECORD
  5
5AAF
102
{ACAD_REACTORS
330
5A9C
102
}
330
5A9C
100
AcDbXrecord
 10
0.0
 20
0.0
 30
0.0
  0
XRECORD
  5
5AB0
102
{ACAD_REACTORS
330
5A9C
102
}
330
5A9C
100
AcDbXrecord
 10
0.0
 20
0.0
 30
0.0
  0
XRECORD
  5
5AB1
102
{ACAD_REACTORS
330
5A9C
102
}
330
5A9C
100
AcDbXrecord
 10
0.0
 20
0.0
 30
0.0
  0
XRECORD
  5
5AB2
102
{ACAD_REACTORS
330
5A9C
102
}
330
5A9C
100
AcDbXrecord
 10
0.0
 20
0.0
 30
0.0
  0
XRECORD
  5
5AB3
102
{ACAD_REACTORS
330
5A9C
102
}
330
5A9C
100
AcDbXrecord
 10
0.0
 20
0.0
 30
0.0
  0
XRECORD
  5
5AB4
102
{ACAD_REACTORS
330
5A9C
102
}
330
5A9C
100
AcDbXrecord
340
0
  0
XRECORD
  5
5AB5
102
{ACAD_REACTORS
330
5A9C
102
}
330
5A9C
100
AcDbXrecord
 70
     0
  0
XRECORD
  5
5AB6
102
{ACAD_REACTORS
330
5A9C
102
}
330
5A9C
100
AcDbXrecord
340
0
  0
XRECORD
  5
5AB7
102
{ACAD_REACTORS
330
5A9C
102
}
330
5A9C
100
AcDbXrecord
 10
0.0
 20
0.0
 30
0.0
  0
XRECORD
  5
5AB8
102
{ACAD_REACTORS
330
5A9C
102
}
330
5A9C
100
AcDbXrecord
 10
0.0
 20
0.0
 30
0.0
  0
XRECORD
  5
5AB9
102
{ACAD_REACTORS
330
5A9C
102
}
330
5A9C
100
AcDbXrecord
 10
0.0
 20
0.0
 30
0.0
  0
XRECORD
  5
5ABA
102
{ACAD_REACTORS
330
5A9C
102
}
330
5A9C
100
AcDbXrecord
 10
0.0
 20
0.0
 30
0.0
  0
XRECORD
  5
5ABB
102
{ACAD_REACTORS
330
5A9C
102
}
330
5A9C
100
AcDbXrecord
 10
0.0
 20
0.0
 30
0.0
  0
XRECORD
  5
5ABC
102
{ACAD_REACTORS
330
5A9C
102
}
330
5A9C
100
AcDbXrecord
 10
0.0
 20
0.0
 30
0.0
  0
LAYER_INDEX
  5
5A8F
102
{ACAD_REACTORS
330
5A8E
102
}
330
5A8E
100
AcDbIndex
 40
2453151.700504537
100
AcDbLayerIndex
  8
0
360
5A90
 90
        0
  8
AM_0
360
5A91
 90
       16
  8
PV0001_1
360
5A92
 90
       30
  8
AM_CL
360
5A93
 90
        0
  8
AM_7
360
5A94
 90
        1
  8
AM_11
360
5A95
 90
        3
  8
AM_5
360
5A96
 90
       10
  8
Defpoints
360
5A97
 90
        0
  8
AM_6
360
5A98
 90
        1
  8
AM_4
360
5A99
 90
        0
  8
AM_3
360
5A9A
 90
        0
  0
XRECORD
  5
2D
102
{ACAD_REACTORS
330
2C
102
}
330
2C
100
AcDbXrecord
  1
VERSION
140
15.0
  1
PRODUCT
  2
AutoCAD Mechanical 2000
  0
IDBUFFER
  5
5A90
330
0
100
AcDbIdBuffer
  0
IDBUFFER
  5
5A91
330
0
100
AcDbIdBuffer
330
4ED1
330
4ED6
330
4EF5
330
4EF6
330
5724
330
5725
330
5726
330
5727
330
5728
330
5729
330
5949
330
594B
330
5951
330
5A46
330
5A4C
330
5A50
  0
IDBUFFER
  5
5A92
330
0
100
AcDbIdBuffer
330
5948
330
594C
330
594D
330
594E
330
5950
330
595B
330
595D
330
5A47
330
5A48
330
5A49
330
5A4B
330
5A4D
330
5A4E
330
5A51
330
35CA
330
35EA
330
35EB
330
35F9
330
35FA
330
35FB
330
35FD
330
3601
330
3602
330
395A
330
48BA
330
574B
330
590E
330
590F
330
5946
330
5947
  0
IDBUFFER
  5
5A93
330
0
100
AcDbIdBuffer
  0
IDBUFFER
  5
5A94
330
0
100
AcDbIdBuffer
330
35D1
  0
IDBUFFER
  5
5A95
330
0
100
AcDbIdBuffer
330
595C
330
5A4A
330
5A4F
  0
IDBUFFER
  5
5A96
330
0
100
AcDbIdBuffer
330
36BA
330
3866
330
3C40
330
3D56
330
3DFD
330
53D8
330
53E5
330
53F2
330
53FF
330
5939
  0
IDBUFFER
  5
5A97
330
0
100
AcDbIdBuffer
  0
IDBUFFER
  5
5A98
330
0
100
AcDbIdBuffer
330
19BD
  0
IDBUFFER
  5
5A99
330
0
100
AcDbIdBuffer
  0
IDBUFFER
  5
5A9A
330
0
100
AcDbIdBuffer
  0
ENDSEC
  0
EOF
