  0
SECTION
  2
HEADER
  9
$ACADVER
  1
AC1014
  9
$ACADMAINTVER
 70
     9
  9
$DWGCODEPAGE
  3
ANSI_932
  9
$INSBASE
 10
0.0
 20
0.0
 30
0.0
  9
$EXTMIN
 10
-251.3595993751609
 20
-77.90201790848887
 30
-0.00000001
  9
$EXTMAX
 10
36.12411063492018
 20
49.08314215858936
 30
0.00000001
  9
$LIMMIN
 10
-291.4811019758311
 20
-117.6221487016157
  9
$LIMMAX
 10
70.41578933246455
 20
80.52123395846399
  9
$ORTHOMODE
 70
     0
  9
$REGENMODE
 70
     1
  9
$FILLMODE
 70
     1
  9
$QTEXTMODE
 70
     0
  9
$MIRRTEXT
 70
     0
  9
$DRAGMODE
 70
     2
  9
$LTSCALE
 40
1.0
  9
$OSMODE
 70
    55
  9
$ATTMODE
 70
     1
  9
$TEXTSIZE
 40
2.5
  9
$TRACEWID
 40
1.0
  9
$TEXTSTYLE
  7
STANDARD
  9
$CLAYER
  8
AM_0
  9
$CELTYPE
  6
BYLAYER
  9
$CECOLOR
 62
   256
  9
$CELTSCALE
 40
1.0
  9
$DELOBJ
 70
     1
  9
$DISPSILH
 70
     0
  9
$DIMSCALE
 40
1.0
  9
$DIMASZ
 40
2.5
  9
$DIMEXO
 40
1.0
  9
$DIMDLI
 40
12.0
  9
$DIMRND
 40
0.0
  9
$DIMDLE
 40
0.0
  9
$DIMEXE
 40
1.0
  9
$DIMTP
 40
0.1
  9
$DIMTM
 40
0.1
  9
$DIMTXT
 40
3.2
  9
$DIMCEN
 40
0.0
  9
$DIMTSZ
 40
0.0
  9
$DIMTOL
 70
     0
  9
$DIMLIM
 70
     0
  9
$DIMTIH
 70
     0
  9
$DIMTOH
 70
     0
  9
$DIMSE1
 70
     0
  9
$DIMSE2
 70
     0
  9
$DIMTAD
 70
     3
  9
$DIMZIN
 70
     8
  9
$DIMBLK
  1
OPEN30
  9
$DIMASO
 70
     1
  9
$DIMSHO
 70
     1
  9
$DIMPOST
  1

  9
$DIMAPOST
  1
"
  9
$DIMALT
 70
     0
  9
$DIMALTD
 70
     2
  9
$DIMALTF
 40
0.0393701
  9
$DIMLFAC
 40
1.0
  9
$DIMTOFL
 70
     1
  9
$DIMTVP
 40
0.0
  9
$DIMTIX
 70
     0
  9
$DIMSOXD
 70
     0
  9
$DIMSAH
 70
     0
  9
$DIMBLK1
  1

  9
$DIMBLK2
  1

  9
$DIMSTYLE
  2
AM_JIS
  9
$DIMCLRD
 70
   256
  9
$DIMCLRE
 70
   256
  9
$DIMCLRT
 70
     2
  9
$DIMTFAC
 40
0.71
  9
$DIMGAP
 40
1.5
  9
$DIMJUST
 70
     0
  9
$DIMSD1
 70
     0
  9
$DIMSD2
 70
     0
  9
$DIMTOLJ
 70
     0
  9
$DIMTZIN
 70
     0
  9
$DIMALTZ
 70
     0
  9
$DIMALTTZ
 70
     0
  9
$DIMFIT
 70
     3
  9
$DIMUPT
 70
     0
  9
$DIMUNIT
 70
     2
  9
$DIMDEC
 70
     3
  9
$DIMTDEC
 70
     3
  9
$DIMALTU
 70
     2
  9
$DIMALTTD
 70
     2
  9
$DIMTXSTY
  7
ASAMI
  9
$DIMAUNIT
 70
     0
  9
$LUNITS
 70
     2
  9
$LUPREC
 70
     2
  9
$SKETCHINC
 40
1.0
  9
$FILLETRAD
 40
2.5
  9
$AUNITS
 70
     0
  9
$AUPREC
 70
     0
  9
$MENU
  1
.
  9
$ELEVATION
 40
0.0
  9
$PELEVATION
 40
0.0
  9
$THICKNESS
 40
0.0
  9
$LIMCHECK
 70
     0
  9
$BLIPMODE
 70
     0
  9
$CHAMFERA
 40
2.5
  9
$CHAMFERB
 40
2.5
  9
$CHAMFERC
 40
20.0
  9
$CHAMFERD
 40
0.0
  9
$SKPOLY
 70
     0
  9
$TDCREATE
 40
2452800.443498622
  9
$TDUPDATE
 40
2453151.709048020
  9
$TDINDWG
 40
0.4979451736
  9
$TDUSRTIMER
 40
0.4979451736
  9
$USRTIMER
 70
     1
  9
$ANGBASE
 50
0.0
  9
$ANGDIR
 70
     0
  9
$PDMODE
 70
     0
  9
$PDSIZE
 40
0.0
  9
$PLINEWID
 40
0.0
  9
$COORDS
 70
     1
  9
$SPLFRAME
 70
     0
  9
$SPLINETYPE
 70
     6
  9
$SPLINESEGS
 70
     8
  9
$ATTDIA
 70
     1
  9
$ATTREQ
 70
     1
  9
$HANDLING
 70
 12289
  9
$HANDSEED
  5
54A6
  9
$SURFTAB1
 70
     6
  9
$SURFTAB2
 70
     6
  9
$SURFTYPE
 70
     6
  9
$SURFU
 70
     6
  9
$SURFV
 70
     6
  9
$UCSNAME
  2

  9
$UCSORG
 10
-0.0000000000002549
 20
-0.0000000000001167
 30
0.0
  9
$UCSXDIR
 10
1.0
 20
0.0000000000000027
 30
0.0
  9
$UCSYDIR
 10
-0.0000000000000027
 20
1.0
 30
0.0
  9
$PUCSNAME
  2

  9
$PUCSORG
 10
0.0
 20
0.0
 30
0.0
  9
$PUCSXDIR
 10
1.0
 20
0.0
 30
0.0
  9
$PUCSYDIR
 10
0.0
 20
1.0
 30
0.0
  9
$USERI1
 70
     0
  9
$USERI2
 70
     0
  9
$USERI3
 70
     0
  9
$USERI4
 70
     0
  9
$USERI5
 70
     0
  9
$USERR1
 40
0.0
  9
$USERR2
 40
0.0
  9
$USERR3
 40
0.0
  9
$USERR4
 40
0.0
  9
$USERR5
 40
0.0
  9
$WORLDVIEW
 70
     1
  9
$SHADEDGE
 70
     3
  9
$SHADEDIF
 70
    70
  9
$TILEMODE
 70
     1
  9
$MAXACTVP
 70
    64
  9
$PINSBASE
 10
0.0
 20
0.0
 30
0.0
  9
$PLIMCHECK
 70
     0
  9
$PEXTMIN
 10
1.000000000000000E+20
 20
1.000000000000000E+20
 30
1.000000000000000E+20
  9
$PEXTMAX
 10
-1.000000000000000E+20
 20
-1.000000000000000E+20
 30
-1.000000000000000E+20
  9
$PLIMMIN
 10
0.0
 20
0.0
  9
$PLIMMAX
 10
841.0
 20
594.0
  9
$UNITMODE
 70
     0
  9
$VISRETAIN
 70
     1
  9
$PLINEGEN
 70
     0
  9
$PSLTSCALE
 70
     0
  9
$TREEDEPTH
 70
  3020
  9
$PICKSTYLE
 70
     0
  9
$CMLSTYLE
  2
STANDARD
  9
$CMLJUST
 70
     0
  9
$CMLSCALE
 40
20.0
  9
$PROXYGRAPHICS
 70
     1
  9
$MEASUREMENT
 70
     1
  0
ENDSEC
  0
SECTION
  2
CLASSES
  0
CLASS
  1
ACDBDICTIONARYWDFLT
  2
AcDbDictionaryWithDefault
  3
AutoCAD 2000
 90
        0
280
     0
281
     0
  0
CLASS
  1
ACDBPLACEHOLDER
  2
AcDbPlaceHolder
  3
AutoCAD 2000
 90
        0
280
     0
281
     0
  0
CLASS
  1
LAYOUT
  2
AcDbLayout
  3
AutoCAD 2000
 90
        0
280
     0
281
     0
  0
CLASS
  1
AMGSETTINGSOBJ
  2
AmgSettingsObj
  3
"AcadM|Product Description: AutoCAD Mechanical 2000|Company: Autodesk"
 90
        0
280
     0
281
     0
  0
CLASS
  1
ACME_DOCUMENT
  2
AcMeDbDoc
  3
AcMeServices
 90
        0
280
     0
281
     0
  0
CLASS
  1
ACMESCOPE
  2
AcMeScope
  3
AcMeServices
 90
        0
280
     0
281
     0
  0
CLASS
  1
ACMECOMMANDHISTORY
  2
AcMeCommandHistory
  3
AcMeServices
 90
        0
280
     0
281
     0
  0
CLASS
  1
DICTIONARYVAR
  2
AcDbDictionaryVar
  3
AutoCAD 2000
 90
        0
280
     0
281
     0
  0
CLASS
  1
ACIMSYSVARMAN
  2
AcImSysVarManager
  3
AcMeServices
 90
        0
280
     0
281
     0
  0
CLASS
  1
ACIMREALSYSVAR
  2
AcImRealSysVar
  3
AcMeServices
 90
        0
280
     0
281
     0
  0
CLASS
  1
ACIMINTSYSVAR
  2
AcImIntSysVar
  3
AcMeServices
 90
        0
280
     0
281
     0
  0
CLASS
  1
ACMEDRAWINGMAN
  2
AcMeDrawingMan
  3
AcMeServices
 90
        0
280
     0
281
     0
  0
CLASS
  1
ACMEVIEW
  2
AcMeView
  3
AcMeServices
 90
        0
280
     0
281
     0
  0
CLASS
  1
ACDBENTITYCACHE
  2
AcMeEntityCache
  3
AcMeServices
 90
        0
280
     0
281
     0
  0
CLASS
  1
GSMANAGER
  2
AcMeGSManager
  3
AcMeServices
 90
        0
280
     0
281
     0
  0
CLASS
  1
AmdtInternalReactor
  2
AmdtInternalReactor
  3
AcMeServices
 90
        0
280
     0
281
     0
  0
CLASS
  1
ACMESTATEMGR
  2
AcMeStateMgr
  3
AcMeServices
 90
        0
280
     0
281
     0
  0
CLASS
  1
ACME_DATABASE
  2
AcMeDbDatabase
  3
AcMeServices
 90
        0
280
     0
281
     0
  0
CLASS
  1
ACRFINSADJUSTERMGR
  2
AcRfInsAdjusterMgr
  3
AcMeServices
 90
        0
280
     0
281
     0
  0
CLASS
  1
ACMDATADICTIONARY
  2
AcmDataDictionary
  3
"AcmSymBB|Product Description: AutoCAD Mechanical 2000|Company: Autodesk"
 90
        0
280
     0
281
     0
  0
CLASS
  1
ACMDATAENTRYBLOCK
  2
AcmDataEntryBlock
  3
"AcmSymBB|Product Description: AutoCAD Mechanical 2000|Company: Autodesk"
 90
        0
280
     0
281
     0
  0
CLASS
  1
AMGOBJPROPCFG
  2
AmgObjPropCfg
  3
"AmgLay|Product Description: AutoCAD Mechanical 2000|Company: Autodesk"
 90
        1
280
     0
281
     0
  0
CLASS
  1
ACAMGFILTERDAT
  2
AcAmgFilterDat
  3
"AcadM|Product Description: AutoCAD Mechanical 2000|Company: Autodesk"
 90
        0
280
     0
281
     0
  0
CLASS
  1
LAYER_INDEX
  2
AcDbLayerIndex
  3
AutoCAD 2000
 90
        0
280
     0
281
     0
  0
CLASS
  1
IDBUFFER
  2
AcDbIdBuffer
  3
AutoCAD 2000
 90
        0
280
     0
281
     0
  0
CLASS
  1
ACIMSTRSYSVAR
  2
AcImStrSysVar
  3
AcMeServices
 90
        0
280
     0
281
     0
  0
CLASS
  1
ACMSTANDARDJIS
  2
AcmStandardJIS
  3
"AcmSymBB|Product Description: AutoCAD Mechanical 2000|Company: Autodesk"
 90
        0
280
     0
281
     0
  0
CLASS
  1
ACMSURFSTANDARDJIS
  2
AcmSurfTextStdJIS
  3
"AcmSymBB|Product Description: AutoCAD Mechanical 2000|Company: Autodesk"
 90
        0
280
     0
281
     0
  0
CLASS
  1
ACMFCFSTANDARDJIS
  2
AcmFCFStdJIS
  3
"AcmSymBB|Product Description: AutoCAD Mechanical 2000|Company: Autodesk"
 90
        0
280
     0
281
     0
  0
CLASS
  1
ACMWELDSTANDARDJIS
  2
AcmWeldingStdJIS
  3
"AcmSymBB|Product Description: AutoCAD Mechanical 2000|Company: Autodesk"
 90
        0
280
     0
281
     0
  0
CLASS
  1
ACMIDSTANDARDJIS
  2
AcmIdStdJIS
  3
"AcmSymBB|Product Description: AutoCAD Mechanical 2000|Company: Autodesk"
 90
        0
280
     0
281
     0
  0
CLASS
  1
ACMDATUMSTANDARDJIS
  2
AcmDatumStdJIS
  3
"AcmSymBB|Product Description: AutoCAD Mechanical 2000|Company: Autodesk"
 90
        0
280
     0
281
     0
  0
CLASS
  1
ACMBOMSTANDARDJIS
  2
AcmBOMStdJIS
  3
"AcmSymBB|Product Description: AutoCAD Mechanical 2000|Company: Autodesk"
 90
        0
280
     0
281
     0
  0
CLASS
  1
ACMSTANDARDANSI
  2
AcmStandardANSI
  3
"AcmSymBB|Product Description: AutoCAD Mechanical 2000|Company: Autodesk"
 90
        0
280
     0
281
     0
  0
CLASS
  1
ACMSURFSTANDARDANSI
  2
AcmSurfTextStdANSI
  3
"AcmSymBB|Product Description: AutoCAD Mechanical 2000|Company: Autodesk"
 90
        0
280
     0
281
     0
  0
CLASS
  1
ACMFCFSTANDARDANSI
  2
AcmFCFStdANSI
  3
"AcmSymBB|Product Description: AutoCAD Mechanical 2000|Company: Autodesk"
 90
        0
280
     0
281
     0
  0
CLASS
  1
ACMWELDSTANDARDANSI
  2
AcmWeldingStdANSI
  3
"AcmSymBB|Product Description: AutoCAD Mechanical 2000|Company: Autodesk"
 90
        0
280
     0
281
     0
  0
CLASS
  1
ACMIDSTANDARDANSI
  2
AcmIdStdANSI
  3
"AcmSymBB|Product Description: AutoCAD Mechanical 2000|Company: Autodesk"
 90
        0
280
     0
281
     0
  0
CLASS
  1
ACMDATUMSTANDARDANSI
  2
AcmDatumStdANSI
  3
"AcmSymBB|Product Description: AutoCAD Mechanical 2000|Company: Autodesk"
 90
        0
280
     0
281
     0
  0
CLASS
  1
ACMBOMSTANDARDANSI
  2
AcmBOMStdANSI
  3
"AcmSymBB|Product Description: AutoCAD Mechanical 2000|Company: Autodesk"
 90
        0
280
     0
281
     0
  0
CLASS
  1
ACMSTANDARDBSI
  2
AcmStandardBSI
  3
"AcmSymBB|Product Description: AutoCAD Mechanical 2000|Company: Autodesk"
 90
        0
280
     0
281
     0
  0
CLASS
  1
ACMSURFSTANDARDBSI
  2
AcmSurfTextStdBSI
  3
"AcmSymBB|Product Description: AutoCAD Mechanical 2000|Company: Autodesk"
 90
        0
280
     0
281
     0
  0
CLASS
  1
ACMFCFSTANDARDBSI
  2
AcmFCFStdBSI
  3
"AcmSymBB|Product Description: AutoCAD Mechanical 2000|Company: Autodesk"
 90
        0
280
     0
281
     0
  0
CLASS
  1
ACMWELDSTANDARDBSI
  2
AcmWeldingStdBSI
  3
"AcmSymBB|Product Description: AutoCAD Mechanical 2000|Company: Autodesk"
 90
        0
280
     0
281
     0
  0
CLASS
  1
ACMIDSTANDARDBSI
  2
AcmIdStdBSI
  3
"AcmSymBB|Product Description: AutoCAD Mechanical 2000|Company: Autodesk"
 90
        0
280
     0
281
     0
  0
CLASS
  1
ACMDATUMSTANDARDBSI
  2
AcmDatumStdBSI
  3
"AcmSymBB|Product Description: AutoCAD Mechanical 2000|Company: Autodesk"
 90
        0
280
     0
281
     0
  0
CLASS
  1
ACMBOMSTANDARDBSI
  2
AcmBOMStdBSI
  3
"AcmSymBB|Product Description: AutoCAD Mechanical 2000|Company: Autodesk"
 90
        0
280
     0
281
     0
  0
CLASS
  1
LONG_TRANSACTION
  2
AcDbLongTransaction
  3
AutoCAD 2000
 90
        0
280
     0
281
     0
  0
CLASS
  1
LWPOLYLINE
  2
AcDbPolyline
  3
AutoCAD 2000
 90
        0
280
     0
281
     1
  0
CLASS
  1
HATCH
  2
AcDbHatch
  3
AutoCAD 2000
 90
        0
280
     0
281
     1
  0
CLASS
  1
XRECORD
  2
AcDbXrecord
  3
AutoCAD 2000
 90
        0
280
     0
281
     0
  0
ENDSEC
  0
SECTION
  2
TABLES
  0
TABLE
  2
VPORT
  5
8
330
0
100
AcDbSymbolTable
 70
     3
  0
VPORT
  5
547B
330
8
100
AcDbSymbolTableRecord
100
AcDbViewportTableRecord
  2
*ACTIVE
 70
     0
 10
0.0
 20
0.0
 11
1.0
 21
1.0
 12
-95.74263951337698
 22
-2.424773987643476
 13
0.0
 23
0.0
 14
2.5
 24
2.5
 15
10.0
 25
10.0
 16
0.0
 26
0.0
 36
1.0
 17
0.0
 27
0.0
 37
0.0
 40
247.2367685131793
 41
1.56570841889117
 42
50.0
 43
0.0
 44
0.0
 50
0.0
 51
0.0
 71
     0
 72
   100
 73
     1
 74
     1
 75
     0
 76
     0
 77
     0
 78
     0
  0
ENDTAB
  0
TABLE
  2
LTYPE
  5
5
330
0
100
AcDbSymbolTable
 70
    10
  0
LTYPE
  5
14
330
5
100
AcDbSymbolTableRecord
100
AcDbLinetypeTableRecord
  2
BYBLOCK
 70
     0
  3

 72
    65
 73
     0
 40
0.0
  0
LTYPE
  5
15
330
5
100
AcDbSymbolTableRecord
100
AcDbLinetypeTableRecord
  2
BYLAYER
 70
     0
  3

 72
    65
 73
     0
 40
0.0
  0
LTYPE
  5
16
330
5
100
AcDbSymbolTableRecord
100
AcDbLinetypeTableRecord
  2
CONTINUOUS
 70
     0
  3
Solid line
 72
    65
 73
     0
 40
0.0
  0
LTYPE
  5
4B
330
5
100
AcDbSymbolTableRecord
100
AcDbLinetypeTableRecord
  2
AM_ISO02W050
 70
     0
  3
__ __ __ __ __ __ __ __ __ __ __ __ __ __ __
 72
    65
 73
     2
 40
7.5
 49
6.0
 74
     0
 49
-1.5
 74
     0
  0
LTYPE
  5
4C
330
5
100
AcDbSymbolTableRecord
100
AcDbLinetypeTableRecord
  2
AM_ISO08W050
 70
     0
  3
____ . ____ . ____ . ____ . ____ . ____ . ____
 72
    65
 73
     4
 40
18.0
 49
12.0
 74
     0
 49
-1.5
 74
     0
 49
3.0
 74
     0
 49
-1.5
 74
     0
  0
LTYPE
  5
4D
330
5
100
AcDbSymbolTableRecord
100
AcDbLinetypeTableRecord
  2
AM_ISO09W050
 70
     0
  3
_____ . . _____ . . _____ . . ____ .. ____
 72
    65
 73
     6
 40
22.5
 49
12.0
 74
     0
 49
-1.5
 74
     0
 49
3.0
 74
     0
 49
-1.5
 74
     0
 49
3.0
 74
     0
 49
-1.5
 74
     0
  0
LTYPE
  5
4E
330
5
100
AcDbSymbolTableRecord
100
AcDbLinetypeTableRecord
  2
AMCONSTR
 70
     0
  3
_______________________
 72
    65
 73
     2
 40
9999.0
 49
9999.0
 74
     0
 49
0.0
 74
     0
  0
LTYPE
  5
4F
330
5
100
AcDbSymbolTableRecord
100
AcDbLinetypeTableRecord
  2
AM_ISO02W050X2
 70
     0
  3
 _ _ _ _ _ _ _ _ _ _ _ _
 72
    65
 73
     2
 40
3.75
 49
3.0
 74
     0
 49
-0.75
 74
     0
  0
LTYPE
  5
50
330
5
100
AcDbSymbolTableRecord
100
AcDbLinetypeTableRecord
  2
AM_ISO08W050X2
 70
     0
  3
__ . __ . __ . __ . __ . __
 72
    65
 73
     4
 40
9.0
 49
6.0
 74
     0
 49
-0.75
 74
     0
 49
1.5
 74
     0
 49
-0.75
 74
     0
  0
LTYPE
  5
53
330
5
100
AcDbSymbolTableRecord
100
AcDbLinetypeTableRecord
  2
AMZIGZAG
 70
     0
  3
/\/-/\/-/\/-/\/-/\/-/\/
 72
    65
 73
     2
 40
11.00009999999999
 49
0.0001
 74
     4
 75
   135
340
52
 46
0.04
 50
0.0
 44
0.0
 45
0.0
 49
-11.0
 74
     0
  0
LTYPE
  5
166
330
5
100
AcDbSymbolTableRecord
100
AcDbLinetypeTableRecord
  2
ACJISTGL
 70
     0
  3
_ _ _ _ _
 72
    65
 73
     2
 40
3.0
 49
2.0
 74
     0
 49
-1.0
 74
     0
  0
LTYPE
  5
26A
330
5
100
AcDbSymbolTableRecord
100
AcDbLinetypeTableRecord
  2
ACJISTGB
 70
     0
  3
__ . . __ . .
 72
    65
 73
     6
 40
9.0
 49
4.0
 74
     0
 49
-1.0
 74
     0
 49
1.0
 74
     0
 49
-1.0
 74
     0
 49
1.0
 74
     0
 49
-1.0
 74
     0
  0
ENDTAB
  0
TABLE
  2
LAYER
  5
2
330
0
100
AcDbSymbolTable
 70
    11
  0
LAYER
  5
10
330
2
100
AcDbSymbolTableRecord
100
AcDbLayerTableRecord
  2
0
 70
     0
 62
     7
  6
CONTINUOUS
  0
LAYER
  5
3F9
330
2
100
AcDbSymbolTableRecord
100
AcDbLayerTableRecord
  2
AM_0
 70
     0
 62
     7
  6
CONTINUOUS
  0
LAYER
  5
BA4
330
2
100
AcDbSymbolTableRecord
100
AcDbLayerTableRecord
  2
PV0001_1
 70
     0
 62
     7
  6
CONTINUOUS
  0
LAYER
  5
C6C
330
2
100
AcDbSymbolTableRecord
100
AcDbLayerTableRecord
  2
AM_CL
 70
     0
 62
     1
  6
AMCONSTR
  0
LAYER
  5
C7C
330
2
100
AcDbSymbolTableRecord
100
AcDbLayerTableRecord
  2
AM_7
 70
     0
 62
     4
  6
AM_ISO08W050
  0
LAYER
  5
C97
330
2
100
AcDbSymbolTableRecord
100
AcDbLayerTableRecord
  2
AM_11
 70
     0
 62
     3
  6
AM_ISO09W050
  0
LAYER
  5
CC5
330
2
100
AcDbSymbolTableRecord
100
AcDbLayerTableRecord
  2
AM_5
 70
     0
 62
     3
  6
CONTINUOUS
  0
LAYER
  5
CC7
330
2
100
AcDbSymbolTableRecord
100
AcDbLayerTableRecord
  2
DEFPOINTS
 70
     0
 62
     7
  6
CONTINUOUS
  0
LAYER
  5
19BC
330
2
100
AcDbSymbolTableRecord
100
AcDbLayerTableRecord
  2
AM_6
 70
     0
 62
     2
  6
CONTINUOUS
  0
LAYER
  5
1F8E
330
2
100
AcDbSymbolTableRecord
100
AcDbLayerTableRecord
  2
AM_4
 70
     0
 62
     3
  6
CONTINUOUS
  0
LAYER
  5
3588
330
2
100
AcDbSymbolTableRecord
100
AcDbLayerTableRecord
  2
AM_3
 70
     0
 62
     6
  6
ACJISTGL
  0
ENDTAB
  0
TABLE
  2
STYLE
  5
3
330
0
100
AcDbSymbolTable
 70
     5
  0
STYLE
  5
11
330
3
100
AcDbSymbolTableRecord
100
AcDbTextStyleTableRecord
  2
STANDARD
 70
     0
 40
0.0
 41
1.0
 50
0.0
 71
     0
 42
2.5
  3
simplex.shx
  4
EXTFONT.SHX
  0
STYLE
  5
52
330
3
100
AcDbSymbolTableRecord
100
AcDbTextStyleTableRecord
  2

 70
     1
 40
0.0
 41
1.0
 50
0.0
 71
     0
 42
2.5
  3
ltypeshp.shx
  4

  0
STYLE
  5
6B
330
3
100
AcDbSymbolTableRecord
100
AcDbTextStyleTableRecord
  2
ASAMI
 70
     0
 40
0.0
 41
1.0
 50
0.0
 71
     0
 42
2.5
  3
simplex.shx
  4
EXTFONT.SHX
  0
STYLE
  5
262
330
3
100
AcDbSymbolTableRecord
100
AcDbTextStyleTableRecord
  2
ACJISTS
 70
     0
 40
1.0
 41
1.0
 50
0.0
 71
     0
 42
2.5
  3
simplex.shx
  4
bigfont.shx
  0
STYLE
  5
269
330
3
100
AcDbSymbolTableRecord
100
AcDbTextStyleTableRecord
  2
ACJISGDT
 70
     0
 40
0.0
 41
1.0
 50
0.0
 71
     0
 42
2.5
  3
amgdtans.shx
  4

  0
ENDTAB
  0
TABLE
  2
VIEW
  5
6
330
0
100
AcDbSymbolTable
 70
     0
  0
ENDTAB
  0
TABLE
  2
UCS
  5
7
330
0
100
AcDbSymbolTable
 70
     0
  0
ENDTAB
  0
TABLE
  2
APPID
  5
9
330
0
100
AcDbSymbolTable
 70
    14
  0
APPID
  5
12
330
9
100
AcDbSymbolTableRecord
100
AcDbRegAppTableRecord
  2
ACAD
 70
     0
  0
APPID
  5
30
330
9
100
AcDbSymbolTableRecord
100
AcDbRegAppTableRecord
  2
MCAD_NO_VIS
 70
     0
  0
APPID
  5
31
330
9
100
AcDbSymbolTableRecord
100
AcDbRegAppTableRecord
  2
ACAD_TEMP_GRAPHIC
 70
     0
  0
APPID
  5
2C2
330
9
100
AcDbSymbolTableRecord
100
AcDbRegAppTableRecord
  2
GENIUS_GENDTOL_13
 70
     0
  0
APPID
  5
339
330
9
100
AcDbSymbolTableRecord
100
AcDbRegAppTableRecord
  2
GENIUS_GENODEF_13
 70
     0
  0
APPID
  5
33A
330
9
100
AcDbSymbolTableRecord
100
AcDbRegAppTableRecord
  2
GENIUS_GENOBJ-N-RSBK_13
 70
     0
  0
APPID
  5
33B
330
9
100
AcDbSymbolTableRecord
100
AcDbRegAppTableRecord
  2
GENIUS_GENOBJ-N-LIB_13
 70
     0
  0
APPID
  5
33C
330
9
100
AcDbSymbolTableRecord
100
AcDbRegAppTableRecord
  2
GENIUS_GENSCALE_13
 70
     0
  0
APPID
  5
378
330
9
100
AcDbSymbolTableRecord
100
AcDbRegAppTableRecord
  2
GENIUS_GENDIMSH_14
 70
     0
  0
APPID
  5
C82
330
9
100
AcDbSymbolTableRecord
100
AcDbRegAppTableRecord
  2
GENIUS_GENOBJ-N-CRS_13
 70
     0
  0
APPID
  5
C83
330
9
100
AcDbSymbolTableRecord
100
AcDbRegAppTableRecord
  2
GENIUS_GENOENT_13
 70
     0
  0
APPID
  5
C84
330
9
100
AcDbSymbolTableRecord
100
AcDbRegAppTableRecord
  2
GENIUS_GENOREF_13
 70
     0
  0
APPID
  5
C85
330
9
100
AcDbSymbolTableRecord
100
AcDbRegAppTableRecord
  2
GENIUS_GENOLIS_13
 70
     0
  0
APPID
  5
CA0
330
9
100
AcDbSymbolTableRecord
100
AcDbRegAppTableRecord
  2
GENIUS_GENOBJ-N-CEN_13
 70
     0
  0
ENDTAB
  0
TABLE
  2
DIMSTYLE
  5
A
330
0
100
AcDbSymbolTable
 70
    10
  0
DIMSTYLE
105
58
330
A
100
AcDbSymbolTableRecord
100
AcDbDimStyleTableRecord
  2
AM_JIS
 70
     0
  3

  4
"
  5
OPEN30
  6

  7

 40
1.0
 41
2.5
 42
1.0
 43
12.0
 44
1.0
 45
0.0
 46
0.0
 47
0.1
 48
0.1
140
3.2
141
0.0
142
0.0
143
0.0393701
144
1.0
145
0.0
146
0.71
147
1.5
 71
     0
 72
     0
 73
     0
 74
     0
 75
     0
 76
     0
 77
     3
 78
     8
170
     0
171
     2
172
     1
173
     0
174
     0
175
     0
176
   256
177
   256
178
     2
270
     2
271
     3
272
     3
273
     2
274
     2
340
6B
275
     0
280
     0
281
     0
282
     0
283
     0
284
     0
285
     0
286
     0
287
     3
288
     0
  0
DIMSTYLE
105
5F
330
A
100
AcDbSymbolTableRecord
100
AcDbDimStyleTableRecord
  2
AM_JIS$3
 70
     0
  3

  4
"
  5
OPEN30
  6

  7

 40
1.0
 41
2.5
 42
1.0
 43
10.0
 44
1.0
 45
0.0
 46
0.0
 47
0.1
 48
0.1
140
3.2
141
0.0
142
0.0
143
0.0393701
144
1.0
145
0.0
146
0.71
147
1.5
 71
     0
 72
     0
 73
     0
 74
     1
 75
     0
 76
     0
 77
     3
 78
     8
170
     0
171
     2
172
     0
173
     0
174
     0
175
     0
176
   256
177
   256
178
     2
270
     2
271
     2
272
     3
273
     2
274
     2
340
6B
275
     0
280
     0
281
     0
282
     0
283
     0
284
     0
285
     0
286
     0
287
     0
288
     1
  0
DIMSTYLE
105
60
330
A
100
AcDbSymbolTableRecord
100
AcDbDimStyleTableRecord
  2
AM_JIS$4
 70
     0
  3

  4
"
  5
OPEN30
  6

  7

 40
1.0
 41
2.5
 42
1.0
 43
10.0
 44
1.0
 45
0.0
 46
0.0
 47
0.1
 48
0.1
140
3.2
141
0.0
142
0.0
143
0.0393701
144
1.0
145
0.0
146
0.71
147
1.5
 71
     0
 72
     0
 73
     0
 74
     1
 75
     0
 76
     0
 77
     3
 78
     8
170
     0
171
     2
172
     0
173
     0
174
     0
175
     0
176
   256
177
   256
178
     2
270
     2
271
     2
272
     3
273
     2
274
     2
340
6B
275
     0
280
     0
281
     0
282
     0
283
     0
284
     0
285
     0
286
     0
287
     0
288
     1
  0
DIMSTYLE
105
61
330
A
100
AcDbSymbolTableRecord
100
AcDbDimStyleTableRecord
  2
AM_JIS$6
 70
     0
  3

  4
"
  5
OPEN30
  6

  7

 40
1.0
 41
2.5
 42
1.0
 43
10.0
 44
1.0
 45
0.0
 46
0.0
 47
0.1
 48
0.1
140
3.2
141
0.0
142
0.0
143
0.0393701
144
1.0
145
0.0
146
0.71
147
1.5
 71
     0
 72
     0
 73
     0
 74
     0
 75
     0
 76
     0
 77
     0
 78
     8
170
     0
171
     2
172
     1
173
     0
174
     0
175
     0
176
   256
177
   256
178
     2
270
     2
271
     2
272
     2
273
     2
274
     2
340
6B
275
     0
280
     0
281
     0
282
     0
283
     0
284
     0
285
     0
286
     0
287
     3
288
     0
  0
DIMSTYLE
105
62
330
A
100
AcDbSymbolTableRecord
100
AcDbDimStyleTableRecord
  2
AM_JIS$7
 70
     0
  3

  4
"
  5
OPEN30
  6

  7

 40
1.0
 41
2.5
 42
1.0
 43
10.0
 44
1.0
 45
0.0
 46
0.0
 47
0.1
 48
0.1
140
3.2
141
0.0
142
0.0
143
0.0393701
144
1.0
145
0.0
146
0.71
147
1.5
 71
     0
 72
     0
 73
     0
 74
     0
 75
     0
 76
     0
 77
     3
 78
     8
170
     0
171
     2
172
     1
173
     0
174
     0
175
     0
176
   256
177
   256
178
     2
270
     2
271
     2
272
     3
273
     2
274
     2
340
6B
275
     0
280
     0
281
     0
282
     0
283
     0
284
     0
285
     0
286
     0
287
     3
288
     0
  0
DIMSTYLE
105
63
330
A
100
AcDbSymbolTableRecord
100
AcDbDimStyleTableRecord
  2
AM_JIS$SF
 70
     0
  3

  4
"
  5
OPEN30
  6

  7

 40
1.0
 41
2.5
 42
1.0
 43
10.0
 44
1.0
 45
0.0
 46
0.0
 47
0.1
 48
0.1
140
3.2
141
0.0
142
0.0
143
0.0393701
144
1.0
145
0.0
146
0.71
147
1.5
 71
     0
 72
     0
 73
     0
 74
     0
 75
     1
 76
     1
 77
     3
 78
     8
170
     0
171
     2
172
     1
173
     0
174
     0
175
     0
176
   256
177
   256
178
     2
270
     2
271
     2
272
     2
273
     2
274
     2
340
6B
275
     0
280
     0
281
     0
282
     0
283
     0
284
     0
285
     0
286
     0
287
     3
288
     0
  0
DIMSTYLE
105
68
330
A
100
AcDbSymbolTableRecord
100
AcDbDimStyleTableRecord
  2
AM_JIS$SH
 70
     0
  3

  4
"
  5

  6
GENAXEH
  7
OPEN30
 40
1.0
 41
2.5
 42
1.0
 43
10.0
 44
1.0
 45
0.0
 46
0.0
 47
0.1
 48
0.1
140
3.2
141
0.0
142
0.0
143
0.0393701
144
2.0
145
0.0
146
0.71
147
1.5
 71
     0
 72
     0
 73
     0
 74
     0
 75
     1
 76
     1
 77
     3
 78
     8
170
     0
171
     2
172
     1
173
     1
174
     0
175
     0
176
   256
177
   256
178
     2
270
     2
271
     2
272
     2
273
     2
274
     2
340
6B
275
     0
280
     0
281
     0
282
     0
283
     0
284
     0
285
     0
286
     0
287
     3
288
     0
  0
DIMSTYLE
105
B34
102
{ACAD_REACTORS
330
36BA
102
}
330
A
100
AcDbSymbolTableRecord
100
AcDbDimStyleTableRecord
  2
AM_JIS$2
 70
     0
  3

  4
"
  5
OPEN30
  6

  7

 40
1.0
 41
2.5
 42
1.0
 43
12.0
 44
1.0
 45
0.0
 46
0.0
 47
0.1
 48
0.1
140
3.2
141
0.0
142
0.0
143
0.0393701
144
1.0
145
0.0
146
0.71
147
1.5
 71
     0
 72
     0
 73
     0
 74
     0
 75
     0
 76
     0
 77
     3
 78
     8
170
     0
171
     2
172
     1
173
     0
174
     0
175
     0
176
   256
177
   256
178
     2
270
     2
271
     3
272
     3
273
     2
274
     2
340
6B
275
     0
280
     0
281
     0
282
     0
283
     0
284
     0
285
     0
286
     0
287
     3
288
     0
  0
DIMSTYLE
105
BA5
102
{ACAD_REACTORS
330
3B0D
330
471A
330
4A5A
330
4A5C
330
5242
330
535A
330
5368
330
5369
330
536A
102
}
330
A
100
AcDbSymbolTableRecord
100
AcDbDimStyleTableRecord
  2
AM_JIS$0
 70
     0
  3

  4
"
  5
OPEN30
  6

  7

 40
1.0
 41
2.5
 42
0.8
 43
10.0
 44
1.0
 45
0.0
 46
0.0
 47
0.1
 48
0.1000000001
140
3.799999999999999
141
0.0
142
0.0
143
0.0393701
144
1.0
145
0.0
146
0.71
147
1.5
 71
     0
 72
     0
 73
     0
 74
     0
 75
     0
 76
     0
 77
     3
 78
     9
170
     0
171
     2
172
     1
173
     0
174
     0
175
     0
176
     3
177
     3
178
     2
270
     2
271
     2
272
     2
273
     2
274
     2
340
11
275
     1
280
     0
281
     0
282
     0
283
     0
284
     8
285
     0
286
     0
287
     0
288
     0
  0
DIMSTYLE
105
BA6
330
A
100
AcDbSymbolTableRecord
100
AcDbDimStyleTableRecord
  2
AM_JISORG-1P0$2
 70
     0
  3

  4
"
  5
OPEN30
  6

  7

 40
1.0
 41
2.5
 42
0.0
 43
10.0
 44
1.0
 45
0.0
 46
0.0
 47
0.1
 48
0.1000000001
140
3.799999999999999
141
0.0
142
0.0
143
0.0393701
144
-0.999999980146674
145
0.0
146
0.71
147
1.5
 71
     0
 72
     0
 73
     0
 74
     0
 75
     0
 76
     0
 77
     3
 78
     1
170
     0
171
     2
172
     1
173
     0
174
     0
175
     0
176
     3
177
     3
178
     2
270
     2
271
     2
272
     2
273
     2
274
     2
340
11
275
     1
280
     0
281
     0
282
     0
283
     0
284
     8
285
     0
286
     0
287
     0
288
     0
  0
ENDTAB
  0
TABLE
  2
BLOCK_RECORD
  5
1
330
0
100
AcDbSymbolTable
 70
    19
  0
BLOCK_RECORD
  5
1F
102
{ACAD_XDICTIONARY
360
74
102
}
330
1
100
AcDbSymbolTableRecord
100
AcDbBlockTableRecord
  2
*MODEL_SPACE
  0
BLOCK_RECORD
  5
101
102
{ACAD_XDICTIONARY
360
54A4
102
}
330
1
100
AcDbSymbolTableRecord
100
AcDbBlockTableRecord
  2
*PAPER_SPACE
  0
BLOCK_RECORD
  5
59
330
1
100
AcDbSymbolTableRecord
100
AcDbBlockTableRecord
  2
_OPEN30
  0
BLOCK_RECORD
  5
64
330
1
100
AcDbSymbolTableRecord
100
AcDbBlockTableRecord
  2
GENAXEH
  0
BLOCK_RECORD
  5
C31
330
1
100
AcDbSymbolTableRecord
100
AcDbBlockTableRecord
  2
A$C36D02A34
  0
BLOCK_RECORD
  5
2453
330
1
100
AcDbSymbolTableRecord
100
AcDbBlockTableRecord
  2
*D6
  0
BLOCK_RECORD
  5
245F
330
1
100
AcDbSymbolTableRecord
100
AcDbBlockTableRecord
  2
A$C4FFC6CC0
  0
BLOCK_RECORD
  5
36BB
330
1
100
AcDbSymbolTableRecord
100
AcDbBlockTableRecord
  2
*D8
  0
BLOCK_RECORD
  5
3B0E
330
1
100
AcDbSymbolTableRecord
100
AcDbBlockTableRecord
  2
*D9
  0
BLOCK_RECORD
  5
471B
330
1
100
AcDbSymbolTableRecord
100
AcDbBlockTableRecord
  2
*D10
  0
BLOCK_RECORD
  5
4A78
330
1
100
AcDbSymbolTableRecord
100
AcDbBlockTableRecord
  2
*D11
  0
BLOCK_RECORD
  5
4A90
330
1
100
AcDbSymbolTableRecord
100
AcDbBlockTableRecord
  2
*D12
  0
BLOCK_RECORD
  5
5243
330
1
100
AcDbSymbolTableRecord
100
AcDbBlockTableRecord
  2
*D13
  0
BLOCK_RECORD
  5
536B
330
1
100
AcDbSymbolTableRecord
100
AcDbBlockTableRecord
  2
*D14
  0
BLOCK_RECORD
  5
5377
330
1
100
AcDbSymbolTableRecord
100
AcDbBlockTableRecord
  2
*D15
  0
BLOCK_RECORD
  5
5383
330
1
100
AcDbSymbolTableRecord
100
AcDbBlockTableRecord
  2
*D16
  0
BLOCK_RECORD
  5
5391
330
1
100
AcDbSymbolTableRecord
100
AcDbBlockTableRecord
  2
*D17
  0
ENDTAB
  0
ENDSEC
  0
SECTION
  2
BLOCKS
  0
BLOCK
  5
20
330
1F
100
AcDbEntity
  8
0
100
AcDbBlockBegin
  2
*MODEL_SPACE
 70
     0
 10
0.0
 20
0.0
 30
0.0
  3
*MODEL_SPACE
  1

  0
ENDBLK
  5
21
330
1F
100
AcDbEntity
  8
0
100
AcDbBlockEnd
  0
BLOCK
  5
103
330
101
100
AcDbEntity
 67
     1
  8
0
100
AcDbBlockBegin
  2
*PAPER_SPACE
 70
     0
 10
0.0
 20
0.0
 30
0.0
  3
*PAPER_SPACE
  1

  0
ENDBLK
  5
104
330
101
100
AcDbEntity
 67
     1
  8
0
100
AcDbBlockEnd
  0
BLOCK
  5
5D
330
59
100
AcDbEntity
  8
0
100
AcDbBlockBegin
  2
_OPEN30
 70
     0
 10
0.0
 20
0.0
 30
0.0
  3
_OPEN30
  1

  0
LINE
  5
5A
330
59
100
AcDbEntity
  8
0
 62
     0
100
AcDbLine
 10
-1.0
 20
0.26794919
 30
0.0
 11
0.0
 21
0.0
 31
0.0
  0
LINE
  5
5B
330
59
100
AcDbEntity
  8
0
 62
     0
100
AcDbLine
 10
0.0
 20
0.0
 30
0.0
 11
-1.0
 21
-0.26794919
 31
0.0
  0
LINE
  5
5C
330
59
100
AcDbEntity
  8
0
 62
     0
100
AcDbLine
 10
0.0
 20
0.0
 30
0.0
 11
-1.0
 21
0.0
 31
0.0
  0
ENDBLK
  5
5E
330
59
100
AcDbEntity
  8
0
100
AcDbBlockEnd
  0
BLOCK
  5
66
330
64
100
AcDbEntity
  8
0
100
AcDbBlockBegin
  2
GENAXEH
 70
     0
 10
0.0
 20
0.0
 30
0.0
  3
GENAXEH
  1

  0
LINE
  5
65
330
64
100
AcDbEntity
  8
0
100
AcDbLine
 10
-1.0
 20
0.0
 30
0.0
 11
1.0
 21
0.0
 31
0.0
  0
ENDBLK
  5
67
330
64
100
AcDbEntity
  8
0
100
AcDbBlockEnd
  0
BLOCK
  5
C4B
330
C31
100
AcDbEntity
  8
0
100
AcDbBlockBegin
  2
A$C36D02A34
 70
     0
 10
0.0
 20
0.0
 30
0.0
  3
A$C36D02A34
  1

  0
ARC
  5
C32
330
C31
100
AcDbEntity
  8
PV0001_1
  6
CONTINUOUS
 48
0.5
100
AcDbCircle
 10
18.06811523436999
 20
-11.83651161193799
 30
0.0
 40
21.600000381469
100
AcDbArc
 50
123.2290435713209
 51
126.6341524197568
  0
ARC
  5
C33
330
C31
100
AcDbEntity
  8
PV0001_1
  6
CONTINUOUS
 48
0.5
100
AcDbCircle
 10
18.06811523436999
 20
-11.83651161193799
 30
0.0
 40
21.600000381469
100
AcDbArc
 50
135.0736707620117
 51
146.7709980930592
  0
ARC
  5
C34
330
C31
100
AcDbEntity
  8
PV0001_1
  6
CONTINUOUS
 48
0.5
100
AcDbCircle
 10
-18.0680770874
 20
11.8365631103514
 30
0.0
 40
21.600000381469
100
AcDbArc
 50
315.0734847530392
 51
326.770781348241
  0
ARC
  5
C35
330
C31
100
AcDbEntity
  8
PV0001_1
  6
CONTINUOUS
 48
0.5
100
AcDbCircle
 10
-18.0680770874
 20
11.8365631103514
 30
0.0
 40
21.600000381469
100
AcDbArc
 50
303.2288882981993
 51
306.633986901359
  0
ARC
  5
C36
330
C31
100
AcDbEntity
  8
PV0001_1
  6
CONTINUOUS
 48
0.5
100
AcDbCircle
 10
-0.6269836425800009
 20
-2.044216156005997
 30
0.0
 40
2.0
100
AcDbArc
 50
337.4067997351092
 51
43.42231293132884
  0
ARC
  5
C37
330
C31
100
AcDbEntity
  8
PV0001_1
  6
CONTINUOUS
 48
0.5
100
AcDbCircle
 10
0.626953125
 20
2.044223785401001
 30
0.0
 40
2.0
100
AcDbArc
 50
157.4068184044407
 51
223.4222769591536
  0
CIRCLE
  5
C38
330
C31
100
AcDbEntity
  8
PV0001_1
  6
CONTINUOUS
 48
0.5
100
AcDbCircle
 10
3.856727600100001
 20
4.596265792847002
 30
0.0
 40
1.6000000238419
  0
CIRCLE
  5
C39
330
C31
100
AcDbEntity
  8
PV0001_1
  6
CONTINUOUS
 48
0.5
100
AcDbCircle
 10
-3.856727600100001
 20
-4.596265792845997
 30
0.0
 40
1.6000000238419
  0
ARC
  5
C3A
330
C31
100
AcDbEntity
  8
PV0001_1
  6
CONTINUOUS
 48
0.5
100
AcDbCircle
 10
-5.58123779297
 20
5.092639923096001
 30
0.0
 40
5.019082546234099
100
AcDbArc
 50
240.2658959250867
 51
321.5156269706421
  0
ARC
  5
C3B
330
C31
100
AcDbEntity
  8
PV0001_1
  6
CONTINUOUS
 48
0.5
100
AcDbCircle
 10
5.486755371089998
 20
-4.601703643798998
 30
0.0
 40
4.651036739349399
100
AcDbArc
 50
56.25271400417071
 51
145.528859890601
  0
ARC
  5
C3C
330
C31
100
AcDbEntity
  8
PV0001_1
  6
CONTINUOUS
 48
0.5
100
AcDbCircle
 10
-2.11590576172
 20
-3.453323364257997
 30
0.0
 40
4.050000190734899
100
AcDbArc
 50
43.42230610113921
 51
58.50391703385149
  0
ARC
  5
C3D
330
C31
100
AcDbEntity
  8
PV0001_1
  6
CONTINUOUS
 48
0.5
100
AcDbCircle
 10
2.115875244139999
 20
3.453330993653001
 30
0.0
 40
4.050000190734899
100
AcDbArc
 50
223.4222942619974
 51
238.5038164022482
  0
ARC
  5
C3E
330
C31
100
AcDbEntity
  8
PV0001_1
  6
CONTINUOUS
 48
0.5
100
AcDbCircle
 10
-6.70369720459
 20
5.094657897949002
 30
0.0
 40
5.940000057220499
100
AcDbArc
 50
328.2536768887549
 51
31.74641873389623
  0
ARC
  5
C3F
330
C31
100
AcDbEntity
  8
PV0001_1
  6
CONTINUOUS
 48
0.5
100
AcDbCircle
 10
6.703674316410001
 20
-5.094650268553998
 30
0.0
 40
5.940000057220499
100
AcDbArc
 50
148.2533403882529
 51
211.7466423089037
  0
ARC
  5
C40
330
C31
100
AcDbEntity
  8
PV0001_1
  6
CONTINUOUS
 48
0.5
100
AcDbCircle
 10
0.0
 20
0.0
 30
0.0
 40
8.812800407409699
100
AcDbArc
 50
175.2198288164333
 51
272.8622597568298
  0
ARC
  5
C41
330
C31
100
AcDbEntity
  8
PV0001_1
  6
CONTINUOUS
 48
0.5
100
AcDbCircle
 10
0.0
 20
0.0
 30
0.0
 40
9.1800003051758
100
AcDbArc
 50
272.7511362215027
 51
280.3697477877874
  0
ARC
  5
C42
330
C31
100
AcDbEntity
  8
PV0001_1
  6
CONTINUOUS
 48
0.5
100
AcDbCircle
 10
0.0
 20
0.0
 30
0.0
 40
8.812800407409699
100
AcDbArc
 50
355.2198199654955
 51
92.86229572901076
  0
ARC
  5
C43
330
C31
100
AcDbEntity
  8
PV0001_1
  6
CONTINUOUS
 48
0.5
100
AcDbCircle
 10
0.0
 20
0.0
 30
0.0
 40
9.1800003051758
100
AcDbArc
 50
92.75115489083434
 51
100.3697664571193
  0
CIRCLE
  5
C44
330
C31
100
AcDbEntity
  8
PV0001_1
  6
CONTINUOUS
100
AcDbCircle
 10
0.0
 20
0.0
 30
0.0
 40
9.1800003051758
  0
LINE
  5
C45
330
C31
100
AcDbEntity
  8
PV0001_1
  6
CONTINUOUS
 48
0.5
100
AcDbLine
 10
-1.652404785160001
 20
9.030059814453
 30
0.0
 11
-1.652404785160001
 21
8.220062255860002
 31
0.0
  0
LINE
  5
C46
330
C31
100
AcDbEntity
  8
PV0001_1
  6
CONTINUOUS
 48
0.5
100
AcDbLine
 10
1.652404785160001
 20
-8.220058441161999
 30
0.0
 11
1.652404785160001
 21
-9.030055999755997
 31
0.0
  0
LINE
  5
C47
330
C31
100
AcDbEntity
  8
PV0001_1
  6
CONTINUOUS
 48
0.5
100
AcDbLine
 10
-8.78217315674
 20
0.7343807220460015
 30
0.0
 11
-8.070594787600001
 21
0.7343997955320028
 31
0.0
  0
LINE
  5
C48
330
C31
100
AcDbEntity
  8
PV0001_1
  6
CONTINUOUS
 48
0.5
100
AcDbLine
 10
8.07057952881
 20
-0.7343864440919994
 30
0.0
 11
8.78215789795
 21
-0.7343654632569994
 31
0.0
  0
LINE
  5
C49
330
C31
100
AcDbEntity
  8
PV0001_1
  6
CONTINUOUS
 48
0.5
100
AcDbLine
 10
0.4406127929700006
 20
-9.169414520263
 30
0.0
 11
0.4406127929700006
 21
-8.812801361083998
 31
0.0
  0
LINE
  5
C4A
330
C31
100
AcDbEntity
  8
PV0001_1
  6
CONTINUOUS
 48
0.5
100
AcDbLine
 10
-0.4406127929700006
 20
9.169418334961001
 30
0.0
 11
-0.4406127929700006
 21
8.812805175781001
 31
0.0
  0
ENDBLK
  5
C4C
330
C31
100
AcDbEntity
  8
0
100
AcDbBlockEnd
  0
BLOCK
  5
245D
330
2453
100
AcDbEntity
  8
0
100
AcDbBlockBegin
  2
*D6
 70
     1
 10
0.0
 20
0.0
 30
0.0
  3
*D6
  1

  0
LINE
  5
2454
330
2453
100
AcDbEntity
  8
AM_5
 62
     3
100
AcDbLine
 10
-137.574381722344
 20
-5.00000294019065
 30
0.0
 11
-152.8199008769066
 21
-5.000002940190694
 31
0.0
  0
LINE
  5
2455
330
2453
100
AcDbEntity
  8
AM_5
 62
     3
100
AcDbLine
 10
-137.5743817223442
 20
5.00002461040103
 30
0.0
 11
-152.8199008769066
 21
5.000024610400987
 31
0.0
  0
LINE
  5
2456
330
2453
100
AcDbEntity
  8
AM_5
 62
     3
100
AcDbLine
 10
-151.8199008769066
 20
-2.500002940190691
 30
0.0
 11
-151.8199008769066
 21
2.50002461040099
 31
0.0
  0
INSERT
  5
2457
330
2453
100
AcDbEntity
  8
AM_5
 62
     3
100
AcDbBlockReference
  2
_OPEN30
 10
-151.8199008769066
 20
-5.00000294019069
 30
0.0
 41
2.5
 42
2.5
 43
2.5
 50
270.0000000000001
  0
INSERT
  5
2458
330
2453
100
AcDbEntity
  8
AM_5
 62
     3
100
AcDbBlockReference
  2
_OPEN30
 10
-151.8199008769066
 20
5.00002461040099
 30
0.0
 41
2.5
 42
2.5
 43
2.5
 50
90.00000000000015
  0
MTEXT
  5
2459
330
2453
100
AcDbEntity
  8
AM_5
 62
     2
100
AcDbMText
 10
-155.2199008769066
 20
0.000010835105146
 30
0.0
 40
3.799999999999999
 41
0.0
 71
     5
 72
     1
  1
%%c10
 11
-0.0000000000000028
 21
1.0
 31
0.0
1001
ACAD
1000
MTEXTBEGIN
1070
    73
1070
     1
1070
    44
1040
1.0
1070
    74
1070
     0
1000
MTEXTEND
  0
POINT
  5
245A
330
2453
100
AcDbEntity
  8
DEFPOINTS
 62
     0
100
AcDbPoint
 10
-137.5743817223441
 20
-5.000002940190223
 30
0.0
  0
POINT
  5
245B
330
2453
100
AcDbEntity
  8
DEFPOINTS
 62
     0
100
AcDbPoint
 10
-137.5743817223441
 20
5.000024610401458
 30
0.0
  0
POINT
  5
245C
330
2453
100
AcDbEntity
  8
DEFPOINTS
 62
     0
100
AcDbPoint
 10
-151.8199008769066
 20
5.000024610401462
 30
0.0
  0
ENDBLK
  5
245E
330
2453
100
AcDbEntity
  8
0
100
AcDbBlockEnd
  0
BLOCK
  5
246B
330
245F
100
AcDbEntity
  8
0
100
AcDbBlockBegin
  2
A$C4FFC6CC0
 70
     0
 10
0.0
 20
0.0
 30
0.0
  3
A$C4FFC6CC0
  1

  0
DIMENSION
  5
2460
330
245F
100
AcDbEntity
  8
AM_5
100
AcDbDimension
  2
*D6
 10
-70.00000100000002
 20
5.000008477104842
 30
0.0
 11
-70.00000100000002
 21
-0.0000052981910228
 31
0.0
 12
81.81989987690661
 22
-0.0000161332966199
 32
0.0
 70
   128
  1
%%c<>
 51
359.9999999999998
  3
AM_JIS$0
100
AcDbAlignedDimension
 13
-55.75448184543748
 23
-5.000019073486843
 33
0.0
 14
-55.75448184543756
 24
5.000008477104838
 34
0.0
 50
270.0
100
AcDbRotatedDimension
1001
ACAD
1000
DSTYLE
1002
{
1070
   271
1070
     0
1002
}
1001
GENIUS_GENDTOL_13
1000

1000
h7
1000

1040
0.0
  0
LINE
  5
2461
330
245F
100
AcDbEntity
  8
AM_0
 48
0.5
100
AcDbLine
 10
-56.0
 20
-4.754495620727796
 30
0.0
 11
-56.00000000000003
 21
4.754485024345811
 31
0.0
  0
LINE
  5
2462
330
245F
100
AcDbEntity
  8
AM_0
 48
0.5
100
AcDbLine
 10
-55.75448184543751
 20
-5.000019073486843
 30
0.0
 11
-55.75448184543754
 21
5.000008477104838
 31
0.0
  0
LINE
  5
2463
330
245F
100
AcDbEntity
  8
AM_0
100
AcDbLine
 10
-0.0000000000000142
 20
4.999995231627903
 30
0.0
 11
-55.75448184543754
 21
4.999995231627746
 31
0.0
  0
LINE
  5
2464
330
245F
100
AcDbEntity
  8
AM_0
 48
0.5
100
AcDbLine
 10
-55.99996821086117
 20
4.754439989725671
 30
0.0
 11
-55.75443945990975
 21
4.999963442484006
 31
0.0
  0
LINE
  5
2465
330
245F
100
AcDbEntity
  8
AM_0
100
AcDbLine
 10
-55.75448184543751
 20
-5.000008477105588
 30
0.0
 11
0.0000000000000142
 21
-5.00000847710543
 31
0.0
  0
LINE
  5
2466
330
245F
100
AcDbEntity
  8
AM_0
 48
0.5
100
AcDbLine
 10
-55.99996821086114
 20
-4.754474427965309
 30
0.0
 11
-55.75443945990972
 21
-4.999997880724334
 31
0.0
  0
LINE
  5
2467
330
245F
100
AcDbEntity
  8
AM_0
100
AcDbLine
 10
0.7794201296714505
 20
4.549985867772141
 30
0.0
 11
0.7794201296714789
 21
-4.550003370497427
 31
0.0
  0
LINE
  5
2468
330
245F
100
AcDbEntity
  8
AM_0
 48
0.5
100
AcDbLine
 10
0.0000000000000142
 20
-5.00000847710543
 30
0.0
 11
-0.0000000000000142
 21
5.000008477104995
 31
0.0
  0
LINE
  5
2469
330
245F
100
AcDbEntity
  8
AM_0
 48
0.5
100
AcDbLine
 10
0.7794201296714647
 20
-4.550003370497435
 30
0.0
 11
-0.0000105963812445
 21
-5.00000847710543
 31
0.0
  0
LINE
  5
246A
330
245F
100
AcDbEntity
  8
AM_0
 48
0.5
100
AcDbLine
 10
0.7794201296714647
 20
4.549985867772141
 30
0.0
 11
-0.0000000000000142
 21
4.999984635246652
 31
0.0
  0
ENDBLK
  5
246C
330
245F
100
AcDbEntity
  8
0
100
AcDbBlockEnd
  0
BLOCK
  5
36C9
330
36BB
100
AcDbEntity
  8
0
100
AcDbBlockBegin
  2
*D8
 70
     1
 10
0.0
 20
0.0
 30
0.0
  3
*D8
  1

  0
LINE
  5
4DBC
330
36BB
100
AcDbEntity
  8
AM_5
100
AcDbLine
 10
0.3420201408161528
 20
-0.93969262169946
 30
0.0
 11
12.73376567701368
 21
-34.98573395293323
 31
0.0
  0
LINE
  5
4DBD
330
36BB
100
AcDbEntity
  8
AM_5
100
AcDbLine
 10
0.3420201408161419
 20
0.9396926216991598
 30
0.0
 11
12.73376567701327
 21
34.98573395293309
 31
0.0
  0
ARC
  5
4DBE
330
36BB
100
AcDbEntity
  8
AM_5
100
AcDbCircle
 10
0.0000000000000289
 20
-0.0000000000001521
 30
0.0
 40
36.23104039027792
100
AcDbArc
 50
293.9542854242186
 51
66.04571457578202
  0
INSERT
  5
4DBF
330
36BB
100
AcDbEntity
  8
AM_5
100
AcDbBlockReference
  2
_OPEN30
 10
12.39174553619755
 20
-34.04604133123393
 30
0.0
 41
2.5
 42
2.5
 43
2.5
 50
201.9771426356022
  0
INSERT
  5
4DC0
330
36BB
100
AcDbEntity
  8
AM_5
100
AcDbBlockReference
  2
_OPEN30
 10
12.39174553619716
 20
34.04604133123378
 30
0.0
 41
2.5
 42
2.5
 43
2.5
 50
158.0228573643984
  0
MTEXT
  5
4DC1
330
36BB
100
AcDbEntity
  8
AM_5
 62
     2
100
AcDbMText
 10
33.13104039027795
 20
0.0000000000000646
 30
0.0
 40
3.2
 41
0.0
 71
     5
 72
     1
  1
140°
  7
ASAMI
 11
-0.0000000000000028
 21
1.0
 31
0.0
1001
ACAD
1000
MTEXTBEGIN
1070
    73
1070
     1
1070
    44
1040
1.0
1070
    74
1070
     0
1000
MTEXTEND
  0
POINT
  5
4DC2
330
36BB
100
AcDbEntity
  8
DEFPOINTS
 62
     0
100
AcDbPoint
 10
33.26792484260828
 20
-14.35038203075178
 30
0.0
  0
POINT
  5
4DC3
330
36BB
100
AcDbEntity
  8
DEFPOINTS
 62
     0
100
AcDbPoint
 10
0.0
 20
-0.0000000000002316
 30
0.0
  0
POINT
  5
4DC4
330
36BB
100
AcDbEntity
  8
DEFPOINTS
 62
     0
100
AcDbPoint
 10
0.0
 20
-0.0000000000000725
 30
0.0
  0
POINT
  5
4DC5
330
36BB
100
AcDbEntity
  8
DEFPOINTS
 62
     0
100
AcDbPoint
 10
-2.800374408476802
 20
7.693965517241139
 30
0.0
  0
POINT
  5
4DC6
330
36BB
100
AcDbEntity
  8
DEFPOINTS
 62
     0
100
AcDbPoint
 10
-2.800374408476762
 20
-7.693965517241461
 30
0.0
  0
ENDBLK
  5
36CA
330
36BB
100
AcDbEntity
  8
0
100
AcDbBlockEnd
  0
BLOCK
  5
3B18
330
3B0E
100
AcDbEntity
  8
0
100
AcDbBlockBegin
  2
*D9
 70
     1
 10
0.0
 20
0.0
 30
0.0
  3
*D9
  1

  0
LINE
  5
53ED
330
3B0E
100
AcDbEntity
  8
AM_5
 62
     3
100
AcDbLine
 10
-4.367642774902219
 20
11.48250041233701
 30
0.0
 11
-4.367642774902277
 21
31.62491339250016
 31
0.0
  0
LINE
  5
53EE
330
3B0E
100
AcDbEntity
  8
AM_5
 62
     3
100
AcDbLine
 10
-133.367642774902
 20
12.80000000000273
 30
0.0
 11
-133.367642774902
 21
31.62491339249978
 31
0.0
  0
LINE
  5
53EF
330
3B0E
100
AcDbEntity
  8
AM_5
 62
     3
100
AcDbLine
 10
-6.867642774902273
 20
30.62491339250015
 30
0.0
 11
-130.8676427749021
 21
30.62491339249979
 31
0.0
  0
INSERT
  5
53F0
330
3B0E
100
AcDbEntity
  8
AM_5
 62
     3
100
AcDbBlockReference
  2
_OPEN30
 10
-4.367642774902273
 20
30.62491339250016
 30
0.0
 41
2.5
 42
2.5
 43
2.5
 50
0.0000000000001527
  0
INSERT
  5
53F1
330
3B0E
100
AcDbEntity
  8
AM_5
 62
     3
100
AcDbBlockReference
  2
_OPEN30
 10
-133.367642774902
 20
30.62491339249978
 30
0.0
 41
2.5
 42
2.5
 43
2.5
 50
180.0000000000001
  0
MTEXT
  5
53F2
330
3B0E
100
AcDbEntity
  8
AM_5
 62
     2
100
AcDbMText
 10
-68.86764277490219
 20
34.02491339249997
 30
0.0
 40
3.799999999999999
 41
0.0
 71
     5
 72
     1
  1
129
1001
ACAD
1000
MTEXTBEGIN
1070
    73
1070
     1
1070
    44
1040
1.0
1070
    74
1070
     0
1000
MTEXTEND
  0
POINT
  5
53F3
330
3B0E
100
AcDbEntity
  8
DEFPOINTS
 62
     0
100
AcDbPoint
 10
-4.367642774902185
 20
10.68250041233702
 30
0.0
  0
POINT
  5
53F4
330
3B0E
100
AcDbEntity
  8
DEFPOINTS
 62
     0
100
AcDbPoint
 10
-133.367642774902
 20
12.00000000000311
 30
0.0
  0
POINT
  5
53F5
330
3B0E
100
AcDbEntity
  8
DEFPOINTS
 62
     0
100
AcDbPoint
 10
-133.367642774902
 20
30.62491339250017
 30
0.0
  0
ENDBLK
  5
3B19
330
3B0E
100
AcDbEntity
  8
0
100
AcDbBlockEnd
  0
BLOCK
  5
4725
330
471B
100
AcDbEntity
  8
0
100
AcDbBlockBegin
  2
*D10
 70
     1
 10
0.0
 20
0.0
 30
0.0
  3
*D10
  1

  0
LINE
  5
53F6
330
471B
100
AcDbEntity
  8
AM_5
 62
     3
100
AcDbLine
 10
-4.367642774902219
 20
11.48250041233701
 30
0.0
 11
-4.367642774902314
 21
44.78314215858954
 31
0.0
  0
LINE
  5
53F7
330
471B
100
AcDbEntity
  8
AM_5
 62
     3
100
AcDbLine
 10
-139.367642774902
 20
12.80000000000275
 30
0.0
 11
-139.3676427749021
 21
44.78314215858915
 31
0.0
  0
LINE
  5
53F8
330
471B
100
AcDbEntity
  8
AM_5
 62
     3
100
AcDbLine
 10
-6.867642774902311
 20
43.78314215858954
 30
0.0
 11
-136.8676427749021
 21
43.78314215858917
 31
0.0
  0
INSERT
  5
53F9
330
471B
100
AcDbEntity
  8
AM_5
 62
     3
100
AcDbBlockReference
  2
_OPEN30
 10
-4.367642774902311
 20
43.78314215858955
 30
0.0
 41
2.5
 42
2.5
 43
2.5
 50
0.0000000000001527
  0
INSERT
  5
53FA
330
471B
100
AcDbEntity
  8
AM_5
 62
     3
100
AcDbBlockReference
  2
_OPEN30
 10
-139.3676427749021
 20
43.78314215858916
 30
0.0
 41
2.5
 42
2.5
 43
2.5
 50
180.0000000000001
  0
MTEXT
  5
53FB
330
471B
100
AcDbEntity
  8
AM_5
 62
     2
100
AcDbMText
 10
-71.86764277490225
 20
47.18314215858935
 30
0.0
 40
3.799999999999999
 41
0.0
 71
     5
 72
     1
  1
135
1001
ACAD
1000
MTEXTBEGIN
1070
    73
1070
     1
1070
    44
1040
1.0
1070
    74
1070
     0
1000
MTEXTEND
  0
POINT
  5
53FC
330
471B
100
AcDbEntity
  8
DEFPOINTS
 62
     0
100
AcDbPoint
 10
-4.367642774902185
 20
10.68250041233702
 30
0.0
  0
POINT
  5
53FD
330
471B
100
AcDbEntity
  8
DEFPOINTS
 62
     0
100
AcDbPoint
 10
-139.367642774902
 20
12.00000000000315
 30
0.0
  0
POINT
  5
53FE
330
471B
100
AcDbEntity
  8
DEFPOINTS
 62
     0
100
AcDbPoint
 10
-139.367642774902
 20
43.78314215858956
 30
0.0
  0
ENDBLK
  5
4726
330
471B
100
AcDbEntity
  8
0
100
AcDbBlockEnd
  0
BLOCK
  5
4A82
330
4A78
100
AcDbEntity
  8
0
100
AcDbBlockBegin
  2
*D11
 70
     1
 10
0.0
 20
0.0
 30
0.0
  3
*D11
  1

  0
LINE
  5
53C3
330
4A78
100
AcDbEntity
  8
AM_5
 62
     3
100
AcDbLine
 10
-4.367642774901875
 20
-12.12345043707863
 30
0.0
 11
-4.367642774901877
 21
-56.4020179084888
 31
0.0
  0
LINE
  5
53C4
330
4A78
100
AcDbEntity
  8
AM_5
 62
     3
100
AcDbLine
 10
-224.3676427749019
 20
-15.91955414979421
 30
0.0
 11
-224.3676427749019
 21
-56.4020179084888
 31
0.0
  0
LINE
  5
53C5
330
4A78
100
AcDbEntity
  8
AM_5
 62
     3
100
AcDbLine
 10
-6.867642774901877
 20
-55.4020179084888
 30
0.0
 11
-221.8676427749019
 21
-55.4020179084888
 31
0.0
  0
INSERT
  5
53C6
330
4A78
100
AcDbEntity
  8
AM_5
 62
     3
100
AcDbBlockReference
  2
_OPEN30
 10
-4.367642774901877
 20
-55.4020179084888
 30
0.0
 41
2.5
 42
2.5
 43
2.5
  0
INSERT
  5
53C7
330
4A78
100
AcDbEntity
  8
AM_5
 62
     3
100
AcDbBlockReference
  2
_OPEN30
 10
-224.3676427749019
 20
-55.4020179084888
 30
0.0
 41
2.5
 42
2.5
 43
2.5
 50
180.0
  0
MTEXT
  5
53C8
330
4A78
100
AcDbEntity
  8
AM_5
 62
     2
100
AcDbMText
 10
-114.3676427749018
 20
-52.0020179084888
 30
0.0
 40
3.799999999999999
 41
0.0
 71
     5
 72
     1
  1
220
1001
ACAD
1000
MTEXTBEGIN
1070
    73
1070
     1
1070
    44
1040
1.0
1070
    74
1070
     0
1000
MTEXTEND
  0
POINT
  5
53C9
330
4A78
100
AcDbEntity
  8
DEFPOINTS
 62
     0
100
AcDbPoint
 10
-4.367642774901875
 20
-11.32345043707863
 30
0.0
  0
POINT
  5
53CA
330
4A78
100
AcDbEntity
  8
DEFPOINTS
 62
     0
100
AcDbPoint
 10
-224.3676427749019
 20
-15.11955414979421
 30
0.0
  0
POINT
  5
53CB
330
4A78
100
AcDbEntity
  8
DEFPOINTS
 62
     0
100
AcDbPoint
 10
-224.3676427749019
 20
-55.4020179084888
 30
0.0
  0
ENDBLK
  5
4A83
330
4A78
100
AcDbEntity
  8
0
100
AcDbBlockEnd
  0
BLOCK
  5
4A9A
330
4A90
100
AcDbEntity
  8
0
100
AcDbBlockBegin
  2
*D12
 70
     1
 10
0.0
 20
0.0
 30
0.0
  3
*D12
  1

  0
LINE
  5
53CC
330
4A90
100
AcDbEntity
  8
AM_5
 62
     3
100
AcDbLine
 10
-4.367642774901883
 20
-12.12345043707742
 30
0.0
 11
-4.367642774901884
 21
-44.172174732249
 31
0.0
  0
LINE
  5
53CD
330
4A90
100
AcDbEntity
  8
AM_5
 62
     3
100
AcDbLine
 10
-164.3676427749019
 20
-16.76804658143569
 30
0.0
 11
-164.3676427749019
 21
-44.172174732249
 31
0.0
  0
LINE
  5
53CE
330
4A90
100
AcDbEntity
  8
AM_5
 62
     3
100
AcDbLine
 10
-6.867642774901884
 20
-43.17217473224899
 30
0.0
 11
-161.8676427749019
 21
-43.17217473224899
 31
0.0
  0
INSERT
  5
53CF
330
4A90
100
AcDbEntity
  8
AM_5
 62
     3
100
AcDbBlockReference
  2
_OPEN30
 10
-4.367642774901884
 20
-43.17217473224899
 30
0.0
 41
2.5
 42
2.5
 43
2.5
  0
INSERT
  5
53D0
330
4A90
100
AcDbEntity
  8
AM_5
 62
     3
100
AcDbBlockReference
  2
_OPEN30
 10
-164.3676427749019
 20
-43.17217473224899
 30
0.0
 41
2.5
 42
2.5
 43
2.5
 50
180.0
  0
MTEXT
  5
53D1
330
4A90
100
AcDbEntity
  8
AM_5
 62
     2
100
AcDbMText
 10
-84.3676427749019
 20
-39.772174732249
 30
0.0
 40
3.799999999999999
 41
0.0
 71
     5
 72
     1
  1
160
1001
ACAD
1000
MTEXTBEGIN
1070
    73
1070
     1
1070
    44
1040
1.0
1070
    74
1070
     0
1000
MTEXTEND
  0
POINT
  5
53D2
330
4A90
100
AcDbEntity
  8
DEFPOINTS
 62
     0
100
AcDbPoint
 10
-4.367642774901883
 20
-11.32345043707742
 30
0.0
  0
POINT
  5
53D3
330
4A90
100
AcDbEntity
  8
DEFPOINTS
 62
     0
100
AcDbPoint
 10
-164.3676427749019
 20
-15.96804658143569
 30
0.0
  0
POINT
  5
53D4
330
4A90
100
AcDbEntity
  8
DEFPOINTS
 62
     0
100
AcDbPoint
 10
-164.3676427749019
 20
-43.17217473224899
 30
0.0
  0
ENDBLK
  5
4A9B
330
4A90
100
AcDbEntity
  8
0
100
AcDbBlockEnd
  0
BLOCK
  5
524D
330
5243
100
AcDbEntity
  8
0
100
AcDbBlockBegin
  2
*D13
 70
     1
 10
0.0
 20
0.0
 30
0.0
  3
*D13
  1

  0
LINE
  5
52D4
330
5243
100
AcDbEntity
  8
AM_5
 62
     3
100
AcDbLine
 10
-3.150823631533805
 20
11.99999999999997
 30
0.0
 11
20.82476315211347
 21
12.00000000000004
 31
0.0
  0
LINE
  5
52D5
330
5243
100
AcDbEntity
  8
AM_5
 62
     3
100
AcDbLine
 10
-3.282517752584898
 20
-12.00000000000001
 30
0.0
 11
20.82476315211355
 21
-11.99999999999995
 31
0.0
  0
LINE
  5
52D6
330
5243
100
AcDbEntity
  8
AM_5
 62
     3
100
AcDbLine
 10
19.82476315211348
 20
9.500000000000037
 30
0.0
 11
19.82476315211354
 21
-9.499999999999953
 31
0.0
  0
INSERT
  5
52D7
330
5243
100
AcDbEntity
  8
AM_5
 62
     3
100
AcDbBlockReference
  2
_OPEN30
 10
19.82476315211347
 20
12.00000000000003
 30
0.0
 41
2.5
 42
2.5
 43
2.5
 50
90.00000000000017
  0
INSERT
  5
52D8
330
5243
100
AcDbEntity
  8
AM_5
 62
     3
100
AcDbBlockReference
  2
_OPEN30
 10
19.82476315211354
 20
-11.99999999999995
 30
0.0
 41
2.5
 42
2.5
 43
2.5
 50
270.0000000000001
  0
MTEXT
  5
52D9
330
5243
100
AcDbEntity
  8
AM_5
 62
     2
100
AcDbMText
 10
16.42476315211351
 20
-0.0000000000001801
 30
0.0
 40
3.799999999999999
 41
0.0
 71
     5
 72
     1
  1
%%C24
 11
-0.0000000000000028
 21
1.0
 31
0.0
1001
ACAD
1000
MTEXTBEGIN
1070
    73
1070
     1
1070
    44
1040
1.0
1070
    74
1070
     0
1000
MTEXTEND
  0
POINT
  5
52DA
330
5243
100
AcDbEntity
  8
DEFPOINTS
 62
     0
100
AcDbPoint
 10
-3.950823631533768
 20
11.99999999999998
 30
0.0
  0
POINT
  5
52DB
330
5243
100
AcDbEntity
  8
DEFPOINTS
 62
     0
100
AcDbPoint
 10
-4.082517752584935
 20
-12.0
 30
0.0
  0
POINT
  5
52DC
330
5243
100
AcDbEntity
  8
DEFPOINTS
 62
     0
100
AcDbPoint
 10
19.8247631521135
 20
-12.00000000000001
 30
0.0
  0
ENDBLK
  5
524E
330
5243
100
AcDbEntity
  8
0
100
AcDbBlockEnd
  0
BLOCK
  5
5375
330
536B
100
AcDbEntity
  8
0
100
AcDbBlockBegin
  2
*D14
 70
     1
 10
0.0
 20
0.0
 30
0.0
  3
*D14
  1

  0
LINE
  5
539D
330
536B
100
AcDbEntity
  8
AM_5
 62
     3
100
AcDbLine
 10
-224.2900144142347
 20
16.03201201231517
 30
0.0
 11
-247.0595993751608
 21
16.03201201231517
 31
0.0
  0
LINE
  5
539E
330
536B
100
AcDbEntity
  8
AM_5
 62
     3
100
AcDbLine
 10
-224.2900144142344
 20
-15.96786347911917
 30
0.0
 11
-247.0595993751608
 21
-15.96786347911917
 31
0.0
  0
LINE
  5
539F
330
536B
100
AcDbEntity
  8
AM_5
 62
     3
100
AcDbLine
 10
-246.0595993751608
 20
13.53201201231517
 30
0.0
 11
-246.0595993751608
 21
-13.46786347911917
 31
0.0
  0
INSERT
  5
53A0
330
536B
100
AcDbEntity
  8
AM_5
 62
     3
100
AcDbBlockReference
  2
_OPEN30
 10
-246.0595993751608
 20
16.03201201231517
 30
0.0
 41
2.5
 42
2.5
 43
2.5
 50
90.0
  0
INSERT
  5
53A1
330
536B
100
AcDbEntity
  8
AM_5
 62
     3
100
AcDbBlockReference
  2
_OPEN30
 10
-246.0595993751608
 20
-15.96786347911917
 30
0.0
 41
2.5
 42
2.5
 43
2.5
 50
270.0
  0
MTEXT
  5
53A2
330
536B
100
AcDbEntity
  8
AM_5
 62
     2
100
AcDbMText
 10
-249.4595993751608
 20
0.0320742665979643
 30
0.0
 40
3.799999999999999
 41
0.0
 71
     5
 72
     1
  1
%%C32
 11
0.0000000000000001
 21
1.0
 31
0.0
1001
ACAD
1000
MTEXTBEGIN
1070
    73
1070
     1
1070
    44
1040
1.0
1070
    74
1070
     0
1000
MTEXTEND
  0
POINT
  5
53A3
330
536B
100
AcDbEntity
  8
DEFPOINTS
 62
     0
100
AcDbPoint
 10
-223.4900144142347
 20
16.03201201231517
 30
0.0
  0
POINT
  5
53A4
330
536B
100
AcDbEntity
  8
DEFPOINTS
 62
     0
100
AcDbPoint
 10
-223.4900144142344
 20
-15.96786347911917
 30
0.0
  0
POINT
  5
53A5
330
536B
100
AcDbEntity
  8
DEFPOINTS
 62
     0
100
AcDbPoint
 10
-246.0595993751608
 20
-15.96786347911917
 30
0.0
  0
ENDBLK
  5
5376
330
536B
100
AcDbEntity
  8
0
100
AcDbBlockEnd
  0
BLOCK
  5
5381
330
5377
100
AcDbEntity
  8
0
100
AcDbBlockBegin
  2
*D15
 70
     1
 10
0.0
 20
0.0
 30
0.0
  3
*D15
  1

  0
LINE
  5
53A6
330
5377
100
AcDbEntity
  8
AM_5
 62
     3
100
AcDbLine
 10
-218.3676541403045
 20
-0.8000000000013159
 30
0.0
 11
-218.3676541403045
 21
-32.47941722561926
 31
0.0
  0
LINE
  5
53A7
330
5377
100
AcDbEntity
  8
AM_5
 62
     3
100
AcDbLine
 10
-168.367642774902
 20
-0.8000000000010727
 30
0.0
 11
-168.367642774902
 21
-32.47941722561926
 31
0.0
  0
LINE
  5
53A8
330
5377
100
AcDbEntity
  8
AM_5
 62
     3
100
AcDbLine
 10
-215.8676541403045
 20
-31.47941722561926
 30
0.0
 11
-170.867642774902
 21
-31.47941722561926
 31
0.0
  0
INSERT
  5
53A9
330
5377
100
AcDbEntity
  8
AM_5
 62
     3
100
AcDbBlockReference
  2
_OPEN30
 10
-218.3676541403045
 20
-31.47941722561926
 30
0.0
 41
2.5
 42
2.5
 43
2.5
 50
180.0
  0
INSERT
  5
53AA
330
5377
100
AcDbEntity
  8
AM_5
 62
     3
100
AcDbBlockReference
  2
_OPEN30
 10
-168.367642774902
 20
-31.47941722561926
 30
0.0
 41
2.5
 42
2.5
 43
2.5
  0
MTEXT
  5
53AB
330
5377
100
AcDbEntity
  8
AM_5
 62
     2
100
AcDbMText
 10
-193.3676484576032
 20
-28.07941722561926
 30
0.0
 40
3.799999999999999
 41
0.0
 71
     5
 72
     1
  1
50
1001
ACAD
1000
MTEXTBEGIN
1070
    73
1070
     1
1070
    44
1040
1.0
1070
    74
1070
     0
1000
MTEXTEND
  0
POINT
  5
53AC
330
5377
100
AcDbEntity
  8
DEFPOINTS
 62
     0
100
AcDbPoint
 10
-218.3676541403045
 20
-0.0000000000013158
 30
0.0
  0
POINT
  5
53AD
330
5377
100
AcDbEntity
  8
DEFPOINTS
 62
     0
100
AcDbPoint
 10
-168.367642774902
 20
-0.0000000000010728
 30
0.0
  0
POINT
  5
53AE
330
5377
100
AcDbEntity
  8
DEFPOINTS
 62
     0
100
AcDbPoint
 10
-168.367642774902
 20
-31.47941722561926
 30
0.0
  0
ENDBLK
  5
5382
330
5377
100
AcDbEntity
  8
0
100
AcDbBlockEnd
  0
BLOCK
  5
538F
330
5383
100
AcDbEntity
  8
0
100
AcDbBlockBegin
  2
*D16
 70
     1
 10
0.0
 20
0.0
 30
0.0
  3
*D16
  1

  0
LINE
  5
53AF
330
5383
100
AcDbEntity
  8
AM_5
 62
     3
100
AcDbLine
 10
-224.3675569442268
 20
-12.6120944590685
 30
0.0
 11
-224.3675569442268
 21
-32.47941722561961
 31
0.0
  0
LINE
  5
53B0
330
5383
100
AcDbEntity
  8
AM_5
 62
     3
100
AcDbLine
 10
-218.3676541403045
 20
-0.8000000000013159
 30
0.0
 11
-218.3676541403045
 21
-32.47941722561962
 31
0.0
  0
LINE
  5
53B1
330
5383
100
AcDbEntity
  8
AM_5
 62
     3
100
AcDbLine
 10
-226.8675569442268
 20
-31.47941722561961
 30
0.0
 11
-229.3675569442268
 21
-31.47941722561961
 31
0.0
  0
LINE
  5
53B2
330
5383
100
AcDbEntity
  8
AM_5
 62
     3
100
AcDbLine
 10
-215.8676541403045
 20
-31.47941722561961
 30
0.0
 11
-213.3676541403045
 21
-31.47941722561961
 31
0.0
  0
LINE
  5
53B3
330
5383
100
AcDbEntity
  8
AM_5
 62
     3
100
AcDbLine
 10
-224.3675569442268
 20
-31.47941722561961
 30
0.0
 11
-218.3676541403045
 21
-31.47941722561961
 31
0.0
  0
INSERT
  5
53B4
330
5383
100
AcDbEntity
  8
AM_5
 62
     3
100
AcDbBlockReference
  2
_OPEN30
 10
-224.3675569442268
 20
-31.47941722561961
 30
0.0
 41
2.5
 42
2.5
 43
2.5
  0
INSERT
  5
53B5
330
5383
100
AcDbEntity
  8
AM_5
 62
     3
100
AcDbBlockReference
  2
_OPEN30
 10
-218.3676541403045
 20
-31.47941722561961
 30
0.0
 41
2.5
 42
2.5
 43
2.5
 50
180.0
  0
MTEXT
  5
53B6
330
5383
100
AcDbEntity
  8
AM_5
 62
     2
100
AcDbMText
 10
-221.3676055422657
 20
-28.07941722561961
 30
0.0
 40
3.799999999999999
 41
0.0
 71
     5
 72
     1
  1
6
1001
ACAD
1000
MTEXTBEGIN
1070
    73
1070
     1
1070
    44
1040
1.0
1070
    74
1070
     0
1000
MTEXTEND
  0
POINT
  5
53B7
330
5383
100
AcDbEntity
  8
DEFPOINTS
 62
     0
100
AcDbPoint
 10
-224.3675569442268
 20
-11.81209445906849
 30
0.0
  0
POINT
  5
53B8
330
5383
100
AcDbEntity
  8
DEFPOINTS
 62
     0
100
AcDbPoint
 10
-218.3676541403045
 20
-0.0000000000013158
 30
0.0
  0
POINT
  5
53B9
330
5383
100
AcDbEntity
  8
DEFPOINTS
 62
     0
100
AcDbPoint
 10
-218.3676541403045
 20
-31.47941722561961
 30
0.0
  0
ENDBLK
  5
5390
330
5383
100
AcDbEntity
  8
0
100
AcDbBlockEnd
  0
BLOCK
  5
539B
330
5391
100
AcDbEntity
  8
0
100
AcDbBlockBegin
  2
*D17
 70
     1
 10
0.0
 20
0.0
 30
0.0
  3
*D17
  1

  0
LINE
  5
53BA
330
5391
100
AcDbEntity
  8
AM_5
 62
     3
100
AcDbLine
 10
-164.3676427749019
 20
-16.76804658143569
 30
0.0
 11
-164.3676427749019
 21
-44.18246173469542
 31
0.0
  0
LINE
  5
53BB
330
5391
100
AcDbEntity
  8
AM_5
 62
     3
100
AcDbLine
 10
-224.3676427749019
 20
-15.91955414979421
 30
0.0
 11
-224.3676427749019
 21
-44.18246173469542
 31
0.0
  0
LINE
  5
53BC
330
5391
100
AcDbEntity
  8
AM_5
 62
     3
100
AcDbLine
 10
-166.8676427749019
 20
-43.18246173469542
 30
0.0
 11
-221.8676427749019
 21
-43.18246173469542
 31
0.0
  0
INSERT
  5
53BD
330
5391
100
AcDbEntity
  8
AM_5
 62
     3
100
AcDbBlockReference
  2
_OPEN30
 10
-164.3676427749019
 20
-43.18246173469542
 30
0.0
 41
2.5
 42
2.5
 43
2.5
  0
INSERT
  5
53BE
330
5391
100
AcDbEntity
  8
AM_5
 62
     3
100
AcDbBlockReference
  2
_OPEN30
 10
-224.3676427749019
 20
-43.18246173469542
 30
0.0
 41
2.5
 42
2.5
 43
2.5
 50
180.0
  0
MTEXT
  5
53BF
330
5391
100
AcDbEntity
  8
AM_5
 62
     2
100
AcDbMText
 10
-194.3676427749019
 20
-39.78246173469542
 30
0.0
 40
3.799999999999999
 41
0.0
 71
     5
 72
     1
  1
60
1001
ACAD
1000
MTEXTBEGIN
1070
    73
1070
     1
1070
    44
1040
1.0
1070
    74
1070
     0
1000
MTEXTEND
  0
POINT
  5
53C0
330
5391
100
AcDbEntity
  8
DEFPOINTS
 62
     0
100
AcDbPoint
 10
-164.3676427749019
 20
-15.96804658143569
 30
0.0
  0
POINT
  5
53C1
330
5391
100
AcDbEntity
  8
DEFPOINTS
 62
     0
100
AcDbPoint
 10
-224.3676427749019
 20
-15.11955414979421
 30
0.0
  0
POINT
  5
53C2
330
5391
100
AcDbEntity
  8
DEFPOINTS
 62
     0
100
AcDbPoint
 10
-224.3676427749019
 20
-43.18246173469542
 30
0.0
  0
ENDBLK
  5
539C
330
5391
100
AcDbEntity
  8
0
100
AcDbBlockEnd
  0
ENDSEC
  0
SECTION
  2
ENTITIES
  0
TEXT
  5
19BD
330
1F
100
AcDbEntity
  8
AM_6
100
AcDbText
 10
-135.2009761082351
 20
-77.90201790848886
 30
0.0
 40
5.0
  1
KDS240LAK
 50
0.0000000000001527
 72
     4
 11
-114.3676427749018
 21
-75.4020179084888
 31
0.0
100
AcDbText
  0
LINE
  5
35D1
330
1F
100
AcDbEntity
  8
AM_7
100
AcDbLine
 10
4.909002595337891
 20
-0.0000000000001046
 30
0.0
 11
-232.9548225470237
 21
-0.0000000000006905
 31
0.0
  0
LINE
  5
35F4
330
1F
100
AcDbEntity
  8
PV0001_1
  6
CONTINUOUS
 48
0.5
100
AcDbLine
 10
-139.367642774902
 20
12.00000000000324
 30
0.0
 11
-164.3676427749021
 21
16.03196623594652
 31
0.0
  0
LINE
  5
35F5
330
1F
100
AcDbEntity
  8
PV0001_1
  6
CONTINUOUS
 48
0.5
100
AcDbLine
 10
-139.367642774902
 20
-11.99999999999707
 30
0.0
 11
-164.3676427749019
 21
-15.96804658143569
 31
0.0
  0
DIMENSION
  5
36BA
330
1F
100
AcDbEntity
  8
AM_5
100
AcDbDimension
  2
*D8
 10
-2.800374408476762
 20
-7.693965517241461
 30
0.0
 11
33.13104039027795
 21
-0.0000000000000372
 31
0.0
 70
    34
  1
<>
 51
359.9999999999998
  3
AM_JIS$2
100
AcDb2LineAngularDimension
 13
0.0
 23
-0.0000000000000725
 33
0.0
 14
-2.800374408476802
 24
7.693965517241139
 34
0.0
 15
0.0
 25
-0.0000000000002316
 35
0.0
 16
33.26792484260828
 26
-14.35038203075178
 36
0.0
1001
ACAD
1000
DSTYLE
1002
{
1070
   179
1070
     3
1002
}
1001
GENIUS_GENDTOL_13
1000

1000
h7
1000

1040
0.0
  0
DIMENSION
  5
3B0D
330
1F
100
AcDbEntity
  8
AM_5
100
AcDbDimension
  2
*D9
 10
-133.367642774902
 20
30.62491339250017
 30
0.0
 11
-68.86764277490209
 21
34.02491339250017
 31
0.0
 70
    32
  1
<>
 51
359.9999999999998
  3
AM_JIS$0
100
AcDbAlignedDimension
 13
-4.367642774902185
 23
10.68250041233702
 33
0.0
 14
-133.367642774902
 24
12.00000000000311
 34
0.0
 50
180.0000000000001
100
AcDbRotatedDimension
1001
ACAD
1000
DSTYLE
1002
{
1070
   271
1070
     3
1002
}
1001
GENIUS_GENDTOL_13
1000

1000
h7
1000

1040
0.0
  0
LINE
  5
4534
330
1F
100
AcDbEntity
  8
PV0001_1
  6
CONTINUOUS
100
AcDbLine
 10
-139.367642774902
 20
5.904489731069754
 30
0.0
 11
-139.367642774902
 21
12.00000000000315
 31
0.0
  0
LINE
  5
4536
330
1F
100
AcDbEntity
  8
PV0001_1
  6
CONTINUOUS
100
AcDbLine
 10
-139.367642774902
 20
-11.99999999999707
 30
0.0
 11
-139.367642774902
 21
-9.102629500956876
 31
0.0
  0
LINE
  5
46A5
330
1F
100
AcDbEntity
  8
AM_11
 48
0.5
100
AcDbLine
 10
-133.367642774902
 20
-11.99999999999718
 30
0.0
 11
-133.367642774902
 21
12.00000000000305
 31
0.0
  0
DIMENSION
  5
471A
330
1F
100
AcDbEntity
  8
AM_5
100
AcDbDimension
  2
*D10
 10
-139.367642774902
 20
43.78314215858956
 30
0.0
 11
-71.86764277490211
 21
47.18314215858955
 31
0.0
 70
    32
  1
<>
 51
359.9999999999998
  3
AM_JIS$0
100
AcDbAlignedDimension
 13
-4.367642774902185
 23
10.68250041233702
 33
0.0
 14
-139.367642774902
 24
12.00000000000315
 34
0.0
 50
180.0000000000002
100
AcDbRotatedDimension
1001
ACAD
1000
DSTYLE
1002
{
1070
   271
1070
     3
1002
}
1001
GENIUS_GENDTOL_13
1000

1000
h7
1000

1040
0.0
  0
DIMENSION
  5
4A5A
330
1F
100
AcDbEntity
  8
AM_5
100
AcDbDimension
  2
*D11
 10
-224.3676427749019
 20
-55.4020179084888
 30
0.0
 11
-114.3676427749018
 21
-52.0020179084888
 31
0.0
 70
    32
  1
<>
  3
AM_JIS$0
100
AcDbAlignedDimension
 13
-4.367642774901875
 23
-11.32345043707863
 33
0.0
 14
-224.3676427749019
 24
-15.11955414979421
 34
0.0
 50
0.0000000000004184
100
AcDbRotatedDimension
1001
ACAD
1000
DSTYLE
1002
{
1070
   271
1070
     3
1002
}
1001
GENIUS_GENDTOL_13
1000

1000
h7
1000

1040
0.0
  0
DIMENSION
  5
4A5C
330
1F
100
AcDbEntity
  8
AM_5
100
AcDbDimension
  2
*D12
 10
-164.3676427749019
 20
-43.17217473224899
 30
0.0
 11
-84.3676427749019
 21
-39.772174732249
 31
0.0
 70
    32
  1
<>
  3
AM_JIS$0
100
AcDbAlignedDimension
 13
-4.367642774901883
 23
-11.32345043707742
 33
0.0
 14
-164.3676427749019
 24
-15.96804658143569
 34
0.0
 50
0.0000000000003167
100
AcDbRotatedDimension
1001
ACAD
1000
DSTYLE
1002
{
1070
   271
1070
     3
1002
}
1001
GENIUS_GENDTOL_13
1000

1000
h7
1000

1040
0.0
  0
SPLINE
  5
4BDC
330
1F
100
AcDbEntity
  8
AM_0
100
AcDbSpline
210
0.0
220
0.0
230
1.0
 70
     8
 71
     3
 72
    12
 73
     8
 74
     0
 42
0.0000000001
 43
0.0000000001
 40
0.0
 40
0.0
 40
0.0
 40
0.0
 40
3.550288329958888
 40
5.110699985623471
 40
6.310592039948465
 40
8.859663010396623
 40
10.65155104271494
 40
10.65155104271494
 40
10.65155104271494
 40
10.65155104271494
 10
-128.0366321718201
 20
1.911962906384907
 30
0.0
 10
-147.28460953622
 20
9.346856296075044
 30
0.0
 10
-156.2241423838258
 20
9.681082658772242
 30
0.0
 10
-161.9574896040877
 20
7.113565546926352
 30
0.0
 10
-162.7616693198855
 20
3.617373056725672
 30
0.0
 10
-161.0363628275951
 20
0.6169951249192341
 30
0.0
 10
-151.0413407742366
 20
-5.721817591980006
 30
0.0
 10
-138.0519389603715
 20
-9.402233997416775
 30
0.0
  0
LINE
  5
5202
330
1F
100
AcDbEntity
  8
PV0001_1
  6
CONTINUOUS
 48
0.5
100
AcDbLine
 10
-0.0000000000002984
 20
-0.0000000000000084
 30
0.0
 11
-4.367642774902026
 21
11.99999999999997
 31
0.0
  0
LINE
  5
5203
330
1F
100
AcDbEntity
  8
PV0001_1
  6
CONTINUOUS
 48
0.5
100
AcDbLine
 10
-0.0000000000002984
 20
-0.0000000000002297
 30
0.0
 11
-4.367642774901875
 21
-12.00000000000001
 31
0.0
  0
LINE
  5
522F
330
1F
100
AcDbEntity
  8
PV0001_1
  6
CONTINUOUS
 48
0.5
100
AcDbLine
 10
-139.367642774902
 20
12.00000000000324
 30
0.0
 11
-113.3953753751001
 21
12.00000000000268
 31
0.0
  0
SPLINE
  5
5230
330
1F
100
AcDbEntity
  8
PV0001_1
  6
CONTINUOUS
100
AcDbSpline
210
0.0
220
0.0
230
1.0
 70
     8
 71
     3
 72
    30
 73
    26
 74
     0
 42
0.0000000001
 43
0.0000000001
 40
0.0
 40
0.0
 40
0.0
 40
0.0
 40
1.010743684496582
 40
2.022833576467832
 40
3.037578957496688
 40
4.056212745003489
 40
5.079857003664532
 40
6.109500240690281
 40
7.145961322679372
 40
8.189895241603872
 40
9.241717795325891
 40
10.30168407291828
 40
11.36983447792315
 40
12.44600489715814
 40
13.52984294512926
 40
14.62081576220742
 40
15.7182257034828
 40
16.82123173843959
 40
17.92886860250316
 40
19.0400688939571
 40
20.15368796660465
 40
21.26852814259644
 40
22.38336992938901
 40
23.49698739941135
 40
23.53853004329818
 40
23.53853004329818
 40
23.53853004329818
 40
23.53853004329818
 10
-82.65227646909172
 20
-11.99999999999804
 30
0.0
 10
-83.33890565602715
 20
-11.99286029071581
 30
0.0
 10
-84.71307854992714
 20
-11.97857136278697
 30
0.0
 10
-86.77383780306811
 20
-11.86338656234551
 30
0.0
 10
-88.83450909016662
 20
-11.68027281927046
 30
0.0
 10
-90.89505284194347
 20
-11.42363194401148
 30
0.0
 10
-92.9554484974157
 20
-11.09694191247376
 30
0.0
 10
-95.01565540958377
 20
-10.70165546316709
 30
0.0
 10
-97.07568046974856
 20
-10.24043538650586
 30
0.0
 10
-99.13550540965086
 20
-9.716105973562784
 30
0.0
 10
-101.1951161981287
 20
-9.131886575125038
 30
0.0
 10
-103.2545231012035
 20
-8.491444275965347
 30
0.0
 10
-105.3137316343775
 20
-7.79869862686013
 30
0.0
 10
-107.3727675258119
 20
-7.057962145445277
 30
0.0
 10
-109.4316402025402
 20
-6.27378681610561
 30
0.0
 10
-111.4903687559486
 20
-5.451008725654086
 30
0.0
 10
-113.5489760176159
 20
-4.594703757850315
 30
0.0
 10
-115.6074800549781
 20
-3.710137783098046
 30
0.0
 10
-117.6659008460515
 20
-2.802751226247682
 30
0.0
 10
-119.7242604168135
 20
-1.87812894375283
 30
0.0
 10
-121.7825768210368
 20
-0.941955133420561
 30
0.0
 10
-123.8408791253371
 20
-0.0000024484330573
 30
0.0
 10
-125.8991721895824
 20
0.9419671922898213
 30
0.0
 10
-127.2982362986953
 20
1.578284518785261
 30
0.0
 10
-128.0109982860183
 20
1.900381688641465
 30
0.0
 10
-128.0366321718201
 20
1.911962906384907
 30
0.0
  0
LINE
  5
5231
330
1F
100
AcDbEntity
  8
AM_0
100
AcDbLine
 10
-139.367642774902
 20
-11.99999999999698
 30
0.0
 11
-117.3928460882972
 21
-11.99999999999748
 31
0.0
  0
SPLINE
  5
5232
330
1F
100
AcDbEntity
  8
PV0001_1
  6
CONTINUOUS
100
AcDbSpline
210
0.0
220
0.0
230
1.0
 70
     8
 71
     3
 72
    16
 73
    12
 74
     0
 42
0.0000000001
 43
0.0000000001
 40
0.0
 40
0.0
 40
0.0
 40
0.0
 40
1.010743684496582
 40
2.022833576467832
 40
3.037578957496688
 40
4.056212745003489
 40
5.079857003664532
 40
6.109500240690281
 40
7.145961322679372
 40
8.189895241603872
 40
8.753615341503387
 40
8.753615341503387
 40
8.753615341503387
 40
8.753615341503387
 10
-117.3929019312766
 20
-11.99999994053008
 30
0.0
 10
-118.1997369254819
 20
-11.99286023124785
 30
0.0
 10
-119.8144815357938
 20
-11.978571303319
 30
0.0
 10
-122.2360108149194
 20
-11.86338650287753
 30
0.0
 10
-124.6574367280903
 20
-11.68027275980248
 30
0.0
 10
-127.07871277877
 20
-11.42363188454349
 30
0.0
 10
-129.4998148064352
 20
-11.09694185300575
 30
0.0
 10
-131.9206950481558
 20
-10.70165540369907
 30
0.0
 10
-134.3413616016692
 20
-10.24043532703782
 30
0.0
 10
-136.3846102268498
 20
-9.797813671811022
 30
0.0
 10
-137.6197335753212
 20
-9.506827487627703
 30
0.0
 10
-138.0519389603715
 20
-9.402233997416777
 30
0.0
  0
LINE
  5
5234
330
1F
100
AcDbEntity
  8
PV0001_1
  6
CONTINUOUS
 48
0.5
100
AcDbLine
 10
-17.39276857707068
 20
12.00000000000021
 30
0.0
 11
-4.367642774902026
 21
11.99999999999997
 31
0.0
  0
LINE
  5
5235
330
1F
100
AcDbEntity
  8
PV0001_1
  6
CONTINUOUS
 48
0.5
100
AcDbLine
 10
-3.61257051994301
 20
10.40000152587799
 30
0.0
 11
-17.41136758607902
 21
10.40000152587825
 31
0.0
  0
LINE
  5
5236
330
1F
100
AcDbEntity
  8
AM_0
100
AcDbLine
 10
-2.96425419742332
 20
-2.969585824113846
 30
0.0
 11
-6.714877332010226
 21
-4.963741295438495
 31
0.0
  0
LINE
  5
5237
330
1F
100
AcDbEntity
  8
AM_0
100
AcDbLine
 10
-3.854573013970321
 20
0.8987127066797942
 30
0.0
 11
-2.96425419742332
 21
-2.969585824113846
 31
0.0
  0
LINE
  5
5238
330
1F
100
AcDbEntity
  8
PV0001_1
  6
CONTINUOUS
 48
0.5
100
AcDbLine
 10
-2.96425419742332
 20
-2.969585824113846
 30
0.0
 11
-4.69461485003289
 21
-10.36363636363636
 31
0.0
  0
LINE
  5
523A
330
1F
100
AcDbEntity
  8
PV0001_1
  6
CONTINUOUS
 48
0.5
100
AcDbLine
 10
-13.67637352848403
 20
3.71271878059041
 30
0.0
 11
-9.078239540590463
 21
1.353214074631494
 31
0.0
  0
LINE
  5
523D
330
1F
100
AcDbEntity
  8
PV0001_1
  6
CONTINUOUS
 48
0.5
100
AcDbLine
 10
-18.50273213007722
 20
-11.99999999999974
 30
0.0
 11
-4.367642774901875
 21
-12.00000000000001
 31
0.0
  0
LINE
  5
523E
330
1F
100
AcDbEntity
  8
PV0001_1
  6
CONTINUOUS
 48
0.5
100
AcDbLine
 10
-18.76764277490221
 20
-10.36363636363613
 30
0.0
 11
-4.69461485003289
 21
-10.36363636363636
 31
0.0
  0
LINE
  5
523F
330
1F
100
AcDbEntity
  8
PV0001_1
  6
CONTINUOUS
 48
0.5
100
AcDbLine
 10
-9.078239540590402
 20
1.353214074631321
 30
0.0
 11
-4.69461485003289
 21
-10.36363636363636
 31
0.0
  0
ELLIPSE
  5
5240
330
1F
100
AcDbEntity
  8
AM_0
100
AcDbEllipse
 10
-6.298749416007467
 20
4.859851693519544
 30
0.0
 11
-5.024481693682815
 21
0.9929693144359461
 31
0.0
210
0.0
220
0.0
230
0.9999999999999998
 40
0.8475202256530128
 41
1.15965580119686
 42
3.119590417612029
  0
DIMENSION
  5
5242
330
1F
100
AcDbEntity
  8
AM_5
100
AcDbDimension
  2
*D13
 10
19.8247631521135
 20
-12.00000000000001
 30
0.0
 11
19.82476315211351
 21
-0.0000000000002283
 31
0.0
 70
   160
  1
%%C<>
 51
359.9999999999998
  3
AM_JIS$0
100
AcDbAlignedDimension
 13
-3.950823631533768
 23
11.99999999999998
 33
0.0
 14
-4.082517752584935
 24
-12.0
 34
0.0
 50
89.99999999999905
100
AcDbRotatedDimension
1001
GENIUS_GENDTOL_13
1000

1000
h7
1000

1040
0.0
1001
ACAD
1000
DSTYLE
1002
{
1070
   271
1070
     3
1002
}
  0
SPLINE
  5
5251
330
1F
100
AcDbEntity
  8
PV0001_1
  6
CONTINUOUS
100
AcDbSpline
210
0.0
220
0.0
230
1.0
 70
     8
 71
     3
 72
    16
 73
    12
 74
     0
 42
0.0000000001
 43
0.0000000001
 40
2.625839846755727
 40
2.625839846755727
 40
2.625839846755727
 40
2.625839846755727
 40
3.082371838836284
 40
4.126290986361125
 40
5.162752068350215
 40
6.192395305374981
 40
7.216039564037012
 40
8.234688489606833
 40
9.249433870634691
 40
10.26152376260694
 40
11.27226744710342
 40
11.27226744710342
 40
11.27226744710342
 40
11.27226744710352
 10
-101.4576116538929
 20
-9.044005566754355
 30
0.0
 10
-102.5615057125909
 20
-9.545973857585934
 30
0.0
 10
-103.4143225948562
 20
-9.81526999258817
 30
0.0
 10
-104.8633847245597
 20
-10.24060791914586
 30
0.0
 10
-106.6529641638835
 20
-10.70161476729382
 30
0.0
 10
-108.4426256011127
 20
-11.09693613906972
 30
0.0
 10
-110.232482018748
 20
-11.42369644772449
 30
0.0
 10
-112.022462092427
 20
-11.68003101625723
 30
0.0
 10
-113.8125536245942
 20
-11.86427871089358
 30
0.0
 10
-115.6027125120298
 20
-11.97525350782611
 30
0.0
 10
-116.7964414283517
 20
-12.00000006866199
 30
0.0
 10
-117.3929086524325
 20
-11.99999999999694
 30
0.0
  0
LINE
  5
5252
330
1F
100
AcDbEntity
  8
AM_11
 48
0.5
100
AcDbLine
 10
-11.91647267950608
 20
-11.99999999999988
 30
0.0
 11
-117.3929036840203
 21
-11.99999999999801
 31
0.0
  0
DIMENSION
  5
535A
330
1F
100
AcDbEntity
  8
AM_5
100
AcDbDimension
  2
*D14
 10
-246.0595993751608
 20
-15.96786347911917
 30
0.0
 11
-249.4595993751608
 21
0.0320742665979643
 31
0.0
 70
    32
  1
%%C<>
  3
AM_JIS$0
100
AcDbAlignedDimension
 13
-223.4900144142347
 23
16.03201201231517
 33
0.0
 14
-223.4900144142344
 24
-15.96786347911917
 34
0.0
 50
270.0
100
AcDbRotatedDimension
1001
ACAD
1000
DSTYLE
1002
{
1070
   271
1070
     3
1002
}
1001
GENIUS_GENDTOL_13
1000

1000
h7
1000

1040
0.0
  0
LINE
  5
535B
330
1F
100
AcDbEntity
  8
PV0001_1
  6
CONTINUOUS
 48
0.5
100
AcDbLine
 10
-224.3675329116378
 20
-15.11948090760729
 30
0.0
 11
-223.5189855483498
 21
-15.96800996034224
 31
0.0
  0
LINE
  5
535C
330
1F
100
AcDbEntity
  8
PV0001_1
  6
CONTINUOUS
 48
0.5
100
AcDbLine
 10
-224.367532911638
 20
15.18332731993293
 30
0.0
 11
-223.51898554835
 21
16.03185637266556
 31
0.0
  0
LINE
  5
535D
330
1F
100
AcDbEntity
  8
PV0001_1
  6
CONTINUOUS
 48
0.5
100
AcDbLine
 10
-224.3676427749019
 20
0.0319644048927089
 30
0.0
 11
-224.367642774902
 21
15.18348295958019
 31
0.0
  0
LINE
  5
535E
330
1F
100
AcDbEntity
  8
PV0001_1
  6
CONTINUOUS
 48
0.5
100
AcDbLine
 10
-224.3676427749019
 20
0.0319644048927089
 30
0.0
 11
-224.3676427749019
 21
-15.11955414979421
 31
0.0
  0
LINE
  5
535F
330
1F
100
AcDbEntity
  8
PV0001_1
  6
CONTINUOUS
100
AcDbLine
 10
-164.3676427749019
 20
-15.96804658143569
 30
0.0
 11
-164.3676427749021
 21
16.03196623594652
 31
0.0
  0
LINE
  5
5360
330
1F
100
AcDbEntity
  8
PV0001_1
  6
CONTINUOUS
 48
0.5
100
AcDbLine
 10
-223.5191320327339
 20
0.0319644048927112
 30
0.0
 11
-223.5191320327341
 21
16.03201201231516
 31
0.0
  0
LINE
  5
5361
330
1F
100
AcDbEntity
  8
AM_0
100
AcDbLine
 10
-213.5264249575451
 20
-4.841229182760602
 30
0.0
 11
-173.2088719576612
 21
-4.841229182760388
 31
0.0
  0
LINE
  5
5362
330
1F
100
AcDbEntity
  8
AM_0
100
AcDbLine
 10
-173.2088719576613
 20
4.84122918275815
 30
0.0
 11
-213.5264249575453
 21
4.841229182757936
 31
0.0
  0
LINE
  5
5363
330
1F
100
AcDbEntity
  8
PV0001_1
  6
CONTINUOUS
100
AcDbLine
 10
-223.4900144142344
 20
-15.96804658143599
 30
0.0
 11
-164.3676427749019
 21
-15.96804658143569
 31
0.0
  0
LINE
  5
5364
330
1F
100
AcDbEntity
  8
PV0001_1
  6
CONTINUOUS
 48
0.5
100
AcDbLine
 10
-223.5191320327339
 20
0.0319644048927112
 30
0.0
 11
-223.5191320327339
 21
-15.96808320252975
 31
0.0
  0
ARC
  5
5365
330
1F
100
AcDbEntity
  8
AM_0
100
AcDbCircle
 10
-213.5264249575453
 20
-0.0000000000013089
 30
0.0
 40
4.841229182759249
100
AcDbArc
 50
90.00000000000161
 51
270.0000000000016
  0
ARC
  5
5366
330
1F
100
AcDbEntity
  8
AM_0
100
AcDbCircle
 10
-173.2088719576613
 20
-0.0000000000010951
 30
0.0
 40
4.841229182759249
100
AcDbArc
 50
270.0
 51
90.0
  0
LINE
  5
5367
330
1F
100
AcDbEntity
  8
PV0001_1
  6
CONTINUOUS
100
AcDbLine
 10
-164.3676427749021
 20
16.03196623594652
 30
0.0
 11
-223.4900144142347
 21
16.03196623594624
 31
0.0
  0
DIMENSION
  5
5368
330
1F
100
AcDbEntity
  8
AM_5
100
AcDbDimension
  2
*D15
 10
-168.367642774902
 20
-31.47941722561926
 30
0.0
 11
-193.3676484576032
 21
-28.07941722561926
 31
0.0
 70
    32
  1
<>
  3
AM_JIS$0
100
AcDbAlignedDimension
 13
-218.3676541403045
 23
-0.0000000000013158
 33
0.0
 14
-168.367642774902
 24
-0.0000000000010728
 34
0.0
 50
0.0000000000004184
100
AcDbRotatedDimension
1001
ACAD
1000
DSTYLE
1002
{
1070
   271
1070
     3
1002
}
1001
GENIUS_GENDTOL_13
1000

1000
h7
1000

1040
0.0
  0
DIMENSION
  5
5369
330
1F
100
AcDbEntity
  8
AM_5
100
AcDbDimension
  2
*D16
 10
-218.3676541403045
 20
-31.47941722561961
 30
0.0
 11
-221.3676055422657
 21
-31.47941722561961
 31
0.0
 70
   160
  1
<>
  3
AM_JIS$0
100
AcDbAlignedDimension
 13
-224.3675569442268
 23
-11.81209445906849
 33
0.0
 14
-218.3676541403045
 24
-0.0000000000013158
 34
0.0
 50
0.0000000000004185
100
AcDbRotatedDimension
1001
ACAD
1000
DSTYLE
1002
{
1070
   271
1070
     3
1002
}
1001
GENIUS_GENDTOL_13
1000

1000
h7
1000

1040
0.0
  0
DIMENSION
  5
536A
330
1F
100
AcDbEntity
  8
AM_5
100
AcDbDimension
  2
*D17
 10
-224.3676427749019
 20
-43.18246173469542
 30
0.0
 11
-194.3676427749019
 21
-39.78246173469542
 31
0.0
 70
    32
  1
<>
  3
AM_JIS$0
100
AcDbAlignedDimension
 13
-164.3676427749019
 23
-15.96804658143569
 33
0.0
 14
-224.3676427749019
 24
-15.11955414979421
 34
0.0
 50
0.0000000000004184
100
AcDbRotatedDimension
1001
ACAD
1000
DSTYLE
1002
{
1070
   271
1070
     3
1002
}
1001
GENIUS_GENDTOL_13
1000

1000
h7
1000

1040
0.0
  0
SPLINE
  5
5446
330
1F
100
AcDbEntity
  8
PV0001_1
  6
CONTINUOUS
100
AcDbSpline
210
0.0
220
0.0
230
1.0
 70
     8
 71
     3
 72
    25
 73
    21
 74
     0
 42
0.0000000001
 43
0.0000000001
 40
24.56499986022253
 40
24.56499986022253
 40
24.56499986022253
 40
24.56499986022253
 40
24.6081876908653
 40
25.71582455492886
 40
26.81883757994213
 40
27.91624752121713
 40
29.00722033829659
 40
30.09105838626677
 40
31.16722880550176
 40
32.23537921050758
 40
33.29534548809967
 40
34.347168041821
 40
35.39108718934584
 40
36.42754827133493
 40
37.45720575381954
 40
38.48085062012849
 40
39.49948440763516
 40
40.51422944315121
 40
41.52631975251916
 40
42.53706336680078
 40
42.53706336680078
 40
42.53706336680078
 40
42.53706336680078
 10
-13.67637352848403
 20
3.71271878059041
 30
0.0
 10
-13.69891154175722
 20
3.723892257319956
 30
0.0
 10
-14.29951468831067
 20
4.021535277325602
 30
0.0
 10
-15.47753681537058
 20
4.599365972889298
 30
0.0
 10
-17.21311530804775
 20
5.428187815157434
 30
0.0
 10
-18.94786074619141
 20
6.228772711164291
 30
0.0
 10
-20.68161907780674
 20
6.995840108469201
 30
0.0
 10
-22.41424728598746
 20
7.724321938934027
 30
0.0
 10
-24.14560502791054
 20
8.409383129013868
 30
0.0
 10
-25.87555277139388
 20
9.046473823786953
 30
0.0
 10
-27.60397205209837
 20
9.63128406814198
 30
0.0
 10
-29.3307334316655
 20
10.15988981263092
 30
0.0
 10
-31.05573125858795
 20
10.62864331956657
 30
0.0
 10
-32.77886254576609
 20
11.03431726168814
 30
0.0
 10
-34.50002180276097
 20
11.37403242483382
 30
0.0
 10
-36.21911567401609
 20
11.64532843750866
 30
0.0
 10
-37.93604700138285
 20
11.84620305999088
 30
0.0
 10
-39.6507509443632
 20
11.97500107757988
 30
0.0
 10
-41.36315560619432
 20
12.03061906559235
 30
0.0
 10
-42.50344177483983
 20
12.01843670921712
 30
0.0
 10
-43.07280539272913
 20
12.00000000000062
 30
0.0
  0
LINE
  5
5447
330
1F
100
AcDbEntity
  8
AM_0
100
AcDbLine
 10
-17.47198270811736
 20
5.544777534014357
 30
0.0
 11
-17.39276857707068
 21
11.99999999999992
 31
0.0
  0
SPLINE
  5
5448
330
1F
100
AcDbEntity
  8
PV0001_1
  6
CONTINUOUS
 48
0.5
100
AcDbSpline
210
0.0
220
0.0
230
1.0
 70
     8
 71
     3
 72
    15
 73
    11
 74
     0
 42
0.0000000001
 43
0.0000000001
 40
0.0
 40
0.0
 40
0.0
 40
0.0
 40
1.010743614677189
 40
2.022833924044153
 40
3.037578959561199
 40
4.056212747067873
 40
5.079857613375832
 40
6.109500119648989
 40
7.14596120163808
 40
7.345528560729307
 40
7.345528560729307
 40
7.345528560729307
 40
7.345528560729307
 10
-17.39288651177901
 20
11.99038725295514
 30
0.0
 10
-17.93682292012934
 20
11.99031514316387
 30
0.0
 10
-19.02552528711064
 20
11.96569219320328
 30
0.0
 10
-20.65809629204301
 20
11.85464000141667
 30
0.0
 10
-22.29062279780822
 20
11.6704259165918
 30
0.0
 10
-23.92304136145446
 20
11.41408540197386
 30
0.0
 10
-25.55534181815798
 20
11.08729958360748
 30
0.0
 10
-27.18749632161984
 20
10.69204951642787
 30
0.0
 10
-28.3764195161995
 20
10.35604602357378
 30
0.0
 10
-29.02226467080318
 20
10.15871236236782
 30
0.0
 10
-29.17914446167122
 20
10.10597225925225
 30
0.0
  0
LINE
  5
5449
330
1F
100
AcDbEntity
  8
AM_0
100
AcDbLine
 10
-18.76764277490224
 20
-11.97408343156559
 30
0.0
 11
-18.76764277490194
 21
6.141629589618629
 31
0.0
  0
SPLINE
  5
544A
330
1F
100
AcDbEntity
  8
PV0001_1
  6
CONTINUOUS
100
AcDbSpline
210
0.0
220
0.0
230
1.0
 70
     8
 71
     3
 72
    17
 73
    13
 74
     0
 42
0.0000000001
 43
0.0000000001
 40
1.580019955310467
 40
1.580019955310467
 40
1.580019955310467
 40
1.580019955310467
 40
2.030549285115227
 40
3.082371838836284
 40
4.126290986361125
 40
5.162752068350215
 40
6.192395305374981
 40
7.216039564037012
 40
8.234688489606833
 40
9.249433870634691
 40
10.26152376260694
 40
11.27226744710342
 40
11.27226744710342
 40
11.27226744710342
 40
11.27226744710352
 10
-34.62131970527787
 20
-8.856353359083824
 30
0.0
 10
-34.86321499296554
 20
-8.947566441374263
 30
0.0
 10
-35.6712265215142
 20
-9.24652950182879
 30
0.0
 10
-37.05070257922033
 20
-9.715463759236198
 30
0.0
 10
-38.75938774876968
 20
-10.24060791914807
 30
0.0
 10
-40.46854331774634
 20
-10.70161476729604
 30
0.0
 10
-42.17777719963459
 20
-11.09693613907192
 30
0.0
 10
-43.88719729949102
 20
-11.42369644772668
 30
0.0
 10
-45.59673549827677
 20
-11.68003101625942
 30
0.0
 10
-47.30638014659563
 20
-11.86427871089576
 30
0.0
 10
-49.01608912323076
 20
-11.9752535078283
 30
0.0
 10
-50.15617174842602
 20
-12.00000006866417
 30
0.0
 10
-50.72583367868105
 20
-11.99999999999911
 30
0.0
  0
LINE
  5
544B
330
1F
100
AcDbEntity
  8
PV0001_1
  6
CONTINUOUS
 48
0.5
100
AcDbLine
 10
-90.40341633857421
 20
-11.99999999999836
 30
0.0
 11
-50.7258336786813
 21
-11.99999999999938
 31
0.0
  0
LINE
  5
544C
330
1F
100
AcDbEntity
  8
PV0001_1
  6
CONTINUOUS
 48
0.5
100
AcDbLine
 10
-86.86356686226062
 20
12.00000000000153
 30
0.0
 11
-43.47253850188974
 21
12.00000000000041
 31
0.0
  0
SPLINE
  5
544D
330
1F
100
AcDbEntity
  8
PV0001_1
  6
CONTINUOUS
100
AcDbSpline
210
0.0
220
0.0
230
1.0
 70
     8
 71
     3
 72
    55
 73
    51
 74
     0
 42
0.0000000001
 43
0.0000000001
 40
0.0
 40
0.0
 40
0.0
 40
0.0
 40
1.010743684496582
 40
2.022833576467832
 40
3.037578957496688
 40
4.056212745003489
 40
5.079857003664532
 40
6.109500240690281
 40
7.145961322679372
 40
8.189895241603872
 40
9.241717795325891
 40
10.30168407291828
 40
11.36983447792315
 40
12.44600489715814
 40
13.52984294512926
 40
14.62081576220742
 40
15.7182257034828
 40
16.82123173843959
 40
17.92886860250316
 40
19.0400688939571
 40
20.15368796660465
 40
21.26852814259644
 40
22.38336992938901
 40
23.49698739941135
 40
24.6081876908653
 40
25.71582455492886
 40
26.81883757994213
 40
27.91624752121713
 40
29.00722033829659
 40
30.09105838626677
 40
31.16722880550176
 40
32.23537921050758
 40
33.29534548809967
 40
34.347168041821
 40
35.39108718934584
 40
36.42754827133493
 40
37.45720575381954
 40
38.48085062012849
 40
39.49948440763516
 40
40.51422944315121
 40
41.52631975251916
 40
42.53706336719636
 40
43.54780698187354
 40
44.55989729124051
 40
45.57464232675757
 40
46.59327611426424
 40
47.6169209805722
 40
48.64656348684535
 40
49.68302456883444
 40
50.58557219878025
 40
50.58557219878025
 40
50.58557219878025
 40
50.58557219878025
 10
-18.76764277490227
 20
-12.00000000000029
 30
0.0
 10
-19.08898040266336
 20
-11.99286029071776
 30
0.0
 10
-20.22906300979042
 20
-11.97857136278891
 30
0.0
 10
-21.93877202268939
 20
-11.86338656234746
 30
0.0
 10
-23.64840805455693
 20
-11.68027281927242
 30
0.0
 10
-25.35793827673884
 20
-11.42363194401344
 30
0.0
 10
-27.06734563081451
 20
-11.09694191247572
 30
0.0
 10
-28.77659639399891
 20
-10.70165546316906
 30
0.0
 10
-30.48569628366001
 20
-10.24043538650782
 30
0.0
 10
-32.19463014353582
 20
-9.716105973564761
 30
0.0
 10
-33.90338633267214
 20
-9.131886575127015
 30
0.0
 10
-35.61197336827396
 20
-8.491444275967328
 30
0.0
 10
-37.32039582627818
 20
-7.79869862686211
 30
0.0
 10
-39.02867505205488
 20
-7.057962145447261
 30
0.0
 10
-40.73681886674281
 20
-6.273786816107598
 30
0.0
 10
-42.44484310951157
 20
-5.45100872565608
 30
0.0
 10
-44.1527667225814
 20
-4.59470375785231
 30
0.0
 10
-45.8606046956017
 20
-3.710137783100044
 30
0.0
 10
-47.56837360333448
 20
-2.802751226249683
 30
0.0
 10
-49.27609171963301
 20
-1.878128943754835
 30
0.0
 10
-50.98377402281052
 20
-0.9419551334225692
 30
0.0
 10
-52.6914446279864
 20
-0.0000024484350675
 30
0.0
 10
-54.39910756715014
 20
0.9419671922878054
 30
0.0
 10
-56.10679559410653
 20
1.878126423917728
 30
0.0
 10
-57.81451160220413
 20
2.802751505191363
 30
0.0
 10
-59.52228355487003
 20
3.710141518780063
 30
0.0
 10
-61.23012861282133
 20
4.594699944490508
 30
0.0
 10
-62.93805492144591
 20
5.45100925495205
 30
0.0
 10
-64.64607941079663
 20
6.273786678215291
 30
0.0
 10
-66.35422316333055
 20
7.057962172464053
 30
0.0
 10
-68.06250239348145
 20
7.798698654963339
 30
0.0
 10
-69.77092489500058
 20
8.491444138422284
 30
0.0
 10
-71.47951175425761
 20
9.13188709153216
 30
0.0
 10
-73.18826059978758
 20
9.71610133132024
 30
0.0
 10
-74.89718389188128
 20
10.24043761167028
 30
0.0
 10
-76.60628314755498
 20
10.70166696288754
 30
0.0
 10
-78.31554611536269
 20
11.0969082649946
 30
0.0
 10
-80.02495911683723
 20
11.42369941400246
 30
0.0
 10
-81.73448984580039
 20
11.68003607462974
 30
0.0
 10
-83.44412706557504
 20
11.86426180076131
 30
0.0
 10
-85.15383462884445
 20
11.97527141888143
 30
0.0
 10
-86.86357976190075
 20
12.01235605909275
 30
0.0
 10
-88.57332489244139
 20
11.97527141882346
 30
0.0
 10
-90.28303246327245
 20
11.86426180099464
 30
0.0
 10
-91.99266965520738
 20
11.68003607375093
 30
0.0
 10
-93.70220048854832
 20
11.42369941730627
 30
0.0
 10
-95.41160476391326
 20
11.09690984573239
 30
0.0
 10
-97.12086099787548
 20
10.70167100401661
 30
0.0
 10
-98.75225121943365
 20
10.26137450415553
 30
0.0
 10
-99.81071577398042
 20
9.939381511387807
 30
0.0
 10
-101.1705897905797
 20
9.426403019540655
 30
0.0
  0
SPLINE
  5
544E
330
1F
100
AcDbEntity
  8
PV0001_1
  6
CONTINUOUS
100
AcDbSpline
210
0.0
220
0.0
230
1.0
 70
     8
 71
     3
 72
    47
 73
    43
 74
     0
 42
0.0000000001
 43
0.0000000001
 40
0.0
 40
0.0
 40
0.0
 40
0.0
 40
1.010743684496582
 40
2.022833576467832
 40
3.037578957496688
 40
4.056212745003489
 40
5.079857003664532
 40
6.109500240690281
 40
7.145961322679372
 40
8.189895241603872
 40
9.241717795325891
 40
10.30168407291828
 40
11.36983447792315
 40
12.44600489715814
 40
13.52984294512926
 40
14.62081576220742
 40
15.7182257034828
 40
16.82123173843959
 40
17.92886860250316
 40
19.0400688939571
 40
20.15368796660465
 40
21.26852814259644
 40
22.38336992938901
 40
23.49698739941135
 40
24.6081876908653
 40
25.71582455492886
 40
26.81883757994213
 40
27.91624752121713
 40
29.00722033829659
 40
30.09105838626677
 40
31.16722880550176
 40
32.23537921050758
 40
33.29534548809967
 40
34.347168041821
 40
35.39108718934584
 40
36.42754827133493
 40
37.45720575381954
 40
38.48085062012849
 40
39.49948440763516
 40
40.51422944315121
 40
41.52631975251916
 40
42.53706336679711
 40
42.53706336679711
 40
42.53706336679711
 40
42.53706336679711
 10
-47.34188087173733
 20
-11.99999999999923
 30
0.0
 10
-47.91154280950796
 20
-11.992860290717
 30
0.0
 10
-49.05162541663504
 20
-11.97857136278817
 30
0.0
 10
-50.76133442953398
 20
-11.86338656234671
 30
0.0
 10
-52.47097046140154
 20
-11.68027281927167
 30
0.0
 10
-54.18050068358344
 20
-11.42363194401269
 30
0.0
 10
-55.88990803765916
 20
-11.09694191247497
 30
0.0
 10
-57.59915880084355
 20
-10.7016554631683
 30
0.0
 10
-59.30825869050462
 20
-10.24043538650708
 30
0.0
 10
-61.01719255038041
 20
-9.716105973564005
 30
0.0
 10
-62.72594873951672
 20
-9.131886575126264
 30
0.0
 10
-64.43453577511857
 20
-8.491444275966575
 30
0.0
 10
-66.14295823312281
 20
-7.798698626861362
 30
0.0
 10
-67.85123745889949
 20
-7.057962145446512
 30
0.0
 10
-69.55938127358741
 20
-6.273786816106849
 30
0.0
 10
-71.26740551635617
 20
-5.451008725655329
 30
0.0
 10
-72.97532912942596
 20
-4.594703757851558
 30
0.0
 10
-74.68316710244633
 20
-3.710137783099294
 30
0.0
 10
-76.39093601017908
 20
-2.802751226248934
 30
0.0
 10
-78.09865412647757
 20
-1.878128943754083
 30
0.0
 10
-79.80633642965513
 20
-0.9419551334218184
 30
0.0
 10
-81.51400703483099
 20
-0.0000024484343168
 30
0.0
 10
-83.22166997399476
 20
0.9419671922885569
 30
0.0
 10
-84.9293580009512
 20
1.878126423918478
 30
0.0
 10
-86.63707400904874
 20
2.802751505192112
 30
0.0
 10
-88.34484596171456
 20
3.710141518780813
 30
0.0
 10
-90.05269101966598
 20
4.594699944491261
 30
0.0
 10
-91.76061732829051
 20
5.4510092549528
 30
0.0
 10
-93.46864181764123
 20
6.273786678216041
 30
0.0
 10
-95.17678557017514
 20
7.05796217246481
 30
0.0
 10
-96.88506480032611
 20
7.798698654964088
 30
0.0
 10
-98.59348730184514
 20
8.491444138423032
 30
0.0
 10
-100.3020741611022
 20
9.131887091532911
 30
0.0
 10
-102.0108230066322
 20
9.716101331320997
 30
0.0
 10
-103.7197462987259
 20
10.24043761167103
 30
0.0
 10
-105.4288455543996
 20
10.70166696288829
 30
0.0
 10
-107.1381085222073
 20
11.09690826499535
 30
0.0
 10
-108.8475215236818
 20
11.42369941400321
 30
0.0
 10
-110.557052252645
 20
11.68003607463049
 30
0.0
 10
-112.2666894724196
 20
11.86426180076207
 30
0.0
 10
-113.9763970354644
 20
11.97527141886759
 30
0.0
 10
-115.1164801260685
 20
12.00000000000242
 30
0.0
 10
-115.6861421676513
 20
12.00000000000253
 30
0.0
  0
LINE
  5
544F
330
1F
100
AcDbEntity
  8
AM_11
 48
0.5
100
AcDbLine
 10
-115.6861421676513
 20
12.00000000000172
 30
0.0
 11
-17.40760182720868
 21
11.99999999999967
 31
0.0
  0
VIEWPORT
  5
110
330
101
100
AcDbEntity
 67
     1
  8
0
100
AcDbViewport
 10
420.5
 20
297.0
 30
0.0
 40
948.9782706766916
 41
628.452
 68
     1
 69
     1
1001
ACAD
1000
MVIEW
1002
{
1070
    16
1010
0.0
1020
0.0
1030
0.0
1010
0.0
1020
0.0
1030
1.0
1040
0.0
1040
628.452
1040
420.5
1040
297.0
1040
50.0
1040
0.0
1040
0.0
1070
     0
1070
   100
1070
     1
1070
     1
1070
     0
1070
     0
1070
     0
1070
     0
1040
0.0
1040
0.0
1040
0.0
1040
10.0
1040
10.0
1040
10.0
1040
10.0
1070
     0
1002
{
1002
}
1002
}
  0
ENDSEC
  0
SECTION
  2
OBJECTS
  0
DICTIONARY
  5
C
330
0
100
AcDbDictionary
  3
ACAD_GROUP
350
D
  3
ACAD_LAYOUT
350
1A
  3
ACAD_MLINESTYLE
350
17
  3
ACAD_PLOTSETTINGS
350
19
  3
ACAD_PLOTSTYLENAME
350
E
  3
ACDBVARIABLEDICTIONARY
350
34
  3
ACMDICTIONARY
350
43
  3
AMG
350
2B
  3
AMGSNAPSETTINGS
350
6E
  3
DWGPROPS
350
546C
  3
ACDBHEADERROUNDTRIPXREC
350
547C
  0
DICTIONARY
  5
74
330
1F
100
AcDbDictionary
280
     1
  3
ACAD_INDEX
360
546E
  3
ACAD_LAYOUTSELFREF
360
549F
  0
DICTIONARY
  5
54A4
330
101
100
AcDbDictionary
280
     1
  3
ACAD_LAYOUTSELFREF
360
54A5
  0
DICTIONARY
  5
D
102
{ACAD_REACTORS
330
C
102
}
330
C
100
AcDbDictionary
  0
DICTIONARY
  5
1A
102
{ACAD_REACTORS
330
C
102
}
330
C
100
AcDbDictionary
  0
DICTIONARY
  5
17
102
{ACAD_REACTORS
330
C
102
}
330
C
100
AcDbDictionary
  3
STANDARD
350
18
  0
DICTIONARY
  5
19
102
{ACAD_REACTORS
330
C
102
}
330
C
100
AcDbDictionary
  0
ACDBDICTIONARYWDFLT
  5
E
102
{ACAD_REACTORS
330
C
102
}
330
C
100
AcDbDictionary
281
     1
  3
Normal
350
F
100
AcDbDictionaryWithDefault
340
F
  0
DICTIONARY
  5
34
102
{ACAD_REACTORS
330
C
102
}
330
C
100
AcDbDictionary
  3
INDEXCTL
350
35
  3
SORTENTS
350
B5E
  0
DICTIONARY
  5
43
102
{ACAD_REACTORS
330
C
102
}
330
C
100
AcDbDictionary
  3
ACMSTDDICTIONARY
350
260
  0
DICTIONARY
  5
2B
102
{ACAD_REACTORS
330
C
102
}
330
C
100
AcDbDictionary
  3
ACMGSETTINGS
350
2C
  0
DICTIONARY
  5
6E
102
{ACAD_REACTORS
330
C
102
}
330
C
100
AcDbDictionary
  0
XRECORD
  5
546C
102
{ACAD_REACTORS
330
C
102
}
330
C
100
AcDbXrecord
  1
DWGPROPS COOKIE
  2

  3

  4

  6

  7

  8

  9

300
AmdtFileType=82
301
=
302
=
303
=
304
=
305
=
306
=
307
=
308
=
309
=
 40
0.4977722800925927
 41
2452800.443498622
 42
2453002.14980757
  1

 90
        1
  0
DICTIONARY
  5
547C
102
{ACAD_REACTORS
330
C
102
}
330
C
100
AcDbDictionary
  3
TSTACKALIGN
350
547D
  3
TSTACKSIZE
350
547E
  3
HYPERLINKBASE
350
547F
  3
STYLESHEET
350
5480
  3
LAYOUTDICT
350
5481
  3
PLOTSETDICT
350
5482
  3
PLOTSTYLNAMDICT
350
5483
  3
LWETCUNION
350
5484
  3
INSUNITS
350
5485
  3
CEPSNTYPE
350
5486
  3
FINGERPRINTGUID
350
5487
  3
VERSIONGUID
350
5488
  3
PSVPSCALE
350
5489
  3
DIMSTYLEDATA
350
548A
  3
PUCSORTHOREF
350
548B
  3
PUCSORTHOVIEW
350
548C
  3
PUCSBASE
350
548D
  3
PUCSORGTOP
350
548E
  3
PUCSORGBOTTOM
350
548F
  3
PUCSORGLEFT
350
5490
  3
PUCSORGRIGHT
350
5491
  3
PUCSORGFRONT
350
5492
  3
PUCSORGBACK
350
5493
  3
UCSORTHOREF
350
5494
  3
UCSORTHOVIEW
350
5495
  3
UCSBASE
350
5496
  3
UCSORGTOP
350
5497
  3
UCSORGBOTTOM
350
5498
  3
UCSORGLEFT
350
5499
  3
UCSORGRIGHT
350
549A
  3
UCSORGFRONT
350
549B
  3
UCSORGBACK
350
549C
  0
DICTIONARY
  5
546E
102
{ACAD_REACTORS
330
74
102
}
330
74
100
AcDbDictionary
  3
*A1
350
546F
  0
XRECORD
  5
549F
102
{ACAD_REACTORS
330
74
102
}
330
74
100
AcDbXrecord
340
1F
  0
XRECORD
  5
54A5
102
{ACAD_REACTORS
330
54A4
102
}
330
54A4
100
AcDbXrecord
340
101
  0
MLINESTYLE
  5
18
102
{ACAD_REACTORS
330
17
102
}
330
17
100
AcDbMlineStyle
  2
STANDARD
 70
     0
  3

 62
   256
 51
90.0
 52
90.0
 71
     2
 49
0.5
 62
   256
  6
BYLAYER
 49
-0.5
 62
   256
  6
BYLAYER
  0
ACDBPLACEHOLDER
  5
F
102
{ACAD_REACTORS
330
E
102
}
330
E
100
AcDbPlaceHolder
280
     0
  0
DICTIONARYVAR
  5
35
102
{ACAD_REACTORS
330
34
102
}
330
34
100
DictionaryVariables
280
     0
  1
1
  0
DICTIONARYVAR
  5
B5E
102
{ACAD_REACTORS
330
34
102
}
330
34
100
DictionaryVariables
280
     0
  1
96
  0
DICTIONARY
  5
260
102
{ACAD_REACTORS
330
43
102
}
330
43
100
AcDbDictionary
  0
DICTIONARY
  5
2C
102
{ACAD_REACTORS
330
2B
102
}
330
2B
100
AcDbDictionary
  3
DWGSETTINGS
350
2D
  0
XRECORD
  5
547D
102
{ACAD_REACTORS
330
547C
102
}
330
547C
100
AcDbXrecord
 90
        1
  0
XRECORD
  5
547E
102
{ACAD_REACTORS
330
547C
102
}
330
547C
100
AcDbXrecord
 90
       70
  0
XRECORD
  5
547F
102
{ACAD_REACTORS
330
547C
102
}
330
547C
100
AcDbXrecord
  1

  0
XRECORD
  5
5480
102
{ACAD_REACTORS
330
547C
102
}
330
547C
100
AcDbXrecord
  1
ASAMI.ctb
  0
XRECORD
  5
5481
102
{ACAD_REACTORS
330
547C
102
}
330
547C
100
AcDbXrecord
340
1A
  0
XRECORD
  5
5482
102
{ACAD_REACTORS
330
547C
102
}
330
547C
100
AcDbXrecord
340
19
  0
XRECORD
  5
5483
102
{ACAD_REACTORS
330
547C
102
}
330
547C
100
AcDbXrecord
340
E
  0
XRECORD
  5
5484
102
{ACAD_REACTORS
330
547C
102
}
330
547C
100
AcDbXrecord
 90
    10781
  0
XRECORD
  5
5485
102
{ACAD_REACTORS
330
547C
102
}
330
547C
100
AcDbXrecord
 90
        4
  0
XRECORD
  5
5486
102
{ACAD_REACTORS
330
547C
102
}
330
547C
100
AcDbXrecord
 90
        0
  0
XRECORD
  5
5487
102
{ACAD_REACTORS
330
547C
102
}
330
547C
100
AcDbXrecord
  1
{AFB28963-8C59-40AE-9337-C84526B81ACE}
  0
XRECORD
  5
5488
102
{ACAD_REACTORS
330
547C
102
}
330
547C
100
AcDbXrecord
  1
{A5AF0097-531D-4896-9F16-19BA5D898125}
  0
XRECORD
  5
5489
102
{ACAD_REACTORS
330
547C
102
}
330
547C
100
AcDbXrecord
 40
0.0
  0
XRECORD
  5
548A
102
{ACAD_REACTORS
330
547C
102
}
330
547C
100
AcDbXrecord
1000
DSTYLE
1002
{
1070
    79
 70
     2
1070
   341
340
59
1070
   342
340
59
1070
   371
 70
    -1
1070
   372
 70
    -1
1002
}
  0
XRECORD
  5
548B
102
{ACAD_REACTORS
330
547C
102
}
330
547C
100
AcDbXrecord
340
0
  0
XRECORD
  5
548C
102
{ACAD_REACTORS
330
547C
102
}
330
547C
100
AcDbXrecord
 70
     0
  0
XRECORD
  5
548D
102
{ACAD_REACTORS
330
547C
102
}
330
547C
100
AcDbXrecord
340
0
  0
XRECORD
  5
548E
102
{ACAD_REACTORS
330
547C
102
}
330
547C
100
AcDbXrecord
 10
0.0
 20
0.0
 30
0.0
  0
XRECORD
  5
548F
102
{ACAD_REACTORS
330
547C
102
}
330
547C
100
AcDbXrecord
 10
0.0
 20
0.0
 30
0.0
  0
XRECORD
  5
5490
102
{ACAD_REACTORS
330
547C
102
}
330
547C
100
AcDbXrecord
 10
0.0
 20
0.0
 30
0.0
  0
XRECORD
  5
5491
102
{ACAD_REACTORS
330
547C
102
}
330
547C
100
AcDbXrecord
 10
0.0
 20
0.0
 30
0.0
  0
XRECORD
  5
5492
102
{ACAD_REACTORS
330
547C
102
}
330
547C
100
AcDbXrecord
 10
0.0
 20
0.0
 30
0.0
  0
XRECORD
  5
5493
102
{ACAD_REACTORS
330
547C
102
}
330
547C
100
AcDbXrecord
 10
0.0
 20
0.0
 30
0.0
  0
XRECORD
  5
5494
102
{ACAD_REACTORS
330
547C
102
}
330
547C
100
AcDbXrecord
340
0
  0
XRECORD
  5
5495
102
{ACAD_REACTORS
330
547C
102
}
330
547C
100
AcDbXrecord
 70
     0
  0
XRECORD
  5
5496
102
{ACAD_REACTORS
330
547C
102
}
330
547C
100
AcDbXrecord
340
0
  0
XRECORD
  5
5497
102
{ACAD_REACTORS
330
547C
102
}
330
547C
100
AcDbXrecord
 10
0.0
 20
0.0
 30
0.0
  0
XRECORD
  5
5498
102
{ACAD_REACTORS
330
547C
102
}
330
547C
100
AcDbXrecord
 10
0.0
 20
0.0
 30
0.0
  0
XRECORD
  5
5499
102
{ACAD_REACTORS
330
547C
102
}
330
547C
100
AcDbXrecord
 10
0.0
 20
0.0
 30
0.0
  0
XRECORD
  5
549A
102
{ACAD_REACTORS
330
547C
102
}
330
547C
100
AcDbXrecord
 10
0.0
 20
0.0
 30
0.0
  0
XRECORD
  5
549B
102
{ACAD_REACTORS
330
547C
102
}
330
547C
100
AcDbXrecord
 10
0.0
 20
0.0
 30
0.0
  0
XRECORD
  5
549C
102
{ACAD_REACTORS
330
547C
102
}
330
547C
100
AcDbXrecord
 10
0.0
 20
0.0
 30
0.0
  0
LAYER_INDEX
  5
546F
102
{ACAD_REACTORS
330
546E
102
}
330
546E
100
AcDbIndex
 40
2453151.70904802
100
AcDbLayerIndex
  8
0
360
5470
 90
        0
  8
AM_0
360
5471
 90
       11
  8
PV0001_1
360
5472
 90
       33
  8
AM_CL
360
5473
 90
        0
  8
AM_7
360
5474
 90
        1
  8
AM_11
360
5475
 90
        3
  8
AM_5
360
5476
 90
       10
  8
Defpoints
360
5477
 90
        0
  8
AM_6
360
5478
 90
        1
  8
AM_4
360
5479
 90
        0
  8
AM_3
360
547A
 90
        0
  0
XRECORD
  5
2D
102
{ACAD_REACTORS
330
2C
102
}
330
2C
100
AcDbXrecord
  1
VERSION
140
15.0
  1
PRODUCT
  2
AutoCAD Mechanical 2000
  0
IDBUFFER
  5
5470
330
0
100
AcDbIdBuffer
  0
IDBUFFER
  5
5471
330
0
100
AcDbIdBuffer
330
4BDC
330
5231
330
5236
330
5237
330
5240
330
5361
330
5362
330
5365
330
5366
330
5447
330
5449
  0
IDBUFFER
  5
5472
330
0
100
AcDbIdBuffer
330
5251
330
535B
330
535C
330
535D
330
535E
330
535F
330
5360
330
5363
330
5364
330
5367
330
5446
330
5448
330
544A
330
544B
330
544C
330
544D
330
544E
330
35F4
330
35F5
330
4534
330
4536
330
5202
330
5203
330
522F
330
5230
330
5232
330
5234
330
5235
330
5238
330
523A
330
523D
330
523E
330
523F
  0
IDBUFFER
  5
5473
330
0
100
AcDbIdBuffer
  0
IDBUFFER
  5
5474
330
0
100
AcDbIdBuffer
330
35D1
  0
IDBUFFER
  5
5475
330
0
100
AcDbIdBuffer
330
46A5
330
5252
330
544F
  0
IDBUFFER
  5
5476
330
0
100
AcDbIdBuffer
330
36BA
330
3B0D
330
471A
330
4A5A
330
4A5C
330
5242
330
535A
330
5368
330
5369
330
536A
  0
IDBUFFER
  5
5477
330
0
100
AcDbIdBuffer
  0
IDBUFFER
  5
5478
330
0
100
AcDbIdBuffer
330
19BD
  0
IDBUFFER
  5
5479
330
0
100
AcDbIdBuffer
  0
IDBUFFER
  5
547A
330
0
100
AcDbIdBuffer
  0
ENDSEC
  0
EOF
