  0
SECTION
  2
HEADER
  9
$ACADVER
  1
AC1014
  9
$ACADMAINTVER
 70
     9
  9
$DWGCODEPAGE
  3
ANSI_932
  9
$INSBASE
 10
0.0
 20
0.0
 30
0.0
  9
$EXTMIN
 10
-589.2017441852486
 20
-77.9819222409683
 30
-0.00000001
  9
$EXTMAX
 10
32.93324691715113
 20
36.27430635357155
 30
0.00000001
  9
$LIMMIN
 10
-239.7844400960614
 20
-116.5703257817432
  9
$LIMMAX
 10
63.51757254482572
 20
77.02475587733534
  9
$ORTHOMODE
 70
     0
  9
$REGENMODE
 70
     1
  9
$FILLMODE
 70
     1
  9
$QTEXTMODE
 70
     0
  9
$MIRRTEXT
 70
     0
  9
$DRAGMODE
 70
     2
  9
$LTSCALE
 40
1.0
  9
$OSMODE
 70
    55
  9
$ATTMODE
 70
     1
  9
$TEXTSIZE
 40
2.5
  9
$TRACEWID
 40
1.0
  9
$TEXTSTYLE
  7
STANDARD
  9
$CLAYER
  8
AM_0
  9
$CELTYPE
  6
BYLAYER
  9
$CECOLOR
 62
   256
  9
$CELTSCALE
 40
1.0
  9
$DELOBJ
 70
     1
  9
$DISPSILH
 70
     0
  9
$DIMSCALE
 40
1.0
  9
$DIMASZ
 40
2.5
  9
$DIMEXO
 40
1.0
  9
$DIMDLI
 40
12.0
  9
$DIMRND
 40
0.0
  9
$DIMDLE
 40
0.0
  9
$DIMEXE
 40
1.0
  9
$DIMTP
 40
0.1
  9
$DIMTM
 40
0.1
  9
$DIMTXT
 40
3.2
  9
$DIMCEN
 40
0.0
  9
$DIMTSZ
 40
0.0
  9
$DIMTOL
 70
     0
  9
$DIMLIM
 70
     0
  9
$DIMTIH
 70
     0
  9
$DIMTOH
 70
     0
  9
$DIMSE1
 70
     0
  9
$DIMSE2
 70
     0
  9
$DIMTAD
 70
     3
  9
$DIMZIN
 70
     8
  9
$DIMBLK
  1
OPEN30
  9
$DIMASO
 70
     1
  9
$DIMSHO
 70
     1
  9
$DIMPOST
  1

  9
$DIMAPOST
  1
"
  9
$DIMALT
 70
     0
  9
$DIMALTD
 70
     2
  9
$DIMALTF
 40
0.0393701
  9
$DIMLFAC
 40
1.0
  9
$DIMTOFL
 70
     1
  9
$DIMTVP
 40
0.0
  9
$DIMTIX
 70
     0
  9
$DIMSOXD
 70
     0
  9
$DIMSAH
 70
     0
  9
$DIMBLK1
  1

  9
$DIMBLK2
  1

  9
$DIMSTYLE
  2
AM_JIS
  9
$DIMCLRD
 70
   256
  9
$DIMCLRE
 70
   256
  9
$DIMCLRT
 70
     2
  9
$DIMTFAC
 40
0.71
  9
$DIMGAP
 40
1.5
  9
$DIMJUST
 70
     0
  9
$DIMSD1
 70
     0
  9
$DIMSD2
 70
     0
  9
$DIMTOLJ
 70
     0
  9
$DIMTZIN
 70
     0
  9
$DIMALTZ
 70
     0
  9
$DIMALTTZ
 70
     0
  9
$DIMFIT
 70
     3
  9
$DIMUPT
 70
     0
  9
$DIMUNIT
 70
     2
  9
$DIMDEC
 70
     3
  9
$DIMTDEC
 70
     3
  9
$DIMALTU
 70
     2
  9
$DIMALTTD
 70
     2
  9
$DIMTXSTY
  7
ASAMI
  9
$DIMAUNIT
 70
     0
  9
$LUNITS
 70
     2
  9
$LUPREC
 70
     2
  9
$SKETCHINC
 40
1.0
  9
$FILLETRAD
 40
2.5
  9
$AUNITS
 70
     0
  9
$AUPREC
 70
     0
  9
$MENU
  1
.
  9
$ELEVATION
 40
0.0
  9
$PELEVATION
 40
0.0
  9
$THICKNESS
 40
0.0
  9
$LIMCHECK
 70
     0
  9
$BLIPMODE
 70
     0
  9
$CHAMFERA
 40
2.5
  9
$CHAMFERB
 40
2.5
  9
$CHAMFERC
 40
20.0
  9
$CHAMFERD
 40
0.0
  9
$SKPOLY
 70
     0
  9
$TDCREATE
 40
2452800.443498622
  9
$TDUPDATE
 40
2453151.719223796
  9
$TDINDWG
 40
0.8412760185
  9
$TDUSRTIMER
 40
0.8412760185
  9
$USRTIMER
 70
     1
  9
$ANGBASE
 50
0.0
  9
$ANGDIR
 70
     0
  9
$PDMODE
 70
     0
  9
$PDSIZE
 40
0.0
  9
$PLINEWID
 40
0.0
  9
$COORDS
 70
     1
  9
$SPLFRAME
 70
     0
  9
$SPLINETYPE
 70
     6
  9
$SPLINESEGS
 70
     8
  9
$ATTDIA
 70
     1
  9
$ATTREQ
 70
     1
  9
$HANDLING
 70
 12289
  9
$HANDSEED
  5
6330
  9
$SURFTAB1
 70
     6
  9
$SURFTAB2
 70
     6
  9
$SURFTYPE
 70
     6
  9
$SURFU
 70
     6
  9
$SURFV
 70
     6
  9
$UCSNAME
  2

  9
$UCSORG
 10
0.0
 20
-0.0000000000002274
 30
0.0
  9
$UCSXDIR
 10
1.0
 20
0.0000000000000027
 30
0.0
  9
$UCSYDIR
 10
-0.0000000000000027
 20
1.0
 30
0.0
  9
$PUCSNAME
  2

  9
$PUCSORG
 10
0.0
 20
0.0
 30
0.0
  9
$PUCSXDIR
 10
1.0
 20
0.0
 30
0.0
  9
$PUCSYDIR
 10
0.0
 20
1.0
 30
0.0
  9
$USERI1
 70
     0
  9
$USERI2
 70
     0
  9
$USERI3
 70
     0
  9
$USERI4
 70
     0
  9
$USERI5
 70
     0
  9
$USERR1
 40
0.0
  9
$USERR2
 40
0.0
  9
$USERR3
 40
0.0
  9
$USERR4
 40
0.0
  9
$USERR5
 40
0.0
  9
$WORLDVIEW
 70
     1
  9
$SHADEDGE
 70
     3
  9
$SHADEDIF
 70
    70
  9
$TILEMODE
 70
     1
  9
$MAXACTVP
 70
    64
  9
$PINSBASE
 10
0.0
 20
0.0
 30
0.0
  9
$PLIMCHECK
 70
     0
  9
$PEXTMIN
 10
1.000000000000000E+20
 20
1.000000000000000E+20
 30
1.000000000000000E+20
  9
$PEXTMAX
 10
-1.000000000000000E+20
 20
-1.000000000000000E+20
 30
-1.000000000000000E+20
  9
$PLIMMIN
 10
0.0
 20
0.0
  9
$PLIMMAX
 10
841.0
 20
594.0
  9
$UNITMODE
 70
     0
  9
$VISRETAIN
 70
     1
  9
$PLINEGEN
 70
     0
  9
$PSLTSCALE
 70
     0
  9
$TREEDEPTH
 70
  3020
  9
$PICKSTYLE
 70
     0
  9
$CMLSTYLE
  2
STANDARD
  9
$CMLJUST
 70
     0
  9
$CMLSCALE
 40
20.0
  9
$PROXYGRAPHICS
 70
     1
  9
$MEASUREMENT
 70
     1
  0
ENDSEC
  0
SECTION
  2
CLASSES
  0
CLASS
  1
ACDBDICTIONARYWDFLT
  2
AcDbDictionaryWithDefault
  3
AutoCAD 2000
 90
        0
280
     0
281
     0
  0
CLASS
  1
ACDBPLACEHOLDER
  2
AcDbPlaceHolder
  3
AutoCAD 2000
 90
        0
280
     0
281
     0
  0
CLASS
  1
LAYOUT
  2
AcDbLayout
  3
AutoCAD 2000
 90
        0
280
     0
281
     0
  0
CLASS
  1
AMGSETTINGSOBJ
  2
AmgSettingsObj
  3
"AcadM|Product Description: AutoCAD Mechanical 2000|Company: Autodesk"
 90
        0
280
     0
281
     0
  0
CLASS
  1
ACME_DOCUMENT
  2
AcMeDbDoc
  3
AcMeServices
 90
        0
280
     0
281
     0
  0
CLASS
  1
ACMESCOPE
  2
AcMeScope
  3
AcMeServices
 90
        0
280
     0
281
     0
  0
CLASS
  1
ACMECOMMANDHISTORY
  2
AcMeCommandHistory
  3
AcMeServices
 90
        0
280
     0
281
     0
  0
CLASS
  1
DICTIONARYVAR
  2
AcDbDictionaryVar
  3
AutoCAD 2000
 90
        0
280
     0
281
     0
  0
CLASS
  1
ACIMSYSVARMAN
  2
AcImSysVarManager
  3
AcMeServices
 90
        0
280
     0
281
     0
  0
CLASS
  1
ACIMREALSYSVAR
  2
AcImRealSysVar
  3
AcMeServices
 90
        0
280
     0
281
     0
  0
CLASS
  1
ACIMINTSYSVAR
  2
AcImIntSysVar
  3
AcMeServices
 90
        0
280
     0
281
     0
  0
CLASS
  1
ACMEDRAWINGMAN
  2
AcMeDrawingMan
  3
AcMeServices
 90
        0
280
     0
281
     0
  0
CLASS
  1
ACMEVIEW
  2
AcMeView
  3
AcMeServices
 90
        0
280
     0
281
     0
  0
CLASS
  1
ACDBENTITYCACHE
  2
AcMeEntityCache
  3
AcMeServices
 90
        0
280
     0
281
     0
  0
CLASS
  1
GSMANAGER
  2
AcMeGSManager
  3
AcMeServices
 90
        0
280
     0
281
     0
  0
CLASS
  1
AmdtInternalReactor
  2
AmdtInternalReactor
  3
AcMeServices
 90
        0
280
     0
281
     0
  0
CLASS
  1
ACMESTATEMGR
  2
AcMeStateMgr
  3
AcMeServices
 90
        0
280
     0
281
     0
  0
CLASS
  1
ACME_DATABASE
  2
AcMeDbDatabase
  3
AcMeServices
 90
        0
280
     0
281
     0
  0
CLASS
  1
ACRFINSADJUSTERMGR
  2
AcRfInsAdjusterMgr
  3
AcMeServices
 90
        0
280
     0
281
     0
  0
CLASS
  1
ACMDATADICTIONARY
  2
AcmDataDictionary
  3
"AcmSymBB|Product Description: AutoCAD Mechanical 2000|Company: Autodesk"
 90
        0
280
     0
281
     0
  0
CLASS
  1
ACMDATAENTRYBLOCK
  2
AcmDataEntryBlock
  3
"AcmSymBB|Product Description: AutoCAD Mechanical 2000|Company: Autodesk"
 90
        0
280
     0
281
     0
  0
CLASS
  1
AMGOBJPROPCFG
  2
AmgObjPropCfg
  3
"AmgLay|Product Description: AutoCAD Mechanical 2000|Company: Autodesk"
 90
        1
280
     0
281
     0
  0
CLASS
  1
ACAMGFILTERDAT
  2
AcAmgFilterDat
  3
"AcadM|Product Description: AutoCAD Mechanical 2000|Company: Autodesk"
 90
        0
280
     0
281
     0
  0
CLASS
  1
LAYER_INDEX
  2
AcDbLayerIndex
  3
AutoCAD 2000
 90
        0
280
     0
281
     0
  0
CLASS
  1
IDBUFFER
  2
AcDbIdBuffer
  3
AutoCAD 2000
 90
        0
280
     0
281
     0
  0
CLASS
  1
ACIMSTRSYSVAR
  2
AcImStrSysVar
  3
AcMeServices
 90
        0
280
     0
281
     0
  0
CLASS
  1
ACMSTANDARDJIS
  2
AcmStandardJIS
  3
"AcmSymBB|Product Description: AutoCAD Mechanical 2000|Company: Autodesk"
 90
        0
280
     0
281
     0
  0
CLASS
  1
ACMSURFSTANDARDJIS
  2
AcmSurfTextStdJIS
  3
"AcmSymBB|Product Description: AutoCAD Mechanical 2000|Company: Autodesk"
 90
        0
280
     0
281
     0
  0
CLASS
  1
ACMFCFSTANDARDJIS
  2
AcmFCFStdJIS
  3
"AcmSymBB|Product Description: AutoCAD Mechanical 2000|Company: Autodesk"
 90
        0
280
     0
281
     0
  0
CLASS
  1
ACMWELDSTANDARDJIS
  2
AcmWeldingStdJIS
  3
"AcmSymBB|Product Description: AutoCAD Mechanical 2000|Company: Autodesk"
 90
        0
280
     0
281
     0
  0
CLASS
  1
ACMIDSTANDARDJIS
  2
AcmIdStdJIS
  3
"AcmSymBB|Product Description: AutoCAD Mechanical 2000|Company: Autodesk"
 90
        0
280
     0
281
     0
  0
CLASS
  1
ACMDATUMSTANDARDJIS
  2
AcmDatumStdJIS
  3
"AcmSymBB|Product Description: AutoCAD Mechanical 2000|Company: Autodesk"
 90
        0
280
     0
281
     0
  0
CLASS
  1
ACMBOMSTANDARDJIS
  2
AcmBOMStdJIS
  3
"AcmSymBB|Product Description: AutoCAD Mechanical 2000|Company: Autodesk"
 90
        0
280
     0
281
     0
  0
CLASS
  1
ACMSTANDARDANSI
  2
AcmStandardANSI
  3
"AcmSymBB|Product Description: AutoCAD Mechanical 2000|Company: Autodesk"
 90
        0
280
     0
281
     0
  0
CLASS
  1
ACMSURFSTANDARDANSI
  2
AcmSurfTextStdANSI
  3
"AcmSymBB|Product Description: AutoCAD Mechanical 2000|Company: Autodesk"
 90
        0
280
     0
281
     0
  0
CLASS
  1
ACMFCFSTANDARDANSI
  2
AcmFCFStdANSI
  3
"AcmSymBB|Product Description: AutoCAD Mechanical 2000|Company: Autodesk"
 90
        0
280
     0
281
     0
  0
CLASS
  1
ACMWELDSTANDARDANSI
  2
AcmWeldingStdANSI
  3
"AcmSymBB|Product Description: AutoCAD Mechanical 2000|Company: Autodesk"
 90
        0
280
     0
281
     0
  0
CLASS
  1
ACMIDSTANDARDANSI
  2
AcmIdStdANSI
  3
"AcmSymBB|Product Description: AutoCAD Mechanical 2000|Company: Autodesk"
 90
        0
280
     0
281
     0
  0
CLASS
  1
ACMDATUMSTANDARDANSI
  2
AcmDatumStdANSI
  3
"AcmSymBB|Product Description: AutoCAD Mechanical 2000|Company: Autodesk"
 90
        0
280
     0
281
     0
  0
CLASS
  1
ACMBOMSTANDARDANSI
  2
AcmBOMStdANSI
  3
"AcmSymBB|Product Description: AutoCAD Mechanical 2000|Company: Autodesk"
 90
        0
280
     0
281
     0
  0
CLASS
  1
ACMSTANDARDBSI
  2
AcmStandardBSI
  3
"AcmSymBB|Product Description: AutoCAD Mechanical 2000|Company: Autodesk"
 90
        0
280
     0
281
     0
  0
CLASS
  1
ACMSURFSTANDARDBSI
  2
AcmSurfTextStdBSI
  3
"AcmSymBB|Product Description: AutoCAD Mechanical 2000|Company: Autodesk"
 90
        0
280
     0
281
     0
  0
CLASS
  1
ACMFCFSTANDARDBSI
  2
AcmFCFStdBSI
  3
"AcmSymBB|Product Description: AutoCAD Mechanical 2000|Company: Autodesk"
 90
        0
280
     0
281
     0
  0
CLASS
  1
ACMWELDSTANDARDBSI
  2
AcmWeldingStdBSI
  3
"AcmSymBB|Product Description: AutoCAD Mechanical 2000|Company: Autodesk"
 90
        0
280
     0
281
     0
  0
CLASS
  1
ACMIDSTANDARDBSI
  2
AcmIdStdBSI
  3
"AcmSymBB|Product Description: AutoCAD Mechanical 2000|Company: Autodesk"
 90
        0
280
     0
281
     0
  0
CLASS
  1
ACMDATUMSTANDARDBSI
  2
AcmDatumStdBSI
  3
"AcmSymBB|Product Description: AutoCAD Mechanical 2000|Company: Autodesk"
 90
        0
280
     0
281
     0
  0
CLASS
  1
ACMBOMSTANDARDBSI
  2
AcmBOMStdBSI
  3
"AcmSymBB|Product Description: AutoCAD Mechanical 2000|Company: Autodesk"
 90
        0
280
     0
281
     0
  0
CLASS
  1
LONG_TRANSACTION
  2
AcDbLongTransaction
  3
AutoCAD 2000
 90
        0
280
     0
281
     0
  0
CLASS
  1
LWPOLYLINE
  2
AcDbPolyline
  3
AutoCAD 2000
 90
        0
280
     0
281
     1
  0
CLASS
  1
HATCH
  2
AcDbHatch
  3
AutoCAD 2000
 90
        0
280
     0
281
     1
  0
CLASS
  1
XRECORD
  2
AcDbXrecord
  3
AutoCAD 2000
 90
        0
280
     0
281
     0
  0
ENDSEC
  0
SECTION
  2
TABLES
  0
TABLE
  2
VPORT
  5
8
330
0
100
AcDbSymbolTable
 70
     3
  0
VPORT
  5
6305
330
8
100
AcDbSymbolTableRecord
100
AcDbViewportTableRecord
  2
*ACTIVE
 70
     0
 10
0.0
 20
0.0
 11
1.0
 21
1.0
 12
-92.0852563514984
 22
-4.270615437335635
 13
0.0
 23
0.0
 14
2.5
 24
2.5
 15
10.0
 25
10.0
 16
0.0
 26
0.0
 36
1.0
 17
0.0
 27
0.0
 37
0.0
 40
232.6008384808768
 41
1.56570841889117
 42
50.0
 43
0.0
 44
0.0
 50
0.0
 51
0.0
 71
     0
 72
   100
 73
     1
 74
     1
 75
     0
 76
     0
 77
     0
 78
     0
  0
ENDTAB
  0
TABLE
  2
LTYPE
  5
5
330
0
100
AcDbSymbolTable
 70
    10
  0
LTYPE
  5
14
330
5
100
AcDbSymbolTableRecord
100
AcDbLinetypeTableRecord
  2
BYBLOCK
 70
     0
  3

 72
    65
 73
     0
 40
0.0
  0
LTYPE
  5
15
330
5
100
AcDbSymbolTableRecord
100
AcDbLinetypeTableRecord
  2
BYLAYER
 70
     0
  3

 72
    65
 73
     0
 40
0.0
  0
LTYPE
  5
16
330
5
100
AcDbSymbolTableRecord
100
AcDbLinetypeTableRecord
  2
CONTINUOUS
 70
     0
  3
Solid line
 72
    65
 73
     0
 40
0.0
  0
LTYPE
  5
4B
330
5
100
AcDbSymbolTableRecord
100
AcDbLinetypeTableRecord
  2
AM_ISO02W050
 70
     0
  3
__ __ __ __ __ __ __ __ __ __ __ __ __ __ __
 72
    65
 73
     2
 40
7.5
 49
6.0
 74
     0
 49
-1.5
 74
     0
  0
LTYPE
  5
4C
330
5
100
AcDbSymbolTableRecord
100
AcDbLinetypeTableRecord
  2
AM_ISO08W050
 70
     0
  3
____ . ____ . ____ . ____ . ____ . ____ . ____
 72
    65
 73
     4
 40
18.0
 49
12.0
 74
     0
 49
-1.5
 74
     0
 49
3.0
 74
     0
 49
-1.5
 74
     0
  0
LTYPE
  5
4D
330
5
100
AcDbSymbolTableRecord
100
AcDbLinetypeTableRecord
  2
AM_ISO09W050
 70
     0
  3
_____ . . _____ . . _____ . . ____ .. ____
 72
    65
 73
     6
 40
22.5
 49
12.0
 74
     0
 49
-1.5
 74
     0
 49
3.0
 74
     0
 49
-1.5
 74
     0
 49
3.0
 74
     0
 49
-1.5
 74
     0
  0
LTYPE
  5
4E
330
5
100
AcDbSymbolTableRecord
100
AcDbLinetypeTableRecord
  2
AMCONSTR
 70
     0
  3
_______________________
 72
    65
 73
     2
 40
9999.0
 49
9999.0
 74
     0
 49
0.0
 74
     0
  0
LTYPE
  5
4F
330
5
100
AcDbSymbolTableRecord
100
AcDbLinetypeTableRecord
  2
AM_ISO02W050X2
 70
     0
  3
 _ _ _ _ _ _ _ _ _ _ _ _
 72
    65
 73
     2
 40
3.75
 49
3.0
 74
     0
 49
-0.75
 74
     0
  0
LTYPE
  5
50
330
5
100
AcDbSymbolTableRecord
100
AcDbLinetypeTableRecord
  2
AM_ISO08W050X2
 70
     0
  3
__ . __ . __ . __ . __ . __
 72
    65
 73
     4
 40
9.0
 49
6.0
 74
     0
 49
-0.75
 74
     0
 49
1.5
 74
     0
 49
-0.75
 74
     0
  0
LTYPE
  5
53
330
5
100
AcDbSymbolTableRecord
100
AcDbLinetypeTableRecord
  2
AMZIGZAG
 70
     0
  3
/\/-/\/-/\/-/\/-/\/-/\/
 72
    65
 73
     2
 40
11.00009999999999
 49
0.0001
 74
     4
 75
   135
340
52
 46
0.04
 50
0.0
 44
0.0
 45
0.0
 49
-11.0
 74
     0
  0
LTYPE
  5
166
330
5
100
AcDbSymbolTableRecord
100
AcDbLinetypeTableRecord
  2
ACJISTGL
 70
     0
  3
_ _ _ _ _
 72
    65
 73
     2
 40
3.0
 49
2.0
 74
     0
 49
-1.0
 74
     0
  0
LTYPE
  5
26A
330
5
100
AcDbSymbolTableRecord
100
AcDbLinetypeTableRecord
  2
ACJISTGB
 70
     0
  3
__ . . __ . .
 72
    65
 73
     6
 40
9.0
 49
4.0
 74
     0
 49
-1.0
 74
     0
 49
1.0
 74
     0
 49
-1.0
 74
     0
 49
1.0
 74
     0
 49
-1.0
 74
     0
  0
ENDTAB
  0
TABLE
  2
LAYER
  5
2
330
0
100
AcDbSymbolTable
 70
    11
  0
LAYER
  5
10
330
2
100
AcDbSymbolTableRecord
100
AcDbLayerTableRecord
  2
0
 70
     0
 62
     7
  6
CONTINUOUS
  0
LAYER
  5
3F9
330
2
100
AcDbSymbolTableRecord
100
AcDbLayerTableRecord
  2
AM_0
 70
     0
 62
     7
  6
CONTINUOUS
  0
LAYER
  5
BA4
330
2
100
AcDbSymbolTableRecord
100
AcDbLayerTableRecord
  2
PV0001_1
 70
     0
 62
     7
  6
CONTINUOUS
  0
LAYER
  5
C6C
330
2
100
AcDbSymbolTableRecord
100
AcDbLayerTableRecord
  2
AM_CL
 70
     0
 62
     1
  6
AMCONSTR
  0
LAYER
  5
C7C
330
2
100
AcDbSymbolTableRecord
100
AcDbLayerTableRecord
  2
AM_7
 70
     0
 62
     4
  6
AM_ISO08W050
  0
LAYER
  5
C97
330
2
100
AcDbSymbolTableRecord
100
AcDbLayerTableRecord
  2
AM_11
 70
     0
 62
     3
  6
AM_ISO09W050
  0
LAYER
  5
CC5
330
2
100
AcDbSymbolTableRecord
100
AcDbLayerTableRecord
  2
AM_5
 70
     0
 62
     3
  6
CONTINUOUS
  0
LAYER
  5
CC7
330
2
100
AcDbSymbolTableRecord
100
AcDbLayerTableRecord
  2
DEFPOINTS
 70
     0
 62
     7
  6
CONTINUOUS
  0
LAYER
  5
19BC
330
2
100
AcDbSymbolTableRecord
100
AcDbLayerTableRecord
  2
AM_6
 70
     0
 62
     2
  6
CONTINUOUS
  0
LAYER
  5
1F8E
330
2
100
AcDbSymbolTableRecord
100
AcDbLayerTableRecord
  2
AM_4
 70
     0
 62
     3
  6
CONTINUOUS
  0
LAYER
  5
3588
330
2
100
AcDbSymbolTableRecord
100
AcDbLayerTableRecord
  2
AM_3
 70
     0
 62
     6
  6
ACJISTGL
  0
ENDTAB
  0
TABLE
  2
STYLE
  5
3
330
0
100
AcDbSymbolTable
 70
     5
  0
STYLE
  5
11
330
3
100
AcDbSymbolTableRecord
100
AcDbTextStyleTableRecord
  2
STANDARD
 70
     0
 40
0.0
 41
1.0
 50
0.0
 71
     0
 42
2.5
  3
simplex.shx
  4
EXTFONT.SHX
  0
STYLE
  5
52
330
3
100
AcDbSymbolTableRecord
100
AcDbTextStyleTableRecord
  2

 70
     1
 40
0.0
 41
1.0
 50
0.0
 71
     0
 42
2.5
  3
ltypeshp.shx
  4

  0
STYLE
  5
6B
330
3
100
AcDbSymbolTableRecord
100
AcDbTextStyleTableRecord
  2
ASAMI
 70
     0
 40
0.0
 41
1.0
 50
0.0
 71
     0
 42
2.5
  3
simplex.shx
  4
EXTFONT.SHX
  0
STYLE
  5
262
330
3
100
AcDbSymbolTableRecord
100
AcDbTextStyleTableRecord
  2
ACJISTS
 70
     0
 40
1.0
 41
1.0
 50
0.0
 71
     0
 42
2.5
  3
simplex.shx
  4
bigfont.shx
  0
STYLE
  5
269
330
3
100
AcDbSymbolTableRecord
100
AcDbTextStyleTableRecord
  2
ACJISGDT
 70
     0
 40
0.0
 41
1.0
 50
0.0
 71
     0
 42
2.5
  3
amgdtans.shx
  4

  0
ENDTAB
  0
TABLE
  2
VIEW
  5
6
330
0
100
AcDbSymbolTable
 70
     0
  0
ENDTAB
  0
TABLE
  2
UCS
  5
7
330
0
100
AcDbSymbolTable
 70
     0
  0
ENDTAB
  0
TABLE
  2
APPID
  5
9
330
0
100
AcDbSymbolTable
 70
    14
  0
APPID
  5
12
330
9
100
AcDbSymbolTableRecord
100
AcDbRegAppTableRecord
  2
ACAD
 70
     0
  0
APPID
  5
30
330
9
100
AcDbSymbolTableRecord
100
AcDbRegAppTableRecord
  2
MCAD_NO_VIS
 70
     0
  0
APPID
  5
31
330
9
100
AcDbSymbolTableRecord
100
AcDbRegAppTableRecord
  2
ACAD_TEMP_GRAPHIC
 70
     0
  0
APPID
  5
2C2
330
9
100
AcDbSymbolTableRecord
100
AcDbRegAppTableRecord
  2
GENIUS_GENDTOL_13
 70
     0
  0
APPID
  5
339
330
9
100
AcDbSymbolTableRecord
100
AcDbRegAppTableRecord
  2
GENIUS_GENODEF_13
 70
     0
  0
APPID
  5
33A
330
9
100
AcDbSymbolTableRecord
100
AcDbRegAppTableRecord
  2
GENIUS_GENOBJ-N-RSBK_13
 70
     0
  0
APPID
  5
33B
330
9
100
AcDbSymbolTableRecord
100
AcDbRegAppTableRecord
  2
GENIUS_GENOBJ-N-LIB_13
 70
     0
  0
APPID
  5
33C
330
9
100
AcDbSymbolTableRecord
100
AcDbRegAppTableRecord
  2
GENIUS_GENSCALE_13
 70
     0
  0
APPID
  5
378
330
9
100
AcDbSymbolTableRecord
100
AcDbRegAppTableRecord
  2
GENIUS_GENDIMSH_14
 70
     0
  0
APPID
  5
C82
330
9
100
AcDbSymbolTableRecord
100
AcDbRegAppTableRecord
  2
GENIUS_GENOBJ-N-CRS_13
 70
     0
  0
APPID
  5
C83
330
9
100
AcDbSymbolTableRecord
100
AcDbRegAppTableRecord
  2
GENIUS_GENOENT_13
 70
     0
  0
APPID
  5
C84
330
9
100
AcDbSymbolTableRecord
100
AcDbRegAppTableRecord
  2
GENIUS_GENOREF_13
 70
     0
  0
APPID
  5
C85
330
9
100
AcDbSymbolTableRecord
100
AcDbRegAppTableRecord
  2
GENIUS_GENOLIS_13
 70
     0
  0
APPID
  5
CA0
330
9
100
AcDbSymbolTableRecord
100
AcDbRegAppTableRecord
  2
GENIUS_GENOBJ-N-CEN_13
 70
     0
  0
ENDTAB
  0
TABLE
  2
DIMSTYLE
  5
A
330
0
100
AcDbSymbolTable
 70
    10
  0
DIMSTYLE
105
58
330
A
100
AcDbSymbolTableRecord
100
AcDbDimStyleTableRecord
  2
AM_JIS
 70
     0
  3

  4
"
  5
OPEN30
  6

  7

 40
1.0
 41
2.5
 42
1.0
 43
12.0
 44
1.0
 45
0.0
 46
0.0
 47
0.1
 48
0.1
140
3.2
141
0.0
142
0.0
143
0.0393701
144
1.0
145
0.0
146
0.71
147
1.5
 71
     0
 72
     0
 73
     0
 74
     0
 75
     0
 76
     0
 77
     3
 78
     8
170
     0
171
     2
172
     1
173
     0
174
     0
175
     0
176
   256
177
   256
178
     2
270
     2
271
     3
272
     3
273
     2
274
     2
340
6B
275
     0
280
     0
281
     0
282
     0
283
     0
284
     0
285
     0
286
     0
287
     3
288
     0
  0
DIMSTYLE
105
5F
330
A
100
AcDbSymbolTableRecord
100
AcDbDimStyleTableRecord
  2
AM_JIS$3
 70
     0
  3

  4
"
  5
OPEN30
  6

  7

 40
1.0
 41
2.5
 42
1.0
 43
10.0
 44
1.0
 45
0.0
 46
0.0
 47
0.1
 48
0.1
140
3.2
141
0.0
142
0.0
143
0.0393701
144
1.0
145
0.0
146
0.71
147
1.5
 71
     0
 72
     0
 73
     0
 74
     1
 75
     0
 76
     0
 77
     3
 78
     8
170
     0
171
     2
172
     0
173
     0
174
     0
175
     0
176
   256
177
   256
178
     2
270
     2
271
     2
272
     3
273
     2
274
     2
340
6B
275
     0
280
     0
281
     0
282
     0
283
     0
284
     0
285
     0
286
     0
287
     0
288
     1
  0
DIMSTYLE
105
60
330
A
100
AcDbSymbolTableRecord
100
AcDbDimStyleTableRecord
  2
AM_JIS$4
 70
     0
  3

  4
"
  5
OPEN30
  6

  7

 40
1.0
 41
2.5
 42
1.0
 43
10.0
 44
1.0
 45
0.0
 46
0.0
 47
0.1
 48
0.1
140
3.2
141
0.0
142
0.0
143
0.0393701
144
1.0
145
0.0
146
0.71
147
1.5
 71
     0
 72
     0
 73
     0
 74
     1
 75
     0
 76
     0
 77
     3
 78
     8
170
     0
171
     2
172
     0
173
     0
174
     0
175
     0
176
   256
177
   256
178
     2
270
     2
271
     2
272
     3
273
     2
274
     2
340
6B
275
     0
280
     0
281
     0
282
     0
283
     0
284
     0
285
     0
286
     0
287
     0
288
     1
  0
DIMSTYLE
105
61
330
A
100
AcDbSymbolTableRecord
100
AcDbDimStyleTableRecord
  2
AM_JIS$6
 70
     0
  3

  4
"
  5
OPEN30
  6

  7

 40
1.0
 41
2.5
 42
1.0
 43
10.0
 44
1.0
 45
0.0
 46
0.0
 47
0.1
 48
0.1
140
3.2
141
0.0
142
0.0
143
0.0393701
144
1.0
145
0.0
146
0.71
147
1.5
 71
     0
 72
     0
 73
     0
 74
     0
 75
     0
 76
     0
 77
     0
 78
     8
170
     0
171
     2
172
     1
173
     0
174
     0
175
     0
176
   256
177
   256
178
     2
270
     2
271
     2
272
     2
273
     2
274
     2
340
6B
275
     0
280
     0
281
     0
282
     0
283
     0
284
     0
285
     0
286
     0
287
     3
288
     0
  0
DIMSTYLE
105
62
330
A
100
AcDbSymbolTableRecord
100
AcDbDimStyleTableRecord
  2
AM_JIS$7
 70
     0
  3

  4
"
  5
OPEN30
  6

  7

 40
1.0
 41
2.5
 42
1.0
 43
10.0
 44
1.0
 45
0.0
 46
0.0
 47
0.1
 48
0.1
140
3.2
141
0.0
142
0.0
143
0.0393701
144
1.0
145
0.0
146
0.71
147
1.5
 71
     0
 72
     0
 73
     0
 74
     0
 75
     0
 76
     0
 77
     3
 78
     8
170
     0
171
     2
172
     1
173
     0
174
     0
175
     0
176
   256
177
   256
178
     2
270
     2
271
     2
272
     3
273
     2
274
     2
340
6B
275
     0
280
     0
281
     0
282
     0
283
     0
284
     0
285
     0
286
     0
287
     3
288
     0
  0
DIMSTYLE
105
63
330
A
100
AcDbSymbolTableRecord
100
AcDbDimStyleTableRecord
  2
AM_JIS$SF
 70
     0
  3

  4
"
  5
OPEN30
  6

  7

 40
1.0
 41
2.5
 42
1.0
 43
10.0
 44
1.0
 45
0.0
 46
0.0
 47
0.1
 48
0.1
140
3.2
141
0.0
142
0.0
143
0.0393701
144
1.0
145
0.0
146
0.71
147
1.5
 71
     0
 72
     0
 73
     0
 74
     0
 75
     1
 76
     1
 77
     3
 78
     8
170
     0
171
     2
172
     1
173
     0
174
     0
175
     0
176
   256
177
   256
178
     2
270
     2
271
     2
272
     2
273
     2
274
     2
340
6B
275
     0
280
     0
281
     0
282
     0
283
     0
284
     0
285
     0
286
     0
287
     3
288
     0
  0
DIMSTYLE
105
68
330
A
100
AcDbSymbolTableRecord
100
AcDbDimStyleTableRecord
  2
AM_JIS$SH
 70
     0
  3

  4
"
  5

  6
GENAXEH
  7
OPEN30
 40
1.0
 41
2.5
 42
1.0
 43
10.0
 44
1.0
 45
0.0
 46
0.0
 47
0.1
 48
0.1
140
3.2
141
0.0
142
0.0
143
0.0393701
144
2.0
145
0.0
146
0.71
147
1.5
 71
     0
 72
     0
 73
     0
 74
     0
 75
     1
 76
     1
 77
     3
 78
     8
170
     0
171
     2
172
     1
173
     1
174
     0
175
     0
176
   256
177
   256
178
     2
270
     2
271
     2
272
     2
273
     2
274
     2
340
6B
275
     0
280
     0
281
     0
282
     0
283
     0
284
     0
285
     0
286
     0
287
     3
288
     0
  0
DIMSTYLE
105
B34
102
{ACAD_REACTORS
330
5EEB
102
}
330
A
100
AcDbSymbolTableRecord
100
AcDbDimStyleTableRecord
  2
AM_JIS$2
 70
     0
  3

  4
"
  5
OPEN30
  6

  7

 40
1.0
 41
2.5
 42
1.0
 43
12.0
 44
1.0
 45
0.0
 46
0.0
 47
0.1
 48
0.1
140
3.2
141
0.0
142
0.0
143
0.0393701
144
1.0
145
0.0
146
0.71
147
1.5
 71
     0
 72
     0
 73
     0
 74
     0
 75
     0
 76
     0
 77
     3
 78
     8
170
     0
171
     2
172
     1
173
     0
174
     0
175
     0
176
   256
177
   256
178
     2
270
     2
271
     3
272
     3
273
     2
274
     2
340
6B
275
     0
280
     0
281
     0
282
     0
283
     0
284
     0
285
     0
286
     0
287
     3
288
     0
  0
DIMSTYLE
105
BA5
102
{ACAD_REACTORS
330
5D73
330
5D72
330
5D71
330
5D62
330
5D70
330
6016
330
60C0
330
61EC
102
}
330
A
100
AcDbSymbolTableRecord
100
AcDbDimStyleTableRecord
  2
AM_JIS$0
 70
     0
  3

  4
"
  5
OPEN30
  6

  7

 40
1.0
 41
2.5
 42
0.8
 43
10.0
 44
1.0
 45
0.0
 46
0.0
 47
0.1
 48
0.1000000001
140
3.799999999999999
141
0.0
142
0.0
143
0.0393701
144
1.0
145
0.0
146
0.71
147
1.5
 71
     0
 72
     0
 73
     0
 74
     0
 75
     0
 76
     0
 77
     3
 78
     9
170
     0
171
     2
172
     1
173
     0
174
     0
175
     0
176
     3
177
     3
178
     2
270
     2
271
     2
272
     2
273
     2
274
     2
340
11
275
     1
280
     0
281
     0
282
     0
283
     0
284
     8
285
     0
286
     0
287
     0
288
     0
  0
DIMSTYLE
105
BA6
330
A
100
AcDbSymbolTableRecord
100
AcDbDimStyleTableRecord
  2
AM_JISORG-1P0$2
 70
     0
  3

  4
"
  5
OPEN30
  6

  7

 40
1.0
 41
2.5
 42
0.0
 43
10.0
 44
1.0
 45
0.0
 46
0.0
 47
0.1
 48
0.1000000001
140
3.799999999999999
141
0.0
142
0.0
143
0.0393701
144
-0.999999980146674
145
0.0
146
0.71
147
1.5
 71
     0
 72
     0
 73
     0
 74
     0
 75
     0
 76
     0
 77
     3
 78
     1
170
     0
171
     2
172
     1
173
     0
174
     0
175
     0
176
     3
177
     3
178
     2
270
     2
271
     2
272
     2
273
     2
274
     2
340
11
275
     1
280
     0
281
     0
282
     0
283
     0
284
     8
285
     0
286
     0
287
     0
288
     0
  0
ENDTAB
  0
TABLE
  2
BLOCK_RECORD
  5
1
330
0
100
AcDbSymbolTable
 70
    18
  0
BLOCK_RECORD
  5
1F
102
{ACAD_XDICTIONARY
360
74
102
}
330
1
100
AcDbSymbolTableRecord
100
AcDbBlockTableRecord
  2
*MODEL_SPACE
  0
BLOCK_RECORD
  5
101
102
{ACAD_XDICTIONARY
360
632E
102
}
330
1
100
AcDbSymbolTableRecord
100
AcDbBlockTableRecord
  2
*PAPER_SPACE
  0
BLOCK_RECORD
  5
59
330
1
100
AcDbSymbolTableRecord
100
AcDbBlockTableRecord
  2
_OPEN30
  0
BLOCK_RECORD
  5
64
330
1
100
AcDbSymbolTableRecord
100
AcDbBlockTableRecord
  2
GENAXEH
  0
BLOCK_RECORD
  5
C31
330
1
100
AcDbSymbolTableRecord
100
AcDbBlockTableRecord
  2
A$C36D02A34
  0
BLOCK_RECORD
  5
2453
330
1
100
AcDbSymbolTableRecord
100
AcDbBlockTableRecord
  2
*D6
  0
BLOCK_RECORD
  5
245F
330
1
100
AcDbSymbolTableRecord
100
AcDbBlockTableRecord
  2
A$C4FFC6CC0
  0
BLOCK_RECORD
  5
5D74
330
1
100
AcDbSymbolTableRecord
100
AcDbBlockTableRecord
  2
*D8
  0
BLOCK_RECORD
  5
5D80
330
1
100
AcDbSymbolTableRecord
100
AcDbBlockTableRecord
  2
*D9
  0
BLOCK_RECORD
  5
5D8C
330
1
100
AcDbSymbolTableRecord
100
AcDbBlockTableRecord
  2
*D10
  0
BLOCK_RECORD
  5
5D9A
330
1
100
AcDbSymbolTableRecord
100
AcDbBlockTableRecord
  2
*D11
  0
BLOCK_RECORD
  5
5DA6
330
1
100
AcDbSymbolTableRecord
100
AcDbBlockTableRecord
  2
*D12
  0
BLOCK_RECORD
  5
5EEC
330
1
100
AcDbSymbolTableRecord
100
AcDbBlockTableRecord
  2
*D13
  0
BLOCK_RECORD
  5
6017
330
1
100
AcDbSymbolTableRecord
100
AcDbBlockTableRecord
  2
*D14
  0
BLOCK_RECORD
  5
60C1
330
1
100
AcDbSymbolTableRecord
100
AcDbBlockTableRecord
  2
*D15
  0
BLOCK_RECORD
  5
61ED
330
1
100
AcDbSymbolTableRecord
100
AcDbBlockTableRecord
  2
*D16
  0
ENDTAB
  0
ENDSEC
  0
SECTION
  2
BLOCKS
  0
BLOCK
  5
20
330
1F
100
AcDbEntity
  8
0
100
AcDbBlockBegin
  2
*MODEL_SPACE
 70
     0
 10
0.0
 20
0.0
 30
0.0
  3
*MODEL_SPACE
  1

  0
ENDBLK
  5
21
330
1F
100
AcDbEntity
  8
0
100
AcDbBlockEnd
  0
BLOCK
  5
103
330
101
100
AcDbEntity
 67
     1
  8
0
100
AcDbBlockBegin
  2
*PAPER_SPACE
 70
     0
 10
0.0
 20
0.0
 30
0.0
  3
*PAPER_SPACE
  1

  0
ENDBLK
  5
104
330
101
100
AcDbEntity
 67
     1
  8
0
100
AcDbBlockEnd
  0
BLOCK
  5
5D
330
59
100
AcDbEntity
  8
0
100
AcDbBlockBegin
  2
_OPEN30
 70
     0
 10
0.0
 20
0.0
 30
0.0
  3
_OPEN30
  1

  0
LINE
  5
5A
330
59
100
AcDbEntity
  8
0
 62
     0
100
AcDbLine
 10
-1.0
 20
0.26794919
 30
0.0
 11
0.0
 21
0.0
 31
0.0
  0
LINE
  5
5B
330
59
100
AcDbEntity
  8
0
 62
     0
100
AcDbLine
 10
0.0
 20
0.0
 30
0.0
 11
-1.0
 21
-0.26794919
 31
0.0
  0
LINE
  5
5C
330
59
100
AcDbEntity
  8
0
 62
     0
100
AcDbLine
 10
0.0
 20
0.0
 30
0.0
 11
-1.0
 21
0.0
 31
0.0
  0
ENDBLK
  5
5E
330
59
100
AcDbEntity
  8
0
100
AcDbBlockEnd
  0
BLOCK
  5
66
330
64
100
AcDbEntity
  8
0
100
AcDbBlockBegin
  2
GENAXEH
 70
     0
 10
0.0
 20
0.0
 30
0.0
  3
GENAXEH
  1

  0
LINE
  5
65
330
64
100
AcDbEntity
  8
0
100
AcDbLine
 10
-1.0
 20
0.0
 30
0.0
 11
1.0
 21
0.0
 31
0.0
  0
ENDBLK
  5
67
330
64
100
AcDbEntity
  8
0
100
AcDbBlockEnd
  0
BLOCK
  5
C4B
330
C31
100
AcDbEntity
  8
0
100
AcDbBlockBegin
  2
A$C36D02A34
 70
     0
 10
0.0
 20
0.0
 30
0.0
  3
A$C36D02A34
  1

  0
ARC
  5
C32
330
C31
100
AcDbEntity
  8
PV0001_1
  6
CONTINUOUS
 48
0.5
100
AcDbCircle
 10
18.06811523436999
 20
-11.83651161193799
 30
0.0
 40
21.600000381469
100
AcDbArc
 50
123.2290435713209
 51
126.6341524197568
  0
ARC
  5
C33
330
C31
100
AcDbEntity
  8
PV0001_1
  6
CONTINUOUS
 48
0.5
100
AcDbCircle
 10
18.06811523436999
 20
-11.83651161193799
 30
0.0
 40
21.600000381469
100
AcDbArc
 50
135.0736707620117
 51
146.7709980930592
  0
ARC
  5
C34
330
C31
100
AcDbEntity
  8
PV0001_1
  6
CONTINUOUS
 48
0.5
100
AcDbCircle
 10
-18.0680770874
 20
11.8365631103514
 30
0.0
 40
21.600000381469
100
AcDbArc
 50
315.0734847530392
 51
326.770781348241
  0
ARC
  5
C35
330
C31
100
AcDbEntity
  8
PV0001_1
  6
CONTINUOUS
 48
0.5
100
AcDbCircle
 10
-18.0680770874
 20
11.8365631103514
 30
0.0
 40
21.600000381469
100
AcDbArc
 50
303.2288882981993
 51
306.633986901359
  0
ARC
  5
C36
330
C31
100
AcDbEntity
  8
PV0001_1
  6
CONTINUOUS
 48
0.5
100
AcDbCircle
 10
-0.6269836425800009
 20
-2.044216156005997
 30
0.0
 40
2.0
100
AcDbArc
 50
337.4067997351092
 51
43.42231293132884
  0
ARC
  5
C37
330
C31
100
AcDbEntity
  8
PV0001_1
  6
CONTINUOUS
 48
0.5
100
AcDbCircle
 10
0.626953125
 20
2.044223785401001
 30
0.0
 40
2.0
100
AcDbArc
 50
157.4068184044407
 51
223.4222769591536
  0
CIRCLE
  5
C38
330
C31
100
AcDbEntity
  8
PV0001_1
  6
CONTINUOUS
 48
0.5
100
AcDbCircle
 10
3.856727600100001
 20
4.596265792847002
 30
0.0
 40
1.6000000238419
  0
CIRCLE
  5
C39
330
C31
100
AcDbEntity
  8
PV0001_1
  6
CONTINUOUS
 48
0.5
100
AcDbCircle
 10
-3.856727600100001
 20
-4.596265792845997
 30
0.0
 40
1.6000000238419
  0
ARC
  5
C3A
330
C31
100
AcDbEntity
  8
PV0001_1
  6
CONTINUOUS
 48
0.5
100
AcDbCircle
 10
-5.58123779297
 20
5.092639923096001
 30
0.0
 40
5.019082546234099
100
AcDbArc
 50
240.2658959250867
 51
321.5156269706421
  0
ARC
  5
C3B
330
C31
100
AcDbEntity
  8
PV0001_1
  6
CONTINUOUS
 48
0.5
100
AcDbCircle
 10
5.486755371089998
 20
-4.601703643798998
 30
0.0
 40
4.651036739349399
100
AcDbArc
 50
56.25271400417071
 51
145.528859890601
  0
ARC
  5
C3C
330
C31
100
AcDbEntity
  8
PV0001_1
  6
CONTINUOUS
 48
0.5
100
AcDbCircle
 10
-2.11590576172
 20
-3.453323364257997
 30
0.0
 40
4.050000190734899
100
AcDbArc
 50
43.42230610113921
 51
58.50391703385149
  0
ARC
  5
C3D
330
C31
100
AcDbEntity
  8
PV0001_1
  6
CONTINUOUS
 48
0.5
100
AcDbCircle
 10
2.115875244139999
 20
3.453330993653001
 30
0.0
 40
4.050000190734899
100
AcDbArc
 50
223.4222942619974
 51
238.5038164022482
  0
ARC
  5
C3E
330
C31
100
AcDbEntity
  8
PV0001_1
  6
CONTINUOUS
 48
0.5
100
AcDbCircle
 10
-6.70369720459
 20
5.094657897949002
 30
0.0
 40
5.940000057220499
100
AcDbArc
 50
328.2536768887549
 51
31.74641873389623
  0
ARC
  5
C3F
330
C31
100
AcDbEntity
  8
PV0001_1
  6
CONTINUOUS
 48
0.5
100
AcDbCircle
 10
6.703674316410001
 20
-5.094650268553998
 30
0.0
 40
5.940000057220499
100
AcDbArc
 50
148.2533403882529
 51
211.7466423089037
  0
ARC
  5
C40
330
C31
100
AcDbEntity
  8
PV0001_1
  6
CONTINUOUS
 48
0.5
100
AcDbCircle
 10
0.0
 20
0.0
 30
0.0
 40
8.812800407409699
100
AcDbArc
 50
175.2198288164333
 51
272.8622597568298
  0
ARC
  5
C41
330
C31
100
AcDbEntity
  8
PV0001_1
  6
CONTINUOUS
 48
0.5
100
AcDbCircle
 10
0.0
 20
0.0
 30
0.0
 40
9.1800003051758
100
AcDbArc
 50
272.7511362215027
 51
280.3697477877874
  0
ARC
  5
C42
330
C31
100
AcDbEntity
  8
PV0001_1
  6
CONTINUOUS
 48
0.5
100
AcDbCircle
 10
0.0
 20
0.0
 30
0.0
 40
8.812800407409699
100
AcDbArc
 50
355.2198199654955
 51
92.86229572901076
  0
ARC
  5
C43
330
C31
100
AcDbEntity
  8
PV0001_1
  6
CONTINUOUS
 48
0.5
100
AcDbCircle
 10
0.0
 20
0.0
 30
0.0
 40
9.1800003051758
100
AcDbArc
 50
92.75115489083434
 51
100.3697664571193
  0
CIRCLE
  5
C44
330
C31
100
AcDbEntity
  8
PV0001_1
  6
CONTINUOUS
100
AcDbCircle
 10
0.0
 20
0.0
 30
0.0
 40
9.1800003051758
  0
LINE
  5
C45
330
C31
100
AcDbEntity
  8
PV0001_1
  6
CONTINUOUS
 48
0.5
100
AcDbLine
 10
-1.652404785160001
 20
9.030059814453
 30
0.0
 11
-1.652404785160001
 21
8.220062255860002
 31
0.0
  0
LINE
  5
C46
330
C31
100
AcDbEntity
  8
PV0001_1
  6
CONTINUOUS
 48
0.5
100
AcDbLine
 10
1.652404785160001
 20
-8.220058441161999
 30
0.0
 11
1.652404785160001
 21
-9.030055999755997
 31
0.0
  0
LINE
  5
C47
330
C31
100
AcDbEntity
  8
PV0001_1
  6
CONTINUOUS
 48
0.5
100
AcDbLine
 10
-8.78217315674
 20
0.7343807220460015
 30
0.0
 11
-8.070594787600001
 21
0.7343997955320028
 31
0.0
  0
LINE
  5
C48
330
C31
100
AcDbEntity
  8
PV0001_1
  6
CONTINUOUS
 48
0.5
100
AcDbLine
 10
8.07057952881
 20
-0.7343864440919994
 30
0.0
 11
8.78215789795
 21
-0.7343654632569994
 31
0.0
  0
LINE
  5
C49
330
C31
100
AcDbEntity
  8
PV0001_1
  6
CONTINUOUS
 48
0.5
100
AcDbLine
 10
0.4406127929700006
 20
-9.169414520263
 30
0.0
 11
0.4406127929700006
 21
-8.812801361083998
 31
0.0
  0
LINE
  5
C4A
330
C31
100
AcDbEntity
  8
PV0001_1
  6
CONTINUOUS
 48
0.5
100
AcDbLine
 10
-0.4406127929700006
 20
9.169418334961001
 30
0.0
 11
-0.4406127929700006
 21
8.812805175781001
 31
0.0
  0
ENDBLK
  5
C4C
330
C31
100
AcDbEntity
  8
0
100
AcDbBlockEnd
  0
BLOCK
  5
245D
330
2453
100
AcDbEntity
  8
0
100
AcDbBlockBegin
  2
*D6
 70
     1
 10
0.0
 20
0.0
 30
0.0
  3
*D6
  1

  0
LINE
  5
2454
330
2453
100
AcDbEntity
  8
AM_5
 62
     3
100
AcDbLine
 10
-137.574381722344
 20
-5.00000294019065
 30
0.0
 11
-152.8199008769066
 21
-5.000002940190694
 31
0.0
  0
LINE
  5
2455
330
2453
100
AcDbEntity
  8
AM_5
 62
     3
100
AcDbLine
 10
-137.5743817223442
 20
5.00002461040103
 30
0.0
 11
-152.8199008769066
 21
5.000024610400987
 31
0.0
  0
LINE
  5
2456
330
2453
100
AcDbEntity
  8
AM_5
 62
     3
100
AcDbLine
 10
-151.8199008769066
 20
-2.500002940190691
 30
0.0
 11
-151.8199008769066
 21
2.50002461040099
 31
0.0
  0
INSERT
  5
2457
330
2453
100
AcDbEntity
  8
AM_5
 62
     3
100
AcDbBlockReference
  2
_OPEN30
 10
-151.8199008769066
 20
-5.00000294019069
 30
0.0
 41
2.5
 42
2.5
 43
2.5
 50
270.0000000000001
  0
INSERT
  5
2458
330
2453
100
AcDbEntity
  8
AM_5
 62
     3
100
AcDbBlockReference
  2
_OPEN30
 10
-151.8199008769066
 20
5.00002461040099
 30
0.0
 41
2.5
 42
2.5
 43
2.5
 50
90.00000000000015
  0
MTEXT
  5
2459
330
2453
100
AcDbEntity
  8
AM_5
 62
     2
100
AcDbMText
 10
-155.2199008769066
 20
0.000010835105146
 30
0.0
 40
3.799999999999999
 41
0.0
 71
     5
 72
     1
  1
%%c10
 11
-0.0000000000000028
 21
1.0
 31
0.0
1001
ACAD
1000
MTEXTBEGIN
1070
    73
1070
     1
1070
    44
1040
1.0
1070
    74
1070
     0
1000
MTEXTEND
  0
POINT
  5
245A
330
2453
100
AcDbEntity
  8
DEFPOINTS
 62
     0
100
AcDbPoint
 10
-137.5743817223441
 20
-5.000002940190223
 30
0.0
  0
POINT
  5
245B
330
2453
100
AcDbEntity
  8
DEFPOINTS
 62
     0
100
AcDbPoint
 10
-137.5743817223441
 20
5.000024610401458
 30
0.0
  0
POINT
  5
245C
330
2453
100
AcDbEntity
  8
DEFPOINTS
 62
     0
100
AcDbPoint
 10
-151.8199008769066
 20
5.000024610401462
 30
0.0
  0
ENDBLK
  5
245E
330
2453
100
AcDbEntity
  8
0
100
AcDbBlockEnd
  0
BLOCK
  5
246B
330
245F
100
AcDbEntity
  8
0
100
AcDbBlockBegin
  2
A$C4FFC6CC0
 70
     0
 10
0.0
 20
0.0
 30
0.0
  3
A$C4FFC6CC0
  1

  0
DIMENSION
  5
2460
330
245F
100
AcDbEntity
  8
AM_5
100
AcDbDimension
  2
*D6
 10
-70.00000100000002
 20
5.000008477104842
 30
0.0
 11
-70.00000100000002
 21
-0.0000052981910228
 31
0.0
 12
81.81989987690661
 22
-0.0000161332966199
 32
0.0
 70
   128
  1
%%c<>
 51
359.9999999999998
  3
AM_JIS$0
100
AcDbAlignedDimension
 13
-55.75448184543748
 23
-5.000019073486843
 33
0.0
 14
-55.75448184543756
 24
5.000008477104838
 34
0.0
 50
270.0
100
AcDbRotatedDimension
1001
ACAD
1000
DSTYLE
1002
{
1070
   271
1070
     0
1002
}
1001
GENIUS_GENDTOL_13
1000

1000
h7
1000

1040
0.0
  0
LINE
  5
2461
330
245F
100
AcDbEntity
  8
AM_0
 48
0.5
100
AcDbLine
 10
-56.0
 20
-4.754495620727796
 30
0.0
 11
-56.00000000000003
 21
4.754485024345811
 31
0.0
  0
LINE
  5
2462
330
245F
100
AcDbEntity
  8
AM_0
 48
0.5
100
AcDbLine
 10
-55.75448184543751
 20
-5.000019073486843
 30
0.0
 11
-55.75448184543754
 21
5.000008477104838
 31
0.0
  0
LINE
  5
2463
330
245F
100
AcDbEntity
  8
AM_0
100
AcDbLine
 10
-0.0000000000000142
 20
4.999995231627903
 30
0.0
 11
-55.75448184543754
 21
4.999995231627746
 31
0.0
  0
LINE
  5
2464
330
245F
100
AcDbEntity
  8
AM_0
 48
0.5
100
AcDbLine
 10
-55.99996821086117
 20
4.754439989725671
 30
0.0
 11
-55.75443945990975
 21
4.999963442484006
 31
0.0
  0
LINE
  5
2465
330
245F
100
AcDbEntity
  8
AM_0
100
AcDbLine
 10
-55.75448184543751
 20
-5.000008477105588
 30
0.0
 11
0.0000000000000142
 21
-5.00000847710543
 31
0.0
  0
LINE
  5
2466
330
245F
100
AcDbEntity
  8
AM_0
 48
0.5
100
AcDbLine
 10
-55.99996821086114
 20
-4.754474427965309
 30
0.0
 11
-55.75443945990972
 21
-4.999997880724334
 31
0.0
  0
LINE
  5
2467
330
245F
100
AcDbEntity
  8
AM_0
100
AcDbLine
 10
0.7794201296714505
 20
4.549985867772141
 30
0.0
 11
0.7794201296714789
 21
-4.550003370497427
 31
0.0
  0
LINE
  5
2468
330
245F
100
AcDbEntity
  8
AM_0
 48
0.5
100
AcDbLine
 10
0.0000000000000142
 20
-5.00000847710543
 30
0.0
 11
-0.0000000000000142
 21
5.000008477104995
 31
0.0
  0
LINE
  5
2469
330
245F
100
AcDbEntity
  8
AM_0
 48
0.5
100
AcDbLine
 10
0.7794201296714647
 20
-4.550003370497435
 30
0.0
 11
-0.0000105963812445
 21
-5.00000847710543
 31
0.0
  0
LINE
  5
246A
330
245F
100
AcDbEntity
  8
AM_0
 48
0.5
100
AcDbLine
 10
0.7794201296714647
 20
4.549985867772141
 30
0.0
 11
-0.0000000000000142
 21
4.999984635246652
 31
0.0
  0
ENDBLK
  5
246C
330
245F
100
AcDbEntity
  8
0
100
AcDbBlockEnd
  0
BLOCK
  5
5D7E
330
5D74
100
AcDbEntity
  8
0
100
AcDbBlockBegin
  2
*D8
 70
     1
 10
0.0
 20
0.0
 30
0.0
  3
*D8
  1

  0
LINE
  5
6226
330
5D74
100
AcDbEntity
  8
AM_5
 62
     3
100
AcDbLine
 10
-183.2047669951321
 20
16.03490960877385
 30
0.0
 11
-205.9743519560584
 21
16.03490960877379
 31
0.0
  0
LINE
  5
6227
330
5D74
100
AcDbEntity
  8
AM_5
 62
     3
100
AcDbLine
 10
-183.2047669951319
 20
-15.96496588266049
 30
0.0
 11
-205.9743519560583
 21
-15.96496588266056
 31
0.0
  0
LINE
  5
6228
330
5D74
100
AcDbEntity
  8
AM_5
 62
     3
100
AcDbLine
 10
-204.9743519560584
 20
13.53490960877379
 30
0.0
 11
-204.9743519560583
 21
-13.46496588266055
 31
0.0
  0
INSERT
  5
6229
330
5D74
100
AcDbEntity
  8
AM_5
 62
     3
100
AcDbBlockReference
  2
_OPEN30
 10
-204.9743519560584
 20
16.03490960877379
 30
0.0
 41
2.5
 42
2.5
 43
2.5
 50
90.00000000000017
  0
INSERT
  5
622A
330
5D74
100
AcDbEntity
  8
AM_5
 62
     3
100
AcDbBlockReference
  2
_OPEN30
 10
-204.9743519560583
 20
-15.96496588266055
 30
0.0
 41
2.5
 42
2.5
 43
2.5
 50
270.0000000000001
  0
MTEXT
  5
622B
330
5D74
100
AcDbEntity
  8
AM_5
 62
     2
100
AcDbMText
 10
-208.3743519560584
 20
0.0349718630566187
 30
0.0
 40
3.799999999999999
 41
0.0
 71
     5
 72
     1
  1
%%C32
 11
-0.0000000000000028
 21
1.0
 31
0.0
1001
ACAD
1000
MTEXTBEGIN
1070
    73
1070
     1
1070
    44
1040
1.0
1070
    74
1070
     0
1000
MTEXTEND
  0
POINT
  5
622C
330
5D74
100
AcDbEntity
  8
DEFPOINTS
 62
     0
100
AcDbPoint
 10
-182.4047669951321
 20
16.03490960877442
 30
0.0
  0
POINT
  5
622D
330
5D74
100
AcDbEntity
  8
DEFPOINTS
 62
     0
100
AcDbPoint
 10
-182.4047669951319
 20
-15.96496588265992
 30
0.0
  0
POINT
  5
622E
330
5D74
100
AcDbEntity
  8
DEFPOINTS
 62
     0
100
AcDbPoint
 10
-204.9743519560584
 20
-15.96496588265991
 30
0.0
  0
ENDBLK
  5
5D7F
330
5D74
100
AcDbEntity
  8
0
100
AcDbBlockEnd
  0
BLOCK
  5
5D8A
330
5D80
100
AcDbEntity
  8
0
100
AcDbBlockBegin
  2
*D9
 70
     1
 10
0.0
 20
0.0
 30
0.0
  3
*D9
  1

  0
LINE
  5
624C
330
5D80
100
AcDbEntity
  8
AM_5
 62
     3
100
AcDbLine
 10
-123.2823953557994
 20
-16.76514898497695
 30
0.0
 11
-123.2823953557993
 21
-44.17956413823652
 31
0.0
  0
LINE
  5
624D
330
5D80
100
AcDbEntity
  8
AM_5
 62
     3
100
AcDbLine
 10
-183.2823953557993
 20
-15.91665655333549
 30
0.0
 11
-183.2823953557992
 21
-44.17956413823669
 31
0.0
  0
LINE
  5
624E
330
5D80
100
AcDbEntity
  8
AM_5
 62
     3
100
AcDbLine
 10
-125.7823953557993
 20
-43.17956413823654
 30
0.0
 11
-180.7823953557992
 21
-43.17956413823669
 31
0.0
  0
INSERT
  5
624F
330
5D80
100
AcDbEntity
  8
AM_5
 62
     3
100
AcDbBlockReference
  2
_OPEN30
 10
-123.2823953557993
 20
-43.17956413823652
 30
0.0
 41
2.5
 42
2.5
 43
2.5
 50
0.0000000000001527
  0
INSERT
  5
6250
330
5D80
100
AcDbEntity
  8
AM_5
 62
     3
100
AcDbBlockReference
  2
_OPEN30
 10
-183.2823953557992
 20
-43.1795641382367
 30
0.0
 41
2.5
 42
2.5
 43
2.5
 50
180.0000000000001
  0
MTEXT
  5
6251
330
5D80
100
AcDbEntity
  8
AM_5
 62
     2
100
AcDbMText
 10
-153.2823953557993
 20
-39.77956413823661
 30
0.0
 40
3.799999999999999
 41
0.0
 71
     5
 72
     1
  1
60
1001
ACAD
1000
MTEXTBEGIN
1070
    73
1070
     1
1070
    44
1040
1.0
1070
    74
1070
     0
1000
MTEXTEND
  0
POINT
  5
6252
330
5D80
100
AcDbEntity
  8
DEFPOINTS
 62
     0
100
AcDbPoint
 10
-123.2823953557994
 20
-15.96514898497659
 30
0.0
  0
POINT
  5
6253
330
5D80
100
AcDbEntity
  8
DEFPOINTS
 62
     0
100
AcDbPoint
 10
-183.2823953557993
 20
-15.11665655333496
 30
0.0
  0
POINT
  5
6254
330
5D80
100
AcDbEntity
  8
DEFPOINTS
 62
     0
100
AcDbPoint
 10
-183.2823953557993
 20
-43.17956413823616
 30
0.0
  0
ENDBLK
  5
5D8B
330
5D80
100
AcDbEntity
  8
0
100
AcDbBlockEnd
  0
BLOCK
  5
5D98
330
5D8C
100
AcDbEntity
  8
0
100
AcDbBlockBegin
  2
*D10
 70
     1
 10
0.0
 20
0.0
 30
0.0
  3
*D10
  1

  0
LINE
  5
6241
330
5D8C
100
AcDbEntity
  8
AM_5
 62
     3
100
AcDbLine
 10
-183.2823095251243
 20
-12.60919686260977
 30
0.0
 11
-183.2823095251242
 21
-32.47651962916089
 31
0.0
  0
LINE
  5
6242
330
5D8C
100
AcDbEntity
  8
AM_5
 62
     3
100
AcDbLine
 10
-177.282406721202
 20
-0.7971024035425885
 30
0.0
 11
-177.2824067212019
 21
-32.47651962916088
 31
0.0
  0
LINE
  5
6243
330
5D8C
100
AcDbEntity
  8
AM_5
 62
     3
100
AcDbLine
 10
-185.7823095251242
 20
-31.4765196291609
 30
0.0
 11
-188.2823095251242
 21
-31.47651962916091
 31
0.0
  0
LINE
  5
6244
330
5D8C
100
AcDbEntity
  8
AM_5
 62
     3
100
AcDbLine
 10
-174.7824067212019
 20
-31.47651962916087
 30
0.0
 11
-172.2824067212019
 21
-31.47651962916086
 31
0.0
  0
LINE
  5
6245
330
5D8C
100
AcDbEntity
  8
AM_5
 62
     3
100
AcDbLine
 10
-183.2823095251242
 20
-31.47651962916089
 30
0.0
 11
-177.2824067212019
 21
-31.47651962916087
 31
0.0
  0
INSERT
  5
6246
330
5D8C
100
AcDbEntity
  8
AM_5
 62
     3
100
AcDbBlockReference
  2
_OPEN30
 10
-183.2823095251242
 20
-31.47651962916089
 30
0.0
 41
2.5
 42
2.5
 43
2.5
 50
0.0000000000001527
  0
INSERT
  5
6247
330
5D8C
100
AcDbEntity
  8
AM_5
 62
     3
100
AcDbBlockReference
  2
_OPEN30
 10
-177.2824067212019
 20
-31.47651962916087
 30
0.0
 41
2.5
 42
2.5
 43
2.5
 50
180.0000000000001
  0
MTEXT
  5
6248
330
5D8C
100
AcDbEntity
  8
AM_5
 62
     2
100
AcDbMText
 10
-180.2823581231631
 20
-28.07651962916089
 30
0.0
 40
3.799999999999999
 41
0.0
 71
     5
 72
     1
  1
6
1001
ACAD
1000
MTEXTBEGIN
1070
    73
1070
     1
1070
    44
1040
1.0
1070
    74
1070
     0
1000
MTEXTEND
  0
POINT
  5
6249
330
5D8C
100
AcDbEntity
  8
DEFPOINTS
 62
     0
100
AcDbPoint
 10
-183.2823095251243
 20
-11.80919686260924
 30
0.0
  0
POINT
  5
624A
330
5D8C
100
AcDbEntity
  8
DEFPOINTS
 62
     0
100
AcDbPoint
 10
-177.282406721202
 20
0.0028975964579274
 30
0.0
  0
POINT
  5
624B
330
5D8C
100
AcDbEntity
  8
DEFPOINTS
 62
     0
100
AcDbPoint
 10
-177.282406721202
 20
-31.47651962916036
 30
0.0
  0
ENDBLK
  5
5D99
330
5D8C
100
AcDbEntity
  8
0
100
AcDbBlockEnd
  0
BLOCK
  5
5DA4
330
5D9A
100
AcDbEntity
  8
0
100
AcDbBlockBegin
  2
*D11
 70
     1
 10
0.0
 20
0.0
 30
0.0
  3
*D11
  1

  0
LINE
  5
6238
330
5D9A
100
AcDbEntity
  8
AM_5
 62
     3
100
AcDbLine
 10
-177.282406721202
 20
-0.7971024035425885
 30
0.0
 11
-177.2824067212019
 21
-32.47651962916067
 31
0.0
  0
LINE
  5
6239
330
5D9A
100
AcDbEntity
  8
AM_5
 62
     3
100
AcDbLine
 10
-127.2823953557995
 20
-0.7971024035423293
 30
0.0
 11
-127.2823953557994
 21
-32.47651962916052
 31
0.0
  0
LINE
  5
623A
330
5D9A
100
AcDbEntity
  8
AM_5
 62
     3
100
AcDbLine
 10
-174.7824067212019
 20
-31.47651962916066
 30
0.0
 11
-129.7823953557994
 21
-31.47651962916052
 31
0.0
  0
INSERT
  5
623B
330
5D9A
100
AcDbEntity
  8
AM_5
 62
     3
100
AcDbBlockReference
  2
_OPEN30
 10
-177.2824067212019
 20
-31.47651962916066
 30
0.0
 41
2.5
 42
2.5
 43
2.5
 50
180.0000000000001
  0
INSERT
  5
623C
330
5D9A
100
AcDbEntity
  8
AM_5
 62
     3
100
AcDbBlockReference
  2
_OPEN30
 10
-127.2823953557994
 20
-31.47651962916052
 30
0.0
 41
2.5
 42
2.5
 43
2.5
 50
0.0000000000001527
  0
MTEXT
  5
623D
330
5D9A
100
AcDbEntity
  8
AM_5
 62
     2
100
AcDbMText
 10
-152.2824010385007
 20
-28.07651962916059
 30
0.0
 40
3.799999999999999
 41
0.0
 71
     5
 72
     1
  1
50
1001
ACAD
1000
MTEXTBEGIN
1070
    73
1070
     1
1070
    44
1040
1.0
1070
    74
1070
     0
1000
MTEXTEND
  0
POINT
  5
623E
330
5D9A
100
AcDbEntity
  8
DEFPOINTS
 62
     0
100
AcDbPoint
 10
-177.282406721202
 20
0.0028975964579274
 30
0.0
  0
POINT
  5
623F
330
5D9A
100
AcDbEntity
  8
DEFPOINTS
 62
     0
100
AcDbPoint
 10
-127.2823953557995
 20
0.0028975964580411
 30
0.0
  0
POINT
  5
6240
330
5D9A
100
AcDbEntity
  8
DEFPOINTS
 62
     0
100
AcDbPoint
 10
-127.2823953557995
 20
-31.47651962916015
 30
0.0
  0
ENDBLK
  5
5DA5
330
5D9A
100
AcDbEntity
  8
0
100
AcDbBlockEnd
  0
BLOCK
  5
5DB0
330
5DA6
100
AcDbEntity
  8
0
100
AcDbBlockBegin
  2
*D12
 70
     1
 10
0.0
 20
0.0
 30
0.0
  3
*D12
  1

  0
LINE
  5
6255
330
5DA6
100
AcDbEntity
  8
AM_5
 62
     3
100
AcDbLine
 10
-3.282395355799424
 20
-12.80000784238306
 30
0.0
 11
-3.2823953557993
 21
-56.48192224096796
 31
0.0
  0
LINE
  5
6256
330
5DA6
100
AcDbEntity
  8
AM_5
 62
     3
100
AcDbLine
 10
-183.2822854925352
 20
-15.91658331114856
 30
0.0
 11
-183.2822854925351
 21
-56.48192224096849
 31
0.0
  0
LINE
  5
6257
330
5DA6
100
AcDbEntity
  8
AM_5
 62
     3
100
AcDbLine
 10
-5.782395355799303
 20
-55.48192224096797
 30
0.0
 11
-180.7822854925351
 21
-55.48192224096847
 31
0.0
  0
INSERT
  5
6258
330
5DA6
100
AcDbEntity
  8
AM_5
 62
     3
100
AcDbBlockReference
  2
_OPEN30
 10
-3.282395355799303
 20
-55.48192224096796
 30
0.0
 41
2.5
 42
2.5
 43
2.5
 50
0.0000000000001527
  0
INSERT
  5
6259
330
5DA6
100
AcDbEntity
  8
AM_5
 62
     3
100
AcDbBlockReference
  2
_OPEN30
 10
-183.2822854925351
 20
-55.48192224096848
 30
0.0
 41
2.5
 42
2.5
 43
2.5
 50
180.0000000000001
  0
MTEXT
  5
625A
330
5DA6
100
AcDbEntity
  8
AM_5
 62
     2
100
AcDbMText
 10
-93.28234042416722
 20
-52.08192224096823
 30
0.0
 40
3.799999999999999
 41
0.0
 71
     5
 72
     1
  1
180
1001
ACAD
1000
MTEXTBEGIN
1070
    73
1070
     1
1070
    44
1040
1.0
1070
    74
1070
     0
1000
MTEXTEND
  0
POINT
  5
625B
330
5DA6
100
AcDbEntity
  8
DEFPOINTS
 62
     0
100
AcDbPoint
 10
-3.282395355799462
 20
-12.00000784238305
 30
0.0
  0
POINT
  5
625C
330
5DA6
100
AcDbEntity
  8
DEFPOINTS
 62
     0
100
AcDbPoint
 10
-183.2822854925353
 20
-15.11658331114803
 30
0.0
  0
POINT
  5
625D
330
5DA6
100
AcDbEntity
  8
DEFPOINTS
 62
     0
100
AcDbPoint
 10
-183.2822854925353
 20
-55.48192224096795
 30
0.0
  0
ENDBLK
  5
5DB1
330
5DA6
100
AcDbEntity
  8
0
100
AcDbBlockEnd
  0
BLOCK
  5
5EFA
330
5EEC
100
AcDbEntity
  8
0
100
AcDbBlockBegin
  2
*D13
 70
     1
 10
0.0
 20
0.0
 30
0.0
  3
*D13
  1

  0
LINE
  5
5FBB
330
5EEC
100
AcDbEntity
  8
AM_5
100
AcDbLine
 10
0.2588235327313181
 20
-0.9659336693633257
 30
0.0
 11
8.782571362077071
 21
-32.77699397920485
 31
0.0
  0
LINE
  5
5FBC
330
5EEC
100
AcDbEntity
  8
AM_5
100
AcDbLine
 10
0.2588209057385371
 20
0.9659301054235424
 30
0.0
 11
8.782594056286548
 21
32.77699681359182
 31
0.0
  0
ARC
  5
5FBD
330
5EEC
100
AcDbEntity
  8
AM_5
100
AcDbCircle
 10
0.000001194425791
 20
0.0000044576452124
 30
0.0
 40
32.93324572272729
100
AcDbArc
 50
289.3504323762698
 51
70.64952795315003
  0
INSERT
  5
5FBE
330
5EEC
100
AcDbEntity
  8
AM_5
100
AcDbBlockReference
  2
_OPEN30
 10
8.523752319554152
 20
-31.81106815222458
 30
0.0
 41
2.5
 42
2.5
 43
2.5
 50
197.1752161116279
  0
INSERT
  5
5FBF
330
5EEC
100
AcDbEntity
  8
AM_5
100
AcDbBlockReference
  2
_OPEN30
 10
8.523774344973801
 20
31.81107116581349
 30
0.0
 41
2.5
 42
2.5
 43
2.5
 50
162.8247442177919
  0
MTEXT
  5
5FC0
330
5EEC
100
AcDbEntity
  8
AM_5
 62
     2
100
AcDbMText
 10
29.83324691715111
 20
-0.0000069435519961
 30
0.0
 40
3.2
 41
0.0
 71
     5
 72
     1
  1
150°
  7
ASAMI
 11
-0.0000000000000028
 21
1.0
 31
0.0
1001
ACAD
1000
MTEXTBEGIN
1070
    73
1070
     1
1070
    44
1040
1.0
1070
    74
1070
     0
1000
MTEXTEND
  0
POINT
  5
5FC1
330
5EEC
100
AcDbEntity
  8
DEFPOINTS
 62
     0
100
AcDbPoint
 10
29.84766465740409
 20
13.91818176770725
 30
0.0
  0
POINT
  5
5FC2
330
5EEC
100
AcDbEntity
  8
DEFPOINTS
 62
     0
100
AcDbPoint
 10
0.0
 20
-0.0000000000002274
 30
0.0
  0
POINT
  5
5FC3
330
5EEC
100
AcDbEntity
  8
DEFPOINTS
 62
     0
100
AcDbPoint
 10
0.0000044902083971
 20
-0.0000078423830558
 30
0.0
  0
POINT
  5
5FC4
330
5EEC
100
AcDbEntity
  8
DEFPOINTS
 62
     0
100
AcDbPoint
 10
-3.215385784616955
 20
11.99999215761687
 30
0.0
  0
POINT
  5
5FC5
330
5EEC
100
AcDbEntity
  8
DEFPOINTS
 62
     0
100
AcDbPoint
 10
-3.215401281309596
 20
-12.00000784238305
 30
0.0
  0
ENDBLK
  5
5EFB
330
5EEC
100
AcDbEntity
  8
0
100
AcDbBlockEnd
  0
BLOCK
  5
6021
330
6017
100
AcDbEntity
  8
0
100
AcDbBlockBegin
  2
*D14
 70
     1
 10
0.0
 20
0.0
 30
0.0
  3
*D14
  1

  0
LINE
  5
621D
330
6017
100
AcDbEntity
  8
AM_5
 62
     3
100
AcDbLine
 10
-99.28239535579976
 20
9.228565825343892
 30
0.0
 11
-99.28239535579983
 21
31.9743063535714
 31
0.0
  0
LINE
  5
621E
330
6017
100
AcDbEntity
  8
AM_5
 62
     3
100
AcDbLine
 10
-3.282379859106859
 20
12.79999215761686
 30
0.0
 11
-3.282379859106913
 21
31.97430635357168
 31
0.0
  0
LINE
  5
621F
330
6017
100
AcDbEntity
  8
AM_5
 62
     3
100
AcDbLine
 10
-96.78239535579983
 20
30.97430635357141
 30
0.0
 11
-5.782379859106909
 21
30.97430635357167
 31
0.0
  0
INSERT
  5
6220
330
6017
100
AcDbEntity
  8
AM_5
 62
     3
100
AcDbBlockReference
  2
_OPEN30
 10
-99.28239535579983
 20
30.9743063535714
 30
0.0
 41
2.5
 42
2.5
 43
2.5
 50
180.0000000000001
  0
INSERT
  5
6221
330
6017
100
AcDbEntity
  8
AM_5
 62
     3
100
AcDbBlockReference
  2
_OPEN30
 10
-3.28237985910691
 20
30.97430635357168
 30
0.0
 41
2.5
 42
2.5
 43
2.5
 50
0.0000000000001527
  0
MTEXT
  5
6222
330
6017
100
AcDbEntity
  8
AM_5
 62
     2
100
AcDbMText
 10
-51.28238760745338
 20
34.37430635357154
 30
0.0
 40
3.799999999999999
 41
0.0
 71
     5
 72
     1
  1
96
1001
ACAD
1000
MTEXTBEGIN
1070
    73
1070
     1
1070
    44
1040
1.0
1070
    74
1070
     0
1000
MTEXTEND
  0
POINT
  5
6223
330
6017
100
AcDbEntity
  8
DEFPOINTS
 62
     0
100
AcDbPoint
 10
-99.28239535579974
 20
8.428565825344181
 30
0.0
  0
POINT
  5
6224
330
6017
100
AcDbEntity
  8
DEFPOINTS
 62
     0
100
AcDbPoint
 10
-3.282379859106821
 20
11.99999215761687
 30
0.0
  0
POINT
  5
6225
330
6017
100
AcDbEntity
  8
DEFPOINTS
 62
     0
100
AcDbPoint
 10
-3.28237985910682
 20
30.97430635357169
 30
0.0
  0
ENDBLK
  5
6022
330
6017
100
AcDbEntity
  8
0
100
AcDbBlockEnd
  0
BLOCK
  5
60CB
330
60C1
100
AcDbEntity
  8
0
100
AcDbBlockBegin
  2
*D15
 70
     1
 10
0.0
 20
0.0
 30
0.0
  3
*D15
  1

  0
LINE
  5
622F
330
60C1
100
AcDbEntity
  8
AM_5
 62
     3
100
AcDbLine
 10
-123.2823953557994
 20
-16.76514898497695
 30
0.0
 11
-123.2823953557993
 21
-44.19101910675584
 31
0.0
  0
LINE
  5
6230
330
60C1
100
AcDbEntity
  8
AM_5
 62
     3
100
AcDbLine
 10
-3.282395355799424
 20
-12.80000784238306
 30
0.0
 11
-3.282395355799335
 21
-44.19101910675549
 31
0.0
  0
LINE
  5
6231
330
60C1
100
AcDbEntity
  8
AM_5
 62
     3
100
AcDbLine
 10
-120.7823953557993
 20
-43.19101910675583
 30
0.0
 11
-5.782395355799338
 21
-43.19101910675549
 31
0.0
  0
INSERT
  5
6232
330
60C1
100
AcDbEntity
  8
AM_5
 62
     3
100
AcDbBlockReference
  2
_OPEN30
 10
-123.2823953557993
 20
-43.19101910675583
 30
0.0
 41
2.5
 42
2.5
 43
2.5
 50
180.0000000000001
  0
INSERT
  5
6233
330
60C1
100
AcDbEntity
  8
AM_5
 62
     3
100
AcDbBlockReference
  2
_OPEN30
 10
-3.282395355799338
 20
-43.19101910675549
 30
0.0
 41
2.5
 42
2.5
 43
2.5
 50
0.0000000000001527
  0
MTEXT
  5
6234
330
60C1
100
AcDbEntity
  8
AM_5
 62
     2
100
AcDbMText
 10
-63.28239535579935
 20
-39.79101910675566
 30
0.0
 40
3.799999999999999
 41
0.0
 71
     5
 72
     1
  1
120
1001
ACAD
1000
MTEXTBEGIN
1070
    73
1070
     1
1070
    44
1040
1.0
1070
    74
1070
     0
1000
MTEXTEND
  0
POINT
  5
6235
330
60C1
100
AcDbEntity
  8
DEFPOINTS
 62
     0
100
AcDbPoint
 10
-123.2823953557994
 20
-15.96514898497659
 30
0.0
  0
POINT
  5
6236
330
60C1
100
AcDbEntity
  8
DEFPOINTS
 62
     0
100
AcDbPoint
 10
-3.282395355799462
 20
-12.00000784238305
 30
0.0
  0
POINT
  5
6237
330
60C1
100
AcDbEntity
  8
DEFPOINTS
 62
     0
100
AcDbPoint
 10
-3.282395355799463
 20
-43.19101910675548
 30
0.0
  0
ENDBLK
  5
60CC
330
60C1
100
AcDbEntity
  8
0
100
AcDbBlockEnd
  0
BLOCK
  5
61F7
330
61ED
100
AcDbEntity
  8
0
100
AcDbBlockBegin
  2
*D16
 70
     1
 10
0.0
 20
0.0
 30
0.0
  3
*D16
  1

  0
LINE
  5
6209
330
61ED
100
AcDbEntity
  8
AM_5
 62
     3
100
AcDbLine
 10
-1.566890539141637
 20
12.24999215761683
 30
0.0
 11
16.60357248860586
 21
12.24999215761682
 31
0.0
  0
LINE
  5
620A
330
61ED
100
AcDbEntity
  8
AM_5
 62
     3
100
AcDbLine
 10
-1.566906035834348
 20
-12.25000784238306
 30
0.0
 11
16.60357248860585
 21
-12.25000784238306
 31
0.0
  0
LINE
  5
620B
330
61ED
100
AcDbEntity
  8
AM_5
 62
     3
100
AcDbLine
 10
15.60357248860586
 20
9.749992157616828
 30
0.0
 11
15.60357248860585
 21
-9.750007842383068
 31
0.0
  0
INSERT
  5
620C
330
61ED
100
AcDbEntity
  8
AM_5
 62
     3
100
AcDbBlockReference
  2
_OPEN30
 10
15.60357248860586
 20
12.24999215761682
 30
0.0
 41
2.5
 42
2.5
 43
2.5
 50
90.0
  0
INSERT
  5
620D
330
61ED
100
AcDbEntity
  8
AM_5
 62
     3
100
AcDbBlockReference
  2
_OPEN30
 10
15.60357248860585
 20
-12.25000784238306
 30
0.0
 41
2.5
 42
2.5
 43
2.5
 50
270.0
  0
MTEXT
  5
620E
330
61ED
100
AcDbEntity
  8
AM_5
 62
     2
100
AcDbMText
 10
12.20357248860585
 20
-0.0000078423831168
 30
0.0
 40
3.799999999999999
 41
0.0
 71
     5
 72
     1
  1
%%c24.5
 11
0.0000000000000001
 21
1.0
 31
0.0
1001
ACAD
1000
MTEXTBEGIN
1070
    73
1070
     1
1070
    44
1040
1.0
1070
    74
1070
     0
1000
MTEXTEND
  0
POINT
  5
620F
330
61ED
100
AcDbEntity
  8
DEFPOINTS
 62
     0
100
AcDbPoint
 10
-2.366890539141637
 20
12.24999215761683
 30
0.0
  0
POINT
  5
6210
330
61ED
100
AcDbEntity
  8
DEFPOINTS
 62
     0
100
AcDbPoint
 10
-2.366906035834348
 20
-12.25000784238306
 30
0.0
  0
POINT
  5
6211
330
61ED
100
AcDbEntity
  8
DEFPOINTS
 62
     0
100
AcDbPoint
 10
15.60357248860585
 20
-12.25000784238306
 30
0.0
  0
ENDBLK
  5
61F8
330
61ED
100
AcDbEntity
  8
0
100
AcDbBlockEnd
  0
ENDSEC
  0
SECTION
  2
ENTITIES
  0
TEXT
  5
19BD
330
1F
100
AcDbEntity
  8
AM_6
100
AcDbText
 10
-114.5248701592011
 20
-77.98192224096829
 30
0.0
 40
5.0
  1
KDS245BAK
 50
0.0000000000001527
 72
     4
 11
-93.21534634967731
 21
-75.48192224096823
 31
0.0
100
AcDbText
  0
LINE
  5
35CA
330
1F
100
AcDbEntity
  8
PV0001_1
  6
CONTINUOUS
 48
0.5
100
AcDbLine
 10
-589.2017441852486
 20
-57.69694534177202
 30
0.0
 11
-567.9171279738763
 21
-62.69376548307545
 31
0.0
  0
LINE
  5
5CCE
330
1F
100
AcDbEntity
  8
AM_7
  6
AM_ISO08W050
100
AcDbLine
 10
5.575492385997222
 20
0.0028975964583985
 30
0.0
 11
-190.4878072702285
 21
0.0028975964578512
 31
0.0
  0
DIMENSION
  5
5D62
330
1F
100
AcDbEntity
  8
AM_5
100
AcDbDimension
  2
*D11
 10
-127.2823953557995
 20
-31.47651962916015
 30
0.0
 11
-152.2824010385007
 21
-28.07651962916015
 31
0.0
 70
    32
  1
<>
 51
359.9999999999998
  3
AM_JIS$0
100
AcDbAlignedDimension
 13
-177.282406721202
 23
0.0028975964579274
 33
0.0
 14
-127.2823953557995
 24
0.0028975964580411
 34
0.0
100
AcDbRotatedDimension
1001
ACAD
1000
DSTYLE
1002
{
1070
   271
1070
     3
1002
}
1001
GENIUS_GENDTOL_13
1000

1000
h7
1000

1040
0.0
  0
LINE
  5
5D63
330
1F
100
AcDbEntity
  8
PV0001_1
  6
CONTINUOUS
 48
0.5
100
AcDbLine
 10
-183.2823953557994
 20
0.0348620013519678
 30
0.0
 11
-183.2823953557995
 21
15.18638055603945
 31
0.0
  0
LINE
  5
5D64
330
1F
100
AcDbEntity
  8
PV0001_1
  6
CONTINUOUS
 48
0.5
100
AcDbLine
 10
-182.4338846136314
 20
0.0348620013519678
 30
0.0
 11
-182.4338846136315
 21
16.03490960877442
 31
0.0
  0
LINE
  5
5D65
330
1F
100
AcDbEntity
  8
PV0001_1
  6
CONTINUOUS
 48
0.5
100
AcDbLine
 10
-182.4338846136314
 20
0.0348620013519678
 30
0.0
 11
-182.4338846136314
 21
-15.96518560607049
 31
0.0
  0
LINE
  5
5D66
330
1F
100
AcDbEntity
  8
PV0001_1
  6
CONTINUOUS
 48
0.5
100
AcDbLine
 10
-183.2823953557994
 20
0.0348620013519678
 30
0.0
 11
-183.2823953557993
 21
-15.11665655333496
 31
0.0
  0
LINE
  5
5D67
330
1F
100
AcDbEntity
  8
PV0001_1
  6
CONTINUOUS
 48
0.5
100
AcDbLine
 10
-183.2822854925353
 20
-15.11658331114803
 30
0.0
 11
-182.4337381292473
 21
-15.96511236388299
 31
0.0
  0
LINE
  5
5D68
330
1F
100
AcDbEntity
  8
PV0001_1
  6
CONTINUOUS
 48
0.5
100
AcDbLine
 10
-183.2822854925354
 20
15.18622491639219
 30
0.0
 11
-182.4337381292474
 21
16.03475396912482
 31
0.0
  0
ARC
  5
5D69
330
1F
100
AcDbEntity
  8
AM_0
100
AcDbCircle
 10
-132.1236245385587
 20
0.0028975964580269
 30
0.0
 40
4.841229182759249
100
AcDbArc
 50
270.0000000000001
 51
90.00000000000017
  0
ARC
  5
5D6A
330
1F
100
AcDbEntity
  8
AM_0
100
AcDbCircle
 10
-172.4411775384427
 20
0.0028975964579274
 30
0.0
 40
4.841229182759249
100
AcDbArc
 50
90.00000000000168
 51
270.0000000000017
  0
LINE
  5
5D6B
330
1F
100
AcDbEntity
  8
AM_0
100
AcDbLine
 10
-172.4411775384426
 20
-4.838331586301379
 30
0.0
 11
-132.1236245385587
 21
-4.838331586301265
 31
0.0
  0
LINE
  5
5D6C
330
1F
100
AcDbEntity
  8
AM_0
100
AcDbLine
 10
-132.1236245385587
 20
4.844126779217278
 30
0.0
 11
-172.4411775384427
 21
4.844126779217164
 31
0.0
  0
LINE
  5
5D6D
330
1F
100
AcDbEntity
  8
PV0001_1
  6
CONTINUOUS
100
AcDbLine
 10
-123.2823953557995
 20
16.03486383240562
 30
0.0
 11
-182.4047669951321
 21
16.03486383240549
 31
0.0
  0
LINE
  5
5D6E
330
1F
100
AcDbEntity
  8
PV0001_1
  6
CONTINUOUS
100
AcDbLine
 10
-123.2823953557994
 20
-15.96514898497659
 30
0.0
 11
-123.2823953557995
 21
16.03486383240562
 31
0.0
  0
LINE
  5
5D6F
330
1F
100
AcDbEntity
  8
PV0001_1
  6
CONTINUOUS
100
AcDbLine
 10
-182.4047669951319
 20
-15.96514898497673
 30
0.0
 11
-123.2823953557994
 21
-15.96514898497659
 31
0.0
  0
DIMENSION
  5
5D70
330
1F
100
AcDbEntity
  8
AM_5
100
AcDbDimension
  2
*D12
 10
-183.2822854925353
 20
-55.48192224096795
 30
0.0
 11
-93.28234042416738
 21
-52.08192224096795
 31
0.0
 70
    32
  1
<>
 51
359.9999999999998
  3
AM_JIS$0
100
AcDbAlignedDimension
 13
-3.282395355799462
 23
-12.00000784238305
 33
0.0
 14
-183.2822854925353
 24
-15.11658331114803
 34
0.0
100
AcDbRotatedDimension
1001
ACAD
1000
DSTYLE
1002
{
1070
   271
1070
     3
1002
}
1001
GENIUS_GENDTOL_13
1000

1000
h7
1000

1040
0.0
  0
DIMENSION
  5
5D71
330
1F
100
AcDbEntity
  8
AM_5
100
AcDbDimension
  2
*D10
 10
-177.282406721202
 20
-31.47651962916036
 30
0.0
 11
-180.2823581231631
 21
-31.47651962916036
 31
0.0
 70
   160
  1
<>
 51
359.9999999999998
  3
AM_JIS$0
100
AcDbAlignedDimension
 13
-183.2823095251243
 23
-11.80919686260924
 33
0.0
 14
-177.282406721202
 24
0.0028975964579274
 34
0.0
100
AcDbRotatedDimension
1001
ACAD
1000
DSTYLE
1002
{
1070
   271
1070
     3
1002
}
1001
GENIUS_GENDTOL_13
1000

1000
h7
1000

1040
0.0
  0
DIMENSION
  5
5D72
330
1F
100
AcDbEntity
  8
AM_5
100
AcDbDimension
  2
*D9
 10
-183.2823953557993
 20
-43.17956413823616
 30
0.0
 11
-153.2823953557994
 21
-39.77956413823616
 31
0.0
 70
    32
  1
<>
 51
359.9999999999998
  3
AM_JIS$0
100
AcDbAlignedDimension
 13
-123.2823953557994
 23
-15.96514898497659
 33
0.0
 14
-183.2823953557993
 24
-15.11665655333496
 34
0.0
100
AcDbRotatedDimension
1001
ACAD
1000
DSTYLE
1002
{
1070
   271
1070
     3
1002
}
1001
GENIUS_GENDTOL_13
1000

1000
h7
1000

1040
0.0
  0
DIMENSION
  5
5D73
330
1F
100
AcDbEntity
  8
AM_5
100
AcDbDimension
  2
*D8
 10
-204.9743519560584
 20
-15.96496588265991
 30
0.0
 11
-208.3743519560584
 21
0.034971863057225
 31
0.0
 70
    32
  1
%%C<>
 51
359.9999999999998
  3
AM_JIS$0
100
AcDbAlignedDimension
 13
-182.4047669951321
 23
16.03490960877442
 33
0.0
 14
-182.4047669951319
 24
-15.96496588265992
 34
0.0
 50
270.0000000000002
100
AcDbRotatedDimension
1001
ACAD
1000
DSTYLE
1002
{
1070
   271
1070
     3
1002
}
1001
GENIUS_GENDTOL_13
1000

1000
h7
1000

1040
0.0
  0
SPLINE
  5
5EBE
330
1F
100
AcDbEntity
  8
AM_0
  6
CONTINUOUS
 48
0.5
100
AcDbSpline
210
0.0
220
0.0
230
1.0
 70
     8
 71
     3
 72
    23
 73
    19
 74
     0
 42
0.0000000001
 43
0.0000000001
 40
0.0
 40
0.0
 40
0.0
 40
0.0
 40
1.010743684496582
 40
2.022833576468826
 40
3.037578957496683
 40
4.056212745003485
 40
5.079857003665509
 40
6.109500240690275
 40
7.145961322679365
 40
8.189880470204213
 40
9.241703023925269
 40
10.30166930151765
 40
11.3698269246763
 40
12.44598301520777
 40
13.52983529054051
 40
14.62080810761866
 40
15.71821804889404
 40
16.41798914862032
 40
16.41798914862032
 40
16.41798914862032
 40
16.41798914862032
 10
-84.86993886098799
 20
-12.25000784238279
 30
0.0
 10
-85.5273963117569
 20
-12.24286813341164
 30
0.0
 10
-86.84318687954805
 20
-12.22857920610543
 30
0.0
 10
-88.81639388853924
 20
-12.11339440098542
 30
0.0
 10
-90.78951667449095
 20
-11.93028067576315
 30
0.0
 10
-92.76251732191587
 20
-11.67363973339839
 30
0.0
 10
-94.73537624618254
 20
-11.34694995420332
 30
0.0
 10
-96.7080541402881
 20
-10.95166255476661
 30
0.0
 10
-98.6805496918977
 20
-10.49044825013067
 30
0.0
 10
-100.6528494486351
 20
-9.966108223695538
 30
0.0
 10
-102.624948747793
 20
-9.381895917718619
 30
0.0
 10
-104.5968638198218
 20
-8.741447518184951
 30
0.0
 10
-106.56858649375
 20
-8.048717587522983
 30
0.0
 10
-108.5401391097502
 20
-7.307955502906292
 30
0.0
 10
-110.5115480288403
 20
-6.523802794206016
 30
0.0
 10
-112.4828175104936
 20
-5.701016333831415
 30
0.0
 10
-114.2124731787432
 20
-4.94961604487781
 30
0.0
 10
-115.2843002905596
 20
-4.471443799642994
 30
0.0
 10
-115.7010388867494
 20
-4.283856009856361
 30
0.0
  0
ELLIPSE
  5
5EBF
330
1F
100
AcDbEntity
  8
AM_0
  6
CONTINUOUS
 48
0.5
100
AcDbEllipse
 10
-118.2757938137104
 20
-10.44499039783649
 30
0.0
 11
-2.47899800578847
 21
3.619910914516424
 31
0.0
210
0.0
220
0.0
230
1.0
 40
0.8534115241873918
 41
1.06865906864796
 42
2.528863906355169
  0
ELLIPSE
  5
5EC0
330
1F
100
AcDbEntity
  8
AM_0
  6
CONTINUOUS
 48
0.5
100
AcDbEllipse
 10
-116.9264929059253
 20
-9.398038650597584
 30
0.0
 11
-4.822429975435618
 21
2.609214430647523
 31
0.0
210
0.0
220
0.0
230
0.9999999999999998
 40
0.9564069103550727
 41
-1.320919150747291
 42
0.7353567399765386
  0
LINE
  5
5EC1
330
1F
100
AcDbEntity
  8
AM_0
  6
CONTINUOUS
 48
0.5
100
AcDbLine
 10
-113.6180871845888
 20
-14.36846790396114
 30
0.0
 11
-123.2823953557994
 21
-15.96514898497659
 31
0.0
  0
ARC
  5
5EDA
330
1F
100
AcDbEntity
  8
AM_0
100
AcDbCircle
 10
-120.915368554777
 20
15.87803759405729
 30
0.0
 40
31.27410096997135
100
AcDbArc
 50
291.6772730417024
 51
306.0485545398757
  0
ARC
  5
5EDC
330
1F
100
AcDbEntity
  8
AM_0
100
AcDbCircle
 10
-116.9256597471517
 20
5.551151424423013
 30
0.0
 40
20.20411266343203
100
AcDbArc
 50
266.8825512358782
 51
291.9806339603501
  0
LINE
  5
5EDD
330
1F
100
AcDbEntity
  8
AM_0
  6
CONTINUOUS
 48
0.5
100
AcDbLine
 10
-117.4629386685601
 20
15.00948721380461
 30
0.0
 11
-123.2823953557995
 21
15.97094417789269
 31
0.0
  0
DIMENSION
  5
5EEB
330
1F
100
AcDbEntity
  8
AM_5
100
AcDbDimension
  2
*D13
 10
-3.215401281309596
 20
-12.00000784238305
 30
0.0
 11
29.83324691715111
 21
-0.0000069435520877
 31
0.0
 70
    34
  1
<>
 51
359.9999999999998
  3
AM_JIS$2
100
AcDb2LineAngularDimension
 13
0.0000044902083971
 23
-0.0000078423830558
 33
0.0
 14
-3.215385784616955
 24
11.99999215761687
 34
0.0
 15
0.0
 25
-0.0000000000002274
 35
0.0
 16
29.84766465740409
 26
13.91818176770725
 36
0.0
1001
ACAD
1000
DSTYLE
1002
{
1070
   179
1070
     3
1002
}
1001
GENIUS_GENDTOL_13
1000

1000
h7
1000

1040
0.0
  0
DIMENSION
  5
6016
330
1F
100
AcDbEntity
  8
AM_5
100
AcDbDimension
  2
*D14
 10
-3.28237985910682
 20
30.97430635357169
 30
0.0
 11
-51.28238760745328
 21
34.37430635357169
 31
0.0
 70
    32
  1
<>
 51
359.9999999999998
  3
AM_JIS$0
100
AcDbAlignedDimension
 13
-99.28239535579974
 23
8.428565825344181
 33
0.0
 14
-3.282379859106821
 24
11.99999215761687
 34
0.0
 50
180.0000000000001
100
AcDbRotatedDimension
1001
ACAD
1000
DSTYLE
1002
{
1070
   271
1070
     3
1002
}
1001
GENIUS_GENDTOL_13
1000

1000
h7
1000

1040
0.0
  0
DIMENSION
  5
60C0
330
1F
100
AcDbEntity
  8
AM_5
100
AcDbDimension
  2
*D15
 10
-3.282395355799463
 20
-43.19101910675548
 30
0.0
 11
-63.28239535579946
 21
-39.79101910675548
 31
0.0
 70
    32
  1
<>
 51
359.9999999999998
  3
AM_JIS$0
100
AcDbAlignedDimension
 13
-123.2823953557994
 23
-15.96514898497659
 33
0.0
 14
-3.282395355799462
 24
-12.00000784238305
 34
0.0
 50
0.0000000000002659
100
AcDbRotatedDimension
1001
ACAD
1000
DSTYLE
1002
{
1070
   271
1070
     3
1002
}
1001
GENIUS_GENDTOL_13
1000

1000
h7
1000

1040
0.0
  0
LINE
  5
6154
330
1F
100
AcDbEntity
  8
AM_0
  6
CONTINUOUS
 48
0.5
100
AcDbLine
 10
0.0
 20
-0.0000000000002274
 30
0.0
 11
-3.282375470857426
 21
12.24999215761688
 31
0.0
  0
LINE
  5
6155
330
1F
100
AcDbEntity
  8
AM_0
  6
CONTINUOUS
 48
0.5
100
AcDbLine
 10
-0.0000044902083971
 20
0.0000078423826011
 30
0.0
 11
-3.282395355799426
 21
-12.25000784238304
 31
0.0
  0
LINE
  5
61D9
330
1F
100
AcDbEntity
  8
AM_0
  6
CONTINUOUS
 48
0.5
100
AcDbLine
 10
-16.1113287076751
 20
12.24999215761701
 30
0.0
 11
-3.282375470857426
 21
12.24999215761688
 31
0.0
  0
LINE
  5
61DA
330
1F
100
AcDbEntity
  8
AM_0
  6
CONTINUOUS
 48
0.5
100
AcDbLine
 10
-2.844725545270756
 20
10.61666038195078
 30
0.0
 11
-16.13248821466004
 21
10.61666038195079
 31
0.0
  0
LINE
  5
61DE
330
1F
100
AcDbEntity
  8
AM_0
  6
CONTINUOUS
 48
0.5
100
AcDbLine
 10
-11.59434645767924
 20
3.235861409933019
 30
0.0
 11
-8.588582893257358
 21
1.629357410591918
 31
0.0
  0
ELLIPSE
  5
61DF
330
1F
100
AcDbEntity
  8
AM_0
100
AcDbEllipse
 10
-5.739949930173906
 20
4.346049474776691
 30
0.0
 11
-4.861192336642973
 21
1.157575778150676
 31
0.0
210
0.0
220
0.0
230
1.0
 40
0.731517081280133
 41
1.127838978922415
 42
3.155397227259957
  0
LINE
  5
61E0
330
1F
100
AcDbEntity
  8
AM_0
100
AcDbLine
 10
-2.241766766698042
 20
-3.031460037832561
 30
0.0
 11
-6.243666838431221
 21
-4.928503297647738
 31
0.0
  0
LINE
  5
61E1
330
1F
100
AcDbEntity
  8
AM_0
100
AcDbLine
 10
-3.261167605288787
 20
0.9174280456859323
 30
0.0
 11
-2.241766766698042
 21
-3.031460037832561
 31
0.0
  0
LINE
  5
61E2
330
1F
100
AcDbEntity
  8
AM_0
  6
CONTINUOUS
 48
0.5
100
AcDbLine
 10
-17.68239051948067
 20
-12.25000784238303
 30
0.0
 11
-3.282395355799426
 21
-12.25000784238304
 31
0.0
  0
LINE
  5
61E3
330
1F
100
AcDbEntity
  8
AM_0
  6
CONTINUOUS
 48
0.5
100
AcDbLine
 10
-17.68239051948067
 20
-10.57955329692848
 30
0.0
 11
-4.223002103468288
 21
-10.57955329692856
 31
0.0
  0
LINE
  5
61E4
330
1F
100
AcDbEntity
  8
AM_0
  6
CONTINUOUS
 48
0.5
100
AcDbLine
 10
-2.241766766698042
 20
-3.031460037832633
 30
0.0
 11
-4.223002103468288
 21
-10.57955329692856
 31
0.0
  0
LINE
  5
61E6
330
1F
100
AcDbEntity
  8
AM_0
  6
CONTINUOUS
 48
0.5
100
AcDbLine
 10
-8.588582893257353
 20
1.629357410591865
 30
0.0
 11
-4.223002103468288
 21
-10.57955329692856
 31
0.0
  0
DIMENSION
  5
61EC
330
1F
100
AcDbEntity
  8
AM_5
100
AcDbDimension
  2
*D16
 10
15.60357248860585
 20
-12.25000784238306
 30
0.0
 11
12.20357248860585
 21
-0.0000078423831168
 31
0.0
 70
    32
  1
%%c<>
  3
AM_JIS$0
100
AcDbAlignedDimension
 13
-2.366890539141637
 23
12.24999215761683
 33
0.0
 14
-2.366906035834348
 24
-12.25000784238306
 34
0.0
 50
89.99999999999984
100
AcDbRotatedDimension
1001
GENIUS_GENDTOL_13
1000

1000
h7
1000

1040
0.0
  0
LINE
  5
61FB
330
1F
100
AcDbEntity
  8
AM_0
  6
CONTINUOUS
100
AcDbLine
 10
-99.28239535579974
 20
-10.40558891534702
 30
0.0
 11
-99.28239535579971
 21
8.604161110088766
 31
0.0
  0
ELLIPSE
  5
62CD
330
1F
100
AcDbEntity
  8
AM_0
100
AcDbEllipse
 10
-143.4306076572536
 20
-88.34731181426523
 30
0.0
 11
0.0
 21
106.8515883566949
 31
0.0
210
0.0
220
0.0
230
1.0
 40
0.9531505199989631
 41
-0.5973131337795627
 42
-0.2577585119809438
  0
SPLINE
  5
62CE
330
1F
100
AcDbEntity
  8
AM_0
  6
CONTINUOUS
100
AcDbSpline
210
0.0
220
0.0
230
1.0
 70
     8
 71
     3
 72
    54
 73
    50
 74
     0
 42
0.0000000001
 43
0.0000000001
 40
0.0
 40
0.0
 40
0.0
 40
0.0
 40
1.010743684496582
 40
2.022833576467832
 40
3.037578957496688
 40
4.056212745003489
 40
5.079857003664532
 40
6.109500240690281
 40
7.145961322679372
 40
8.189895241603872
 40
9.241717795325891
 40
10.30168407291828
 40
11.36983447792315
 40
12.44600489715814
 40
13.52984294512926
 40
14.62081576220742
 40
15.7182257034828
 40
16.82123173843959
 40
17.92886860250316
 40
19.0400688939571
 40
20.15368796660465
 40
21.26852814259644
 40
22.38336992938901
 40
23.49698739941135
 40
24.6081876908653
 40
25.71582455492886
 40
26.81883757994213
 40
27.91624752121713
 40
29.00722033829659
 40
30.09105838626677
 40
31.16722880550176
 40
32.23537921050758
 40
33.29534548809967
 40
34.347168041821
 40
35.39108718934584
 40
36.42754827133493
 40
37.45720575381954
 40
38.48085062012849
 40
39.49948440763516
 40
40.51422944315121
 40
41.52631975251916
 40
42.53706336719636
 40
43.54780698187354
 40
44.55989729124051
 40
45.57464232675757
 40
46.59327611426424
 40
47.6169209805722
 40
48.64656348684535
 40
49.31777037190953
 40
49.31777037190953
 40
49.31777037190953
 40
49.31777037190953
 10
-16.84756133228968
 20
-12.25000784238306
 30
0.0
 10
-17.4742172432919
 20
-12.24271938915749
 30
0.0
 10
-18.72836370704031
 20
-12.22813277523015
 30
0.0
 10
-20.60912699485956
 20
-12.11054829144621
 30
0.0
 10
-22.48980999998539
 20
-11.92361967872381
 30
0.0
 10
-24.37037660929719
 20
-11.66163211856361
 30
0.0
 10
-26.25080805770056
 20
-11.32813604470222
 30
0.0
 10
-28.13106724848734
 20
-10.92461446103505
 30
0.0
 10
-30.01116047104122
 20
-10.45378563277674
 30
0.0
 10
-31.89107105273483
 20
-9.918532690397384
 30
0.0
 10
-33.77078618795094
 20
-9.322142054492225
 30
0.0
 10
-35.65031524603043
 20
-8.668357207433411
 30
0.0
 10
-37.5296632607269
 20
-7.961179357305198
 30
0.0
 10
-39.40885371298845
 20
-7.205010865860912
 30
0.0
 10
-41.28789520644895
 20
-6.404498550493374
 30
0.0
 10
-43.16680516496758
 20
-5.564579249824132
 30
0.0
 10
-45.04560442591006
 20
-4.690434595191168
 30
0.0
 10
-46.92430947862194
 20
-3.787440162631585
 30
0.0
 10
-48.8029385561496
 20
-2.861149719180214
 30
0.0
 10
-50.68151176062274
 20
-1.917264472466767
 30
0.0
 10
-52.56004556891634
 20
-0.9615870410859333
 30
0.0
 10
-54.43856650883771
 20
-0.0000103418278951
 30
0.0
 10
-56.31707901577183
 20
0.9615836664099916
 30
0.0
 10
-58.1956191205013
 20
1.91724621536554
 30
0.0
 10
-60.07419000585059
 20
2.861134319165644
 30
0.0
 10
-61.95282243295319
 20
3.787428291370738
 30
0.0
 10
-63.8315352794347
 20
4.690415017616806
 30
0.0
 10
-65.71033750561888
 20
5.564564105379582
 30
0.0
 10
-67.58924773538959
 20
6.404482724960765
 30
0.0
 10
-69.46828916047778
 20
7.204995208673018
 30
0.0
 10
-71.34747961755116
 20
7.961163701224326
 30
0.0
 10
-73.22682768011614
 20
8.668341382255304
 30
0.0
 10
-75.10635654420767
 20
9.322126896888278
 30
0.0
 10
-76.98606360109869
 20
9.918512266671896
 30
0.0
 10
-78.8659625577167
 20
10.4537722195292
 30
0.0
 10
-80.74605508285355
 20
10.92461051556346
 30
0.0
 10
-82.62632769932114
 20
11.32808601146437
 30
0.0
 10
-84.50676536013864
 20
11.66168530940985
 30
0.0
 10
-86.38733252693457
 20
11.9233623171335
 30
0.0
 10
-88.26801683881612
 20
12.11142607922612
 30
0.0
 10
-90.14877853197225
 20
12.22474839772369
 30
0.0
 10
-92.02958155372595
 20
12.26260563460606
 30
0.0
 10
-93.91038457271232
 20
12.22474839766447
 30
0.0
 10
-95.79114627418659
 20
12.11142607946416
 30
0.0
 10
-97.67183055544318
 20
11.92336231623619
 30
0.0
 10
-99.55239783705961
 20
11.66168531278223
 30
0.0
 10
-101.4328258987311
 20
11.32808762513386
 30
0.0
 10
-103.0908158095103
 20
10.97231114530994
 30
0.0
 10
-104.120224806849
 20
10.7210541087646
 30
0.0
 10
-104.5255454466341
 20
10.61757483633385
 30
0.0
  0
SPLINE
  5
62CF
330
1F
100
AcDbEntity
  8
AM_0
  6
CONTINUOUS
100
AcDbSpline
210
0.0
220
0.0
230
1.0
 70
     8
 71
     3
 72
    25
 73
    21
 74
     0
 42
0.0000000001
 43
0.0000000001
 40
24.56499986022253
 40
24.56499986022253
 40
24.56499986022253
 40
24.56499986022253
 40
24.6081876908653
 40
25.71582455492886
 40
26.81883757994213
 40
27.91624752121713
 40
29.00722033829659
 40
30.09105838626677
 40
31.16722880550176
 40
32.23537921050758
 40
33.29534548809967
 40
34.347168041821
 40
35.39108718934584
 40
36.42754827133493
 40
37.45720575381954
 40
38.48085062012849
 40
39.49948440763516
 40
40.51422944315121
 40
41.52631975251916
 40
42.53706336680078
 40
42.53706336680078
 40
42.53706336680078
 40
42.53706336680078
 10
-11.6648262987202
 20
3.269764266338198
 30
0.0
 10
-11.68937503686873
 20
3.281568763864794
 30
0.0
 10
-12.34356330202597
 20
3.596025175760364
 30
0.0
 10
-13.62681489129535
 20
4.206710168568041
 30
0.0
 10
-15.51790929092422
 20
5.083470659810373
 30
0.0
 10
-17.40869183892532
 20
5.931395060288107
 30
0.0
 10
-19.29910612607731
 20
6.745090803172346
 30
0.0
 10
-21.18910333197345
 20
7.519382399072303
 30
0.0
 10
-23.07863259038423
 20
8.249332222479882
 30
0.0
 10
-24.96763782203079
 20
8.930293783529407
 30
0.0
 10
-26.85608098394816
 20
9.557865830632039
 30
0.0
 10
-28.74390370401622
 20
10.12804080957514
 30
0.0
 10
-30.63106785752907
 20
10.63709361815418
 30
0.0
 10
-32.51752925200393
 20
11.08172831230619
 30
0.0
 10
-34.40323349095977
 20
11.45900422091236
 30
0.0
 10
-36.28813055956588
 20
11.76640839878019
 30
0.0
 10
-38.17215645528157
 20
12.0018954461411
 30
0.0
 10
-40.05527529187721
 20
12.16377474323713
 30
0.0
 10
-41.93743161234676
 20
12.25091875453451
 30
0.0
 10
-43.19180843614891
 20
12.25871092317976
 30
0.0
 10
-43.81840380562621
 20
12.24999215761701
 30
0.0
  0
LINE
  5
62D0
330
1F
100
AcDbEntity
  8
AM_11
  6
AM_ISO09W050
 48
0.5
100
AcDbLine
 10
-52.27629861196266
 20
12.24999215761689
 30
0.0
 11
-16.84756133228953
 21
12.24999215761669
 31
0.0
  0
SPLINE
  5
62D1
330
1F
100
AcDbEntity
  8
AM_0
  6
CONTINUOUS
100
AcDbSpline
210
0.0
220
0.0
230
1.0
 70
     8
 71
     3
 72
    11
 73
     7
 74
     0
 42
0.0000000001
 43
0.0000000001
 40
11.27226913003534
 40
11.27226913003534
 40
11.27226913003534
 40
11.2722691300354
 40
12.28301561507924
 40
13.29510212255852
 40
14.30984805882082
 40
15.18258238371378
 40
15.18258238371378
 40
15.18258238371378
 40
15.18258238371378
 10
-52.27629861196276
 20
-12.25000784238286
 30
0.0
 10
-52.90057166044573
 20
-12.1900527825562
 30
0.0
 10
-54.14794025973266
 20
-12.04490419206618
 30
0.0
 10
-56.01255197975928
 20
-11.75210358262984
 30
0.0
 10
-57.78210138028893
 20
-11.40238535899237
 30
0.0
 10
-58.9265420620856
 20
-11.1335465522001
 30
0.0
 10
-59.45393291617607
 20
-11.00074760724027
 30
0.0
  0
SPLINE
  5
62D2
330
1F
100
AcDbEntity
  8
AM_0
  6
CONTINUOUS
100
AcDbSpline
210
0.0
220
0.0
230
1.0
 70
     8
 71
     3
 72
    17
 73
    13
 74
     0
 42
0.0000000001
 43
0.0000000001
 40
1.580019955310467
 40
1.580019955310467
 40
1.580019955310467
 40
1.580019955310467
 40
2.030549285115227
 40
3.082371838836284
 40
4.126290986361125
 40
5.162752068350215
 40
6.192395305374981
 40
7.216039564037012
 40
8.234688489606833
 40
9.249433870634691
 40
10.26152376260694
 40
11.27226744710342
 40
11.27226744710342
 40
11.27226744710342
 40
11.27226744710352
 10
-34.56054790769977
 20
-9.040868563114816
 30
0.0
 10
-34.82664452013328
 20
-9.133981917952983
 30
0.0
 10
-35.71549660406322
 20
-9.43917337550032
 30
0.0
 10
-37.23298753742394
 20
-9.917877096603739
 30
0.0
 10
-39.11262454763118
 20
-10.45396175984716
 30
0.0
 10
-40.99277902014731
 20
-10.92457291733155
 30
0.0
 10
-42.87301964068514
 20
-11.32813015101947
 30
0.0
 10
-44.75346511006882
 20
-11.66169796610459
 30
0.0
 10
-46.63404049403394
 20
-11.92337283814847
 30
0.0
 10
-48.51473297767634
 20
-12.1114590264231
 30
0.0
 10
-50.39549622560357
 20
-12.22474579829176
 30
0.0
 10
-51.64964270922784
 20
-12.25000791247841
 30
0.0
 10
-52.27629861196262
 20
-12.25000784238286
 30
0.0
  0
LINE
  5
62D3
330
1F
100
AcDbEntity
  8
AM_11
  6
AM_ISO09W050
 48
0.5
100
AcDbLine
 10
-49.25538781584151
 20
-12.25000784238324
 30
0.0
 11
-16.12827858779771
 21
-12.25000784238334
 31
0.0
  0
LINE
  5
62D4
330
1F
100
AcDbEntity
  8
AM_0
100
AcDbLine
 10
-17.68239051948067
 20
-12.22355134543966
 30
0.0
 11
-17.68239051948058
 21
6.045631269035974
 31
0.0
  0
SPLINE
  5
62D5
330
1F
100
AcDbEntity
  8
AM_0
  6
CONTINUOUS
 48
0.5
100
AcDbSpline
210
0.0
220
0.0
230
1.0
 70
     8
 71
     3
 72
    15
 73
    11
 74
     0
 42
0.0000000001
 43
0.0000000001
 40
0.0
 40
0.0
 40
0.0
 40
0.0
 40
1.010743614677189
 40
2.022833924044153
 40
3.037578959561199
 40
4.056212747067873
 40
5.079857613375832
 40
6.109500119648989
 40
7.14596120163808
 40
7.467926487189212
 40
7.467926487189212
 40
7.467926487189212
 40
7.467926487189212
 10
-16.12827858779762
 20
12.2499921576169
 30
0.0
 10
-16.71419132705732
 20
12.24991854553828
 30
0.0
 10
-17.88691037340906
 20
12.22478261745351
 30
0.0
 10
-19.64546915868506
 20
12.11141683833796
 30
0.0
 10
-21.40398001073113
 20
11.92336496007922
 30
0.0
 10
-23.16237459061444
 20
11.66168401807339
 30
0.0
 10
-24.92064194907765
 20
11.32809016182433
 30
0.0
 10
-26.67875209088404
 20
10.92460571824511
 30
0.0
 10
-28.02861176563029
 20
10.56307213384465
 30
0.0
 10
-28.79286367286931
 20
10.34012074040809
 30
0.0
 10
-29.12409286758596
 20
10.22533689840359
 30
0.0
  0
LINE
  5
62D6
330
1F
100
AcDbEntity
  8
AM_0
100
AcDbLine
 10
-16.20422145419313
 20
5.389739897645708
 30
0.0
 11
-16.1113287076751
 21
12.2499921576169
 31
0.0
  0
SPLINE
  5
62D7
330
1F
100
AcDbEntity
  8
AM_0
  6
CONTINUOUS
100
AcDbSpline
210
0.0
220
0.0
230
1.0
 70
     8
 71
     3
 72
    22
 73
    18
 74
     0
 42
0.0000000001
 43
0.0000000001
 40
17.17441611292
 40
17.17441611292
 40
17.17441611292
 40
17.17441611292
 40
17.38177636558528
 40
18.41823744757437
 40
19.46215659509824
 40
20.51397914882054
 40
21.57394542641293
 40
22.64209583141747
 40
23.71826625065247
 40
24.80210429862395
 40
25.8930771157021
 40
26.99048705697709
 40
28.09349309193389
 40
29.20112995599786
 40
30.31233024745139
 40
31.42594771747373
 40
32.5407895042663
 40
32.54078950426994
 40
32.54078950426994
 40
32.54078950426994
 10
-59.45475543878722
 20
-11.00059650358367
 30
0.0
 10
-59.58069402707385
 20
-10.97223895508566
 30
0.0
 10
-60.33562708478321
 20
-10.79951002762604
 30
0.0
 10
-61.7186219061983
 20
-10.45316604689854
 30
0.0
 10
-63.59852059400154
 20
-9.917904556235066
 30
0.0
 10
-65.47822772407468
 20
-9.321519604009512
 30
0.0
 10
-67.3577565670447
 20
-8.667733972968608
 30
0.0
 10
-69.23710464018448
 20
-7.960556335666256
 30
0.0
 10
-71.11629507608981
 20
-7.204387785321926
 30
0.0
 10
-72.99533657594048
 20
-6.403875490547562
 30
0.0
 10
-74.87424652533869
 20
-5.563956166802144
 30
0.0
 10
-76.75304581657174
 20
-4.689811584300053
 30
0.0
 10
-78.63175075648396
 20
-3.786816884513114
 30
0.0
 10
-80.51038025727809
 20
-2.860527443423116
 30
0.0
 10
-82.38895097136934
 20
-1.916638892593118
 30
0.0
 10
-84.26749072814928
 20
-0.9609755345602286
 30
0.0
 10
-85.519604742764
 20
-0.3200323919798974
 30
0.0
 10
-86.14600571480584
 20
0.0006152248392543
 30
0.0
  0
LINE
  5
62D8
330
1F
100
AcDbEntity
  8
AM_0
  6
CONTINUOUS
 48
0.5
100
AcDbLine
 10
-92.02956736349278
 20
12.24999215761713
 30
0.0
 11
-43.81840380562569
 21
12.24999215761684
 31
0.0
  0
LINE
  5
62D9
330
1F
100
AcDbEntity
  8
AM_0
  6
CONTINUOUS
 48
0.5
100
AcDbLine
 10
-84.86993886098799
 20
-12.25000784238291
 30
0.0
 11
-52.27629861196283
 21
-12.2500078423831
 31
0.0
  0
VIEWPORT
  5
110
330
101
100
AcDbEntity
 67
     1
  8
0
100
AcDbViewport
 10
420.5
 20
297.0
 30
0.0
 40
948.9782706766916
 41
628.452
 68
     1
 69
     1
1001
ACAD
1000
MVIEW
1002
{
1070
    16
1010
0.0
1020
0.0
1030
0.0
1010
0.0
1020
0.0
1030
1.0
1040
0.0
1040
628.452
1040
420.5
1040
297.0
1040
50.0
1040
0.0
1040
0.0
1070
     0
1070
   100
1070
     1
1070
     1
1070
     0
1070
     0
1070
     0
1070
     0
1040
0.0
1040
0.0
1040
0.0
1040
10.0
1040
10.0
1040
10.0
1040
10.0
1070
     0
1002
{
1002
}
1002
}
  0
ENDSEC
  0
SECTION
  2
OBJECTS
  0
DICTIONARY
  5
C
330
0
100
AcDbDictionary
  3
ACAD_GROUP
350
D
  3
ACAD_LAYOUT
350
1A
  3
ACAD_MLINESTYLE
350
17
  3
ACAD_PLOTSETTINGS
350
19
  3
ACAD_PLOTSTYLENAME
350
E
  3
ACDBVARIABLEDICTIONARY
350
34
  3
ACMDICTIONARY
350
43
  3
AMG
350
2B
  3
AMGSNAPSETTINGS
350
6E
  3
DWGPROPS
350
62F6
  3
ACDBHEADERROUNDTRIPXREC
350
6306
  0
DICTIONARY
  5
74
330
1F
100
AcDbDictionary
280
     1
  3
ACAD_INDEX
360
62F8
  3
ACAD_LAYOUTSELFREF
360
6329
  0
DICTIONARY
  5
632E
330
101
100
AcDbDictionary
280
     1
  3
ACAD_LAYOUTSELFREF
360
632F
  0
DICTIONARY
  5
D
102
{ACAD_REACTORS
330
C
102
}
330
C
100
AcDbDictionary
  0
DICTIONARY
  5
1A
102
{ACAD_REACTORS
330
C
102
}
330
C
100
AcDbDictionary
  0
DICTIONARY
  5
17
102
{ACAD_REACTORS
330
C
102
}
330
C
100
AcDbDictionary
  3
STANDARD
350
18
  0
DICTIONARY
  5
19
102
{ACAD_REACTORS
330
C
102
}
330
C
100
AcDbDictionary
  0
ACDBDICTIONARYWDFLT
  5
E
102
{ACAD_REACTORS
330
C
102
}
330
C
100
AcDbDictionary
281
     1
  3
Normal
350
F
100
AcDbDictionaryWithDefault
340
F
  0
DICTIONARY
  5
34
102
{ACAD_REACTORS
330
C
102
}
330
C
100
AcDbDictionary
  3
INDEXCTL
350
35
  3
SORTENTS
350
B5E
  0
DICTIONARY
  5
43
102
{ACAD_REACTORS
330
C
102
}
330
C
100
AcDbDictionary
  3
ACMSTDDICTIONARY
350
260
  0
DICTIONARY
  5
2B
102
{ACAD_REACTORS
330
C
102
}
330
C
100
AcDbDictionary
  3
ACMGSETTINGS
350
2C
  0
DICTIONARY
  5
6E
102
{ACAD_REACTORS
330
C
102
}
330
C
100
AcDbDictionary
  0
XRECORD
  5
62F6
102
{ACAD_REACTORS
330
C
102
}
330
C
100
AcDbXrecord
  1
DWGPROPS COOKIE
  2

  3

  4

  6

  7

  8

  9

300
AmdtFileType=82
301
=
302
=
303
=
304
=
305
=
306
=
307
=
308
=
309
=
 40
0.8411025925925926
 41
2452800.443498622
 42
2453002.628646817
  1

 90
        1
  0
DICTIONARY
  5
6306
102
{ACAD_REACTORS
330
C
102
}
330
C
100
AcDbDictionary
  3
TSTACKALIGN
350
6307
  3
TSTACKSIZE
350
6308
  3
HYPERLINKBASE
350
6309
  3
STYLESHEET
350
630A
  3
LAYOUTDICT
350
630B
  3
PLOTSETDICT
350
630C
  3
PLOTSTYLNAMDICT
350
630D
  3
LWETCUNION
350
630E
  3
INSUNITS
350
630F
  3
CEPSNTYPE
350
6310
  3
FINGERPRINTGUID
350
6311
  3
VERSIONGUID
350
6312
  3
PSVPSCALE
350
6313
  3
DIMSTYLEDATA
350
6314
  3
PUCSORTHOREF
350
6315
  3
PUCSORTHOVIEW
350
6316
  3
PUCSBASE
350
6317
  3
PUCSORGTOP
350
6318
  3
PUCSORGBOTTOM
350
6319
  3
PUCSORGLEFT
350
631A
  3
PUCSORGRIGHT
350
631B
  3
PUCSORGFRONT
350
631C
  3
PUCSORGBACK
350
631D
  3
UCSORTHOREF
350
631E
  3
UCSORTHOVIEW
350
631F
  3
UCSBASE
350
6320
  3
UCSORGTOP
350
6321
  3
UCSORGBOTTOM
350
6322
  3
UCSORGLEFT
350
6323
  3
UCSORGRIGHT
350
6324
  3
UCSORGFRONT
350
6325
  3
UCSORGBACK
350
6326
  0
DICTIONARY
  5
62F8
102
{ACAD_REACTORS
330
74
102
}
330
74
100
AcDbDictionary
  3
*A1
350
62F9
  0
XRECORD
  5
6329
102
{ACAD_REACTORS
330
74
102
}
330
74
100
AcDbXrecord
340
1F
  0
XRECORD
  5
632F
102
{ACAD_REACTORS
330
632E
102
}
330
632E
100
AcDbXrecord
340
101
  0
MLINESTYLE
  5
18
102
{ACAD_REACTORS
330
17
102
}
330
17
100
AcDbMlineStyle
  2
STANDARD
 70
     0
  3

 62
   256
 51
90.0
 52
90.0
 71
     2
 49
0.5
 62
   256
  6
BYLAYER
 49
-0.5
 62
   256
  6
BYLAYER
  0
ACDBPLACEHOLDER
  5
F
102
{ACAD_REACTORS
330
E
102
}
330
E
100
AcDbPlaceHolder
280
     0
  0
DICTIONARYVAR
  5
35
102
{ACAD_REACTORS
330
34
102
}
330
34
100
DictionaryVariables
280
     0
  1
1
  0
DICTIONARYVAR
  5
B5E
102
{ACAD_REACTORS
330
34
102
}
330
34
100
DictionaryVariables
280
     0
  1
96
  0
DICTIONARY
  5
260
102
{ACAD_REACTORS
330
43
102
}
330
43
100
AcDbDictionary
  0
DICTIONARY
  5
2C
102
{ACAD_REACTORS
330
2B
102
}
330
2B
100
AcDbDictionary
  3
DWGSETTINGS
350
2D
  0
XRECORD
  5
6307
102
{ACAD_REACTORS
330
6306
102
}
330
6306
100
AcDbXrecord
 90
        1
  0
XRECORD
  5
6308
102
{ACAD_REACTORS
330
6306
102
}
330
6306
100
AcDbXrecord
 90
       70
  0
XRECORD
  5
6309
102
{ACAD_REACTORS
330
6306
102
}
330
6306
100
AcDbXrecord
  1

  0
XRECORD
  5
630A
102
{ACAD_REACTORS
330
6306
102
}
330
6306
100
AcDbXrecord
  1
ASAMI.ctb
  0
XRECORD
  5
630B
102
{ACAD_REACTORS
330
6306
102
}
330
6306
100
AcDbXrecord
340
1A
  0
XRECORD
  5
630C
102
{ACAD_REACTORS
330
6306
102
}
330
6306
100
AcDbXrecord
340
19
  0
XRECORD
  5
630D
102
{ACAD_REACTORS
330
6306
102
}
330
6306
100
AcDbXrecord
340
E
  0
XRECORD
  5
630E
102
{ACAD_REACTORS
330
6306
102
}
330
6306
100
AcDbXrecord
 90
    10781
  0
XRECORD
  5
630F
102
{ACAD_REACTORS
330
6306
102
}
330
6306
100
AcDbXrecord
 90
        4
  0
XRECORD
  5
6310
102
{ACAD_REACTORS
330
6306
102
}
330
6306
100
AcDbXrecord
 90
        0
  0
XRECORD
  5
6311
102
{ACAD_REACTORS
330
6306
102
}
330
6306
100
AcDbXrecord
  1
{AFB28963-8C59-40AE-9337-C84526B81ACE}
  0
XRECORD
  5
6312
102
{ACAD_REACTORS
330
6306
102
}
330
6306
100
AcDbXrecord
  1
{31FF3413-A2CF-4A2F-BC88-EFD799D78EDA}
  0
XRECORD
  5
6313
102
{ACAD_REACTORS
330
6306
102
}
330
6306
100
AcDbXrecord
 40
0.0
  0
XRECORD
  5
6314
102
{ACAD_REACTORS
330
6306
102
}
330
6306
100
AcDbXrecord
1000
DSTYLE
1002
{
1070
    79
 70
     2
1070
   341
340
59
1070
   342
340
59
1070
   371
 70
    -1
1070
   372
 70
    -1
1002
}
  0
XRECORD
  5
6315
102
{ACAD_REACTORS
330
6306
102
}
330
6306
100
AcDbXrecord
340
0
  0
XRECORD
  5
6316
102
{ACAD_REACTORS
330
6306
102
}
330
6306
100
AcDbXrecord
 70
     0
  0
XRECORD
  5
6317
102
{ACAD_REACTORS
330
6306
102
}
330
6306
100
AcDbXrecord
340
0
  0
XRECORD
  5
6318
102
{ACAD_REACTORS
330
6306
102
}
330
6306
100
AcDbXrecord
 10
0.0
 20
0.0
 30
0.0
  0
XRECORD
  5
6319
102
{ACAD_REACTORS
330
6306
102
}
330
6306
100
AcDbXrecord
 10
0.0
 20
0.0
 30
0.0
  0
XRECORD
  5
631A
102
{ACAD_REACTORS
330
6306
102
}
330
6306
100
AcDbXrecord
 10
0.0
 20
0.0
 30
0.0
  0
XRECORD
  5
631B
102
{ACAD_REACTORS
330
6306
102
}
330
6306
100
AcDbXrecord
 10
0.0
 20
0.0
 30
0.0
  0
XRECORD
  5
631C
102
{ACAD_REACTORS
330
6306
102
}
330
6306
100
AcDbXrecord
 10
0.0
 20
0.0
 30
0.0
  0
XRECORD
  5
631D
102
{ACAD_REACTORS
330
6306
102
}
330
6306
100
AcDbXrecord
 10
0.0
 20
0.0
 30
0.0
  0
XRECORD
  5
631E
102
{ACAD_REACTORS
330
6306
102
}
330
6306
100
AcDbXrecord
340
0
  0
XRECORD
  5
631F
102
{ACAD_REACTORS
330
6306
102
}
330
6306
100
AcDbXrecord
 70
     0
  0
XRECORD
  5
6320
102
{ACAD_REACTORS
330
6306
102
}
330
6306
100
AcDbXrecord
340
0
  0
XRECORD
  5
6321
102
{ACAD_REACTORS
330
6306
102
}
330
6306
100
AcDbXrecord
 10
0.0
 20
0.0
 30
0.0
  0
XRECORD
  5
6322
102
{ACAD_REACTORS
330
6306
102
}
330
6306
100
AcDbXrecord
 10
0.0
 20
0.0
 30
0.0
  0
XRECORD
  5
6323
102
{ACAD_REACTORS
330
6306
102
}
330
6306
100
AcDbXrecord
 10
0.0
 20
0.0
 30
0.0
  0
XRECORD
  5
6324
102
{ACAD_REACTORS
330
6306
102
}
330
6306
100
AcDbXrecord
 10
0.0
 20
0.0
 30
0.0
  0
XRECORD
  5
6325
102
{ACAD_REACTORS
330
6306
102
}
330
6306
100
AcDbXrecord
 10
0.0
 20
0.0
 30
0.0
  0
XRECORD
  5
6326
102
{ACAD_REACTORS
330
6306
102
}
330
6306
100
AcDbXrecord
 10
0.0
 20
0.0
 30
0.0
  0
LAYER_INDEX
  5
62F9
102
{ACAD_REACTORS
330
62F8
102
}
330
62F8
100
AcDbIndex
 40
2453151.719223796
100
AcDbLayerIndex
  8
0
360
62FA
 90
        0
  8
AM_0
360
62FB
 90
       35
  8
PV0001_1
360
62FC
 90
       10
  8
AM_CL
360
62FD
 90
        0
  8
AM_7
360
62FE
 90
        1
  8
AM_11
360
62FF
 90
        2
  8
AM_5
360
6300
 90
        9
  8
Defpoints
360
6301
 90
        0
  8
AM_6
360
6302
 90
        1
  8
AM_4
360
6303
 90
        0
  8
AM_3
360
6304
 90
        0
  0
XRECORD
  5
2D
102
{ACAD_REACTORS
330
2C
102
}
330
2C
100
AcDbXrecord
  1
VERSION
140
15.0
  1
PRODUCT
  2
AutoCAD Mechanical 2000
  0
IDBUFFER
  5
62FA
330
0
100
AcDbIdBuffer
  0
IDBUFFER
  5
62FB
330
0
100
AcDbIdBuffer
330
61DF
330
61E0
330
61E1
330
61E2
330
61E3
330
61E4
330
61E6
330
61FB
330
62CD
330
62CE
330
62CF
330
62D1
330
62D2
330
62D4
330
62D5
330
62D6
330
62D7
330
62D8
330
62D9
330
5D69
330
5D6A
330
5D6B
330
5D6C
330
5EBE
330
5EBF
330
5EC0
330
5EC1
330
5EDA
330
5EDC
330
5EDD
330
6154
330
6155
330
61D9
330
61DA
330
61DE
  0
IDBUFFER
  5
62FC
330
0
100
AcDbIdBuffer
330
35CA
330
5D63
330
5D64
330
5D65
330
5D66
330
5D67
330
5D68
330
5D6D
330
5D6E
330
5D6F
  0
IDBUFFER
  5
62FD
330
0
100
AcDbIdBuffer
  0
IDBUFFER
  5
62FE
330
0
100
AcDbIdBuffer
330
5CCE
  0
IDBUFFER
  5
62FF
330
0
100
AcDbIdBuffer
330
62D0
330
62D3
  0
IDBUFFER
  5
6300
330
0
100
AcDbIdBuffer
330
5D62
330
5D70
330
5D71
330
5D72
330
5D73
330
5EEB
330
6016
330
60C0
330
61EC
  0
IDBUFFER
  5
6301
330
0
100
AcDbIdBuffer
  0
IDBUFFER
  5
6302
330
0
100
AcDbIdBuffer
330
19BD
  0
IDBUFFER
  5
6303
330
0
100
AcDbIdBuffer
  0
IDBUFFER
  5
6304
330
0
100
AcDbIdBuffer
  0
ENDSEC
  0
EOF
