  0
SECTION
  2
HEADER
  9
$ACADVER
  1
AC1014
  9
$ACADMAINTVER
 70
     9
  9
$DWGCODEPAGE
  3
ANSI_932
  9
$INSBASE
 10
0.0
 20
0.0
 30
0.0
  9
$EXTMIN
 10
-589.2017441852486
 20
-77.98481983742674
 30
-0.00000001
  9
$EXTMAX
 10
31.94471718537354
 20
44.16304545844435
 30
0.00000001
  9
$LIMMIN
 10
-235.8442516660179
 20
-106.3078768402295
  9
$LIMMAX
 10
56.4564342145934
 20
66.48152146588984
  9
$ORTHOMODE
 70
     0
  9
$REGENMODE
 70
     1
  9
$FILLMODE
 70
     1
  9
$QTEXTMODE
 70
     0
  9
$MIRRTEXT
 70
     0
  9
$DRAGMODE
 70
     2
  9
$LTSCALE
 40
1.0
  9
$OSMODE
 70
    55
  9
$ATTMODE
 70
     1
  9
$TEXTSIZE
 40
2.5
  9
$TRACEWID
 40
1.0
  9
$TEXTSTYLE
  7
STANDARD
  9
$CLAYER
  8
AM_0
  9
$CELTYPE
  6
BYLAYER
  9
$CECOLOR
 62
   256
  9
$CELTSCALE
 40
1.0
  9
$DELOBJ
 70
     1
  9
$DISPSILH
 70
     0
  9
$DIMSCALE
 40
1.0
  9
$DIMASZ
 40
2.5
  9
$DIMEXO
 40
1.0
  9
$DIMDLI
 40
12.0
  9
$DIMRND
 40
0.0
  9
$DIMDLE
 40
0.0
  9
$DIMEXE
 40
1.0
  9
$DIMTP
 40
0.1
  9
$DIMTM
 40
0.1
  9
$DIMTXT
 40
3.2
  9
$DIMCEN
 40
0.0
  9
$DIMTSZ
 40
0.0
  9
$DIMTOL
 70
     0
  9
$DIMLIM
 70
     0
  9
$DIMTIH
 70
     0
  9
$DIMTOH
 70
     0
  9
$DIMSE1
 70
     0
  9
$DIMSE2
 70
     0
  9
$DIMTAD
 70
     3
  9
$DIMZIN
 70
     8
  9
$DIMBLK
  1
OPEN30
  9
$DIMASO
 70
     1
  9
$DIMSHO
 70
     1
  9
$DIMPOST
  1

  9
$DIMAPOST
  1
"
  9
$DIMALT
 70
     0
  9
$DIMALTD
 70
     2
  9
$DIMALTF
 40
0.0393701
  9
$DIMLFAC
 40
1.0
  9
$DIMTOFL
 70
     1
  9
$DIMTVP
 40
0.0
  9
$DIMTIX
 70
     0
  9
$DIMSOXD
 70
     0
  9
$DIMSAH
 70
     0
  9
$DIMBLK1
  1

  9
$DIMBLK2
  1

  9
$DIMSTYLE
  2
AM_JIS
  9
$DIMCLRD
 70
   256
  9
$DIMCLRE
 70
   256
  9
$DIMCLRT
 70
     2
  9
$DIMTFAC
 40
0.71
  9
$DIMGAP
 40
1.5
  9
$DIMJUST
 70
     0
  9
$DIMSD1
 70
     0
  9
$DIMSD2
 70
     0
  9
$DIMTOLJ
 70
     0
  9
$DIMTZIN
 70
     0
  9
$DIMALTZ
 70
     0
  9
$DIMALTTZ
 70
     0
  9
$DIMFIT
 70
     3
  9
$DIMUPT
 70
     0
  9
$DIMUNIT
 70
     2
  9
$DIMDEC
 70
     3
  9
$DIMTDEC
 70
     3
  9
$DIMALTU
 70
     2
  9
$DIMALTTD
 70
     2
  9
$DIMTXSTY
  7
ASAMI
  9
$DIMAUNIT
 70
     0
  9
$LUNITS
 70
     2
  9
$LUPREC
 70
     2
  9
$SKETCHINC
 40
1.0
  9
$FILLETRAD
 40
2.5
  9
$AUNITS
 70
     0
  9
$AUPREC
 70
     0
  9
$MENU
  1
.
  9
$ELEVATION
 40
0.0
  9
$PELEVATION
 40
0.0
  9
$THICKNESS
 40
0.0
  9
$LIMCHECK
 70
     0
  9
$BLIPMODE
 70
     0
  9
$CHAMFERA
 40
2.5
  9
$CHAMFERB
 40
2.5
  9
$CHAMFERC
 40
20.0
  9
$CHAMFERD
 40
0.0
  9
$SKPOLY
 70
     0
  9
$TDCREATE
 40
2452800.443498622
  9
$TDUPDATE
 40
2453151.701107477
  9
$TDINDWG
 40
0.7522042361
  9
$TDUSRTIMER
 40
0.7522042361
  9
$USRTIMER
 70
     1
  9
$ANGBASE
 50
0.0
  9
$ANGDIR
 70
     0
  9
$PDMODE
 70
     0
  9
$PDSIZE
 40
0.0
  9
$PLINEWID
 40
0.0
  9
$COORDS
 70
     1
  9
$SPLFRAME
 70
     0
  9
$SPLINETYPE
 70
     6
  9
$SPLINESEGS
 70
     8
  9
$ATTDIA
 70
     1
  9
$ATTREQ
 70
     1
  9
$HANDLING
 70
 12289
  9
$HANDSEED
  5
5F45
  9
$SURFTAB1
 70
     6
  9
$SURFTAB2
 70
     6
  9
$SURFTYPE
 70
     6
  9
$SURFU
 70
     6
  9
$SURFV
 70
     6
  9
$UCSNAME
  2

  9
$UCSORG
 10
-0.0000000000000315
 20
-0.0000000000001254
 30
0.0
  9
$UCSXDIR
 10
1.0
 20
0.0000000000000027
 30
0.0
  9
$UCSYDIR
 10
-0.0000000000000027
 20
1.0
 30
0.0
  9
$PUCSNAME
  2

  9
$PUCSORG
 10
0.0
 20
0.0
 30
0.0
  9
$PUCSXDIR
 10
1.0
 20
0.0
 30
0.0
  9
$PUCSYDIR
 10
0.0
 20
1.0
 30
0.0
  9
$USERI1
 70
     0
  9
$USERI2
 70
     0
  9
$USERI3
 70
     0
  9
$USERI4
 70
     0
  9
$USERI5
 70
     0
  9
$USERR1
 40
0.0
  9
$USERR2
 40
0.0
  9
$USERR3
 40
0.0
  9
$USERR4
 40
0.0
  9
$USERR5
 40
0.0
  9
$WORLDVIEW
 70
     1
  9
$SHADEDGE
 70
     3
  9
$SHADEDIF
 70
    70
  9
$TILEMODE
 70
     1
  9
$MAXACTVP
 70
    64
  9
$PINSBASE
 10
0.0
 20
0.0
 30
0.0
  9
$PLIMCHECK
 70
     0
  9
$PEXTMIN
 10
1.000000000000000E+20
 20
1.000000000000000E+20
 30
1.000000000000000E+20
  9
$PEXTMAX
 10
-1.000000000000000E+20
 20
-1.000000000000000E+20
 30
-1.000000000000000E+20
  9
$PLIMMIN
 10
0.0
 20
0.0
  9
$PLIMMAX
 10
841.0
 20
594.0
  9
$UNITMODE
 70
     0
  9
$VISRETAIN
 70
     1
  9
$PLINEGEN
 70
     0
  9
$PSLTSCALE
 70
     0
  9
$TREEDEPTH
 70
  3020
  9
$PICKSTYLE
 70
     0
  9
$CMLSTYLE
  2
STANDARD
  9
$CMLJUST
 70
     0
  9
$CMLSCALE
 40
20.0
  9
$PROXYGRAPHICS
 70
     1
  9
$MEASUREMENT
 70
     1
  0
ENDSEC
  0
SECTION
  2
CLASSES
  0
CLASS
  1
ACDBDICTIONARYWDFLT
  2
AcDbDictionaryWithDefault
  3
AutoCAD 2000
 90
        0
280
     0
281
     0
  0
CLASS
  1
ACDBPLACEHOLDER
  2
AcDbPlaceHolder
  3
AutoCAD 2000
 90
        0
280
     0
281
     0
  0
CLASS
  1
LAYOUT
  2
AcDbLayout
  3
AutoCAD 2000
 90
        0
280
     0
281
     0
  0
CLASS
  1
AMGSETTINGSOBJ
  2
AmgSettingsObj
  3
"AcadM|Product Description: AutoCAD Mechanical 2000|Company: Autodesk"
 90
        0
280
     0
281
     0
  0
CLASS
  1
ACME_DOCUMENT
  2
AcMeDbDoc
  3
AcMeServices
 90
        0
280
     0
281
     0
  0
CLASS
  1
ACMESCOPE
  2
AcMeScope
  3
AcMeServices
 90
        0
280
     0
281
     0
  0
CLASS
  1
ACMECOMMANDHISTORY
  2
AcMeCommandHistory
  3
AcMeServices
 90
        0
280
     0
281
     0
  0
CLASS
  1
DICTIONARYVAR
  2
AcDbDictionaryVar
  3
AutoCAD 2000
 90
        0
280
     0
281
     0
  0
CLASS
  1
ACIMSYSVARMAN
  2
AcImSysVarManager
  3
AcMeServices
 90
        0
280
     0
281
     0
  0
CLASS
  1
ACIMREALSYSVAR
  2
AcImRealSysVar
  3
AcMeServices
 90
        0
280
     0
281
     0
  0
CLASS
  1
ACIMINTSYSVAR
  2
AcImIntSysVar
  3
AcMeServices
 90
        0
280
     0
281
     0
  0
CLASS
  1
ACMEDRAWINGMAN
  2
AcMeDrawingMan
  3
AcMeServices
 90
        0
280
     0
281
     0
  0
CLASS
  1
ACMEVIEW
  2
AcMeView
  3
AcMeServices
 90
        0
280
     0
281
     0
  0
CLASS
  1
ACDBENTITYCACHE
  2
AcMeEntityCache
  3
AcMeServices
 90
        0
280
     0
281
     0
  0
CLASS
  1
GSMANAGER
  2
AcMeGSManager
  3
AcMeServices
 90
        0
280
     0
281
     0
  0
CLASS
  1
AmdtInternalReactor
  2
AmdtInternalReactor
  3
AcMeServices
 90
        0
280
     0
281
     0
  0
CLASS
  1
ACMESTATEMGR
  2
AcMeStateMgr
  3
AcMeServices
 90
        0
280
     0
281
     0
  0
CLASS
  1
ACME_DATABASE
  2
AcMeDbDatabase
  3
AcMeServices
 90
        0
280
     0
281
     0
  0
CLASS
  1
ACRFINSADJUSTERMGR
  2
AcRfInsAdjusterMgr
  3
AcMeServices
 90
        0
280
     0
281
     0
  0
CLASS
  1
ACMDATADICTIONARY
  2
AcmDataDictionary
  3
"AcmSymBB|Product Description: AutoCAD Mechanical 2000|Company: Autodesk"
 90
        0
280
     0
281
     0
  0
CLASS
  1
ACMDATAENTRYBLOCK
  2
AcmDataEntryBlock
  3
"AcmSymBB|Product Description: AutoCAD Mechanical 2000|Company: Autodesk"
 90
        0
280
     0
281
     0
  0
CLASS
  1
AMGOBJPROPCFG
  2
AmgObjPropCfg
  3
"AmgLay|Product Description: AutoCAD Mechanical 2000|Company: Autodesk"
 90
        1
280
     0
281
     0
  0
CLASS
  1
ACAMGFILTERDAT
  2
AcAmgFilterDat
  3
"AcadM|Product Description: AutoCAD Mechanical 2000|Company: Autodesk"
 90
        0
280
     0
281
     0
  0
CLASS
  1
LAYER_INDEX
  2
AcDbLayerIndex
  3
AutoCAD 2000
 90
        0
280
     0
281
     0
  0
CLASS
  1
IDBUFFER
  2
AcDbIdBuffer
  3
AutoCAD 2000
 90
        0
280
     0
281
     0
  0
CLASS
  1
ACIMSTRSYSVAR
  2
AcImStrSysVar
  3
AcMeServices
 90
        0
280
     0
281
     0
  0
CLASS
  1
ACMSTANDARDJIS
  2
AcmStandardJIS
  3
"AcmSymBB|Product Description: AutoCAD Mechanical 2000|Company: Autodesk"
 90
        0
280
     0
281
     0
  0
CLASS
  1
ACMSURFSTANDARDJIS
  2
AcmSurfTextStdJIS
  3
"AcmSymBB|Product Description: AutoCAD Mechanical 2000|Company: Autodesk"
 90
        0
280
     0
281
     0
  0
CLASS
  1
ACMFCFSTANDARDJIS
  2
AcmFCFStdJIS
  3
"AcmSymBB|Product Description: AutoCAD Mechanical 2000|Company: Autodesk"
 90
        0
280
     0
281
     0
  0
CLASS
  1
ACMWELDSTANDARDJIS
  2
AcmWeldingStdJIS
  3
"AcmSymBB|Product Description: AutoCAD Mechanical 2000|Company: Autodesk"
 90
        0
280
     0
281
     0
  0
CLASS
  1
ACMIDSTANDARDJIS
  2
AcmIdStdJIS
  3
"AcmSymBB|Product Description: AutoCAD Mechanical 2000|Company: Autodesk"
 90
        0
280
     0
281
     0
  0
CLASS
  1
ACMDATUMSTANDARDJIS
  2
AcmDatumStdJIS
  3
"AcmSymBB|Product Description: AutoCAD Mechanical 2000|Company: Autodesk"
 90
        0
280
     0
281
     0
  0
CLASS
  1
ACMBOMSTANDARDJIS
  2
AcmBOMStdJIS
  3
"AcmSymBB|Product Description: AutoCAD Mechanical 2000|Company: Autodesk"
 90
        0
280
     0
281
     0
  0
CLASS
  1
ACMSTANDARDANSI
  2
AcmStandardANSI
  3
"AcmSymBB|Product Description: AutoCAD Mechanical 2000|Company: Autodesk"
 90
        0
280
     0
281
     0
  0
CLASS
  1
ACMSURFSTANDARDANSI
  2
AcmSurfTextStdANSI
  3
"AcmSymBB|Product Description: AutoCAD Mechanical 2000|Company: Autodesk"
 90
        0
280
     0
281
     0
  0
CLASS
  1
ACMFCFSTANDARDANSI
  2
AcmFCFStdANSI
  3
"AcmSymBB|Product Description: AutoCAD Mechanical 2000|Company: Autodesk"
 90
        0
280
     0
281
     0
  0
CLASS
  1
ACMWELDSTANDARDANSI
  2
AcmWeldingStdANSI
  3
"AcmSymBB|Product Description: AutoCAD Mechanical 2000|Company: Autodesk"
 90
        0
280
     0
281
     0
  0
CLASS
  1
ACMIDSTANDARDANSI
  2
AcmIdStdANSI
  3
"AcmSymBB|Product Description: AutoCAD Mechanical 2000|Company: Autodesk"
 90
        0
280
     0
281
     0
  0
CLASS
  1
ACMDATUMSTANDARDANSI
  2
AcmDatumStdANSI
  3
"AcmSymBB|Product Description: AutoCAD Mechanical 2000|Company: Autodesk"
 90
        0
280
     0
281
     0
  0
CLASS
  1
ACMBOMSTANDARDANSI
  2
AcmBOMStdANSI
  3
"AcmSymBB|Product Description: AutoCAD Mechanical 2000|Company: Autodesk"
 90
        0
280
     0
281
     0
  0
CLASS
  1
ACMSTANDARDBSI
  2
AcmStandardBSI
  3
"AcmSymBB|Product Description: AutoCAD Mechanical 2000|Company: Autodesk"
 90
        0
280
     0
281
     0
  0
CLASS
  1
ACMSURFSTANDARDBSI
  2
AcmSurfTextStdBSI
  3
"AcmSymBB|Product Description: AutoCAD Mechanical 2000|Company: Autodesk"
 90
        0
280
     0
281
     0
  0
CLASS
  1
ACMFCFSTANDARDBSI
  2
AcmFCFStdBSI
  3
"AcmSymBB|Product Description: AutoCAD Mechanical 2000|Company: Autodesk"
 90
        0
280
     0
281
     0
  0
CLASS
  1
ACMWELDSTANDARDBSI
  2
AcmWeldingStdBSI
  3
"AcmSymBB|Product Description: AutoCAD Mechanical 2000|Company: Autodesk"
 90
        0
280
     0
281
     0
  0
CLASS
  1
ACMIDSTANDARDBSI
  2
AcmIdStdBSI
  3
"AcmSymBB|Product Description: AutoCAD Mechanical 2000|Company: Autodesk"
 90
        0
280
     0
281
     0
  0
CLASS
  1
ACMDATUMSTANDARDBSI
  2
AcmDatumStdBSI
  3
"AcmSymBB|Product Description: AutoCAD Mechanical 2000|Company: Autodesk"
 90
        0
280
     0
281
     0
  0
CLASS
  1
ACMBOMSTANDARDBSI
  2
AcmBOMStdBSI
  3
"AcmSymBB|Product Description: AutoCAD Mechanical 2000|Company: Autodesk"
 90
        0
280
     0
281
     0
  0
CLASS
  1
LONG_TRANSACTION
  2
AcDbLongTransaction
  3
AutoCAD 2000
 90
        0
280
     0
281
     0
  0
CLASS
  1
LWPOLYLINE
  2
AcDbPolyline
  3
AutoCAD 2000
 90
        0
280
     0
281
     1
  0
CLASS
  1
HATCH
  2
AcDbHatch
  3
AutoCAD 2000
 90
        0
280
     0
281
     1
  0
CLASS
  1
XRECORD
  2
AcDbXrecord
  3
AutoCAD 2000
 90
        0
280
     0
281
     0
  0
ENDSEC
  0
SECTION
  2
TABLES
  0
TABLE
  2
VPORT
  5
8
330
0
100
AcDbSymbolTable
 70
     3
  0
VPORT
  5
5F1A
330
8
100
AcDbSymbolTableRecord
100
AcDbViewportTableRecord
  2
*ACTIVE
 70
     0
 10
0.0
 20
0.0
 11
1.0
 21
1.0
 12
-79.63971809662542
 22
7.784429658202014
 13
0.0
 23
0.0
 14
2.5
 24
2.5
 15
10.0
 25
10.0
 16
0.0
 26
0.0
 36
1.0
 17
0.0
 27
0.0
 37
0.0
 40
273.6990850633044
 41
1.56570841889117
 42
50.0
 43
0.0
 44
0.0
 50
0.0
 51
0.0
 71
     0
 72
   100
 73
     1
 74
     1
 75
     0
 76
     0
 77
     0
 78
     0
  0
ENDTAB
  0
TABLE
  2
LTYPE
  5
5
330
0
100
AcDbSymbolTable
 70
    10
  0
LTYPE
  5
14
330
5
100
AcDbSymbolTableRecord
100
AcDbLinetypeTableRecord
  2
BYBLOCK
 70
     0
  3

 72
    65
 73
     0
 40
0.0
  0
LTYPE
  5
15
330
5
100
AcDbSymbolTableRecord
100
AcDbLinetypeTableRecord
  2
BYLAYER
 70
     0
  3

 72
    65
 73
     0
 40
0.0
  0
LTYPE
  5
16
330
5
100
AcDbSymbolTableRecord
100
AcDbLinetypeTableRecord
  2
CONTINUOUS
 70
     0
  3
Solid line
 72
    65
 73
     0
 40
0.0
  0
LTYPE
  5
4B
330
5
100
AcDbSymbolTableRecord
100
AcDbLinetypeTableRecord
  2
AM_ISO02W050
 70
     0
  3
__ __ __ __ __ __ __ __ __ __ __ __ __ __ __
 72
    65
 73
     2
 40
7.5
 49
6.0
 74
     0
 49
-1.5
 74
     0
  0
LTYPE
  5
4C
330
5
100
AcDbSymbolTableRecord
100
AcDbLinetypeTableRecord
  2
AM_ISO08W050
 70
     0
  3
____ . ____ . ____ . ____ . ____ . ____ . ____
 72
    65
 73
     4
 40
18.0
 49
12.0
 74
     0
 49
-1.5
 74
     0
 49
3.0
 74
     0
 49
-1.5
 74
     0
  0
LTYPE
  5
4D
330
5
100
AcDbSymbolTableRecord
100
AcDbLinetypeTableRecord
  2
AM_ISO09W050
 70
     0
  3
_____ . . _____ . . _____ . . ____ .. ____
 72
    65
 73
     6
 40
22.5
 49
12.0
 74
     0
 49
-1.5
 74
     0
 49
3.0
 74
     0
 49
-1.5
 74
     0
 49
3.0
 74
     0
 49
-1.5
 74
     0
  0
LTYPE
  5
4E
330
5
100
AcDbSymbolTableRecord
100
AcDbLinetypeTableRecord
  2
AMCONSTR
 70
     0
  3
_______________________
 72
    65
 73
     2
 40
9999.0
 49
9999.0
 74
     0
 49
0.0
 74
     0
  0
LTYPE
  5
4F
330
5
100
AcDbSymbolTableRecord
100
AcDbLinetypeTableRecord
  2
AM_ISO02W050X2
 70
     0
  3
 _ _ _ _ _ _ _ _ _ _ _ _
 72
    65
 73
     2
 40
3.75
 49
3.0
 74
     0
 49
-0.75
 74
     0
  0
LTYPE
  5
50
330
5
100
AcDbSymbolTableRecord
100
AcDbLinetypeTableRecord
  2
AM_ISO08W050X2
 70
     0
  3
__ . __ . __ . __ . __ . __
 72
    65
 73
     4
 40
9.0
 49
6.0
 74
     0
 49
-0.75
 74
     0
 49
1.5
 74
     0
 49
-0.75
 74
     0
  0
LTYPE
  5
53
330
5
100
AcDbSymbolTableRecord
100
AcDbLinetypeTableRecord
  2
AMZIGZAG
 70
     0
  3
/\/-/\/-/\/-/\/-/\/-/\/
 72
    65
 73
     2
 40
11.00009999999999
 49
0.0001
 74
     4
 75
   135
340
52
 46
0.04
 50
0.0
 44
0.0
 45
0.0
 49
-11.0
 74
     0
  0
LTYPE
  5
166
330
5
100
AcDbSymbolTableRecord
100
AcDbLinetypeTableRecord
  2
ACJISTGL
 70
     0
  3
_ _ _ _ _
 72
    65
 73
     2
 40
3.0
 49
2.0
 74
     0
 49
-1.0
 74
     0
  0
LTYPE
  5
26A
330
5
100
AcDbSymbolTableRecord
100
AcDbLinetypeTableRecord
  2
ACJISTGB
 70
     0
  3
__ . . __ . .
 72
    65
 73
     6
 40
9.0
 49
4.0
 74
     0
 49
-1.0
 74
     0
 49
1.0
 74
     0
 49
-1.0
 74
     0
 49
1.0
 74
     0
 49
-1.0
 74
     0
  0
ENDTAB
  0
TABLE
  2
LAYER
  5
2
330
0
100
AcDbSymbolTable
 70
    11
  0
LAYER
  5
10
330
2
100
AcDbSymbolTableRecord
100
AcDbLayerTableRecord
  2
0
 70
     0
 62
     7
  6
CONTINUOUS
  0
LAYER
  5
3F9
330
2
100
AcDbSymbolTableRecord
100
AcDbLayerTableRecord
  2
AM_0
 70
     0
 62
     7
  6
CONTINUOUS
  0
LAYER
  5
BA4
330
2
100
AcDbSymbolTableRecord
100
AcDbLayerTableRecord
  2
PV0001_1
 70
     0
 62
     7
  6
CONTINUOUS
  0
LAYER
  5
C6C
330
2
100
AcDbSymbolTableRecord
100
AcDbLayerTableRecord
  2
AM_CL
 70
     0
 62
     1
  6
AMCONSTR
  0
LAYER
  5
C7C
330
2
100
AcDbSymbolTableRecord
100
AcDbLayerTableRecord
  2
AM_7
 70
     0
 62
     4
  6
AM_ISO08W050
  0
LAYER
  5
C97
330
2
100
AcDbSymbolTableRecord
100
AcDbLayerTableRecord
  2
AM_11
 70
     0
 62
     3
  6
AM_ISO09W050
  0
LAYER
  5
CC5
330
2
100
AcDbSymbolTableRecord
100
AcDbLayerTableRecord
  2
AM_5
 70
     0
 62
     3
  6
CONTINUOUS
  0
LAYER
  5
CC7
330
2
100
AcDbSymbolTableRecord
100
AcDbLayerTableRecord
  2
DEFPOINTS
 70
     0
 62
     7
  6
CONTINUOUS
  0
LAYER
  5
19BC
330
2
100
AcDbSymbolTableRecord
100
AcDbLayerTableRecord
  2
AM_6
 70
     0
 62
     2
  6
CONTINUOUS
  0
LAYER
  5
1F8E
330
2
100
AcDbSymbolTableRecord
100
AcDbLayerTableRecord
  2
AM_4
 70
     0
 62
     3
  6
CONTINUOUS
  0
LAYER
  5
3588
330
2
100
AcDbSymbolTableRecord
100
AcDbLayerTableRecord
  2
AM_3
 70
     0
 62
     6
  6
ACJISTGL
  0
ENDTAB
  0
TABLE
  2
STYLE
  5
3
330
0
100
AcDbSymbolTable
 70
     5
  0
STYLE
  5
11
330
3
100
AcDbSymbolTableRecord
100
AcDbTextStyleTableRecord
  2
STANDARD
 70
     0
 40
0.0
 41
1.0
 50
0.0
 71
     0
 42
2.5
  3
simplex.shx
  4
EXTFONT.SHX
  0
STYLE
  5
52
330
3
100
AcDbSymbolTableRecord
100
AcDbTextStyleTableRecord
  2

 70
     1
 40
0.0
 41
1.0
 50
0.0
 71
     0
 42
2.5
  3
ltypeshp.shx
  4

  0
STYLE
  5
6B
330
3
100
AcDbSymbolTableRecord
100
AcDbTextStyleTableRecord
  2
ASAMI
 70
     0
 40
0.0
 41
1.0
 50
0.0
 71
     0
 42
2.5
  3
simplex.shx
  4
EXTFONT.SHX
  0
STYLE
  5
262
330
3
100
AcDbSymbolTableRecord
100
AcDbTextStyleTableRecord
  2
ACJISTS
 70
     0
 40
1.0
 41
1.0
 50
0.0
 71
     0
 42
2.5
  3
simplex.shx
  4
bigfont.shx
  0
STYLE
  5
269
330
3
100
AcDbSymbolTableRecord
100
AcDbTextStyleTableRecord
  2
ACJISGDT
 70
     0
 40
0.0
 41
1.0
 50
0.0
 71
     0
 42
2.5
  3
amgdtans.shx
  4

  0
ENDTAB
  0
TABLE
  2
VIEW
  5
6
330
0
100
AcDbSymbolTable
 70
     0
  0
ENDTAB
  0
TABLE
  2
UCS
  5
7
330
0
100
AcDbSymbolTable
 70
     0
  0
ENDTAB
  0
TABLE
  2
APPID
  5
9
330
0
100
AcDbSymbolTable
 70
    14
  0
APPID
  5
12
330
9
100
AcDbSymbolTableRecord
100
AcDbRegAppTableRecord
  2
ACAD
 70
     0
  0
APPID
  5
30
330
9
100
AcDbSymbolTableRecord
100
AcDbRegAppTableRecord
  2
MCAD_NO_VIS
 70
     0
  0
APPID
  5
31
330
9
100
AcDbSymbolTableRecord
100
AcDbRegAppTableRecord
  2
ACAD_TEMP_GRAPHIC
 70
     0
  0
APPID
  5
2C2
330
9
100
AcDbSymbolTableRecord
100
AcDbRegAppTableRecord
  2
GENIUS_GENDTOL_13
 70
     0
  0
APPID
  5
339
330
9
100
AcDbSymbolTableRecord
100
AcDbRegAppTableRecord
  2
GENIUS_GENODEF_13
 70
     0
  0
APPID
  5
33A
330
9
100
AcDbSymbolTableRecord
100
AcDbRegAppTableRecord
  2
GENIUS_GENOBJ-N-RSBK_13
 70
     0
  0
APPID
  5
33B
330
9
100
AcDbSymbolTableRecord
100
AcDbRegAppTableRecord
  2
GENIUS_GENOBJ-N-LIB_13
 70
     0
  0
APPID
  5
33C
330
9
100
AcDbSymbolTableRecord
100
AcDbRegAppTableRecord
  2
GENIUS_GENSCALE_13
 70
     0
  0
APPID
  5
378
330
9
100
AcDbSymbolTableRecord
100
AcDbRegAppTableRecord
  2
GENIUS_GENDIMSH_14
 70
     0
  0
APPID
  5
C82
330
9
100
AcDbSymbolTableRecord
100
AcDbRegAppTableRecord
  2
GENIUS_GENOBJ-N-CRS_13
 70
     0
  0
APPID
  5
C83
330
9
100
AcDbSymbolTableRecord
100
AcDbRegAppTableRecord
  2
GENIUS_GENOENT_13
 70
     0
  0
APPID
  5
C84
330
9
100
AcDbSymbolTableRecord
100
AcDbRegAppTableRecord
  2
GENIUS_GENOREF_13
 70
     0
  0
APPID
  5
C85
330
9
100
AcDbSymbolTableRecord
100
AcDbRegAppTableRecord
  2
GENIUS_GENOLIS_13
 70
     0
  0
APPID
  5
CA0
330
9
100
AcDbSymbolTableRecord
100
AcDbRegAppTableRecord
  2
GENIUS_GENOBJ-N-CEN_13
 70
     0
  0
ENDTAB
  0
TABLE
  2
DIMSTYLE
  5
A
330
0
100
AcDbSymbolTable
 70
    10
  0
DIMSTYLE
105
58
330
A
100
AcDbSymbolTableRecord
100
AcDbDimStyleTableRecord
  2
AM_JIS
 70
     0
  3

  4
"
  5
OPEN30
  6

  7

 40
1.0
 41
2.5
 42
1.0
 43
12.0
 44
1.0
 45
0.0
 46
0.0
 47
0.1
 48
0.1
140
3.2
141
0.0
142
0.0
143
0.0393701
144
1.0
145
0.0
146
0.71
147
1.5
 71
     0
 72
     0
 73
     0
 74
     0
 75
     0
 76
     0
 77
     3
 78
     8
170
     0
171
     2
172
     1
173
     0
174
     0
175
     0
176
   256
177
   256
178
     2
270
     2
271
     3
272
     3
273
     2
274
     2
340
6B
275
     0
280
     0
281
     0
282
     0
283
     0
284
     0
285
     0
286
     0
287
     3
288
     0
  0
DIMSTYLE
105
5F
330
A
100
AcDbSymbolTableRecord
100
AcDbDimStyleTableRecord
  2
AM_JIS$3
 70
     0
  3

  4
"
  5
OPEN30
  6

  7

 40
1.0
 41
2.5
 42
1.0
 43
10.0
 44
1.0
 45
0.0
 46
0.0
 47
0.1
 48
0.1
140
3.2
141
0.0
142
0.0
143
0.0393701
144
1.0
145
0.0
146
0.71
147
1.5
 71
     0
 72
     0
 73
     0
 74
     1
 75
     0
 76
     0
 77
     3
 78
     8
170
     0
171
     2
172
     0
173
     0
174
     0
175
     0
176
   256
177
   256
178
     2
270
     2
271
     2
272
     3
273
     2
274
     2
340
6B
275
     0
280
     0
281
     0
282
     0
283
     0
284
     0
285
     0
286
     0
287
     0
288
     1
  0
DIMSTYLE
105
60
330
A
100
AcDbSymbolTableRecord
100
AcDbDimStyleTableRecord
  2
AM_JIS$4
 70
     0
  3

  4
"
  5
OPEN30
  6

  7

 40
1.0
 41
2.5
 42
1.0
 43
10.0
 44
1.0
 45
0.0
 46
0.0
 47
0.1
 48
0.1
140
3.2
141
0.0
142
0.0
143
0.0393701
144
1.0
145
0.0
146
0.71
147
1.5
 71
     0
 72
     0
 73
     0
 74
     1
 75
     0
 76
     0
 77
     3
 78
     8
170
     0
171
     2
172
     0
173
     0
174
     0
175
     0
176
   256
177
   256
178
     2
270
     2
271
     2
272
     3
273
     2
274
     2
340
6B
275
     0
280
     0
281
     0
282
     0
283
     0
284
     0
285
     0
286
     0
287
     0
288
     1
  0
DIMSTYLE
105
61
330
A
100
AcDbSymbolTableRecord
100
AcDbDimStyleTableRecord
  2
AM_JIS$6
 70
     0
  3

  4
"
  5
OPEN30
  6

  7

 40
1.0
 41
2.5
 42
1.0
 43
10.0
 44
1.0
 45
0.0
 46
0.0
 47
0.1
 48
0.1
140
3.2
141
0.0
142
0.0
143
0.0393701
144
1.0
145
0.0
146
0.71
147
1.5
 71
     0
 72
     0
 73
     0
 74
     0
 75
     0
 76
     0
 77
     0
 78
     8
170
     0
171
     2
172
     1
173
     0
174
     0
175
     0
176
   256
177
   256
178
     2
270
     2
271
     2
272
     2
273
     2
274
     2
340
6B
275
     0
280
     0
281
     0
282
     0
283
     0
284
     0
285
     0
286
     0
287
     3
288
     0
  0
DIMSTYLE
105
62
330
A
100
AcDbSymbolTableRecord
100
AcDbDimStyleTableRecord
  2
AM_JIS$7
 70
     0
  3

  4
"
  5
OPEN30
  6

  7

 40
1.0
 41
2.5
 42
1.0
 43
10.0
 44
1.0
 45
0.0
 46
0.0
 47
0.1
 48
0.1
140
3.2
141
0.0
142
0.0
143
0.0393701
144
1.0
145
0.0
146
0.71
147
1.5
 71
     0
 72
     0
 73
     0
 74
     0
 75
     0
 76
     0
 77
     3
 78
     8
170
     0
171
     2
172
     1
173
     0
174
     0
175
     0
176
   256
177
   256
178
     2
270
     2
271
     2
272
     3
273
     2
274
     2
340
6B
275
     0
280
     0
281
     0
282
     0
283
     0
284
     0
285
     0
286
     0
287
     3
288
     0
  0
DIMSTYLE
105
63
330
A
100
AcDbSymbolTableRecord
100
AcDbDimStyleTableRecord
  2
AM_JIS$SF
 70
     0
  3

  4
"
  5
OPEN30
  6

  7

 40
1.0
 41
2.5
 42
1.0
 43
10.0
 44
1.0
 45
0.0
 46
0.0
 47
0.1
 48
0.1
140
3.2
141
0.0
142
0.0
143
0.0393701
144
1.0
145
0.0
146
0.71
147
1.5
 71
     0
 72
     0
 73
     0
 74
     0
 75
     1
 76
     1
 77
     3
 78
     8
170
     0
171
     2
172
     1
173
     0
174
     0
175
     0
176
   256
177
   256
178
     2
270
     2
271
     2
272
     2
273
     2
274
     2
340
6B
275
     0
280
     0
281
     0
282
     0
283
     0
284
     0
285
     0
286
     0
287
     3
288
     0
  0
DIMSTYLE
105
68
330
A
100
AcDbSymbolTableRecord
100
AcDbDimStyleTableRecord
  2
AM_JIS$SH
 70
     0
  3

  4
"
  5

  6
GENAXEH
  7
OPEN30
 40
1.0
 41
2.5
 42
1.0
 43
10.0
 44
1.0
 45
0.0
 46
0.0
 47
0.1
 48
0.1
140
3.2
141
0.0
142
0.0
143
0.0393701
144
2.0
145
0.0
146
0.71
147
1.5
 71
     0
 72
     0
 73
     0
 74
     0
 75
     1
 76
     1
 77
     3
 78
     8
170
     0
171
     2
172
     1
173
     1
174
     0
175
     0
176
   256
177
   256
178
     2
270
     2
271
     2
272
     2
273
     2
274
     2
340
6B
275
     0
280
     0
281
     0
282
     0
283
     0
284
     0
285
     0
286
     0
287
     3
288
     0
  0
DIMSTYLE
105
B34
102
{ACAD_REACTORS
330
36BA
102
}
330
A
100
AcDbSymbolTableRecord
100
AcDbDimStyleTableRecord
  2
AM_JIS$2
 70
     0
  3

  4
"
  5
OPEN30
  6

  7

 40
1.0
 41
2.5
 42
1.0
 43
12.0
 44
1.0
 45
0.0
 46
0.0
 47
0.1
 48
0.1
140
3.2
141
0.0
142
0.0
143
0.0393701
144
1.0
145
0.0
146
0.71
147
1.5
 71
     0
 72
     0
 73
     0
 74
     0
 75
     0
 76
     0
 77
     3
 78
     8
170
     0
171
     2
172
     1
173
     0
174
     0
175
     0
176
   256
177
   256
178
     2
270
     2
271
     3
272
     3
273
     2
274
     2
340
6B
275
     0
280
     0
281
     0
282
     0
283
     0
284
     0
285
     0
286
     0
287
     3
288
     0
  0
DIMSTYLE
105
BA5
102
{ACAD_REACTORS
330
3866
330
3C40
330
3D56
330
3DFD
330
53D8
330
53E5
330
53FF
330
53F2
330
5C4C
102
}
330
A
100
AcDbSymbolTableRecord
100
AcDbDimStyleTableRecord
  2
AM_JIS$0
 70
     0
  3

  4
"
  5
OPEN30
  6

  7

 40
1.0
 41
2.5
 42
0.8
 43
10.0
 44
1.0
 45
0.0
 46
0.0
 47
0.1
 48
0.1000000001
140
3.799999999999999
141
0.0
142
0.0
143
0.0393701
144
1.0
145
0.0
146
0.71
147
1.5
 71
     0
 72
     0
 73
     0
 74
     0
 75
     0
 76
     0
 77
     3
 78
     9
170
     0
171
     2
172
     1
173
     0
174
     0
175
     0
176
     3
177
     3
178
     2
270
     2
271
     2
272
     2
273
     2
274
     2
340
11
275
     1
280
     0
281
     0
282
     0
283
     0
284
     8
285
     0
286
     0
287
     0
288
     0
  0
DIMSTYLE
105
BA6
330
A
100
AcDbSymbolTableRecord
100
AcDbDimStyleTableRecord
  2
AM_JISORG-1P0$2
 70
     0
  3

  4
"
  5
OPEN30
  6

  7

 40
1.0
 41
2.5
 42
0.0
 43
10.0
 44
1.0
 45
0.0
 46
0.0
 47
0.1
 48
0.1000000001
140
3.799999999999999
141
0.0
142
0.0
143
0.0393701
144
-0.999999980146674
145
0.0
146
0.71
147
1.5
 71
     0
 72
     0
 73
     0
 74
     0
 75
     0
 76
     0
 77
     3
 78
     1
170
     0
171
     2
172
     1
173
     0
174
     0
175
     0
176
     3
177
     3
178
     2
270
     2
271
     2
272
     2
273
     2
274
     2
340
11
275
     1
280
     0
281
     0
282
     0
283
     0
284
     8
285
     0
286
     0
287
     0
288
     0
  0
ENDTAB
  0
TABLE
  2
BLOCK_RECORD
  5
1
330
0
100
AcDbSymbolTable
 70
    18
  0
BLOCK_RECORD
  5
1F
102
{ACAD_XDICTIONARY
360
74
102
}
330
1
100
AcDbSymbolTableRecord
100
AcDbBlockTableRecord
  2
*MODEL_SPACE
  0
BLOCK_RECORD
  5
101
102
{ACAD_XDICTIONARY
360
5F43
102
}
330
1
100
AcDbSymbolTableRecord
100
AcDbBlockTableRecord
  2
*PAPER_SPACE
  0
BLOCK_RECORD
  5
59
330
1
100
AcDbSymbolTableRecord
100
AcDbBlockTableRecord
  2
_OPEN30
  0
BLOCK_RECORD
  5
64
330
1
100
AcDbSymbolTableRecord
100
AcDbBlockTableRecord
  2
GENAXEH
  0
BLOCK_RECORD
  5
C31
330
1
100
AcDbSymbolTableRecord
100
AcDbBlockTableRecord
  2
A$C36D02A34
  0
BLOCK_RECORD
  5
2453
330
1
100
AcDbSymbolTableRecord
100
AcDbBlockTableRecord
  2
*D6
  0
BLOCK_RECORD
  5
245F
330
1
100
AcDbSymbolTableRecord
100
AcDbBlockTableRecord
  2
A$C4FFC6CC0
  0
BLOCK_RECORD
  5
36BB
330
1
100
AcDbSymbolTableRecord
100
AcDbBlockTableRecord
  2
*D8
  0
BLOCK_RECORD
  5
3867
330
1
100
AcDbSymbolTableRecord
100
AcDbBlockTableRecord
  2
*D9
  0
BLOCK_RECORD
  5
3C41
330
1
100
AcDbSymbolTableRecord
100
AcDbBlockTableRecord
  2
*D10
  0
BLOCK_RECORD
  5
3D57
330
1
100
AcDbSymbolTableRecord
100
AcDbBlockTableRecord
  2
*D11
  0
BLOCK_RECORD
  5
3DFE
330
1
100
AcDbSymbolTableRecord
100
AcDbBlockTableRecord
  2
*D12
  0
BLOCK_RECORD
  5
53D9
330
1
100
AcDbSymbolTableRecord
100
AcDbBlockTableRecord
  2
*D13
  0
BLOCK_RECORD
  5
53E6
330
1
100
AcDbSymbolTableRecord
100
AcDbBlockTableRecord
  2
*D14
  0
BLOCK_RECORD
  5
53F3
330
1
100
AcDbSymbolTableRecord
100
AcDbBlockTableRecord
  2
*D15
  0
BLOCK_RECORD
  5
5400
330
1
100
AcDbSymbolTableRecord
100
AcDbBlockTableRecord
  2
*D16
  0
BLOCK_RECORD
  5
5C4D
330
1
100
AcDbSymbolTableRecord
100
AcDbBlockTableRecord
  2
*D17
  0
ENDTAB
  0
ENDSEC
  0
SECTION
  2
BLOCKS
  0
BLOCK
  5
20
330
1F
100
AcDbEntity
  8
0
100
AcDbBlockBegin
  2
*MODEL_SPACE
 70
     0
 10
0.0
 20
0.0
 30
0.0
  3
*MODEL_SPACE
  1

  0
ENDBLK
  5
21
330
1F
100
AcDbEntity
  8
0
100
AcDbBlockEnd
  0
BLOCK
  5
103
330
101
100
AcDbEntity
 67
     1
  8
0
100
AcDbBlockBegin
  2
*PAPER_SPACE
 70
     0
 10
0.0
 20
0.0
 30
0.0
  3
*PAPER_SPACE
  1

  0
ENDBLK
  5
104
330
101
100
AcDbEntity
 67
     1
  8
0
100
AcDbBlockEnd
  0
BLOCK
  5
5D
330
59
100
AcDbEntity
  8
0
100
AcDbBlockBegin
  2
_OPEN30
 70
     0
 10
0.0
 20
0.0
 30
0.0
  3
_OPEN30
  1

  0
LINE
  5
5A
330
59
100
AcDbEntity
  8
0
 62
     0
100
AcDbLine
 10
-1.0
 20
0.26794919
 30
0.0
 11
0.0
 21
0.0
 31
0.0
  0
LINE
  5
5B
330
59
100
AcDbEntity
  8
0
 62
     0
100
AcDbLine
 10
0.0
 20
0.0
 30
0.0
 11
-1.0
 21
-0.26794919
 31
0.0
  0
LINE
  5
5C
330
59
100
AcDbEntity
  8
0
 62
     0
100
AcDbLine
 10
0.0
 20
0.0
 30
0.0
 11
-1.0
 21
0.0
 31
0.0
  0
ENDBLK
  5
5E
330
59
100
AcDbEntity
  8
0
100
AcDbBlockEnd
  0
BLOCK
  5
66
330
64
100
AcDbEntity
  8
0
100
AcDbBlockBegin
  2
GENAXEH
 70
     0
 10
0.0
 20
0.0
 30
0.0
  3
GENAXEH
  1

  0
LINE
  5
65
330
64
100
AcDbEntity
  8
0
100
AcDbLine
 10
-1.0
 20
0.0
 30
0.0
 11
1.0
 21
0.0
 31
0.0
  0
ENDBLK
  5
67
330
64
100
AcDbEntity
  8
0
100
AcDbBlockEnd
  0
BLOCK
  5
C4B
330
C31
100
AcDbEntity
  8
0
100
AcDbBlockBegin
  2
A$C36D02A34
 70
     0
 10
0.0
 20
0.0
 30
0.0
  3
A$C36D02A34
  1

  0
ARC
  5
C32
330
C31
100
AcDbEntity
  8
PV0001_1
  6
CONTINUOUS
 48
0.5
100
AcDbCircle
 10
18.06811523436999
 20
-11.83651161193799
 30
0.0
 40
21.600000381469
100
AcDbArc
 50
123.2290435713209
 51
126.6341524197568
  0
ARC
  5
C33
330
C31
100
AcDbEntity
  8
PV0001_1
  6
CONTINUOUS
 48
0.5
100
AcDbCircle
 10
18.06811523436999
 20
-11.83651161193799
 30
0.0
 40
21.600000381469
100
AcDbArc
 50
135.0736707620117
 51
146.7709980930592
  0
ARC
  5
C34
330
C31
100
AcDbEntity
  8
PV0001_1
  6
CONTINUOUS
 48
0.5
100
AcDbCircle
 10
-18.0680770874
 20
11.8365631103514
 30
0.0
 40
21.600000381469
100
AcDbArc
 50
315.0734847530392
 51
326.770781348241
  0
ARC
  5
C35
330
C31
100
AcDbEntity
  8
PV0001_1
  6
CONTINUOUS
 48
0.5
100
AcDbCircle
 10
-18.0680770874
 20
11.8365631103514
 30
0.0
 40
21.600000381469
100
AcDbArc
 50
303.2288882981993
 51
306.633986901359
  0
ARC
  5
C36
330
C31
100
AcDbEntity
  8
PV0001_1
  6
CONTINUOUS
 48
0.5
100
AcDbCircle
 10
-0.6269836425800009
 20
-2.044216156005997
 30
0.0
 40
2.0
100
AcDbArc
 50
337.4067997351092
 51
43.42231293132884
  0
ARC
  5
C37
330
C31
100
AcDbEntity
  8
PV0001_1
  6
CONTINUOUS
 48
0.5
100
AcDbCircle
 10
0.626953125
 20
2.044223785401001
 30
0.0
 40
2.0
100
AcDbArc
 50
157.4068184044407
 51
223.4222769591536
  0
CIRCLE
  5
C38
330
C31
100
AcDbEntity
  8
PV0001_1
  6
CONTINUOUS
 48
0.5
100
AcDbCircle
 10
3.856727600100001
 20
4.596265792847002
 30
0.0
 40
1.6000000238419
  0
CIRCLE
  5
C39
330
C31
100
AcDbEntity
  8
PV0001_1
  6
CONTINUOUS
 48
0.5
100
AcDbCircle
 10
-3.856727600100001
 20
-4.596265792845997
 30
0.0
 40
1.6000000238419
  0
ARC
  5
C3A
330
C31
100
AcDbEntity
  8
PV0001_1
  6
CONTINUOUS
 48
0.5
100
AcDbCircle
 10
-5.58123779297
 20
5.092639923096001
 30
0.0
 40
5.019082546234099
100
AcDbArc
 50
240.2658959250867
 51
321.5156269706421
  0
ARC
  5
C3B
330
C31
100
AcDbEntity
  8
PV0001_1
  6
CONTINUOUS
 48
0.5
100
AcDbCircle
 10
5.486755371089998
 20
-4.601703643798998
 30
0.0
 40
4.651036739349399
100
AcDbArc
 50
56.25271400417071
 51
145.528859890601
  0
ARC
  5
C3C
330
C31
100
AcDbEntity
  8
PV0001_1
  6
CONTINUOUS
 48
0.5
100
AcDbCircle
 10
-2.11590576172
 20
-3.453323364257997
 30
0.0
 40
4.050000190734899
100
AcDbArc
 50
43.42230610113921
 51
58.50391703385149
  0
ARC
  5
C3D
330
C31
100
AcDbEntity
  8
PV0001_1
  6
CONTINUOUS
 48
0.5
100
AcDbCircle
 10
2.115875244139999
 20
3.453330993653001
 30
0.0
 40
4.050000190734899
100
AcDbArc
 50
223.4222942619974
 51
238.5038164022482
  0
ARC
  5
C3E
330
C31
100
AcDbEntity
  8
PV0001_1
  6
CONTINUOUS
 48
0.5
100
AcDbCircle
 10
-6.70369720459
 20
5.094657897949002
 30
0.0
 40
5.940000057220499
100
AcDbArc
 50
328.2536768887549
 51
31.74641873389623
  0
ARC
  5
C3F
330
C31
100
AcDbEntity
  8
PV0001_1
  6
CONTINUOUS
 48
0.5
100
AcDbCircle
 10
6.703674316410001
 20
-5.094650268553998
 30
0.0
 40
5.940000057220499
100
AcDbArc
 50
148.2533403882529
 51
211.7466423089037
  0
ARC
  5
C40
330
C31
100
AcDbEntity
  8
PV0001_1
  6
CONTINUOUS
 48
0.5
100
AcDbCircle
 10
0.0
 20
0.0
 30
0.0
 40
8.812800407409699
100
AcDbArc
 50
175.2198288164333
 51
272.8622597568298
  0
ARC
  5
C41
330
C31
100
AcDbEntity
  8
PV0001_1
  6
CONTINUOUS
 48
0.5
100
AcDbCircle
 10
0.0
 20
0.0
 30
0.0
 40
9.1800003051758
100
AcDbArc
 50
272.7511362215027
 51
280.3697477877874
  0
ARC
  5
C42
330
C31
100
AcDbEntity
  8
PV0001_1
  6
CONTINUOUS
 48
0.5
100
AcDbCircle
 10
0.0
 20
0.0
 30
0.0
 40
8.812800407409699
100
AcDbArc
 50
355.2198199654955
 51
92.86229572901076
  0
ARC
  5
C43
330
C31
100
AcDbEntity
  8
PV0001_1
  6
CONTINUOUS
 48
0.5
100
AcDbCircle
 10
0.0
 20
0.0
 30
0.0
 40
9.1800003051758
100
AcDbArc
 50
92.75115489083434
 51
100.3697664571193
  0
CIRCLE
  5
C44
330
C31
100
AcDbEntity
  8
PV0001_1
  6
CONTINUOUS
100
AcDbCircle
 10
0.0
 20
0.0
 30
0.0
 40
9.1800003051758
  0
LINE
  5
C45
330
C31
100
AcDbEntity
  8
PV0001_1
  6
CONTINUOUS
 48
0.5
100
AcDbLine
 10
-1.652404785160001
 20
9.030059814453
 30
0.0
 11
-1.652404785160001
 21
8.220062255860002
 31
0.0
  0
LINE
  5
C46
330
C31
100
AcDbEntity
  8
PV0001_1
  6
CONTINUOUS
 48
0.5
100
AcDbLine
 10
1.652404785160001
 20
-8.220058441161999
 30
0.0
 11
1.652404785160001
 21
-9.030055999755997
 31
0.0
  0
LINE
  5
C47
330
C31
100
AcDbEntity
  8
PV0001_1
  6
CONTINUOUS
 48
0.5
100
AcDbLine
 10
-8.78217315674
 20
0.7343807220460015
 30
0.0
 11
-8.070594787600001
 21
0.7343997955320028
 31
0.0
  0
LINE
  5
C48
330
C31
100
AcDbEntity
  8
PV0001_1
  6
CONTINUOUS
 48
0.5
100
AcDbLine
 10
8.07057952881
 20
-0.7343864440919994
 30
0.0
 11
8.78215789795
 21
-0.7343654632569994
 31
0.0
  0
LINE
  5
C49
330
C31
100
AcDbEntity
  8
PV0001_1
  6
CONTINUOUS
 48
0.5
100
AcDbLine
 10
0.4406127929700006
 20
-9.169414520263
 30
0.0
 11
0.4406127929700006
 21
-8.812801361083998
 31
0.0
  0
LINE
  5
C4A
330
C31
100
AcDbEntity
  8
PV0001_1
  6
CONTINUOUS
 48
0.5
100
AcDbLine
 10
-0.4406127929700006
 20
9.169418334961001
 30
0.0
 11
-0.4406127929700006
 21
8.812805175781001
 31
0.0
  0
ENDBLK
  5
C4C
330
C31
100
AcDbEntity
  8
0
100
AcDbBlockEnd
  0
BLOCK
  5
245D
330
2453
100
AcDbEntity
  8
0
100
AcDbBlockBegin
  2
*D6
 70
     1
 10
0.0
 20
0.0
 30
0.0
  3
*D6
  1

  0
LINE
  5
2454
330
2453
100
AcDbEntity
  8
AM_5
 62
     3
100
AcDbLine
 10
-137.574381722344
 20
-5.00000294019065
 30
0.0
 11
-152.8199008769066
 21
-5.000002940190694
 31
0.0
  0
LINE
  5
2455
330
2453
100
AcDbEntity
  8
AM_5
 62
     3
100
AcDbLine
 10
-137.5743817223442
 20
5.00002461040103
 30
0.0
 11
-152.8199008769066
 21
5.000024610400987
 31
0.0
  0
LINE
  5
2456
330
2453
100
AcDbEntity
  8
AM_5
 62
     3
100
AcDbLine
 10
-151.8199008769066
 20
-2.500002940190691
 30
0.0
 11
-151.8199008769066
 21
2.50002461040099
 31
0.0
  0
INSERT
  5
2457
330
2453
100
AcDbEntity
  8
AM_5
 62
     3
100
AcDbBlockReference
  2
_OPEN30
 10
-151.8199008769066
 20
-5.00000294019069
 30
0.0
 41
2.5
 42
2.5
 43
2.5
 50
270.0000000000001
  0
INSERT
  5
2458
330
2453
100
AcDbEntity
  8
AM_5
 62
     3
100
AcDbBlockReference
  2
_OPEN30
 10
-151.8199008769066
 20
5.00002461040099
 30
0.0
 41
2.5
 42
2.5
 43
2.5
 50
90.00000000000015
  0
MTEXT
  5
2459
330
2453
100
AcDbEntity
  8
AM_5
 62
     2
100
AcDbMText
 10
-155.2199008769066
 20
0.000010835105146
 30
0.0
 40
3.799999999999999
 41
0.0
 71
     5
 72
     1
  1
%%c10
 11
-0.0000000000000028
 21
1.0
 31
0.0
1001
ACAD
1000
MTEXTBEGIN
1070
    73
1070
     1
1070
    44
1040
1.0
1070
    74
1070
     0
1000
MTEXTEND
  0
POINT
  5
245A
330
2453
100
AcDbEntity
  8
DEFPOINTS
 62
     0
100
AcDbPoint
 10
-137.5743817223441
 20
-5.000002940190223
 30
0.0
  0
POINT
  5
245B
330
2453
100
AcDbEntity
  8
DEFPOINTS
 62
     0
100
AcDbPoint
 10
-137.5743817223441
 20
5.000024610401458
 30
0.0
  0
POINT
  5
245C
330
2453
100
AcDbEntity
  8
DEFPOINTS
 62
     0
100
AcDbPoint
 10
-151.8199008769066
 20
5.000024610401462
 30
0.0
  0
ENDBLK
  5
245E
330
2453
100
AcDbEntity
  8
0
100
AcDbBlockEnd
  0
BLOCK
  5
246B
330
245F
100
AcDbEntity
  8
0
100
AcDbBlockBegin
  2
A$C4FFC6CC0
 70
     0
 10
0.0
 20
0.0
 30
0.0
  3
A$C4FFC6CC0
  1

  0
DIMENSION
  5
2460
330
245F
100
AcDbEntity
  8
AM_5
100
AcDbDimension
  2
*D6
 10
-70.00000100000002
 20
5.000008477104842
 30
0.0
 11
-70.00000100000002
 21
-0.0000052981910228
 31
0.0
 12
81.81989987690661
 22
-0.0000161332966199
 32
0.0
 70
   128
  1
%%c<>
 51
359.9999999999998
  3
AM_JIS$0
100
AcDbAlignedDimension
 13
-55.75448184543748
 23
-5.000019073486843
 33
0.0
 14
-55.75448184543756
 24
5.000008477104838
 34
0.0
 50
270.0
100
AcDbRotatedDimension
1001
ACAD
1000
DSTYLE
1002
{
1070
   271
1070
     0
1002
}
1001
GENIUS_GENDTOL_13
1000

1000
h7
1000

1040
0.0
  0
LINE
  5
2461
330
245F
100
AcDbEntity
  8
AM_0
 48
0.5
100
AcDbLine
 10
-56.0
 20
-4.754495620727796
 30
0.0
 11
-56.00000000000003
 21
4.754485024345811
 31
0.0
  0
LINE
  5
2462
330
245F
100
AcDbEntity
  8
AM_0
 48
0.5
100
AcDbLine
 10
-55.75448184543751
 20
-5.000019073486843
 30
0.0
 11
-55.75448184543754
 21
5.000008477104838
 31
0.0
  0
LINE
  5
2463
330
245F
100
AcDbEntity
  8
AM_0
100
AcDbLine
 10
-0.0000000000000142
 20
4.999995231627903
 30
0.0
 11
-55.75448184543754
 21
4.999995231627746
 31
0.0
  0
LINE
  5
2464
330
245F
100
AcDbEntity
  8
AM_0
 48
0.5
100
AcDbLine
 10
-55.99996821086117
 20
4.754439989725671
 30
0.0
 11
-55.75443945990975
 21
4.999963442484006
 31
0.0
  0
LINE
  5
2465
330
245F
100
AcDbEntity
  8
AM_0
100
AcDbLine
 10
-55.75448184543751
 20
-5.000008477105588
 30
0.0
 11
0.0000000000000142
 21
-5.00000847710543
 31
0.0
  0
LINE
  5
2466
330
245F
100
AcDbEntity
  8
AM_0
 48
0.5
100
AcDbLine
 10
-55.99996821086114
 20
-4.754474427965309
 30
0.0
 11
-55.75443945990972
 21
-4.999997880724334
 31
0.0
  0
LINE
  5
2467
330
245F
100
AcDbEntity
  8
AM_0
100
AcDbLine
 10
0.7794201296714505
 20
4.549985867772141
 30
0.0
 11
0.7794201296714789
 21
-4.550003370497427
 31
0.0
  0
LINE
  5
2468
330
245F
100
AcDbEntity
  8
AM_0
 48
0.5
100
AcDbLine
 10
0.0000000000000142
 20
-5.00000847710543
 30
0.0
 11
-0.0000000000000142
 21
5.000008477104995
 31
0.0
  0
LINE
  5
2469
330
245F
100
AcDbEntity
  8
AM_0
 48
0.5
100
AcDbLine
 10
0.7794201296714647
 20
-4.550003370497435
 30
0.0
 11
-0.0000105963812445
 21
-5.00000847710543
 31
0.0
  0
LINE
  5
246A
330
245F
100
AcDbEntity
  8
AM_0
 48
0.5
100
AcDbLine
 10
0.7794201296714647
 20
4.549985867772141
 30
0.0
 11
-0.0000000000000142
 21
4.999984635246652
 31
0.0
  0
ENDBLK
  5
246C
330
245F
100
AcDbEntity
  8
0
100
AcDbBlockEnd
  0
BLOCK
  5
36C9
330
36BB
100
AcDbEntity
  8
0
100
AcDbBlockBegin
  2
*D8
 70
     1
 10
0.0
 20
0.0
 30
0.0
  3
*D8
  1

  0
LINE
  5
4149
330
36BB
100
AcDbEntity
  8
AM_5
100
AcDbLine
 10
0.3420201408161502
 20
-0.9396926216994629
 30
0.0
 11
11.31017982904546
 21
-31.07446394848497
 31
0.0
  0
LINE
  5
414A
330
36BB
100
AcDbEntity
  8
AM_5
100
AcDbLine
 10
0.3420201408161393
 20
0.939692621699157
 30
0.0
 11
11.3101798290451
 21
31.07446394848479
 31
0.0
  0
ARC
  5
414B
330
36BB
100
AcDbEntity
  8
AM_5
100
AcDbCircle
 10
0.0000000000000263
 20
-0.000000000000155
 30
0.0
 40
32.06875379343813
100
AcDbArc
 50
294.4677676365269
 51
65.53223236347371
  0
INSERT
  5
414C
330
36BB
100
AcDbEntity
  8
AM_5
100
AcDbBlockReference
  2
_OPEN30
 10
10.96815968822934
 20
-30.13477132678566
 30
0.0
 41
2.5
 42
2.5
 43
2.5
 50
202.2338837417563
  0
INSERT
  5
414D
330
36BB
100
AcDbEntity
  8
AM_5
100
AcDbBlockReference
  2
_OPEN30
 10
10.96815968822899
 20
30.13477132678548
 30
0.0
 41
2.5
 42
2.5
 43
2.5
 50
157.7661162582443
  0
MTEXT
  5
414E
330
36BB
100
AcDbEntity
  8
AM_5
 62
     2
100
AcDbMText
 10
28.96875379343816
 20
0.0000000000000357
 30
0.0
 40
3.2
 41
0.0
 71
     5
 72
     1
  1
140°
  7
ASAMI
 11
-0.0000000000000028
 21
1.0
 31
0.0
1001
ACAD
1000
MTEXTBEGIN
1070
    73
1070
     1
1070
    44
1040
1.0
1070
    74
1070
     0
1000
MTEXTEND
  0
POINT
  5
414F
330
36BB
100
AcDbEntity
  8
DEFPOINTS
 62
     0
100
AcDbPoint
 10
29.44604624940567
 20
-12.70178452588532
 30
0.0
  0
POINT
  5
4150
330
36BB
100
AcDbEntity
  8
DEFPOINTS
 62
     0
100
AcDbPoint
 10
0.0
 20
-0.0000000000002274
 30
0.0
  0
POINT
  5
4151
330
36BB
100
AcDbEntity
  8
DEFPOINTS
 62
     0
100
AcDbPoint
 10
0.0
 20
-0.0000000000000827
 30
0.0
  0
POINT
  5
4152
330
36BB
100
AcDbEntity
  8
DEFPOINTS
 62
     0
100
AcDbPoint
 10
-2.547791618692619
 20
6.999999999999763
 30
0.0
  0
POINT
  5
4153
330
36BB
100
AcDbEntity
  8
DEFPOINTS
 62
     0
100
AcDbPoint
 10
-2.547791618692583
 20
-7.000000000000091
 30
0.0
  0
ENDBLK
  5
36CA
330
36BB
100
AcDbEntity
  8
0
100
AcDbBlockEnd
  0
BLOCK
  5
3871
330
3867
100
AcDbEntity
  8
0
100
AcDbBlockBegin
  2
*D9
 70
     1
 10
0.0
 20
0.0
 30
0.0
  3
*D9
  1

  0
LINE
  5
5DD2
330
3867
100
AcDbEntity
  8
AM_5
 62
     3
100
AcDbLine
 10
-174.3810069720448
 20
16.03201201231543
 30
0.0
 11
-197.1505919329711
 21
16.03201201231537
 31
0.0
  0
LINE
  5
5DD3
330
3867
100
AcDbEntity
  8
AM_5
 62
     3
100
AcDbLine
 10
-174.3810069720445
 20
-15.96786347911892
 30
0.0
 11
-197.1505919329709
 21
-15.96786347911898
 31
0.0
  0
LINE
  5
5DD4
330
3867
100
AcDbEntity
  8
AM_5
 62
     3
100
AcDbLine
 10
-196.150591932971
 20
13.53201201231537
 30
0.0
 11
-196.150591932971
 21
-13.46786347911898
 31
0.0
  0
INSERT
  5
5DD5
330
3867
100
AcDbEntity
  8
AM_5
 62
     3
100
AcDbBlockReference
  2
_OPEN30
 10
-196.1505919329711
 20
16.03201201231537
 30
0.0
 41
2.5
 42
2.5
 43
2.5
 50
90.00000000000017
  0
INSERT
  5
5DD6
330
3867
100
AcDbEntity
  8
AM_5
 62
     3
100
AcDbBlockReference
  2
_OPEN30
 10
-196.1505919329709
 20
-15.96786347911898
 30
0.0
 41
2.5
 42
2.5
 43
2.5
 50
270.0000000000001
  0
MTEXT
  5
5DD7
330
3867
100
AcDbEntity
  8
AM_5
 62
     2
100
AcDbMText
 10
-199.550591932971
 20
0.0320742665981942
 30
0.0
 40
3.799999999999999
 41
0.0
 71
     5
 72
     1
  1
%%C32
 11
-0.0000000000000028
 21
1.0
 31
0.0
1001
ACAD
1000
MTEXTBEGIN
1070
    73
1070
     1
1070
    44
1040
1.0
1070
    74
1070
     0
1000
MTEXTEND
  0
POINT
  5
5DD8
330
3867
100
AcDbEntity
  8
DEFPOINTS
 62
     0
100
AcDbPoint
 10
-173.5810069720447
 20
16.03201201231597
 30
0.0
  0
POINT
  5
5DD9
330
3867
100
AcDbEntity
  8
DEFPOINTS
 62
     0
100
AcDbPoint
 10
-173.5810069720446
 20
-15.96786347911837
 30
0.0
  0
POINT
  5
5DDA
330
3867
100
AcDbEntity
  8
DEFPOINTS
 62
     0
100
AcDbPoint
 10
-196.150591932971
 20
-15.96786347911836
 30
0.0
  0
ENDBLK
  5
3872
330
3867
100
AcDbEntity
  8
0
100
AcDbBlockEnd
  0
BLOCK
  5
3C4B
330
3C41
100
AcDbEntity
  8
0
100
AcDbBlockBegin
  2
*D10
 70
     1
 10
0.0
 20
0.0
 30
0.0
  3
*D10
  1

  0
LINE
  5
5E01
330
3C41
100
AcDbEntity
  8
AM_5
 62
     3
100
AcDbLine
 10
-114.458635332712
 20
-16.76804658143538
 30
0.0
 11
-114.4586353327119
 21
-44.18246173469495
 31
0.0
  0
LINE
  5
5E02
330
3C41
100
AcDbEntity
  8
AM_5
 62
     3
100
AcDbLine
 10
-174.4586353327119
 20
-15.91955414979391
 30
0.0
 11
-174.4586353327119
 21
-44.18246173469512
 31
0.0
  0
LINE
  5
5E03
330
3C41
100
AcDbEntity
  8
AM_5
 62
     3
100
AcDbLine
 10
-116.9586353327119
 20
-43.18246173469495
 30
0.0
 11
-171.9586353327119
 21
-43.18246173469511
 31
0.0
  0
INSERT
  5
5E04
330
3C41
100
AcDbEntity
  8
AM_5
 62
     3
100
AcDbBlockReference
  2
_OPEN30
 10
-114.4586353327119
 20
-43.18246173469495
 30
0.0
 41
2.5
 42
2.5
 43
2.5
 50
0.0000000000001527
  0
INSERT
  5
5E05
330
3C41
100
AcDbEntity
  8
AM_5
 62
     3
100
AcDbBlockReference
  2
_OPEN30
 10
-174.4586353327119
 20
-43.18246173469512
 30
0.0
 41
2.5
 42
2.5
 43
2.5
 50
180.0000000000001
  0
MTEXT
  5
5E06
330
3C41
100
AcDbEntity
  8
AM_5
 62
     2
100
AcDbMText
 10
-144.4586353327119
 20
-39.78246173469504
 30
0.0
 40
3.799999999999999
 41
0.0
 71
     5
 72
     1
  1
60
1001
ACAD
1000
MTEXTBEGIN
1070
    73
1070
     1
1070
    44
1040
1.0
1070
    74
1070
     0
1000
MTEXTEND
  0
POINT
  5
5E07
330
3C41
100
AcDbEntity
  8
DEFPOINTS
 62
     0
100
AcDbPoint
 10
-114.458635332712
 20
-15.96804658143505
 30
0.0
  0
POINT
  5
5E08
330
3C41
100
AcDbEntity
  8
DEFPOINTS
 62
     0
100
AcDbPoint
 10
-174.458635332712
 20
-15.11955414979341
 30
0.0
  0
POINT
  5
5E09
330
3C41
100
AcDbEntity
  8
DEFPOINTS
 62
     0
100
AcDbPoint
 10
-174.458635332712
 20
-43.18246173469462
 30
0.0
  0
ENDBLK
  5
3C4C
330
3C41
100
AcDbEntity
  8
0
100
AcDbBlockEnd
  0
BLOCK
  5
3D63
330
3D57
100
AcDbEntity
  8
0
100
AcDbBlockBegin
  2
*D11
 70
     1
 10
0.0
 20
0.0
 30
0.0
  3
*D11
  1

  0
LINE
  5
5DF6
330
3D57
100
AcDbEntity
  8
AM_5
 62
     3
100
AcDbLine
 10
-174.4585495020369
 20
-12.6120944590682
 30
0.0
 11
-174.4585495020369
 21
-32.47941722561932
 31
0.0
  0
LINE
  5
5DF7
330
3D57
100
AcDbEntity
  8
AM_5
 62
     3
100
AcDbLine
 10
-168.4586466981146
 20
-0.8000000000010169
 30
0.0
 11
-168.4586466981145
 21
-32.47941722561931
 31
0.0
  0
LINE
  5
5DF8
330
3D57
100
AcDbEntity
  8
AM_5
 62
     3
100
AcDbLine
 10
-176.9585495020369
 20
-31.47941722561933
 30
0.0
 11
-179.4585495020369
 21
-31.47941722561934
 31
0.0
  0
LINE
  5
5DF9
330
3D57
100
AcDbEntity
  8
AM_5
 62
     3
100
AcDbLine
 10
-165.9586466981146
 20
-31.4794172256193
 30
0.0
 11
-163.4586466981145
 21
-31.47941722561929
 31
0.0
  0
LINE
  5
5DFA
330
3D57
100
AcDbEntity
  8
AM_5
 62
     3
100
AcDbLine
 10
-174.4585495020369
 20
-31.47941722561932
 30
0.0
 11
-168.4586466981145
 21
-31.47941722561931
 31
0.0
  0
INSERT
  5
5DFB
330
3D57
100
AcDbEntity
  8
AM_5
 62
     3
100
AcDbBlockReference
  2
_OPEN30
 10
-174.4585495020369
 20
-31.47941722561932
 30
0.0
 41
2.5
 42
2.5
 43
2.5
 50
0.0000000000001527
  0
INSERT
  5
5DFC
330
3D57
100
AcDbEntity
  8
AM_5
 62
     3
100
AcDbBlockReference
  2
_OPEN30
 10
-168.4586466981145
 20
-31.47941722561931
 30
0.0
 41
2.5
 42
2.5
 43
2.5
 50
180.0000000000001
  0
MTEXT
  5
5DFD
330
3D57
100
AcDbEntity
  8
AM_5
 62
     2
100
AcDbMText
 10
-171.4585981000757
 20
-28.07941722561931
 30
0.0
 40
3.799999999999999
 41
0.0
 71
     5
 72
     1
  1
6
1001
ACAD
1000
MTEXTBEGIN
1070
    73
1070
     1
1070
    44
1040
1.0
1070
    74
1070
     0
1000
MTEXTEND
  0
POINT
  5
5DFE
330
3D57
100
AcDbEntity
  8
DEFPOINTS
 62
     0
100
AcDbPoint
 10
-174.458549502037
 20
-11.81209445906769
 30
0.0
  0
POINT
  5
5DFF
330
3D57
100
AcDbEntity
  8
DEFPOINTS
 62
     0
100
AcDbPoint
 10
-168.4586466981146
 20
-0.0000000000005267
 30
0.0
  0
POINT
  5
5E00
330
3D57
100
AcDbEntity
  8
DEFPOINTS
 62
     0
100
AcDbPoint
 10
-168.4586466981146
 20
-31.47941722561881
 30
0.0
  0
ENDBLK
  5
3D64
330
3D57
100
AcDbEntity
  8
0
100
AcDbBlockEnd
  0
BLOCK
  5
3E08
330
3DFE
100
AcDbEntity
  8
0
100
AcDbBlockBegin
  2
*D12
 70
     1
 10
0.0
 20
0.0
 30
0.0
  3
*D12
  1

  0
LINE
  5
5DED
330
3DFE
100
AcDbEntity
  8
AM_5
 62
     3
100
AcDbLine
 10
-168.4586466981146
 20
-0.8000000000010169
 30
0.0
 11
-168.4586466981145
 21
-32.47941722561909
 31
0.0
  0
LINE
  5
5DEE
330
3DFE
100
AcDbEntity
  8
AM_5
 62
     3
100
AcDbLine
 10
-118.4586353327121
 20
-0.8000000000007615
 30
0.0
 11
-118.458635332712
 21
-32.47941722561896
 31
0.0
  0
LINE
  5
5DEF
330
3DFE
100
AcDbEntity
  8
AM_5
 62
     3
100
AcDbLine
 10
-165.9586466981146
 20
-31.47941722561909
 30
0.0
 11
-120.958635332712
 21
-31.47941722561895
 31
0.0
  0
INSERT
  5
5DF0
330
3DFE
100
AcDbEntity
  8
AM_5
 62
     3
100
AcDbBlockReference
  2
_OPEN30
 10
-168.4586466981145
 20
-31.4794172256191
 30
0.0
 41
2.5
 42
2.5
 43
2.5
 50
180.0000000000001
  0
INSERT
  5
5DF1
330
3DFE
100
AcDbEntity
  8
AM_5
 62
     3
100
AcDbBlockReference
  2
_OPEN30
 10
-118.458635332712
 20
-31.47941722561895
 30
0.0
 41
2.5
 42
2.5
 43
2.5
 50
0.0000000000001527
  0
MTEXT
  5
5DF2
330
3DFE
100
AcDbEntity
  8
AM_5
 62
     2
100
AcDbMText
 10
-143.4586410154133
 20
-28.07941722561902
 30
0.0
 40
3.799999999999999
 41
0.0
 71
     5
 72
     1
  1
50
1001
ACAD
1000
MTEXTBEGIN
1070
    73
1070
     1
1070
    44
1040
1.0
1070
    74
1070
     0
1000
MTEXTEND
  0
POINT
  5
5DF3
330
3DFE
100
AcDbEntity
  8
DEFPOINTS
 62
     0
100
AcDbPoint
 10
-168.4586466981146
 20
-0.0000000000005267
 30
0.0
  0
POINT
  5
5DF4
330
3DFE
100
AcDbEntity
  8
DEFPOINTS
 62
     0
100
AcDbPoint
 10
-118.4586353327121
 20
-0.0000000000004169
 30
0.0
  0
POINT
  5
5DF5
330
3DFE
100
AcDbEntity
  8
DEFPOINTS
 62
     0
100
AcDbPoint
 10
-118.4586353327121
 20
-31.4794172256186
 30
0.0
  0
ENDBLK
  5
3E09
330
3DFE
100
AcDbEntity
  8
0
100
AcDbBlockEnd
  0
BLOCK
  5
53E3
330
53D9
100
AcDbEntity
  8
0
100
AcDbBlockBegin
  2
*D13
 70
     1
 10
0.0
 20
0.0
 30
0.0
  3
*D13
  1

  0
LINE
  5
5DC9
330
53D9
100
AcDbEntity
  8
AM_5
 62
     3
100
AcDbLine
 10
-4.4586353327121
 20
-12.28936170212768
 30
0.0
 11
-4.458635332711974
 21
-56.48481983742642
 31
0.0
  0
LINE
  5
5DCA
330
53D9
100
AcDbEntity
  8
AM_5
 62
     3
100
AcDbLine
 10
-174.4585254694479
 20
-15.919480907607
 30
0.0
 11
-174.4585254694477
 21
-56.48481983742691
 31
0.0
  0
LINE
  5
5DCB
330
53D9
100
AcDbEntity
  8
AM_5
 62
     3
100
AcDbLine
 10
-6.958635332711977
 20
-55.48481983742643
 30
0.0
 11
-171.9585254694478
 21
-55.4848198374269
 31
0.0
  0
INSERT
  5
5DCC
330
53D9
100
AcDbEntity
  8
AM_5
 62
     3
100
AcDbBlockReference
  2
_OPEN30
 10
-4.458635332711977
 20
-55.48481983742642
 30
0.0
 41
2.5
 42
2.5
 43
2.5
 50
0.0000000000001527
  0
INSERT
  5
5DCD
330
53D9
100
AcDbEntity
  8
AM_5
 62
     3
100
AcDbBlockReference
  2
_OPEN30
 10
-174.4585254694477
 20
-55.48481983742691
 30
0.0
 41
2.5
 42
2.5
 43
2.5
 50
180.0000000000001
  0
MTEXT
  5
5DCE
330
53D9
100
AcDbEntity
  8
AM_5
 62
     2
100
AcDbMText
 10
-89.45858040107991
 20
-52.08481983742667
 30
0.0
 40
3.799999999999999
 41
0.0
 71
     5
 72
     1
  1
170
1001
ACAD
1000
MTEXTBEGIN
1070
    73
1070
     1
1070
    44
1040
1.0
1070
    74
1070
     0
1000
MTEXTEND
  0
POINT
  5
5DCF
330
53D9
100
AcDbEntity
  8
DEFPOINTS
 62
     0
100
AcDbPoint
 10
-4.458635332712136
 20
-11.48936170212766
 30
0.0
  0
POINT
  5
5DD0
330
53D9
100
AcDbEntity
  8
DEFPOINTS
 62
     0
100
AcDbPoint
 10
-174.4585254694479
 20
-15.11948090760649
 30
0.0
  0
POINT
  5
5DD1
330
53D9
100
AcDbEntity
  8
DEFPOINTS
 62
     0
100
AcDbPoint
 10
-174.4585254694479
 20
-55.4848198374264
 30
0.0
  0
ENDBLK
  5
53E4
330
53D9
100
AcDbEntity
  8
0
100
AcDbBlockEnd
  0
BLOCK
  5
53F0
330
53E6
100
AcDbEntity
  8
0
100
AcDbBlockBegin
  2
*D14
 70
     1
 10
0.0
 20
0.0
 30
0.0
  3
*D14
  1

  0
LINE
  5
5DC0
330
53E6
100
AcDbEntity
  8
AM_5
 62
     3
100
AcDbLine
 10
-4.458635332712023
 20
-12.28936170212768
 30
0.0
 11
-4.458635332711931
 21
-44.18246173469436
 31
0.0
  0
LINE
  5
5DC1
330
53E6
100
AcDbEntity
  8
AM_5
 62
     3
100
AcDbLine
 10
-114.458635332712
 20
-16.76804658143538
 30
0.0
 11
-114.4586353327119
 21
-44.18246173469468
 31
0.0
  0
LINE
  5
5DC2
330
53E6
100
AcDbEntity
  8
AM_5
 62
     3
100
AcDbLine
 10
-6.958635332711935
 20
-43.18246173469436
 30
0.0
 11
-111.9586353327119
 21
-43.18246173469467
 31
0.0
  0
INSERT
  5
5DC3
330
53E6
100
AcDbEntity
  8
AM_5
 62
     3
100
AcDbBlockReference
  2
_OPEN30
 10
-4.458635332711935
 20
-43.18246173469435
 30
0.0
 41
2.5
 42
2.5
 43
2.5
 50
0.0000000000001527
  0
INSERT
  5
5DC4
330
53E6
100
AcDbEntity
  8
AM_5
 62
     3
100
AcDbBlockReference
  2
_OPEN30
 10
-114.4586353327119
 20
-43.18246173469467
 30
0.0
 41
2.5
 42
2.5
 43
2.5
 50
180.0000000000001
  0
MTEXT
  5
5DC5
330
53E6
100
AcDbEntity
  8
AM_5
 62
     2
100
AcDbMText
 10
-59.45863533271196
 20
-39.78246173469451
 30
0.0
 40
3.799999999999999
 41
0.0
 71
     5
 72
     1
  1
110
1001
ACAD
1000
MTEXTBEGIN
1070
    73
1070
     1
1070
    44
1040
1.0
1070
    74
1070
     0
1000
MTEXTEND
  0
POINT
  5
5DC6
330
53E6
100
AcDbEntity
  8
DEFPOINTS
 62
     0
100
AcDbPoint
 10
-4.458635332712058
 20
-11.48936170212766
 30
0.0
  0
POINT
  5
5DC7
330
53E6
100
AcDbEntity
  8
DEFPOINTS
 62
     0
100
AcDbPoint
 10
-114.458635332712
 20
-15.96804658143505
 30
0.0
  0
POINT
  5
5DC8
330
53E6
100
AcDbEntity
  8
DEFPOINTS
 62
     0
100
AcDbPoint
 10
-114.458635332712
 20
-43.18246173469434
 30
0.0
  0
ENDBLK
  5
53F1
330
53E6
100
AcDbEntity
  8
0
100
AcDbBlockEnd
  0
BLOCK
  5
53FD
330
53F3
100
AcDbEntity
  8
0
100
AcDbBlockBegin
  2
*D15
 70
     1
 10
0.0
 20
0.0
 30
0.0
  3
*D15
  1

  0
LINE
  5
5EC8
330
53F3
100
AcDbEntity
  8
AM_5
 62
     3
100
AcDbLine
 10
-4.458635332712059
 20
13.73949874300803
 30
0.0
 11
-4.458635332711994
 21
39.86304545844424
 31
0.0
  0
LINE
  5
5EC9
330
53F3
100
AcDbEntity
  8
AM_5
 62
     3
100
AcDbLine
 10
-90.45863533271171
 20
8.810944075151763
 30
0.0
 11
-90.45863533271164
 21
39.86304545844445
 31
0.0
  0
LINE
  5
5ECA
330
53F3
100
AcDbEntity
  8
AM_5
 62
     3
100
AcDbLine
 10
-6.958635332711996
 20
38.86304545844424
 30
0.0
 11
-87.95863533271164
 21
38.86304545844444
 31
0.0
  0
INSERT
  5
5ECB
330
53F3
100
AcDbEntity
  8
AM_5
 62
     3
100
AcDbBlockReference
  2
_OPEN30
 10
-4.458635332711996
 20
38.86304545844424
 30
0.0
 41
2.5
 42
2.5
 43
2.5
 50
359.9999999999998
  0
INSERT
  5
5ECC
330
53F3
100
AcDbEntity
  8
AM_5
 62
     3
100
AcDbBlockReference
  2
_OPEN30
 10
-90.45863533271164
 20
38.86304545844445
 30
0.0
 41
2.5
 42
2.5
 43
2.5
 50
179.9999999999998
  0
MTEXT
  5
5ECD
330
53F3
100
AcDbEntity
  8
AM_5
 62
     2
100
AcDbMText
 10
-47.45863533271181
 20
42.26304545844435
 30
0.0
 40
3.799999999999999
 41
0.0
 71
     5
 72
     1
  1
86
1001
ACAD
1000
MTEXTBEGIN
1070
    73
1070
     1
1070
    44
1040
1.0
1070
    74
1070
     0
1000
MTEXTEND
  0
POINT
  5
5ECE
330
53F3
100
AcDbEntity
  8
DEFPOINTS
 62
     0
100
AcDbPoint
 10
-4.458635332712023
 20
12.93949874300804
 30
0.0
  0
POINT
  5
5ECF
330
53F3
100
AcDbEntity
  8
DEFPOINTS
 62
     0
100
AcDbPoint
 10
-90.45863533271171
 20
8.010944075152025
 30
0.0
  0
POINT
  5
5ED0
330
53F3
100
AcDbEntity
  8
DEFPOINTS
 62
     0
100
AcDbPoint
 10
-90.45863533271154
 20
38.86304545844471
 30
0.0
  0
ENDBLK
  5
53FE
330
53F3
100
AcDbEntity
  8
0
100
AcDbBlockEnd
  0
BLOCK
  5
540A
330
5400
100
AcDbEntity
  8
0
100
AcDbBlockBegin
  2
*D16
 70
     1
 10
0.0
 20
0.0
 30
0.0
  3
*D16
  1

  0
LINE
  5
5E56
330
5400
100
AcDbEntity
  8
AM_5
 62
     3
100
AcDbLine
 10
-4.458635332712058
 20
12.2893617021275
 30
0.0
 11
-4.458635332711993
 21
27.50046633607058
 31
0.0
  0
LINE
  5
5E57
330
5400
100
AcDbEntity
  8
AM_5
 62
     3
100
AcDbLine
 10
-83.45863533271154
 20
12.48435729186871
 30
0.0
 11
-83.45863533271149
 21
27.50046633607091
 31
0.0
  0
LINE
  5
5E58
330
5400
100
AcDbEntity
  8
AM_5
 62
     3
100
AcDbLine
 10
-6.958635332711997
 20
26.50046633607059
 30
0.0
 11
-80.95863533271149
 21
26.5004663360709
 31
0.0
  0
INSERT
  5
5E59
330
5400
100
AcDbEntity
  8
AM_5
 62
     3
100
AcDbBlockReference
  2
_OPEN30
 10
-4.458635332711997
 20
26.50046633607058
 30
0.0
 41
2.5
 42
2.5
 43
2.5
 50
359.9999999999997
  0
INSERT
  5
5E5A
330
5400
100
AcDbEntity
  8
AM_5
 62
     3
100
AcDbBlockReference
  2
_OPEN30
 10
-83.45863533271149
 20
26.50046633607091
 30
0.0
 41
2.5
 42
2.5
 43
2.5
 50
179.9999999999997
  0
MTEXT
  5
5E5B
330
5400
100
AcDbEntity
  8
AM_5
 62
     2
100
AcDbMText
 10
-43.95863533271173
 20
29.90046633607075
 30
0.0
 40
3.799999999999999
 41
0.0
 71
     5
 72
     1
  1
79
1001
ACAD
1000
MTEXTBEGIN
1070
    73
1070
     1
1070
    44
1040
1.0
1070
    74
1070
     0
1000
MTEXTEND
  0
POINT
  5
5E5C
330
5400
100
AcDbEntity
  8
DEFPOINTS
 62
     0
100
AcDbPoint
 10
-4.458635332712027
 20
11.48936170212751
 30
0.0
  0
POINT
  5
5E5D
330
5400
100
AcDbEntity
  8
DEFPOINTS
 62
     0
100
AcDbPoint
 10
-83.45863533271153
 20
11.68435729186896
 30
0.0
  0
POINT
  5
5E5E
330
5400
100
AcDbEntity
  8
DEFPOINTS
 62
     0
100
AcDbPoint
 10
-83.45863533271142
 20
26.50046633607115
 30
0.0
  0
ENDBLK
  5
540B
330
5400
100
AcDbEntity
  8
0
100
AcDbBlockEnd
  0
BLOCK
  5
5C57
330
5C4D
100
AcDbEntity
  8
0
100
AcDbBlockBegin
  2
*D17
 70
     1
 10
0.0
 20
0.0
 30
0.0
  3
*D17
  1

  0
LINE
  5
5DAC
330
5C4D
100
AcDbEntity
  8
AM_5
 62
     3
100
AcDbLine
 10
-3.585841286463865
 20
12.25000000000005
 30
0.0
 11
18.12676729118299
 21
12.25000000000011
 31
0.0
  0
LINE
  5
5DAD
330
5C4D
100
AcDbEntity
  8
AM_5
 62
     3
100
AcDbLine
 10
-3.658635332711954
 20
-12.24999999999994
 30
0.0
 11
18.12676729118306
 21
-12.24999999999988
 31
0.0
  0
LINE
  5
5DAE
330
5C4D
100
AcDbEntity
  8
AM_5
 62
     3
100
AcDbLine
 10
17.126767291183
 20
9.750000000000111
 30
0.0
 11
17.12676729118305
 21
-9.749999999999886
 31
0.0
  0
INSERT
  5
5DAF
330
5C4D
100
AcDbEntity
  8
AM_5
 62
     3
100
AcDbBlockReference
  2
_OPEN30
 10
17.12676729118299
 20
12.25000000000011
 30
0.0
 41
2.5
 42
2.5
 43
2.5
 50
90.00000000000017
  0
INSERT
  5
5DB0
330
5C4D
100
AcDbEntity
  8
AM_5
 62
     3
100
AcDbBlockReference
  2
_OPEN30
 10
17.12676729118306
 20
-12.24999999999988
 30
0.0
 41
2.5
 42
2.5
 43
2.5
 50
270.0000000000001
  0
MTEXT
  5
5DB1
330
5C4D
100
AcDbEntity
  8
AM_5
 62
     2
100
AcDbMText
 10
13.72676729118302
 20
-0.0196808510637714
 30
0.0
 40
3.799999999999999
 41
0.0
 71
     5
 72
     1
  1
%%C24.5
 11
-0.0000000000000028
 21
1.0
 31
0.0
1001
ACAD
1000
MTEXTBEGIN
1070
    73
1070
     1
1070
    44
1040
1.0
1070
    74
1070
     0
1000
MTEXTEND
  0
POINT
  5
5DB2
330
5C4D
100
AcDbEntity
  8
DEFPOINTS
 62
     0
100
AcDbPoint
 10
-4.385841286463826
 20
12.25000000000006
 30
0.0
  0
POINT
  5
5DB3
330
5C4D
100
AcDbEntity
  8
DEFPOINTS
 62
     0
100
AcDbPoint
 10
-4.458635332711992
 20
-12.24999999999993
 30
0.0
  0
POINT
  5
5DB4
330
5C4D
100
AcDbEntity
  8
DEFPOINTS
 62
     0
100
AcDbPoint
 10
17.12676729118302
 20
-12.24999999999994
 30
0.0
  0
ENDBLK
  5
5C58
330
5C4D
100
AcDbEntity
  8
0
100
AcDbBlockEnd
  0
ENDSEC
  0
SECTION
  2
ENTITIES
  0
TEXT
  5
19BD
330
1F
100
AcDbEntity
  8
AM_6
100
AcDbText
 10
-111.0342545099359
 20
-77.98481983742672
 30
0.0
 40
5.0
  1
KDS245MAK
 50
0.0000000000001527
 72
     4
 11
-89.36758784326929
 21
-75.48481983742667
 31
0.0
100
AcDbText
  0
LINE
  5
35CA
330
1F
100
AcDbEntity
  8
PV0001_1
  6
CONTINUOUS
 48
0.5
100
AcDbLine
 10
-589.2017441852486
 20
-57.69694534177202
 30
0.0
 11
-567.9171279738763
 21
-62.69376548307545
 31
0.0
  0
LINE
  5
35D1
330
1F
100
AcDbEntity
  8
AM_7
100
AcDbLine
 10
4.745369175493294
 20
-0.0000000000001137
 30
0.0
 11
-181.4013070907853
 21
-0.0000000000005722
 31
0.0
  0
LINE
  5
35EA
330
1F
100
AcDbEntity
  8
PV0001_1
  6
CONTINUOUS
100
AcDbLine
 10
-173.5810069720446
 20
-15.96804658143518
 30
0.0
 11
-114.458635332712
 21
-15.96804658143505
 31
0.0
  0
LINE
  5
35EB
330
1F
100
AcDbEntity
  8
PV0001_1
  6
CONTINUOUS
100
AcDbLine
 10
-114.4586353327121
 20
16.03196623594717
 30
0.0
 11
-173.5810069720447
 21
16.03196623594704
 31
0.0
  0
LINE
  5
35F9
330
1F
100
AcDbEntity
  8
PV0001_1
  6
CONTINUOUS
 48
0.5
100
AcDbLine
 10
-173.6101245905441
 20
0.0319644048935146
 30
0.0
 11
-173.6101245905442
 21
16.03201201231596
 31
0.0
  0
LINE
  5
35FA
330
1F
100
AcDbEntity
  8
PV0001_1
  6
CONTINUOUS
 48
0.5
100
AcDbLine
 10
-174.4586353327121
 20
0.0319644048935146
 30
0.0
 11
-174.4586353327121
 21
15.183482959581
 31
0.0
  0
LINE
  5
35FB
330
1F
100
AcDbEntity
  8
PV0001_1
  6
CONTINUOUS
 48
0.5
100
AcDbLine
 10
-174.4585254694481
 20
15.18332731993373
 30
0.0
 11
-173.6099781061601
 21
16.03185637266636
 31
0.0
  0
LINE
  5
35FD
330
1F
100
AcDbEntity
  8
PV0001_1
  6
CONTINUOUS
 48
0.5
100
AcDbLine
 10
-174.4585254694479
 20
-15.11948090760649
 30
0.0
 11
-173.60997810616
 21
-15.96800996034144
 31
0.0
  0
LINE
  5
3601
330
1F
100
AcDbEntity
  8
PV0001_1
  6
CONTINUOUS
 48
0.5
100
AcDbLine
 10
-174.4586353327121
 20
0.0319644048935146
 30
0.0
 11
-174.458635332712
 21
-15.11955414979341
 31
0.0
  0
LINE
  5
3602
330
1F
100
AcDbEntity
  8
PV0001_1
  6
CONTINUOUS
 48
0.5
100
AcDbLine
 10
-173.6101245905441
 20
0.0319644048935146
 30
0.0
 11
-173.610124590544
 21
-15.96808320252894
 31
0.0
  0
DIMENSION
  5
36BA
330
1F
100
AcDbEntity
  8
AM_5
100
AcDbDimension
  2
*D8
 10
-2.547791618692583
 20
-7.000000000000091
 30
0.0
 11
28.96875379343816
 21
-0.0000000000000532
 31
0.0
 70
    34
  1
<>
 51
359.9999999999998
  3
AM_JIS$2
100
AcDb2LineAngularDimension
 13
0.0
 23
-0.0000000000000827
 33
0.0
 14
-2.547791618692619
 24
6.999999999999763
 34
0.0
 15
0.0
 25
-0.0000000000002274
 35
0.0
 16
29.44604624940567
 26
-12.70178452588532
 36
0.0
1001
ACAD
1000
DSTYLE
1002
{
1070
   179
1070
     3
1002
}
1001
GENIUS_GENDTOL_13
1000

1000
h7
1000

1040
0.0
  0
DIMENSION
  5
3866
330
1F
100
AcDbEntity
  8
AM_5
100
AcDbDimension
  2
*D9
 10
-196.150591932971
 20
-15.96786347911836
 30
0.0
 11
-199.550591932971
 21
0.0320742665987748
 31
0.0
 70
    32
  1
%%C<>
 51
359.9999999999998
  3
AM_JIS$0
100
AcDbAlignedDimension
 13
-173.5810069720447
 23
16.03201201231597
 33
0.0
 14
-173.5810069720446
 24
-15.96786347911837
 34
0.0
 50
270.0000000000002
100
AcDbRotatedDimension
1001
ACAD
1000
DSTYLE
1002
{
1070
   271
1070
     3
1002
}
1001
GENIUS_GENDTOL_13
1000

1000
h7
1000

1040
0.0
  0
LINE
  5
395A
330
1F
100
AcDbEntity
  8
PV0001_1
  6
CONTINUOUS
100
AcDbLine
 10
-114.458635332712
 20
-15.96804658143505
 30
0.0
 11
-114.4586353327121
 21
16.03196623594717
 31
0.0
  0
DIMENSION
  5
3C40
330
1F
100
AcDbEntity
  8
AM_5
100
AcDbDimension
  2
*D10
 10
-174.458635332712
 20
-43.18246173469462
 30
0.0
 11
-144.458635332712
 21
-39.78246173469462
 31
0.0
 70
    32
  1
<>
 51
359.9999999999998
  3
AM_JIS$0
100
AcDbAlignedDimension
 13
-114.458635332712
 23
-15.96804658143505
 33
0.0
 14
-174.458635332712
 24
-15.11955414979341
 34
0.0
 50
0.0000000000002658
100
AcDbRotatedDimension
1001
ACAD
1000
DSTYLE
1002
{
1070
   271
1070
     3
1002
}
1001
GENIUS_GENDTOL_13
1000

1000
h7
1000

1040
0.0
  0
DIMENSION
  5
3D56
330
1F
100
AcDbEntity
  8
AM_5
100
AcDbDimension
  2
*D11
 10
-168.4586466981146
 20
-31.47941722561881
 30
0.0
 11
-171.4585981000758
 21
-31.47941722561881
 31
0.0
 70
   160
  1
<>
 51
359.9999999999998
  3
AM_JIS$0
100
AcDbAlignedDimension
 13
-174.458549502037
 23
-11.81209445906769
 33
0.0
 14
-168.4586466981146
 24
-0.0000000000005267
 34
0.0
 50
0.0000000000002659
100
AcDbRotatedDimension
1001
ACAD
1000
DSTYLE
1002
{
1070
   271
1070
     3
1002
}
1001
GENIUS_GENDTOL_13
1000

1000
h7
1000

1040
0.0
  0
DIMENSION
  5
3DFD
330
1F
100
AcDbEntity
  8
AM_5
100
AcDbDimension
  2
*D12
 10
-118.4586353327121
 20
-31.4794172256186
 30
0.0
 11
-143.4586410154134
 21
-28.0794172256186
 31
0.0
 70
    32
  1
<>
 51
359.9999999999998
  3
AM_JIS$0
100
AcDbAlignedDimension
 13
-168.4586466981146
 23
-0.0000000000005267
 33
0.0
 14
-118.4586353327121
 24
-0.0000000000004169
 34
0.0
 50
0.0000000000002658
100
AcDbRotatedDimension
1001
ACAD
1000
DSTYLE
1002
{
1070
   271
1070
     3
1002
}
1001
GENIUS_GENDTOL_13
1000

1000
h7
1000

1040
0.0
  0
LINE
  5
48BA
330
1F
100
AcDbEntity
  8
PV0001_1
  6
CONTINUOUS
 48
0.5
100
AcDbLine
 10
-109.8694048183812
 20
15.42948913979972
 30
0.0
 11
-114.4586353327121
 21
16.03196623594717
 31
0.0
  0
DIMENSION
  5
53D8
330
1F
100
AcDbEntity
  8
AM_5
100
AcDbDimension
  2
*D13
 10
-174.4585254694479
 20
-55.4848198374264
 30
0.0
 11
-89.45858040108005
 21
-52.08481983742641
 31
0.0
 70
    32
  1
<>
 51
359.9999999999998
  3
AM_JIS$0
100
AcDbAlignedDimension
 13
-4.458635332712136
 23
-11.48936170212766
 33
0.0
 14
-174.4585254694479
 24
-15.11948090760649
 34
0.0
 50
359.9999999999999
100
AcDbRotatedDimension
1001
ACAD
1000
DSTYLE
1002
{
1070
   271
1070
     3
1002
}
1001
GENIUS_GENDTOL_13
1000

1000
h7
1000

1040
0.0
  0
DIMENSION
  5
53E5
330
1F
100
AcDbEntity
  8
AM_5
100
AcDbDimension
  2
*D14
 10
-114.458635332712
 20
-43.18246173469434
 30
0.0
 11
-59.45863533271207
 21
-39.78246173469434
 31
0.0
 70
    32
  1
<>
 51
359.9999999999998
  3
AM_JIS$0
100
AcDbAlignedDimension
 13
-4.458635332712058
 23
-11.48936170212766
 33
0.0
 14
-114.458635332712
 24
-15.96804658143505
 34
0.0
 50
359.9999999999998
100
AcDbRotatedDimension
1001
ACAD
1000
DSTYLE
1002
{
1070
   271
1070
     3
1002
}
1001
GENIUS_GENDTOL_13
1000

1000
h7
1000

1040
0.0
  0
DIMENSION
  5
53F2
330
1F
100
AcDbEntity
  8
AM_5
100
AcDbDimension
  2
*D15
 10
-90.45863533271154
 20
38.86304545844471
 30
0.0
 11
-47.45863533271169
 21
42.26304545844448
 31
0.0
 70
    32
  1
<>
 51
359.9999999999998
  3
AM_JIS$0
100
AcDbAlignedDimension
 13
-4.458635332712023
 23
12.93949874300804
 33
0.0
 14
-90.45863533271171
 24
8.010944075152025
 34
0.0
 50
179.9999999999998
100
AcDbRotatedDimension
1001
ACAD
1000
DSTYLE
1002
{
1070
   271
1070
     3
1002
}
1001
GENIUS_GENDTOL_13
1000

1000
h7
1000

1040
0.0
  0
DIMENSION
  5
53FF
330
1F
100
AcDbEntity
  8
AM_5
100
AcDbDimension
  2
*D16
 10
-83.45863533271142
 20
26.50046633607115
 30
0.0
 11
-43.95863533271164
 21
29.90046633607088
 31
0.0
 70
    32
  1
<>
 51
359.9999999999998
  3
AM_JIS$0
100
AcDbAlignedDimension
 13
-4.458635332712027
 23
11.48936170212751
 33
0.0
 14
-83.45863533271153
 24
11.68435729186896
 34
0.0
 50
179.9999999999998
100
AcDbRotatedDimension
1001
ACAD
1000
DSTYLE
1002
{
1070
   271
1070
     3
1002
}
1001
GENIUS_GENDTOL_13
1000

1000
h7
1000

1040
0.0
  0
LINE
  5
574B
330
1F
100
AcDbEntity
  8
PV0001_1
  6
CONTINUOUS
 48
0.5
100
AcDbLine
 10
-101.7075065197046
 20
-14.31954053585078
 30
0.0
 11
-114.458635332712
 21
-15.96804658143505
 31
0.0
  0
LINE
  5
5A5E
330
1F
100
AcDbEntity
  8
AM_0
100
AcDbLine
 10
-123.2998645154713
 20
4.841229182758819
 30
0.0
 11
-163.6174175153554
 21
4.841229182758713
 31
0.0
  0
LINE
  5
5A63
330
1F
100
AcDbEntity
  8
AM_0
100
AcDbLine
 10
-163.6174175153552
 20
-4.841229182759828
 30
0.0
 11
-123.2998645154713
 21
-4.841229182759718
 31
0.0
  0
ARC
  5
5A81
330
1F
100
AcDbEntity
  8
AM_0
100
AcDbCircle
 10
-163.6174175153554
 20
-0.0000000000005329
 30
0.0
 40
4.841229182759249
100
AcDbArc
 50
90.00000000000168
 51
270.0000000000017
  0
ARC
  5
5A82
330
1F
100
AcDbEntity
  8
AM_0
100
AcDbCircle
 10
-123.2998645154713
 20
-0.0000000000004263
 30
0.0
 40
4.841229182759249
100
AcDbArc
 50
270.0000000000001
 51
90.00000000000017
  0
ELLIPSE
  5
5B84
330
1F
100
AcDbEntity
  8
AM_0
100
AcDbEllipse
 10
-106.5986251060337
 20
-6.517152991058283
 30
0.0
 11
-4.607422417986317
 21
6.596559665218874
 31
0.0
210
0.0
220
0.0
230
1.0
 40
0.6967507690630869
 41
1.306425386174415
 42
2.113738024265773
  0
ELLIPSE
  5
5B85
330
1F
100
AcDbEntity
  8
AM_0
100
AcDbEllipse
 10
-104.1746344947631
 20
-7.882917557371484
 30
0.0
 11
-7.143553459628623
 21
3.301867074279228
 31
0.0
210
0.0
220
0.0
230
1.0
 40
0.7810730618817509
 41
1.365867478843268
 42
2.543432470713004
  0
ELLIPSE
  5
5B86
330
1F
100
AcDbEntity
  8
AM_0
100
AcDbEllipse
 10
-104.0587266016832
 20
4.915379162742723
 30
0.0
 11
22.61404241309763
 21
15.404427636328
 31
0.0
210
0.0
220
0.0
230
1.0
 40
0.6750773870045622
 41
4.456426888298989
 42
4.723452661855453
  0
ELLIPSE
  5
5B88
330
1F
100
AcDbEntity
  8
AM_0
100
AcDbEllipse
 10
-109.8630017616107
 20
-11.98485179527405
 30
0.0
 11
-11.00862580058636
 21
0.0714078564102366
 31
0.0
210
0.0
220
0.0
230
1.0
 40
0.7396579576255848
 41
3.987441717396575
 42
4.667374790365575
  0
ELLIPSE
  5
5B89
330
1F
100
AcDbEntity
  8
AM_0
100
AcDbEllipse
 10
-109.5480942764469
 20
-6.477237268547675
 30
0.0
 11
2.67911666951285
 21
1.437269487516718
 31
0.0
210
0.0
220
0.0
230
1.0
 40
0.823175642732847
 41
1.075220401277609
 42
3.13148860589524
  0
ELLIPSE
  5
5B8A
330
1F
100
AcDbEntity
  8
AM_0
100
AcDbEllipse
 10
-80.78310708089231
 20
29.24449483127154
 30
0.0
 11
15.86383071447567
 21
38.25244655636396
 31
0.0
210
0.0
220
0.0
230
1.0
 40
0.9520178836903102
 41
2.973268490811883
 42
3.510227027994672
  0
DIMENSION
  5
5C4C
330
1F
100
AcDbEntity
  8
AM_5
100
AcDbDimension
  2
*D17
 10
17.12676729118302
 20
-12.24999999999994
 30
0.0
 11
17.12676729118302
 21
-0.0196808510638117
 31
0.0
 70
   160
  1
%%C<>
 51
359.9999999999998
  3
AM_JIS$0
100
AcDbAlignedDimension
 13
-4.385841286463826
 23
12.25000000000006
 33
0.0
 14
-4.458635332711992
 24
-12.24999999999993
 34
0.0
 50
89.99999999999808
100
AcDbRotatedDimension
1001
GENIUS_GENDTOL_13
1000

1000
h7
1000

1040
0.0
1001
ACAD
1000
DSTYLE
1002
{
1070
   271
1070
     3
1002
}
  0
LINE
  5
5D44
330
1F
100
AcDbEntity
  8
PV0001_1
  6
CONTINUOUS
 48
0.5
100
AcDbLine
 10
-0.0000000000000284
 20
0.0000000000000665
 30
0.0
 11
-4.458635332712287
 21
12.25000000000006
 31
0.0
  0
LINE
  5
5D45
330
1F
100
AcDbEntity
  8
PV0001_1
  6
CONTINUOUS
 48
0.5
100
AcDbLine
 10
-0.0000000000000284
 20
-0.0000000000001254
 30
0.0
 11
-4.458635332711992
 21
-12.24999999999993
 31
0.0
  0
LINE
  5
5D6E
330
1F
100
AcDbEntity
  8
PV0001_1
  6
CONTINUOUS
 48
0.5
100
AcDbLine
 10
-3.864151188628449
 20
10.61666822433385
 30
0.0
 11
-17.78233392367349
 21
10.61666822433462
 31
0.0
  0
LINE
  5
5D6F
330
1F
100
AcDbEntity
  8
PV0001_1
  6
CONTINUOUS
 48
0.5
100
AcDbLine
 10
-17.7793472918584
 20
12.25000000000075
 30
0.0
 11
-4.458635332712287
 21
12.25000000000006
 31
0.0
  0
LINE
  5
5D70
330
1F
100
AcDbEntity
  8
PV0001_1
  6
CONTINUOUS
 48
0.5
100
AcDbLine
 10
-15.43566010644509
 20
4.053148030140084
 30
0.0
 11
-9.254595499940661
 21
1.381406034520056
 31
0.0
  0
ELLIPSE
  5
5D71
330
1F
100
AcDbEntity
  8
AM_0
100
AcDbEllipse
 10
-5.633822564289404
 20
4.957529056362416
 30
0.0
 11
3.718195154449146
 21
3.475202599965026
 31
0.0
210
0.0
220
0.0
230
1.0
 40
0.9242645132184035
 41
3.171413055300802
 42
5.147554489328876
  0
LINE
  5
5D73
330
1F
100
AcDbEntity
  8
AM_0
100
AcDbLine
 10
-2.457622828859835
 20
-3.031452195449563
 30
0.0
 11
-6.446683948367895
 21
-5.642899882804144
 31
0.0
  0
LINE
  5
5D74
330
1F
100
AcDbEntity
  8
PV0001_1
  6
CONTINUOUS
 48
0.5
100
AcDbLine
 10
-18.85862999050263
 20
-10.57954545454464
 30
0.0
 11
-4.473298351262235
 21
-10.57954545454538
 31
0.0
  0
LINE
  5
5D75
330
1F
100
AcDbEntity
  8
PV0001_1
  6
CONTINUOUS
 48
0.5
100
AcDbLine
 10
-2.457622828859835
 20
-3.031452195449563
 30
0.0
 11
-4.458635332712097
 21
-10.57954545454538
 31
0.0
  0
LINE
  5
5D77
330
1F
100
AcDbEntity
  8
PV0001_1
  6
CONTINUOUS
 48
0.5
100
AcDbLine
 10
-9.254595499940249
 20
1.38140603451959
 30
0.0
 11
-4.473298351262235
 21
-10.57954545454538
 31
0.0
  0
LINE
  5
5D78
330
1F
100
AcDbEntity
  8
AM_0
100
AcDbLine
 10
-3.195774047608538
 20
0.9174358880689707
 30
0.0
 11
-2.457622828859835
 21
-3.031452195449563
 31
0.0
  0
LINE
  5
5D7F
330
1F
100
AcDbEntity
  8
PV0001_1
  6
CONTINUOUS
 48
0.5
100
AcDbLine
 10
-90.45863533271271
 20
-10.95355648452487
 30
0.0
 11
-90.45863533271171
 21
8.010944075152025
 31
0.0
  0
LINE
  5
5D80
330
1F
100
AcDbEntity
  8
AM_11
 48
0.5
100
AcDbLine
 10
-83.45863533271275
 20
-12.07746478872731
 30
0.0
 11
-83.45863533271151
 21
11.80689203740743
 31
0.0
  0
LINE
  5
5D81
330
1F
100
AcDbEntity
  8
PV0001_1
  6
CONTINUOUS
 48
0.5
100
AcDbLine
 10
-82.38584128646436
 20
-12.07746478872733
 30
0.0
 11
-48.90774002108289
 21
-12.07746478872944
 31
0.0
  0
LINE
  5
5D85
330
1F
100
AcDbEntity
  8
PV0001_1
  6
CONTINUOUS
 48
0.5
100
AcDbLine
 10
-18.85862999050269
 20
-12.24999999999912
 30
0.0
 11
-4.458635332711992
 21
-12.24999999999993
 31
0.0
  0
ELLIPSE
  5
5EBC
330
1F
100
AcDbEntity
  8
AM_0
100
AcDbEllipse
 10
-119.5365981473478
 20
-66.77468453395674
 30
0.0
 11
-69.41635415807306
 21
61.67023474606208
 31
0.0
210
0.0
220
0.0
230
1.0
 40
0.8492942161550461
 41
-1.434744064873783
 42
-1.035740419540971
  0
SPLINE
  5
5EBD
330
1F
100
AcDbEntity
  8
PV0001_1
  6
CONTINUOUS
100
AcDbSpline
210
0.0
220
0.0
230
1.0
 70
     8
 71
     3
 72
    54
 73
    50
 74
     0
 42
0.0000000001
 43
0.0000000001
 40
0.8937596859602537
 40
0.8937596859602537
 40
0.8937596859602537
 40
0.8937596859602537
 40
1.010743684496582
 40
2.022833576467832
 40
3.037578957496688
 40
4.056212745003489
 40
5.079857003664532
 40
6.109500240690281
 40
7.145961322679372
 40
8.189895241603872
 40
9.241717795325891
 40
10.30168407291828
 40
11.36983447792315
 40
12.44600489715814
 40
13.52984294512926
 40
14.62081576220742
 40
15.7182257034828
 40
16.82123173843959
 40
17.92886860250316
 40
19.0400688939571
 40
20.15368796660465
 40
21.26852814259644
 40
22.38336992938901
 40
23.49698739941135
 40
24.6081876908653
 40
25.71582455492886
 40
26.81883757994213
 40
27.91624752121713
 40
29.00722033829659
 40
30.09105838626677
 40
31.16722880550176
 40
32.23537921050758
 40
33.29534548809967
 40
34.347168041821
 40
35.39108718934584
 40
36.42754827133493
 40
37.45720575381954
 40
38.48085062012849
 40
39.49948440763516
 40
40.51422944315121
 40
41.52631975251916
 40
42.53706336719636
 40
43.54780698187354
 40
44.55989729124051
 40
45.57464232675757
 40
46.59327611426424
 40
47.6169209805722
 40
48.64656348684535
 40
49.0954209486535
 40
49.0954209486535
 40
49.0954209486535
 40
49.0954209486535
 10
-18.85862999050269
 20
-12.07746478873232
 30
0.0
 10
-21.35438451094409
 20
-12.0448477958651
 30
0.0
 10
-21.93120723607505
 20
-12.02099234229412
 30
0.0
 10
-23.02562586399226
 20
-11.93800523779507
 30
0.0
 10
-24.57624215595963
 20
-11.75107662507256
 30
0.0
 10
-26.12676248000203
 20
-11.48908906491229
 30
0.0
 10
-27.67717136436738
 20
-11.1555929910508
 30
0.0
 10
-29.22743822295491
 20
-10.75207140738351
 30
0.0
 10
-30.77756824133854
 20
-10.45377779039245
 30
0.0
 10
-32.32754767299768
 20
-9.918524848013003
 30
0.0
 10
-33.87736595974757
 20
-9.322134212107741
 30
0.0
 10
-35.42703082657557
 20
-8.66834936504882
 30
0.0
 10
-36.97654642379335
 20
-7.961171514920522
 30
0.0
 10
-38.52593211135702
 20
-7.20500302347612
 30
0.0
 10
-40.07519498293151
 20
-6.40449070810849
 30
0.0
 10
-41.62434940442515
 20
-5.564571407439156
 30
0.0
 10
-43.17341255617027
 20
-4.690426752806073
 30
0.0
 10
-44.72239803357211
 20
-3.787432320246404
 30
0.0
 10
-46.27132086971115
 20
-2.861141876794931
 30
0.0
 10
-47.82019763872011
 20
-1.91725663008137
 30
0.0
 10
-49.36904192572237
 20
-0.9615791987004486
 30
0.0
 10
-50.91787560279861
 20
-0.0000024994423078
 30
0.0
 10
-52.46670232690767
 20
0.9615915087956921
 30
0.0
 10
-54.01555180529842
 20
1.917254057751303
 30
0.0
 10
-55.56442666219821
 20
2.861142161551538
 30
0.0
 10
-57.11335226004958
 20
3.787436133756739
 30
0.0
 10
-58.66234416338611
 20
4.690422860002887
 30
0.0
 10
-60.21140975996221
 20
5.564571947765769
 30
0.0
 10
-61.76056440510225
 20
6.404490567347063
 30
0.0
 10
-63.3098272203039
 20
7.205003051059409
 30
0.0
 10
-64.85921291183496
 20
7.795679330031877
 30
0.0
 10
-66.4087285485201
 20
8.502857011062955
 30
0.0
 10
-67.95839325540588
 20
9.156642525696012
 30
0.0
 10
-69.50820488160612
 20
9.753027895479752
 30
0.0
 10
-71.05817472843267
 20
10.28828784833714
 30
0.0
 10
-72.6083041717985
 20
10.75912614437151
 30
0.0
 10
-74.15858209981095
 20
11.16260164027253
 30
0.0
 10
-75.70899610628919
 20
11.49620093821811
 30
0.0
 10
-77.25951688997517
 20
11.75787794594186
 30
0.0
 10
-78.81013425935788
 20
11.94594170803458
 30
0.0
 10
-80.36081542931981
 20
12.05926402653226
 30
0.0
 10
-81.91153067456003
 20
12.09712126341472
 30
0.0
 10
-83.46224591751857
 20
12.05926402647323
 30
0.0
 10
-85.01292709433876
 20
11.94594170827304
 30
0.0
 10
-86.56354443847126
 20
11.75787794504515
 30
0.0
 10
-88.11406531682649
 20
11.49620094159129
 30
0.0
 10
-89.66447140884371
 20
11.16260325394303
 30
0.0
 10
-90.91991491326387
 20
10.83586214274766
 30
0.0
 10
-91.65823253778498
 20
10.62076441272101
 30
0.0
 10
-93.74840027453338
 20
9.774099945502948
 30
0.0
  0
LINE
  5
5EBE
330
1F
100
AcDbEntity
  8
PV0001_1
  6
CONTINUOUS
 48
0.5
100
AcDbLine
 10
-82.70903734737737
 20
12.07746478873718
 30
0.0
 11
-42.23995720919634
 21
12.07746478873426
 31
0.0
  0
SPLINE
  5
5EBF
330
1F
100
AcDbEntity
  8
PV0001_1
  6
CONTINUOUS
100
AcDbSpline
210
0.0
220
0.0
230
1.0
 70
     8
 71
     3
 72
    25
 73
    21
 74
     0
 42
0.0000000001
 43
0.0000000001
 40
24.56499986022253
 40
24.56499986022253
 40
24.56499986022253
 40
24.56499986022253
 40
24.6081876908653
 40
25.71582455492886
 40
26.81883757994213
 40
27.91624752121713
 40
29.00722033829659
 40
30.09105838626677
 40
31.16722880550176
 40
32.23537921050758
 40
33.29534548809967
 40
34.347168041821
 40
35.39108718934584
 40
36.42754827133493
 40
37.45720575381954
 40
38.48085062012849
 40
39.49948440763516
 40
40.51422944315121
 40
41.52631975251916
 40
42.53706336680078
 40
42.53706336680078
 40
42.53706336680078
 40
42.53706336680078
 10
-15.43566010644509
 20
4.053148030140084
 30
0.0
 10
-15.45630273946657
 20
4.064351151946647
 30
0.0
 10
-16.00639492750623
 20
4.362781846985252
 30
0.0
 10
-17.08523863452735
 20
4.942034797587611
 30
0.0
 10
-18.67429686415859
 20
5.772489424415696
 30
0.0
 10
-20.26209632834135
 20
6.574133804220706
 30
0.0
 10
-21.84840320210531
 20
7.341580156956628
 30
0.0
 10
-23.43299745612663
 20
8.069657458668887
 30
0.0
 10
-25.00769402623828
 20
8.581081490389767
 30
0.0
 10
-26.58822850140838
 20
9.215911982473333
 30
0.0
 10
-28.16644501935744
 20
9.797400439266514
 30
0.0
 10
-29.74215625162168
 20
10.32154326189591
 30
0.0
 10
-31.31520136939846
 20
10.78461863442525
 30
0.0
 10
-32.88542945157905
 20
11.18333377350776
 30
0.0
 10
-34.45269350904609
 20
11.51475119014
 30
0.0
 10
-36.01686502282042
 20
11.77636074380852
 30
0.0
 10
-37.5778201877191
 20
11.96611988111054
 30
0.0
 10
-39.13618960108344
 20
12.06221167993726
 30
0.0
 10
-40.6897316720965
 20
12.07746478873382
 30
0.0
 10
-41.72383336576284
 20
12.07746478873389
 30
0.0
 10
-42.23995720919633
 20
12.07746478873429
 30
0.0
  0
SPLINE
  5
5EC0
330
1F
100
AcDbEntity
  8
PV0001_1
  6
CONTINUOUS
 48
0.5
100
AcDbSpline
210
0.0
220
0.0
230
1.0
 70
     8
 71
     3
 72
    15
 73
    11
 74
     0
 42
0.0000000001
 43
0.0000000001
 40
0.0
 40
0.0
 40
0.0
 40
0.0
 40
1.010743614677189
 40
2.022833924044153
 40
3.037578959561199
 40
4.056212747067873
 40
5.079857613375832
 40
6.109500119648989
 40
7.14596120163808
 40
7.300213231880061
 40
7.300213231880061
 40
7.300213231880061
 40
7.300213231880061
 10
-17.77934729185841
 20
12.07746478873239
 30
0.0
 10
-18.29599417965664
 20
12.07739117665382
 30
0.0
 10
-19.33007588664398
 20
12.0522552485691
 30
0.0
 10
-20.88074011110003
 20
11.93888946945368
 30
0.0
 10
-22.43136206893102
 20
11.75083759119502
 30
0.0
 10
-23.98188150014499
 20
11.4891566491893
 30
0.0
 10
-25.5322887498917
 20
11.15556279294035
 30
0.0
 10
-27.08255736893284
 20
10.75207834936125
 30
0.0
 10
-28.1892453418346
 20
10.41593514419499
 30
0.0
 10
-28.78029094208823
 20
10.2223815110347
 30
0.0
 10
-29.11443908075598
 20
10.10996105148831
 30
0.0
  0
LINE
  5
5EC1
330
1F
100
AcDbEntity
  8
AM_11
 48
0.5
100
AcDbLine
 10
-42.23995720919634
 20
12.07746478873392
 30
0.0
 11
-17.77934729185841
 21
12.07746478873239
 31
0.0
  0
LINE
  5
5EC2
330
1F
100
AcDbEntity
  8
AM_0
100
AcDbLine
 10
-18.85862999050269
 20
-12.22354350305617
 30
0.0
 11
-18.85862999050203
 21
5.532713925528684
 31
0.0
  0
SPLINE
  5
5EC3
330
1F
100
AcDbEntity
  8
PV0001_1
  6
CONTINUOUS
100
AcDbSpline
210
0.0
220
0.0
230
1.0
 70
     8
 71
     3
 72
    11
 73
     7
 74
     0
 42
0.0000000001
 43
0.0000000001
 40
11.27226913003534
 40
11.27226913003534
 40
11.27226913003534
 40
11.2722691300354
 40
12.28301561507924
 40
13.29510212255852
 40
14.30984805882082
 40
15.18258238371378
 40
15.18258238371378
 40
15.18258238371378
 40
15.18258238371378
 10
-48.907740021083
 20
-12.06297784288116
 30
0.0
 10
-49.42245087717918
 20
-12.0030227830545
 30
0.0
 10
-50.49857080938738
 20
-11.98877346257962
 30
0.0
 10
-52.05688325998482
 20
-11.77083417483357
 30
0.0
 10
-53.67460793371452
 20
-11.40237751660661
 30
0.0
 10
-54.61819511004752
 20
-11.13353870981426
 30
0.0
 10
-55.05302694952201
 20
-11.00073976485441
 30
0.0
  0
SPLINE
  5
5EC4
330
1F
100
AcDbEntity
  8
PV0001_1
  6
CONTINUOUS
100
AcDbSpline
210
0.0
220
0.0
230
1.0
 70
     8
 71
     3
 72
    17
 73
    13
 74
     0
 42
0.0000000001
 43
0.0000000001
 40
1.580019955310467
 40
1.580019955310467
 40
1.580019955310467
 40
1.580019955310467
 40
2.030549285115227
 40
3.082371838836284
 40
4.126290986361125
 40
5.162752068350215
 40
6.192395305374981
 40
7.216039564037012
 40
8.234688489606833
 40
9.249433870634691
 40
10.26152376260694
 40
11.27226744710342
 40
11.27226744710342
 40
11.27226744710342
 40
11.27226744710352
 10
-34.52852162291725
 20
-9.040860720730288
 30
0.0
 10
-34.74791731126674
 20
-9.133974075568431
 30
0.0
 10
-35.48077261901104
 20
-9.439165533115733
 30
0.0
 10
-36.7319383698413
 20
-9.917869254219073
 30
0.0
 10
-38.28169224280577
 20
-10.45395391746238
 30
0.0
 10
-39.83187276156036
 20
-10.9245650749467
 30
0.0
 10
-41.38212430904522
 20
-11.3281223086345
 30
0.0
 10
-42.93254475365787
 20
-11.6616901237195
 30
0.0
 10
-44.27216865809877
 20
-11.90129707149511
 30
0.0
 10
-45.81367011148526
 20
-12.00190498767914
 30
0.0
 10
-47.3570252997233
 20
-12.03771579879019
 30
0.0
 10
-48.39106451032979
 20
-12.06297791297676
 30
0.0
 10
-48.90774002108289
 20
-12.06297784288116
 30
0.0
  0
LINE
  5
5EC5
330
1F
100
AcDbEntity
  8
AM_11
 48
0.5
100
AcDbLine
 10
-53.6920509139626
 20
-12.07746478873015
 30
0.0
 11
-18.85862999050269
 21
-12.07746478873232
 31
0.0
  0
LINE
  5
5EC6
330
1F
100
AcDbEntity
  8
AM_0
100
AcDbLine
 10
-17.83356887928081
 20
5.332065847913712
 30
0.0
 11
-17.76757612403754
 21
12.25000000000025
 31
0.0
  0
SPLINE
  5
5EC7
330
1F
100
AcDbEntity
  8
PV0001_1
  6
CONTINUOUS
100
AcDbSpline
210
0.0
220
0.0
230
1.0
 70
     8
 71
     3
 72
    22
 73
    18
 74
     0
 42
0.0000000001
 43
0.0000000001
 40
17.17441611292
 40
17.17441611292
 40
17.17441611292
 40
17.17441611292
 40
17.38177636558528
 40
18.41823744757437
 40
19.46215659509824
 40
20.51397914882054
 40
21.57394542641293
 40
22.64209583141747
 40
23.71826625065247
 40
24.80210429862395
 40
25.8930771157021
 40
26.99048705697709
 40
28.09349309193389
 40
29.20112995599786
 40
30.31233024745139
 40
31.42594771747373
 40
32.5407895042663
 40
32.54078950426994
 40
32.54078950426994
 40
32.54078950426994
 10
-55.0537051164209
 20
-11.00058866119782
 30
0.0
 10
-55.15754102404191
 20
-10.9722311126998
 30
0.0
 10
-55.7799805821377
 20
-10.79950218524012
 30
0.0
 10
-56.92025477823984
 20
-10.45315820451255
 30
0.0
 10
-58.47022440342963
 20
-9.917896713848982
 30
0.0
 10
-60.02003608996827
 20
-9.321511761623327
 30
0.0
 10
-61.56970077943936
 20
-8.667726130582309
 30
0.0
 10
-63.11921642484343
 20
-7.960548493279867
 30
0.0
 10
-64.66860209892144
 20
-7.204379942935438
 30
0.0
 10
-66.21786497576458
 20
-6.403867648160968
 30
0.0
 10
-67.76701938973842
 20
-5.563948324415461
 30
0.0
 10
-69.31608256645805
 20
-4.689803741913259
 30
0.0
 10
-70.89265812981466
 20
-3.894692654498942
 30
0.0
 10
-72.3929619318032
 20
-2.977485391468026
 30
0.0
 10
-73.92297478865586
 20
-2.054387948495978
 30
0.0
 10
-75.44915130987752
 20
-1.043281343359926
 30
0.0
 10
-76.41468865565101
 20
-0.4016953702124917
 30
0.0
 10
-77.06054381181459
 20
0.0006230672265456
 30
0.0
  0
VIEWPORT
  5
110
330
101
100
AcDbEntity
 67
     1
  8
0
100
AcDbViewport
 10
420.5
 20
297.0
 30
0.0
 40
948.9782706766916
 41
628.452
 68
     1
 69
     1
1001
ACAD
1000
MVIEW
1002
{
1070
    16
1010
0.0
1020
0.0
1030
0.0
1010
0.0
1020
0.0
1030
1.0
1040
0.0
1040
628.452
1040
420.5
1040
297.0
1040
50.0
1040
0.0
1040
0.0
1070
     0
1070
   100
1070
     1
1070
     1
1070
     0
1070
     0
1070
     0
1070
     0
1040
0.0
1040
0.0
1040
0.0
1040
10.0
1040
10.0
1040
10.0
1040
10.0
1070
     0
1002
{
1002
}
1002
}
  0
ENDSEC
  0
SECTION
  2
OBJECTS
  0
DICTIONARY
  5
C
330
0
100
AcDbDictionary
  3
ACAD_GROUP
350
D
  3
ACAD_LAYOUT
350
1A
  3
ACAD_MLINESTYLE
350
17
  3
ACAD_PLOTSETTINGS
350
19
  3
ACAD_PLOTSTYLENAME
350
E
  3
ACDBVARIABLEDICTIONARY
350
34
  3
ACMDICTIONARY
350
43
  3
AMG
350
2B
  3
AMGSNAPSETTINGS
350
6E
  3
DWGPROPS
350
5F0B
  3
ACDBHEADERROUNDTRIPXREC
350
5F1B
  0
DICTIONARY
  5
74
330
1F
100
AcDbDictionary
280
     1
  3
ACAD_INDEX
360
5F0D
  3
ACAD_LAYOUTSELFREF
360
5F3E
  0
DICTIONARY
  5
5F43
330
101
100
AcDbDictionary
280
     1
  3
ACAD_LAYOUTSELFREF
360
5F44
  0
DICTIONARY
  5
D
102
{ACAD_REACTORS
330
C
102
}
330
C
100
AcDbDictionary
  0
DICTIONARY
  5
1A
102
{ACAD_REACTORS
330
C
102
}
330
C
100
AcDbDictionary
  0
DICTIONARY
  5
17
102
{ACAD_REACTORS
330
C
102
}
330
C
100
AcDbDictionary
  3
STANDARD
350
18
  0
DICTIONARY
  5
19
102
{ACAD_REACTORS
330
C
102
}
330
C
100
AcDbDictionary
  0
ACDBDICTIONARYWDFLT
  5
E
102
{ACAD_REACTORS
330
C
102
}
330
C
100
AcDbDictionary
281
     1
  3
Normal
350
F
100
AcDbDictionaryWithDefault
340
F
  0
DICTIONARY
  5
34
102
{ACAD_REACTORS
330
C
102
}
330
C
100
AcDbDictionary
  3
INDEXCTL
350
35
  3
SORTENTS
350
B5E
  0
DICTIONARY
  5
43
102
{ACAD_REACTORS
330
C
102
}
330
C
100
AcDbDictionary
  3
ACMSTDDICTIONARY
350
260
  0
DICTIONARY
  5
2B
102
{ACAD_REACTORS
330
C
102
}
330
C
100
AcDbDictionary
  3
ACMGSETTINGS
350
2C
  0
DICTIONARY
  5
6E
102
{ACAD_REACTORS
330
C
102
}
330
C
100
AcDbDictionary
  0
XRECORD
  5
5F0B
102
{ACAD_REACTORS
330
C
102
}
330
C
100
AcDbXrecord
  1
DWGPROPS COOKIE
  2

  3

  4

  6

  7

  8

  9

300
AmdtFileType=82
301
=
302
=
303
=
304
=
305
=
306
=
307
=
308
=
309
=
 40
0.7520378587962963
 41
2452800.443498622
 42
2453002.910397489
  1

 90
        1
  0
DICTIONARY
  5
5F1B
102
{ACAD_REACTORS
330
C
102
}
330
C
100
AcDbDictionary
  3
TSTACKALIGN
350
5F1C
  3
TSTACKSIZE
350
5F1D
  3
HYPERLINKBASE
350
5F1E
  3
STYLESHEET
350
5F1F
  3
LAYOUTDICT
350
5F20
  3
PLOTSETDICT
350
5F21
  3
PLOTSTYLNAMDICT
350
5F22
  3
LWETCUNION
350
5F23
  3
INSUNITS
350
5F24
  3
CEPSNTYPE
350
5F25
  3
FINGERPRINTGUID
350
5F26
  3
VERSIONGUID
350
5F27
  3
PSVPSCALE
350
5F28
  3
DIMSTYLEDATA
350
5F29
  3
PUCSORTHOREF
350
5F2A
  3
PUCSORTHOVIEW
350
5F2B
  3
PUCSBASE
350
5F2C
  3
PUCSORGTOP
350
5F2D
  3
PUCSORGBOTTOM
350
5F2E
  3
PUCSORGLEFT
350
5F2F
  3
PUCSORGRIGHT
350
5F30
  3
PUCSORGFRONT
350
5F31
  3
PUCSORGBACK
350
5F32
  3
UCSORTHOREF
350
5F33
  3
UCSORTHOVIEW
350
5F34
  3
UCSBASE
350
5F35
  3
UCSORGTOP
350
5F36
  3
UCSORGBOTTOM
350
5F37
  3
UCSORGLEFT
350
5F38
  3
UCSORGRIGHT
350
5F39
  3
UCSORGFRONT
350
5F3A
  3
UCSORGBACK
350
5F3B
  0
DICTIONARY
  5
5F0D
102
{ACAD_REACTORS
330
74
102
}
330
74
100
AcDbDictionary
  3
*A1
350
5F0E
  0
XRECORD
  5
5F3E
102
{ACAD_REACTORS
330
74
102
}
330
74
100
AcDbXrecord
340
1F
  0
XRECORD
  5
5F44
102
{ACAD_REACTORS
330
5F43
102
}
330
5F43
100
AcDbXrecord
340
101
  0
MLINESTYLE
  5
18
102
{ACAD_REACTORS
330
17
102
}
330
17
100
AcDbMlineStyle
  2
STANDARD
 70
     0
  3

 62
   256
 51
90.0
 52
90.0
 71
     2
 49
0.5
 62
   256
  6
BYLAYER
 49
-0.5
 62
   256
  6
BYLAYER
  0
ACDBPLACEHOLDER
  5
F
102
{ACAD_REACTORS
330
E
102
}
330
E
100
AcDbPlaceHolder
280
     0
  0
DICTIONARYVAR
  5
35
102
{ACAD_REACTORS
330
34
102
}
330
34
100
DictionaryVariables
280
     0
  1
1
  0
DICTIONARYVAR
  5
B5E
102
{ACAD_REACTORS
330
34
102
}
330
34
100
DictionaryVariables
280
     0
  1
96
  0
DICTIONARY
  5
260
102
{ACAD_REACTORS
330
43
102
}
330
43
100
AcDbDictionary
  0
DICTIONARY
  5
2C
102
{ACAD_REACTORS
330
2B
102
}
330
2B
100
AcDbDictionary
  3
DWGSETTINGS
350
2D
  0
XRECORD
  5
5F1C
102
{ACAD_REACTORS
330
5F1B
102
}
330
5F1B
100
AcDbXrecord
 90
        1
  0
XRECORD
  5
5F1D
102
{ACAD_REACTORS
330
5F1B
102
}
330
5F1B
100
AcDbXrecord
 90
       70
  0
XRECORD
  5
5F1E
102
{ACAD_REACTORS
330
5F1B
102
}
330
5F1B
100
AcDbXrecord
  1

  0
XRECORD
  5
5F1F
102
{ACAD_REACTORS
330
5F1B
102
}
330
5F1B
100
AcDbXrecord
  1
ASAMI.ctb
  0
XRECORD
  5
5F20
102
{ACAD_REACTORS
330
5F1B
102
}
330
5F1B
100
AcDbXrecord
340
1A
  0
XRECORD
  5
5F21
102
{ACAD_REACTORS
330
5F1B
102
}
330
5F1B
100
AcDbXrecord
340
19
  0
XRECORD
  5
5F22
102
{ACAD_REACTORS
330
5F1B
102
}
330
5F1B
100
AcDbXrecord
340
E
  0
XRECORD
  5
5F23
102
{ACAD_REACTORS
330
5F1B
102
}
330
5F1B
100
AcDbXrecord
 90
    10781
  0
XRECORD
  5
5F24
102
{ACAD_REACTORS
330
5F1B
102
}
330
5F1B
100
AcDbXrecord
 90
        4
  0
XRECORD
  5
5F25
102
{ACAD_REACTORS
330
5F1B
102
}
330
5F1B
100
AcDbXrecord
 90
        0
  0
XRECORD
  5
5F26
102
{ACAD_REACTORS
330
5F1B
102
}
330
5F1B
100
AcDbXrecord
  1
{AFB28963-8C59-40AE-9337-C84526B81ACE}
  0
XRECORD
  5
5F27
102
{ACAD_REACTORS
330
5F1B
102
}
330
5F1B
100
AcDbXrecord
  1
{426832ED-B95B-40C6-B19F-718080883C11}
  0
XRECORD
  5
5F28
102
{ACAD_REACTORS
330
5F1B
102
}
330
5F1B
100
AcDbXrecord
 40
0.0
  0
XRECORD
  5
5F29
102
{ACAD_REACTORS
330
5F1B
102
}
330
5F1B
100
AcDbXrecord
1000
DSTYLE
1002
{
1070
    79
 70
     2
1070
   341
340
59
1070
   342
340
59
1070
   371
 70
    -1
1070
   372
 70
    -1
1002
}
  0
XRECORD
  5
5F2A
102
{ACAD_REACTORS
330
5F1B
102
}
330
5F1B
100
AcDbXrecord
340
0
  0
XRECORD
  5
5F2B
102
{ACAD_REACTORS
330
5F1B
102
}
330
5F1B
100
AcDbXrecord
 70
     0
  0
XRECORD
  5
5F2C
102
{ACAD_REACTORS
330
5F1B
102
}
330
5F1B
100
AcDbXrecord
340
0
  0
XRECORD
  5
5F2D
102
{ACAD_REACTORS
330
5F1B
102
}
330
5F1B
100
AcDbXrecord
 10
0.0
 20
0.0
 30
0.0
  0
XRECORD
  5
5F2E
102
{ACAD_REACTORS
330
5F1B
102
}
330
5F1B
100
AcDbXrecord
 10
0.0
 20
0.0
 30
0.0
  0
XRECORD
  5
5F2F
102
{ACAD_REACTORS
330
5F1B
102
}
330
5F1B
100
AcDbXrecord
 10
0.0
 20
0.0
 30
0.0
  0
XRECORD
  5
5F30
102
{ACAD_REACTORS
330
5F1B
102
}
330
5F1B
100
AcDbXrecord
 10
0.0
 20
0.0
 30
0.0
  0
XRECORD
  5
5F31
102
{ACAD_REACTORS
330
5F1B
102
}
330
5F1B
100
AcDbXrecord
 10
0.0
 20
0.0
 30
0.0
  0
XRECORD
  5
5F32
102
{ACAD_REACTORS
330
5F1B
102
}
330
5F1B
100
AcDbXrecord
 10
0.0
 20
0.0
 30
0.0
  0
XRECORD
  5
5F33
102
{ACAD_REACTORS
330
5F1B
102
}
330
5F1B
100
AcDbXrecord
340
0
  0
XRECORD
  5
5F34
102
{ACAD_REACTORS
330
5F1B
102
}
330
5F1B
100
AcDbXrecord
 70
     0
  0
XRECORD
  5
5F35
102
{ACAD_REACTORS
330
5F1B
102
}
330
5F1B
100
AcDbXrecord
340
0
  0
XRECORD
  5
5F36
102
{ACAD_REACTORS
330
5F1B
102
}
330
5F1B
100
AcDbXrecord
 10
0.0
 20
0.0
 30
0.0
  0
XRECORD
  5
5F37
102
{ACAD_REACTORS
330
5F1B
102
}
330
5F1B
100
AcDbXrecord
 10
0.0
 20
0.0
 30
0.0
  0
XRECORD
  5
5F38
102
{ACAD_REACTORS
330
5F1B
102
}
330
5F1B
100
AcDbXrecord
 10
0.0
 20
0.0
 30
0.0
  0
XRECORD
  5
5F39
102
{ACAD_REACTORS
330
5F1B
102
}
330
5F1B
100
AcDbXrecord
 10
0.0
 20
0.0
 30
0.0
  0
XRECORD
  5
5F3A
102
{ACAD_REACTORS
330
5F1B
102
}
330
5F1B
100
AcDbXrecord
 10
0.0
 20
0.0
 30
0.0
  0
XRECORD
  5
5F3B
102
{ACAD_REACTORS
330
5F1B
102
}
330
5F1B
100
AcDbXrecord
 10
0.0
 20
0.0
 30
0.0
  0
LAYER_INDEX
  5
5F0E
102
{ACAD_REACTORS
330
5F0D
102
}
330
5F0D
100
AcDbIndex
 40
2453151.701107477
100
AcDbLayerIndex
  8
0
360
5F0F
 90
        0
  8
AM_0
360
5F10
 90
       16
  8
PV0001_1
360
5F11
 90
       30
  8
AM_CL
360
5F12
 90
        0
  8
AM_7
360
5F13
 90
        1
  8
AM_11
360
5F14
 90
        3
  8
AM_5
360
5F15
 90
       10
  8
Defpoints
360
5F16
 90
        0
  8
AM_6
360
5F17
 90
        1
  8
AM_4
360
5F18
 90
        0
  8
AM_3
360
5F19
 90
        0
  0
XRECORD
  5
2D
102
{ACAD_REACTORS
330
2C
102
}
330
2C
100
AcDbXrecord
  1
VERSION
140
15.0
  1
PRODUCT
  2
AutoCAD Mechanical 2000
  0
IDBUFFER
  5
5F0F
330
0
100
AcDbIdBuffer
  0
IDBUFFER
  5
5F10
330
0
100
AcDbIdBuffer
330
5A5E
330
5A63
330
5A81
330
5A82
330
5B84
330
5B85
330
5B86
330
5B88
330
5B89
330
5B8A
330
5D71
330
5D73
330
5D78
330
5EBC
330
5EC2
330
5EC6
  0
IDBUFFER
  5
5F11
330
0
100
AcDbIdBuffer
330
5D70
330
5D74
330
5D75
330
5D77
330
5D7F
330
5D81
330
5D85
330
5EBD
330
5EBE
330
5EBF
330
5EC0
330
5EC3
330
5EC4
330
5EC7
330
35CA
330
35EA
330
35EB
330
35F9
330
35FA
330
35FB
330
35FD
330
3601
330
3602
330
395A
330
48BA
330
574B
330
5D44
330
5D45
330
5D6E
330
5D6F
  0
IDBUFFER
  5
5F12
330
0
100
AcDbIdBuffer
  0
IDBUFFER
  5
5F13
330
0
100
AcDbIdBuffer
330
35D1
  0
IDBUFFER
  5
5F14
330
0
100
AcDbIdBuffer
330
5D80
330
5EC1
330
5EC5
  0
IDBUFFER
  5
5F15
330
0
100
AcDbIdBuffer
330
36BA
330
3866
330
3C40
330
3D56
330
3DFD
330
53D8
330
53E5
330
53F2
330
53FF
330
5C4C
  0
IDBUFFER
  5
5F16
330
0
100
AcDbIdBuffer
  0
IDBUFFER
  5
5F17
330
0
100
AcDbIdBuffer
330
19BD
  0
IDBUFFER
  5
5F18
330
0
100
AcDbIdBuffer
  0
IDBUFFER
  5
5F19
330
0
100
AcDbIdBuffer
  0
ENDSEC
  0
EOF
