  0
SECTION
  2
HEADER
  9
$ACADVER
  1
AC1014
  9
$ACADMAINTVER
 70
     9
  9
$DWGCODEPAGE
  3
ANSI_932
  9
$INSBASE
 10
0.0
 20
0.0
 30
0.0
  9
$EXTMIN
 10
-589.2017441852486
 20
-77.98192224096831
 30
-0.00000001
  9
$EXTMAX
 10
32.93324691715113
 20
36.40073212579995
 30
0.00000001
  9
$LIMMIN
 10
-239.7844400960614
 20
-116.5703257817432
  9
$LIMMAX
 10
63.51757254482572
 20
77.02475587733534
  9
$ORTHOMODE
 70
     0
  9
$REGENMODE
 70
     1
  9
$FILLMODE
 70
     1
  9
$QTEXTMODE
 70
     0
  9
$MIRRTEXT
 70
     0
  9
$DRAGMODE
 70
     2
  9
$LTSCALE
 40
1.0
  9
$OSMODE
 70
    55
  9
$ATTMODE
 70
     1
  9
$TEXTSIZE
 40
2.5
  9
$TRACEWID
 40
1.0
  9
$TEXTSTYLE
  7
STANDARD
  9
$CLAYER
  8
AM_0
  9
$CELTYPE
  6
BYLAYER
  9
$CECOLOR
 62
   256
  9
$CELTSCALE
 40
1.0
  9
$DELOBJ
 70
     1
  9
$DISPSILH
 70
     0
  9
$DIMSCALE
 40
1.0
  9
$DIMASZ
 40
2.5
  9
$DIMEXO
 40
1.0
  9
$DIMDLI
 40
12.0
  9
$DIMRND
 40
0.0
  9
$DIMDLE
 40
0.0
  9
$DIMEXE
 40
1.0
  9
$DIMTP
 40
0.1
  9
$DIMTM
 40
0.1
  9
$DIMTXT
 40
3.2
  9
$DIMCEN
 40
0.0
  9
$DIMTSZ
 40
0.0
  9
$DIMTOL
 70
     0
  9
$DIMLIM
 70
     0
  9
$DIMTIH
 70
     0
  9
$DIMTOH
 70
     0
  9
$DIMSE1
 70
     0
  9
$DIMSE2
 70
     0
  9
$DIMTAD
 70
     3
  9
$DIMZIN
 70
     8
  9
$DIMBLK
  1
OPEN30
  9
$DIMASO
 70
     1
  9
$DIMSHO
 70
     1
  9
$DIMPOST
  1

  9
$DIMAPOST
  1
"
  9
$DIMALT
 70
     0
  9
$DIMALTD
 70
     2
  9
$DIMALTF
 40
0.0393701
  9
$DIMLFAC
 40
1.0
  9
$DIMTOFL
 70
     1
  9
$DIMTVP
 40
0.0
  9
$DIMTIX
 70
     0
  9
$DIMSOXD
 70
     0
  9
$DIMSAH
 70
     0
  9
$DIMBLK1
  1

  9
$DIMBLK2
  1

  9
$DIMSTYLE
  2
AM_JIS
  9
$DIMCLRD
 70
   256
  9
$DIMCLRE
 70
   256
  9
$DIMCLRT
 70
     2
  9
$DIMTFAC
 40
0.71
  9
$DIMGAP
 40
1.5
  9
$DIMJUST
 70
     0
  9
$DIMSD1
 70
     0
  9
$DIMSD2
 70
     0
  9
$DIMTOLJ
 70
     0
  9
$DIMTZIN
 70
     0
  9
$DIMALTZ
 70
     0
  9
$DIMALTTZ
 70
     0
  9
$DIMFIT
 70
     3
  9
$DIMUPT
 70
     0
  9
$DIMUNIT
 70
     2
  9
$DIMDEC
 70
     3
  9
$DIMTDEC
 70
     3
  9
$DIMALTU
 70
     2
  9
$DIMALTTD
 70
     2
  9
$DIMTXSTY
  7
ASAMI
  9
$DIMAUNIT
 70
     0
  9
$LUNITS
 70
     2
  9
$LUPREC
 70
     2
  9
$SKETCHINC
 40
1.0
  9
$FILLETRAD
 40
2.5
  9
$AUNITS
 70
     0
  9
$AUPREC
 70
     0
  9
$MENU
  1
.
  9
$ELEVATION
 40
0.0
  9
$PELEVATION
 40
0.0
  9
$THICKNESS
 40
0.0
  9
$LIMCHECK
 70
     0
  9
$BLIPMODE
 70
     0
  9
$CHAMFERA
 40
2.5
  9
$CHAMFERB
 40
2.5
  9
$CHAMFERC
 40
20.0
  9
$CHAMFERD
 40
0.0
  9
$SKPOLY
 70
     0
  9
$TDCREATE
 40
2452800.443498622
  9
$TDUPDATE
 40
2453151.719432488
  9
$TDINDWG
 40
0.8503173727
  9
$TDUSRTIMER
 40
0.8503173727
  9
$USRTIMER
 70
     1
  9
$ANGBASE
 50
0.0
  9
$ANGDIR
 70
     0
  9
$PDMODE
 70
     0
  9
$PDSIZE
 40
0.0
  9
$PLINEWID
 40
0.0
  9
$COORDS
 70
     1
  9
$SPLFRAME
 70
     0
  9
$SPLINETYPE
 70
     6
  9
$SPLINESEGS
 70
     8
  9
$ATTDIA
 70
     1
  9
$ATTREQ
 70
     1
  9
$HANDLING
 70
 12289
  9
$HANDSEED
  5
6405
  9
$SURFTAB1
 70
     6
  9
$SURFTAB2
 70
     6
  9
$SURFTYPE
 70
     6
  9
$SURFU
 70
     6
  9
$SURFV
 70
     6
  9
$UCSNAME
  2

  9
$UCSORG
 10
0.0
 20
-0.0000000000002274
 30
0.0
  9
$UCSXDIR
 10
1.0
 20
0.0000000000000027
 30
0.0
  9
$UCSYDIR
 10
-0.0000000000000027
 20
1.0
 30
0.0
  9
$PUCSNAME
  2

  9
$PUCSORG
 10
0.0
 20
0.0
 30
0.0
  9
$PUCSXDIR
 10
1.0
 20
0.0
 30
0.0
  9
$PUCSYDIR
 10
0.0
 20
1.0
 30
0.0
  9
$USERI1
 70
     0
  9
$USERI2
 70
     0
  9
$USERI3
 70
     0
  9
$USERI4
 70
     0
  9
$USERI5
 70
     0
  9
$USERR1
 40
0.0
  9
$USERR2
 40
0.0
  9
$USERR3
 40
0.0
  9
$USERR4
 40
0.0
  9
$USERR5
 40
0.0
  9
$WORLDVIEW
 70
     1
  9
$SHADEDGE
 70
     3
  9
$SHADEDIF
 70
    70
  9
$TILEMODE
 70
     1
  9
$MAXACTVP
 70
    64
  9
$PINSBASE
 10
0.0
 20
0.0
 30
0.0
  9
$PLIMCHECK
 70
     0
  9
$PEXTMIN
 10
1.000000000000000E+20
 20
1.000000000000000E+20
 30
1.000000000000000E+20
  9
$PEXTMAX
 10
-1.000000000000000E+20
 20
-1.000000000000000E+20
 30
-1.000000000000000E+20
  9
$PLIMMIN
 10
0.0
 20
0.0
  9
$PLIMMAX
 10
841.0
 20
594.0
  9
$UNITMODE
 70
     0
  9
$VISRETAIN
 70
     1
  9
$PLINEGEN
 70
     0
  9
$PSLTSCALE
 70
     0
  9
$TREEDEPTH
 70
  3020
  9
$PICKSTYLE
 70
     0
  9
$CMLSTYLE
  2
STANDARD
  9
$CMLJUST
 70
     0
  9
$CMLSCALE
 40
20.0
  9
$PROXYGRAPHICS
 70
     1
  9
$MEASUREMENT
 70
     1
  0
ENDSEC
  0
SECTION
  2
CLASSES
  0
CLASS
  1
ACDBDICTIONARYWDFLT
  2
AcDbDictionaryWithDefault
  3
AutoCAD 2000
 90
        0
280
     0
281
     0
  0
CLASS
  1
ACDBPLACEHOLDER
  2
AcDbPlaceHolder
  3
AutoCAD 2000
 90
        0
280
     0
281
     0
  0
CLASS
  1
LAYOUT
  2
AcDbLayout
  3
AutoCAD 2000
 90
        0
280
     0
281
     0
  0
CLASS
  1
AMGSETTINGSOBJ
  2
AmgSettingsObj
  3
"AcadM|Product Description: AutoCAD Mechanical 2000|Company: Autodesk"
 90
        0
280
     0
281
     0
  0
CLASS
  1
ACME_DOCUMENT
  2
AcMeDbDoc
  3
AcMeServices
 90
        0
280
     0
281
     0
  0
CLASS
  1
ACMESCOPE
  2
AcMeScope
  3
AcMeServices
 90
        0
280
     0
281
     0
  0
CLASS
  1
ACMECOMMANDHISTORY
  2
AcMeCommandHistory
  3
AcMeServices
 90
        0
280
     0
281
     0
  0
CLASS
  1
DICTIONARYVAR
  2
AcDbDictionaryVar
  3
AutoCAD 2000
 90
        0
280
     0
281
     0
  0
CLASS
  1
ACIMSYSVARMAN
  2
AcImSysVarManager
  3
AcMeServices
 90
        0
280
     0
281
     0
  0
CLASS
  1
ACIMREALSYSVAR
  2
AcImRealSysVar
  3
AcMeServices
 90
        0
280
     0
281
     0
  0
CLASS
  1
ACIMINTSYSVAR
  2
AcImIntSysVar
  3
AcMeServices
 90
        0
280
     0
281
     0
  0
CLASS
  1
ACMEDRAWINGMAN
  2
AcMeDrawingMan
  3
AcMeServices
 90
        0
280
     0
281
     0
  0
CLASS
  1
ACMEVIEW
  2
AcMeView
  3
AcMeServices
 90
        0
280
     0
281
     0
  0
CLASS
  1
ACDBENTITYCACHE
  2
AcMeEntityCache
  3
AcMeServices
 90
        0
280
     0
281
     0
  0
CLASS
  1
GSMANAGER
  2
AcMeGSManager
  3
AcMeServices
 90
        0
280
     0
281
     0
  0
CLASS
  1
AmdtInternalReactor
  2
AmdtInternalReactor
  3
AcMeServices
 90
        0
280
     0
281
     0
  0
CLASS
  1
ACMESTATEMGR
  2
AcMeStateMgr
  3
AcMeServices
 90
        0
280
     0
281
     0
  0
CLASS
  1
ACME_DATABASE
  2
AcMeDbDatabase
  3
AcMeServices
 90
        0
280
     0
281
     0
  0
CLASS
  1
ACRFINSADJUSTERMGR
  2
AcRfInsAdjusterMgr
  3
AcMeServices
 90
        0
280
     0
281
     0
  0
CLASS
  1
ACMDATADICTIONARY
  2
AcmDataDictionary
  3
"AcmSymBB|Product Description: AutoCAD Mechanical 2000|Company: Autodesk"
 90
        0
280
     0
281
     0
  0
CLASS
  1
ACMDATAENTRYBLOCK
  2
AcmDataEntryBlock
  3
"AcmSymBB|Product Description: AutoCAD Mechanical 2000|Company: Autodesk"
 90
        0
280
     0
281
     0
  0
CLASS
  1
AMGOBJPROPCFG
  2
AmgObjPropCfg
  3
"AmgLay|Product Description: AutoCAD Mechanical 2000|Company: Autodesk"
 90
        1
280
     0
281
     0
  0
CLASS
  1
ACAMGFILTERDAT
  2
AcAmgFilterDat
  3
"AcadM|Product Description: AutoCAD Mechanical 2000|Company: Autodesk"
 90
        0
280
     0
281
     0
  0
CLASS
  1
LAYER_INDEX
  2
AcDbLayerIndex
  3
AutoCAD 2000
 90
        0
280
     0
281
     0
  0
CLASS
  1
IDBUFFER
  2
AcDbIdBuffer
  3
AutoCAD 2000
 90
        0
280
     0
281
     0
  0
CLASS
  1
ACIMSTRSYSVAR
  2
AcImStrSysVar
  3
AcMeServices
 90
        0
280
     0
281
     0
  0
CLASS
  1
ACMSTANDARDJIS
  2
AcmStandardJIS
  3
"AcmSymBB|Product Description: AutoCAD Mechanical 2000|Company: Autodesk"
 90
        0
280
     0
281
     0
  0
CLASS
  1
ACMSURFSTANDARDJIS
  2
AcmSurfTextStdJIS
  3
"AcmSymBB|Product Description: AutoCAD Mechanical 2000|Company: Autodesk"
 90
        0
280
     0
281
     0
  0
CLASS
  1
ACMFCFSTANDARDJIS
  2
AcmFCFStdJIS
  3
"AcmSymBB|Product Description: AutoCAD Mechanical 2000|Company: Autodesk"
 90
        0
280
     0
281
     0
  0
CLASS
  1
ACMWELDSTANDARDJIS
  2
AcmWeldingStdJIS
  3
"AcmSymBB|Product Description: AutoCAD Mechanical 2000|Company: Autodesk"
 90
        0
280
     0
281
     0
  0
CLASS
  1
ACMIDSTANDARDJIS
  2
AcmIdStdJIS
  3
"AcmSymBB|Product Description: AutoCAD Mechanical 2000|Company: Autodesk"
 90
        0
280
     0
281
     0
  0
CLASS
  1
ACMDATUMSTANDARDJIS
  2
AcmDatumStdJIS
  3
"AcmSymBB|Product Description: AutoCAD Mechanical 2000|Company: Autodesk"
 90
        0
280
     0
281
     0
  0
CLASS
  1
ACMBOMSTANDARDJIS
  2
AcmBOMStdJIS
  3
"AcmSymBB|Product Description: AutoCAD Mechanical 2000|Company: Autodesk"
 90
        0
280
     0
281
     0
  0
CLASS
  1
ACMSTANDARDANSI
  2
AcmStandardANSI
  3
"AcmSymBB|Product Description: AutoCAD Mechanical 2000|Company: Autodesk"
 90
        0
280
     0
281
     0
  0
CLASS
  1
ACMSURFSTANDARDANSI
  2
AcmSurfTextStdANSI
  3
"AcmSymBB|Product Description: AutoCAD Mechanical 2000|Company: Autodesk"
 90
        0
280
     0
281
     0
  0
CLASS
  1
ACMFCFSTANDARDANSI
  2
AcmFCFStdANSI
  3
"AcmSymBB|Product Description: AutoCAD Mechanical 2000|Company: Autodesk"
 90
        0
280
     0
281
     0
  0
CLASS
  1
ACMWELDSTANDARDANSI
  2
AcmWeldingStdANSI
  3
"AcmSymBB|Product Description: AutoCAD Mechanical 2000|Company: Autodesk"
 90
        0
280
     0
281
     0
  0
CLASS
  1
ACMIDSTANDARDANSI
  2
AcmIdStdANSI
  3
"AcmSymBB|Product Description: AutoCAD Mechanical 2000|Company: Autodesk"
 90
        0
280
     0
281
     0
  0
CLASS
  1
ACMDATUMSTANDARDANSI
  2
AcmDatumStdANSI
  3
"AcmSymBB|Product Description: AutoCAD Mechanical 2000|Company: Autodesk"
 90
        0
280
     0
281
     0
  0
CLASS
  1
ACMBOMSTANDARDANSI
  2
AcmBOMStdANSI
  3
"AcmSymBB|Product Description: AutoCAD Mechanical 2000|Company: Autodesk"
 90
        0
280
     0
281
     0
  0
CLASS
  1
ACMSTANDARDBSI
  2
AcmStandardBSI
  3
"AcmSymBB|Product Description: AutoCAD Mechanical 2000|Company: Autodesk"
 90
        0
280
     0
281
     0
  0
CLASS
  1
ACMSURFSTANDARDBSI
  2
AcmSurfTextStdBSI
  3
"AcmSymBB|Product Description: AutoCAD Mechanical 2000|Company: Autodesk"
 90
        0
280
     0
281
     0
  0
CLASS
  1
ACMFCFSTANDARDBSI
  2
AcmFCFStdBSI
  3
"AcmSymBB|Product Description: AutoCAD Mechanical 2000|Company: Autodesk"
 90
        0
280
     0
281
     0
  0
CLASS
  1
ACMWELDSTANDARDBSI
  2
AcmWeldingStdBSI
  3
"AcmSymBB|Product Description: AutoCAD Mechanical 2000|Company: Autodesk"
 90
        0
280
     0
281
     0
  0
CLASS
  1
ACMIDSTANDARDBSI
  2
AcmIdStdBSI
  3
"AcmSymBB|Product Description: AutoCAD Mechanical 2000|Company: Autodesk"
 90
        0
280
     0
281
     0
  0
CLASS
  1
ACMDATUMSTANDARDBSI
  2
AcmDatumStdBSI
  3
"AcmSymBB|Product Description: AutoCAD Mechanical 2000|Company: Autodesk"
 90
        0
280
     0
281
     0
  0
CLASS
  1
ACMBOMSTANDARDBSI
  2
AcmBOMStdBSI
  3
"AcmSymBB|Product Description: AutoCAD Mechanical 2000|Company: Autodesk"
 90
        0
280
     0
281
     0
  0
CLASS
  1
LONG_TRANSACTION
  2
AcDbLongTransaction
  3
AutoCAD 2000
 90
        0
280
     0
281
     0
  0
CLASS
  1
LWPOLYLINE
  2
AcDbPolyline
  3
AutoCAD 2000
 90
        0
280
     0
281
     1
  0
CLASS
  1
HATCH
  2
AcDbHatch
  3
AutoCAD 2000
 90
        0
280
     0
281
     1
  0
CLASS
  1
XRECORD
  2
AcDbXrecord
  3
AutoCAD 2000
 90
        0
280
     0
281
     0
  0
ENDSEC
  0
SECTION
  2
TABLES
  0
TABLE
  2
VPORT
  5
8
330
0
100
AcDbSymbolTable
 70
     3
  0
VPORT
  5
63DA
330
8
100
AcDbSymbolTableRecord
100
AcDbViewportTableRecord
  2
*ACTIVE
 70
     0
 10
0.0
 20
0.0
 11
1.0
 21
1.0
 12
-109.5374260579132
 22
-3.646310434984314
 13
0.0
 23
0.0
 14
2.5
 24
2.5
 15
10.0
 25
10.0
 16
0.0
 26
0.0
 36
1.0
 17
0.0
 27
0.0
 37
0.0
 40
270.9223186427994
 41
1.56570841889117
 42
50.0
 43
0.0
 44
0.0
 50
0.0
 51
0.0
 71
     0
 72
   100
 73
     1
 74
     1
 75
     0
 76
     0
 77
     0
 78
     0
  0
ENDTAB
  0
TABLE
  2
LTYPE
  5
5
330
0
100
AcDbSymbolTable
 70
    10
  0
LTYPE
  5
14
330
5
100
AcDbSymbolTableRecord
100
AcDbLinetypeTableRecord
  2
BYBLOCK
 70
     0
  3

 72
    65
 73
     0
 40
0.0
  0
LTYPE
  5
15
330
5
100
AcDbSymbolTableRecord
100
AcDbLinetypeTableRecord
  2
BYLAYER
 70
     0
  3

 72
    65
 73
     0
 40
0.0
  0
LTYPE
  5
16
330
5
100
AcDbSymbolTableRecord
100
AcDbLinetypeTableRecord
  2
CONTINUOUS
 70
     0
  3
Solid line
 72
    65
 73
     0
 40
0.0
  0
LTYPE
  5
4B
330
5
100
AcDbSymbolTableRecord
100
AcDbLinetypeTableRecord
  2
AM_ISO02W050
 70
     0
  3
__ __ __ __ __ __ __ __ __ __ __ __ __ __ __
 72
    65
 73
     2
 40
7.5
 49
6.0
 74
     0
 49
-1.5
 74
     0
  0
LTYPE
  5
4C
330
5
100
AcDbSymbolTableRecord
100
AcDbLinetypeTableRecord
  2
AM_ISO08W050
 70
     0
  3
____ . ____ . ____ . ____ . ____ . ____ . ____
 72
    65
 73
     4
 40
18.0
 49
12.0
 74
     0
 49
-1.5
 74
     0
 49
3.0
 74
     0
 49
-1.5
 74
     0
  0
LTYPE
  5
4D
330
5
100
AcDbSymbolTableRecord
100
AcDbLinetypeTableRecord
  2
AM_ISO09W050
 70
     0
  3
_____ . . _____ . . _____ . . ____ .. ____
 72
    65
 73
     6
 40
22.5
 49
12.0
 74
     0
 49
-1.5
 74
     0
 49
3.0
 74
     0
 49
-1.5
 74
     0
 49
3.0
 74
     0
 49
-1.5
 74
     0
  0
LTYPE
  5
4E
330
5
100
AcDbSymbolTableRecord
100
AcDbLinetypeTableRecord
  2
AMCONSTR
 70
     0
  3
_______________________
 72
    65
 73
     2
 40
9999.0
 49
9999.0
 74
     0
 49
0.0
 74
     0
  0
LTYPE
  5
4F
330
5
100
AcDbSymbolTableRecord
100
AcDbLinetypeTableRecord
  2
AM_ISO02W050X2
 70
     0
  3
 _ _ _ _ _ _ _ _ _ _ _ _
 72
    65
 73
     2
 40
3.75
 49
3.0
 74
     0
 49
-0.75
 74
     0
  0
LTYPE
  5
50
330
5
100
AcDbSymbolTableRecord
100
AcDbLinetypeTableRecord
  2
AM_ISO08W050X2
 70
     0
  3
__ . __ . __ . __ . __ . __
 72
    65
 73
     4
 40
9.0
 49
6.0
 74
     0
 49
-0.75
 74
     0
 49
1.5
 74
     0
 49
-0.75
 74
     0
  0
LTYPE
  5
53
330
5
100
AcDbSymbolTableRecord
100
AcDbLinetypeTableRecord
  2
AMZIGZAG
 70
     0
  3
/\/-/\/-/\/-/\/-/\/-/\/
 72
    65
 73
     2
 40
11.00009999999999
 49
0.0001
 74
     4
 75
   135
340
52
 46
0.04
 50
0.0
 44
0.0
 45
0.0
 49
-11.0
 74
     0
  0
LTYPE
  5
166
330
5
100
AcDbSymbolTableRecord
100
AcDbLinetypeTableRecord
  2
ACJISTGL
 70
     0
  3
_ _ _ _ _
 72
    65
 73
     2
 40
3.0
 49
2.0
 74
     0
 49
-1.0
 74
     0
  0
LTYPE
  5
26A
330
5
100
AcDbSymbolTableRecord
100
AcDbLinetypeTableRecord
  2
ACJISTGB
 70
     0
  3
__ . . __ . .
 72
    65
 73
     6
 40
9.0
 49
4.0
 74
     0
 49
-1.0
 74
     0
 49
1.0
 74
     0
 49
-1.0
 74
     0
 49
1.0
 74
     0
 49
-1.0
 74
     0
  0
ENDTAB
  0
TABLE
  2
LAYER
  5
2
330
0
100
AcDbSymbolTable
 70
    11
  0
LAYER
  5
10
330
2
100
AcDbSymbolTableRecord
100
AcDbLayerTableRecord
  2
0
 70
     0
 62
     7
  6
CONTINUOUS
  0
LAYER
  5
3F9
330
2
100
AcDbSymbolTableRecord
100
AcDbLayerTableRecord
  2
AM_0
 70
     0
 62
     7
  6
CONTINUOUS
  0
LAYER
  5
BA4
330
2
100
AcDbSymbolTableRecord
100
AcDbLayerTableRecord
  2
PV0001_1
 70
     0
 62
     7
  6
CONTINUOUS
  0
LAYER
  5
C6C
330
2
100
AcDbSymbolTableRecord
100
AcDbLayerTableRecord
  2
AM_CL
 70
     0
 62
     1
  6
AMCONSTR
  0
LAYER
  5
C7C
330
2
100
AcDbSymbolTableRecord
100
AcDbLayerTableRecord
  2
AM_7
 70
     0
 62
     4
  6
AM_ISO08W050
  0
LAYER
  5
C97
330
2
100
AcDbSymbolTableRecord
100
AcDbLayerTableRecord
  2
AM_11
 70
     0
 62
     3
  6
AM_ISO09W050
  0
LAYER
  5
CC5
330
2
100
AcDbSymbolTableRecord
100
AcDbLayerTableRecord
  2
AM_5
 70
     0
 62
     3
  6
CONTINUOUS
  0
LAYER
  5
CC7
330
2
100
AcDbSymbolTableRecord
100
AcDbLayerTableRecord
  2
DEFPOINTS
 70
     0
 62
     7
  6
CONTINUOUS
  0
LAYER
  5
19BC
330
2
100
AcDbSymbolTableRecord
100
AcDbLayerTableRecord
  2
AM_6
 70
     0
 62
     2
  6
CONTINUOUS
  0
LAYER
  5
1F8E
330
2
100
AcDbSymbolTableRecord
100
AcDbLayerTableRecord
  2
AM_4
 70
     0
 62
     3
  6
CONTINUOUS
  0
LAYER
  5
3588
330
2
100
AcDbSymbolTableRecord
100
AcDbLayerTableRecord
  2
AM_3
 70
     0
 62
     6
  6
ACJISTGL
  0
ENDTAB
  0
TABLE
  2
STYLE
  5
3
330
0
100
AcDbSymbolTable
 70
     5
  0
STYLE
  5
11
330
3
100
AcDbSymbolTableRecord
100
AcDbTextStyleTableRecord
  2
STANDARD
 70
     0
 40
0.0
 41
1.0
 50
0.0
 71
     0
 42
2.5
  3
simplex.shx
  4
EXTFONT.SHX
  0
STYLE
  5
52
330
3
100
AcDbSymbolTableRecord
100
AcDbTextStyleTableRecord
  2

 70
     1
 40
0.0
 41
1.0
 50
0.0
 71
     0
 42
2.5
  3
ltypeshp.shx
  4

  0
STYLE
  5
6B
330
3
100
AcDbSymbolTableRecord
100
AcDbTextStyleTableRecord
  2
ASAMI
 70
     0
 40
0.0
 41
1.0
 50
0.0
 71
     0
 42
2.5
  3
simplex.shx
  4
EXTFONT.SHX
  0
STYLE
  5
262
330
3
100
AcDbSymbolTableRecord
100
AcDbTextStyleTableRecord
  2
ACJISTS
 70
     0
 40
1.0
 41
1.0
 50
0.0
 71
     0
 42
2.5
  3
simplex.shx
  4
bigfont.shx
  0
STYLE
  5
269
330
3
100
AcDbSymbolTableRecord
100
AcDbTextStyleTableRecord
  2
ACJISGDT
 70
     0
 40
0.0
 41
1.0
 50
0.0
 71
     0
 42
2.5
  3
amgdtans.shx
  4

  0
ENDTAB
  0
TABLE
  2
VIEW
  5
6
330
0
100
AcDbSymbolTable
 70
     0
  0
ENDTAB
  0
TABLE
  2
UCS
  5
7
330
0
100
AcDbSymbolTable
 70
     0
  0
ENDTAB
  0
TABLE
  2
APPID
  5
9
330
0
100
AcDbSymbolTable
 70
    14
  0
APPID
  5
12
330
9
100
AcDbSymbolTableRecord
100
AcDbRegAppTableRecord
  2
ACAD
 70
     0
  0
APPID
  5
30
330
9
100
AcDbSymbolTableRecord
100
AcDbRegAppTableRecord
  2
MCAD_NO_VIS
 70
     0
  0
APPID
  5
31
330
9
100
AcDbSymbolTableRecord
100
AcDbRegAppTableRecord
  2
ACAD_TEMP_GRAPHIC
 70
     0
  0
APPID
  5
2C2
330
9
100
AcDbSymbolTableRecord
100
AcDbRegAppTableRecord
  2
GENIUS_GENDTOL_13
 70
     0
  0
APPID
  5
339
330
9
100
AcDbSymbolTableRecord
100
AcDbRegAppTableRecord
  2
GENIUS_GENODEF_13
 70
     0
  0
APPID
  5
33A
330
9
100
AcDbSymbolTableRecord
100
AcDbRegAppTableRecord
  2
GENIUS_GENOBJ-N-RSBK_13
 70
     0
  0
APPID
  5
33B
330
9
100
AcDbSymbolTableRecord
100
AcDbRegAppTableRecord
  2
GENIUS_GENOBJ-N-LIB_13
 70
     0
  0
APPID
  5
33C
330
9
100
AcDbSymbolTableRecord
100
AcDbRegAppTableRecord
  2
GENIUS_GENSCALE_13
 70
     0
  0
APPID
  5
378
330
9
100
AcDbSymbolTableRecord
100
AcDbRegAppTableRecord
  2
GENIUS_GENDIMSH_14
 70
     0
  0
APPID
  5
C82
330
9
100
AcDbSymbolTableRecord
100
AcDbRegAppTableRecord
  2
GENIUS_GENOBJ-N-CRS_13
 70
     0
  0
APPID
  5
C83
330
9
100
AcDbSymbolTableRecord
100
AcDbRegAppTableRecord
  2
GENIUS_GENOENT_13
 70
     0
  0
APPID
  5
C84
330
9
100
AcDbSymbolTableRecord
100
AcDbRegAppTableRecord
  2
GENIUS_GENOREF_13
 70
     0
  0
APPID
  5
C85
330
9
100
AcDbSymbolTableRecord
100
AcDbRegAppTableRecord
  2
GENIUS_GENOLIS_13
 70
     0
  0
APPID
  5
CA0
330
9
100
AcDbSymbolTableRecord
100
AcDbRegAppTableRecord
  2
GENIUS_GENOBJ-N-CEN_13
 70
     0
  0
ENDTAB
  0
TABLE
  2
DIMSTYLE
  5
A
330
0
100
AcDbSymbolTable
 70
    10
  0
DIMSTYLE
105
58
330
A
100
AcDbSymbolTableRecord
100
AcDbDimStyleTableRecord
  2
AM_JIS
 70
     0
  3

  4
"
  5
OPEN30
  6

  7

 40
1.0
 41
2.5
 42
1.0
 43
12.0
 44
1.0
 45
0.0
 46
0.0
 47
0.1
 48
0.1
140
3.2
141
0.0
142
0.0
143
0.0393701
144
1.0
145
0.0
146
0.71
147
1.5
 71
     0
 72
     0
 73
     0
 74
     0
 75
     0
 76
     0
 77
     3
 78
     8
170
     0
171
     2
172
     1
173
     0
174
     0
175
     0
176
   256
177
   256
178
     2
270
     2
271
     3
272
     3
273
     2
274
     2
340
6B
275
     0
280
     0
281
     0
282
     0
283
     0
284
     0
285
     0
286
     0
287
     3
288
     0
  0
DIMSTYLE
105
5F
330
A
100
AcDbSymbolTableRecord
100
AcDbDimStyleTableRecord
  2
AM_JIS$3
 70
     0
  3

  4
"
  5
OPEN30
  6

  7

 40
1.0
 41
2.5
 42
1.0
 43
10.0
 44
1.0
 45
0.0
 46
0.0
 47
0.1
 48
0.1
140
3.2
141
0.0
142
0.0
143
0.0393701
144
1.0
145
0.0
146
0.71
147
1.5
 71
     0
 72
     0
 73
     0
 74
     1
 75
     0
 76
     0
 77
     3
 78
     8
170
     0
171
     2
172
     0
173
     0
174
     0
175
     0
176
   256
177
   256
178
     2
270
     2
271
     2
272
     3
273
     2
274
     2
340
6B
275
     0
280
     0
281
     0
282
     0
283
     0
284
     0
285
     0
286
     0
287
     0
288
     1
  0
DIMSTYLE
105
60
330
A
100
AcDbSymbolTableRecord
100
AcDbDimStyleTableRecord
  2
AM_JIS$4
 70
     0
  3

  4
"
  5
OPEN30
  6

  7

 40
1.0
 41
2.5
 42
1.0
 43
10.0
 44
1.0
 45
0.0
 46
0.0
 47
0.1
 48
0.1
140
3.2
141
0.0
142
0.0
143
0.0393701
144
1.0
145
0.0
146
0.71
147
1.5
 71
     0
 72
     0
 73
     0
 74
     1
 75
     0
 76
     0
 77
     3
 78
     8
170
     0
171
     2
172
     0
173
     0
174
     0
175
     0
176
   256
177
   256
178
     2
270
     2
271
     2
272
     3
273
     2
274
     2
340
6B
275
     0
280
     0
281
     0
282
     0
283
     0
284
     0
285
     0
286
     0
287
     0
288
     1
  0
DIMSTYLE
105
61
330
A
100
AcDbSymbolTableRecord
100
AcDbDimStyleTableRecord
  2
AM_JIS$6
 70
     0
  3

  4
"
  5
OPEN30
  6

  7

 40
1.0
 41
2.5
 42
1.0
 43
10.0
 44
1.0
 45
0.0
 46
0.0
 47
0.1
 48
0.1
140
3.2
141
0.0
142
0.0
143
0.0393701
144
1.0
145
0.0
146
0.71
147
1.5
 71
     0
 72
     0
 73
     0
 74
     0
 75
     0
 76
     0
 77
     0
 78
     8
170
     0
171
     2
172
     1
173
     0
174
     0
175
     0
176
   256
177
   256
178
     2
270
     2
271
     2
272
     2
273
     2
274
     2
340
6B
275
     0
280
     0
281
     0
282
     0
283
     0
284
     0
285
     0
286
     0
287
     3
288
     0
  0
DIMSTYLE
105
62
330
A
100
AcDbSymbolTableRecord
100
AcDbDimStyleTableRecord
  2
AM_JIS$7
 70
     0
  3

  4
"
  5
OPEN30
  6

  7

 40
1.0
 41
2.5
 42
1.0
 43
10.0
 44
1.0
 45
0.0
 46
0.0
 47
0.1
 48
0.1
140
3.2
141
0.0
142
0.0
143
0.0393701
144
1.0
145
0.0
146
0.71
147
1.5
 71
     0
 72
     0
 73
     0
 74
     0
 75
     0
 76
     0
 77
     3
 78
     8
170
     0
171
     2
172
     1
173
     0
174
     0
175
     0
176
   256
177
   256
178
     2
270
     2
271
     2
272
     3
273
     2
274
     2
340
6B
275
     0
280
     0
281
     0
282
     0
283
     0
284
     0
285
     0
286
     0
287
     3
288
     0
  0
DIMSTYLE
105
63
330
A
100
AcDbSymbolTableRecord
100
AcDbDimStyleTableRecord
  2
AM_JIS$SF
 70
     0
  3

  4
"
  5
OPEN30
  6

  7

 40
1.0
 41
2.5
 42
1.0
 43
10.0
 44
1.0
 45
0.0
 46
0.0
 47
0.1
 48
0.1
140
3.2
141
0.0
142
0.0
143
0.0393701
144
1.0
145
0.0
146
0.71
147
1.5
 71
     0
 72
     0
 73
     0
 74
     0
 75
     1
 76
     1
 77
     3
 78
     8
170
     0
171
     2
172
     1
173
     0
174
     0
175
     0
176
   256
177
   256
178
     2
270
     2
271
     2
272
     2
273
     2
274
     2
340
6B
275
     0
280
     0
281
     0
282
     0
283
     0
284
     0
285
     0
286
     0
287
     3
288
     0
  0
DIMSTYLE
105
68
330
A
100
AcDbSymbolTableRecord
100
AcDbDimStyleTableRecord
  2
AM_JIS$SH
 70
     0
  3

  4
"
  5

  6
GENAXEH
  7
OPEN30
 40
1.0
 41
2.5
 42
1.0
 43
10.0
 44
1.0
 45
0.0
 46
0.0
 47
0.1
 48
0.1
140
3.2
141
0.0
142
0.0
143
0.0393701
144
2.0
145
0.0
146
0.71
147
1.5
 71
     0
 72
     0
 73
     0
 74
     0
 75
     1
 76
     1
 77
     3
 78
     8
170
     0
171
     2
172
     1
173
     1
174
     0
175
     0
176
   256
177
   256
178
     2
270
     2
271
     2
272
     2
273
     2
274
     2
340
6B
275
     0
280
     0
281
     0
282
     0
283
     0
284
     0
285
     0
286
     0
287
     3
288
     0
  0
DIMSTYLE
105
B34
102
{ACAD_REACTORS
330
5EEB
102
}
330
A
100
AcDbSymbolTableRecord
100
AcDbDimStyleTableRecord
  2
AM_JIS$2
 70
     0
  3

  4
"
  5
OPEN30
  6

  7

 40
1.0
 41
2.5
 42
1.0
 43
12.0
 44
1.0
 45
0.0
 46
0.0
 47
0.1
 48
0.1
140
3.2
141
0.0
142
0.0
143
0.0393701
144
1.0
145
0.0
146
0.71
147
1.5
 71
     0
 72
     0
 73
     0
 74
     0
 75
     0
 76
     0
 77
     3
 78
     8
170
     0
171
     2
172
     1
173
     0
174
     0
175
     0
176
   256
177
   256
178
     2
270
     2
271
     3
272
     3
273
     2
274
     2
340
6B
275
     0
280
     0
281
     0
282
     0
283
     0
284
     0
285
     0
286
     0
287
     3
288
     0
  0
DIMSTYLE
105
BA5
102
{ACAD_REACTORS
330
5D73
330
5D72
330
5D71
330
5D62
330
5D70
330
6016
330
60C0
330
61EC
102
}
330
A
100
AcDbSymbolTableRecord
100
AcDbDimStyleTableRecord
  2
AM_JIS$0
 70
     0
  3

  4
"
  5
OPEN30
  6

  7

 40
1.0
 41
2.5
 42
0.8
 43
10.0
 44
1.0
 45
0.0
 46
0.0
 47
0.1
 48
0.1000000001
140
3.799999999999999
141
0.0
142
0.0
143
0.0393701
144
1.0
145
0.0
146
0.71
147
1.5
 71
     0
 72
     0
 73
     0
 74
     0
 75
     0
 76
     0
 77
     3
 78
     9
170
     0
171
     2
172
     1
173
     0
174
     0
175
     0
176
     3
177
     3
178
     2
270
     2
271
     2
272
     2
273
     2
274
     2
340
11
275
     1
280
     0
281
     0
282
     0
283
     0
284
     8
285
     0
286
     0
287
     0
288
     0
  0
DIMSTYLE
105
BA6
330
A
100
AcDbSymbolTableRecord
100
AcDbDimStyleTableRecord
  2
AM_JISORG-1P0$2
 70
     0
  3

  4
"
  5
OPEN30
  6

  7

 40
1.0
 41
2.5
 42
0.0
 43
10.0
 44
1.0
 45
0.0
 46
0.0
 47
0.1
 48
0.1000000001
140
3.799999999999999
141
0.0
142
0.0
143
0.0393701
144
-0.999999980146674
145
0.0
146
0.71
147
1.5
 71
     0
 72
     0
 73
     0
 74
     0
 75
     0
 76
     0
 77
     3
 78
     1
170
     0
171
     2
172
     1
173
     0
174
     0
175
     0
176
     3
177
     3
178
     2
270
     2
271
     2
272
     2
273
     2
274
     2
340
11
275
     1
280
     0
281
     0
282
     0
283
     0
284
     8
285
     0
286
     0
287
     0
288
     0
  0
ENDTAB
  0
TABLE
  2
BLOCK_RECORD
  5
1
330
0
100
AcDbSymbolTable
 70
    18
  0
BLOCK_RECORD
  5
1F
102
{ACAD_XDICTIONARY
360
74
102
}
330
1
100
AcDbSymbolTableRecord
100
AcDbBlockTableRecord
  2
*MODEL_SPACE
  0
BLOCK_RECORD
  5
101
102
{ACAD_XDICTIONARY
360
6403
102
}
330
1
100
AcDbSymbolTableRecord
100
AcDbBlockTableRecord
  2
*PAPER_SPACE
  0
BLOCK_RECORD
  5
59
330
1
100
AcDbSymbolTableRecord
100
AcDbBlockTableRecord
  2
_OPEN30
  0
BLOCK_RECORD
  5
64
330
1
100
AcDbSymbolTableRecord
100
AcDbBlockTableRecord
  2
GENAXEH
  0
BLOCK_RECORD
  5
C31
330
1
100
AcDbSymbolTableRecord
100
AcDbBlockTableRecord
  2
A$C36D02A34
  0
BLOCK_RECORD
  5
2453
330
1
100
AcDbSymbolTableRecord
100
AcDbBlockTableRecord
  2
*D6
  0
BLOCK_RECORD
  5
245F
330
1
100
AcDbSymbolTableRecord
100
AcDbBlockTableRecord
  2
A$C4FFC6CC0
  0
BLOCK_RECORD
  5
5D74
330
1
100
AcDbSymbolTableRecord
100
AcDbBlockTableRecord
  2
*D8
  0
BLOCK_RECORD
  5
5D80
330
1
100
AcDbSymbolTableRecord
100
AcDbBlockTableRecord
  2
*D9
  0
BLOCK_RECORD
  5
5D8C
330
1
100
AcDbSymbolTableRecord
100
AcDbBlockTableRecord
  2
*D10
  0
BLOCK_RECORD
  5
5D9A
330
1
100
AcDbSymbolTableRecord
100
AcDbBlockTableRecord
  2
*D11
  0
BLOCK_RECORD
  5
5DA6
330
1
100
AcDbSymbolTableRecord
100
AcDbBlockTableRecord
  2
*D12
  0
BLOCK_RECORD
  5
5EEC
330
1
100
AcDbSymbolTableRecord
100
AcDbBlockTableRecord
  2
*D13
  0
BLOCK_RECORD
  5
6017
330
1
100
AcDbSymbolTableRecord
100
AcDbBlockTableRecord
  2
*D14
  0
BLOCK_RECORD
  5
60C1
330
1
100
AcDbSymbolTableRecord
100
AcDbBlockTableRecord
  2
*D15
  0
BLOCK_RECORD
  5
61ED
330
1
100
AcDbSymbolTableRecord
100
AcDbBlockTableRecord
  2
*D16
  0
ENDTAB
  0
ENDSEC
  0
SECTION
  2
BLOCKS
  0
BLOCK
  5
20
330
1F
100
AcDbEntity
  8
0
100
AcDbBlockBegin
  2
*MODEL_SPACE
 70
     0
 10
0.0
 20
0.0
 30
0.0
  3
*MODEL_SPACE
  1

  0
ENDBLK
  5
21
330
1F
100
AcDbEntity
  8
0
100
AcDbBlockEnd
  0
BLOCK
  5
103
330
101
100
AcDbEntity
 67
     1
  8
0
100
AcDbBlockBegin
  2
*PAPER_SPACE
 70
     0
 10
0.0
 20
0.0
 30
0.0
  3
*PAPER_SPACE
  1

  0
ENDBLK
  5
104
330
101
100
AcDbEntity
 67
     1
  8
0
100
AcDbBlockEnd
  0
BLOCK
  5
5D
330
59
100
AcDbEntity
  8
0
100
AcDbBlockBegin
  2
_OPEN30
 70
     0
 10
0.0
 20
0.0
 30
0.0
  3
_OPEN30
  1

  0
LINE
  5
5A
330
59
100
AcDbEntity
  8
0
 62
     0
100
AcDbLine
 10
-1.0
 20
0.26794919
 30
0.0
 11
0.0
 21
0.0
 31
0.0
  0
LINE
  5
5B
330
59
100
AcDbEntity
  8
0
 62
     0
100
AcDbLine
 10
0.0
 20
0.0
 30
0.0
 11
-1.0
 21
-0.26794919
 31
0.0
  0
LINE
  5
5C
330
59
100
AcDbEntity
  8
0
 62
     0
100
AcDbLine
 10
0.0
 20
0.0
 30
0.0
 11
-1.0
 21
0.0
 31
0.0
  0
ENDBLK
  5
5E
330
59
100
AcDbEntity
  8
0
100
AcDbBlockEnd
  0
BLOCK
  5
66
330
64
100
AcDbEntity
  8
0
100
AcDbBlockBegin
  2
GENAXEH
 70
     0
 10
0.0
 20
0.0
 30
0.0
  3
GENAXEH
  1

  0
LINE
  5
65
330
64
100
AcDbEntity
  8
0
100
AcDbLine
 10
-1.0
 20
0.0
 30
0.0
 11
1.0
 21
0.0
 31
0.0
  0
ENDBLK
  5
67
330
64
100
AcDbEntity
  8
0
100
AcDbBlockEnd
  0
BLOCK
  5
C4B
330
C31
100
AcDbEntity
  8
0
100
AcDbBlockBegin
  2
A$C36D02A34
 70
     0
 10
0.0
 20
0.0
 30
0.0
  3
A$C36D02A34
  1

  0
ARC
  5
C32
330
C31
100
AcDbEntity
  8
PV0001_1
  6
CONTINUOUS
 48
0.5
100
AcDbCircle
 10
18.06811523436999
 20
-11.83651161193799
 30
0.0
 40
21.600000381469
100
AcDbArc
 50
123.2290435713209
 51
126.6341524197568
  0
ARC
  5
C33
330
C31
100
AcDbEntity
  8
PV0001_1
  6
CONTINUOUS
 48
0.5
100
AcDbCircle
 10
18.06811523436999
 20
-11.83651161193799
 30
0.0
 40
21.600000381469
100
AcDbArc
 50
135.0736707620117
 51
146.7709980930592
  0
ARC
  5
C34
330
C31
100
AcDbEntity
  8
PV0001_1
  6
CONTINUOUS
 48
0.5
100
AcDbCircle
 10
-18.0680770874
 20
11.8365631103514
 30
0.0
 40
21.600000381469
100
AcDbArc
 50
315.0734847530392
 51
326.770781348241
  0
ARC
  5
C35
330
C31
100
AcDbEntity
  8
PV0001_1
  6
CONTINUOUS
 48
0.5
100
AcDbCircle
 10
-18.0680770874
 20
11.8365631103514
 30
0.0
 40
21.600000381469
100
AcDbArc
 50
303.2288882981993
 51
306.633986901359
  0
ARC
  5
C36
330
C31
100
AcDbEntity
  8
PV0001_1
  6
CONTINUOUS
 48
0.5
100
AcDbCircle
 10
-0.6269836425800009
 20
-2.044216156005997
 30
0.0
 40
2.0
100
AcDbArc
 50
337.4067997351092
 51
43.42231293132884
  0
ARC
  5
C37
330
C31
100
AcDbEntity
  8
PV0001_1
  6
CONTINUOUS
 48
0.5
100
AcDbCircle
 10
0.626953125
 20
2.044223785401001
 30
0.0
 40
2.0
100
AcDbArc
 50
157.4068184044407
 51
223.4222769591536
  0
CIRCLE
  5
C38
330
C31
100
AcDbEntity
  8
PV0001_1
  6
CONTINUOUS
 48
0.5
100
AcDbCircle
 10
3.856727600100001
 20
4.596265792847002
 30
0.0
 40
1.6000000238419
  0
CIRCLE
  5
C39
330
C31
100
AcDbEntity
  8
PV0001_1
  6
CONTINUOUS
 48
0.5
100
AcDbCircle
 10
-3.856727600100001
 20
-4.596265792845997
 30
0.0
 40
1.6000000238419
  0
ARC
  5
C3A
330
C31
100
AcDbEntity
  8
PV0001_1
  6
CONTINUOUS
 48
0.5
100
AcDbCircle
 10
-5.58123779297
 20
5.092639923096001
 30
0.0
 40
5.019082546234099
100
AcDbArc
 50
240.2658959250867
 51
321.5156269706421
  0
ARC
  5
C3B
330
C31
100
AcDbEntity
  8
PV0001_1
  6
CONTINUOUS
 48
0.5
100
AcDbCircle
 10
5.486755371089998
 20
-4.601703643798998
 30
0.0
 40
4.651036739349399
100
AcDbArc
 50
56.25271400417071
 51
145.528859890601
  0
ARC
  5
C3C
330
C31
100
AcDbEntity
  8
PV0001_1
  6
CONTINUOUS
 48
0.5
100
AcDbCircle
 10
-2.11590576172
 20
-3.453323364257997
 30
0.0
 40
4.050000190734899
100
AcDbArc
 50
43.42230610113921
 51
58.50391703385149
  0
ARC
  5
C3D
330
C31
100
AcDbEntity
  8
PV0001_1
  6
CONTINUOUS
 48
0.5
100
AcDbCircle
 10
2.115875244139999
 20
3.453330993653001
 30
0.0
 40
4.050000190734899
100
AcDbArc
 50
223.4222942619974
 51
238.5038164022482
  0
ARC
  5
C3E
330
C31
100
AcDbEntity
  8
PV0001_1
  6
CONTINUOUS
 48
0.5
100
AcDbCircle
 10
-6.70369720459
 20
5.094657897949002
 30
0.0
 40
5.940000057220499
100
AcDbArc
 50
328.2536768887549
 51
31.74641873389623
  0
ARC
  5
C3F
330
C31
100
AcDbEntity
  8
PV0001_1
  6
CONTINUOUS
 48
0.5
100
AcDbCircle
 10
6.703674316410001
 20
-5.094650268553998
 30
0.0
 40
5.940000057220499
100
AcDbArc
 50
148.2533403882529
 51
211.7466423089037
  0
ARC
  5
C40
330
C31
100
AcDbEntity
  8
PV0001_1
  6
CONTINUOUS
 48
0.5
100
AcDbCircle
 10
0.0
 20
0.0
 30
0.0
 40
8.812800407409699
100
AcDbArc
 50
175.2198288164333
 51
272.8622597568298
  0
ARC
  5
C41
330
C31
100
AcDbEntity
  8
PV0001_1
  6
CONTINUOUS
 48
0.5
100
AcDbCircle
 10
0.0
 20
0.0
 30
0.0
 40
9.1800003051758
100
AcDbArc
 50
272.7511362215027
 51
280.3697477877874
  0
ARC
  5
C42
330
C31
100
AcDbEntity
  8
PV0001_1
  6
CONTINUOUS
 48
0.5
100
AcDbCircle
 10
0.0
 20
0.0
 30
0.0
 40
8.812800407409699
100
AcDbArc
 50
355.2198199654955
 51
92.86229572901076
  0
ARC
  5
C43
330
C31
100
AcDbEntity
  8
PV0001_1
  6
CONTINUOUS
 48
0.5
100
AcDbCircle
 10
0.0
 20
0.0
 30
0.0
 40
9.1800003051758
100
AcDbArc
 50
92.75115489083434
 51
100.3697664571193
  0
CIRCLE
  5
C44
330
C31
100
AcDbEntity
  8
PV0001_1
  6
CONTINUOUS
100
AcDbCircle
 10
0.0
 20
0.0
 30
0.0
 40
9.1800003051758
  0
LINE
  5
C45
330
C31
100
AcDbEntity
  8
PV0001_1
  6
CONTINUOUS
 48
0.5
100
AcDbLine
 10
-1.652404785160001
 20
9.030059814453
 30
0.0
 11
-1.652404785160001
 21
8.220062255860002
 31
0.0
  0
LINE
  5
C46
330
C31
100
AcDbEntity
  8
PV0001_1
  6
CONTINUOUS
 48
0.5
100
AcDbLine
 10
1.652404785160001
 20
-8.220058441161999
 30
0.0
 11
1.652404785160001
 21
-9.030055999755997
 31
0.0
  0
LINE
  5
C47
330
C31
100
AcDbEntity
  8
PV0001_1
  6
CONTINUOUS
 48
0.5
100
AcDbLine
 10
-8.78217315674
 20
0.7343807220460015
 30
0.0
 11
-8.070594787600001
 21
0.7343997955320028
 31
0.0
  0
LINE
  5
C48
330
C31
100
AcDbEntity
  8
PV0001_1
  6
CONTINUOUS
 48
0.5
100
AcDbLine
 10
8.07057952881
 20
-0.7343864440919994
 30
0.0
 11
8.78215789795
 21
-0.7343654632569994
 31
0.0
  0
LINE
  5
C49
330
C31
100
AcDbEntity
  8
PV0001_1
  6
CONTINUOUS
 48
0.5
100
AcDbLine
 10
0.4406127929700006
 20
-9.169414520263
 30
0.0
 11
0.4406127929700006
 21
-8.812801361083998
 31
0.0
  0
LINE
  5
C4A
330
C31
100
AcDbEntity
  8
PV0001_1
  6
CONTINUOUS
 48
0.5
100
AcDbLine
 10
-0.4406127929700006
 20
9.169418334961001
 30
0.0
 11
-0.4406127929700006
 21
8.812805175781001
 31
0.0
  0
ENDBLK
  5
C4C
330
C31
100
AcDbEntity
  8
0
100
AcDbBlockEnd
  0
BLOCK
  5
245D
330
2453
100
AcDbEntity
  8
0
100
AcDbBlockBegin
  2
*D6
 70
     1
 10
0.0
 20
0.0
 30
0.0
  3
*D6
  1

  0
LINE
  5
2454
330
2453
100
AcDbEntity
  8
AM_5
 62
     3
100
AcDbLine
 10
-137.574381722344
 20
-5.00000294019065
 30
0.0
 11
-152.8199008769066
 21
-5.000002940190694
 31
0.0
  0
LINE
  5
2455
330
2453
100
AcDbEntity
  8
AM_5
 62
     3
100
AcDbLine
 10
-137.5743817223442
 20
5.00002461040103
 30
0.0
 11
-152.8199008769066
 21
5.000024610400987
 31
0.0
  0
LINE
  5
2456
330
2453
100
AcDbEntity
  8
AM_5
 62
     3
100
AcDbLine
 10
-151.8199008769066
 20
-2.500002940190691
 30
0.0
 11
-151.8199008769066
 21
2.50002461040099
 31
0.0
  0
INSERT
  5
2457
330
2453
100
AcDbEntity
  8
AM_5
 62
     3
100
AcDbBlockReference
  2
_OPEN30
 10
-151.8199008769066
 20
-5.00000294019069
 30
0.0
 41
2.5
 42
2.5
 43
2.5
 50
270.0000000000001
  0
INSERT
  5
2458
330
2453
100
AcDbEntity
  8
AM_5
 62
     3
100
AcDbBlockReference
  2
_OPEN30
 10
-151.8199008769066
 20
5.00002461040099
 30
0.0
 41
2.5
 42
2.5
 43
2.5
 50
90.00000000000015
  0
MTEXT
  5
2459
330
2453
100
AcDbEntity
  8
AM_5
 62
     2
100
AcDbMText
 10
-155.2199008769066
 20
0.000010835105146
 30
0.0
 40
3.799999999999999
 41
0.0
 71
     5
 72
     1
  1
%%c10
 11
-0.0000000000000028
 21
1.0
 31
0.0
1001
ACAD
1000
MTEXTBEGIN
1070
    73
1070
     1
1070
    44
1040
1.0
1070
    74
1070
     0
1000
MTEXTEND
  0
POINT
  5
245A
330
2453
100
AcDbEntity
  8
DEFPOINTS
 62
     0
100
AcDbPoint
 10
-137.5743817223441
 20
-5.000002940190223
 30
0.0
  0
POINT
  5
245B
330
2453
100
AcDbEntity
  8
DEFPOINTS
 62
     0
100
AcDbPoint
 10
-137.5743817223441
 20
5.000024610401458
 30
0.0
  0
POINT
  5
245C
330
2453
100
AcDbEntity
  8
DEFPOINTS
 62
     0
100
AcDbPoint
 10
-151.8199008769066
 20
5.000024610401462
 30
0.0
  0
ENDBLK
  5
245E
330
2453
100
AcDbEntity
  8
0
100
AcDbBlockEnd
  0
BLOCK
  5
246B
330
245F
100
AcDbEntity
  8
0
100
AcDbBlockBegin
  2
A$C4FFC6CC0
 70
     0
 10
0.0
 20
0.0
 30
0.0
  3
A$C4FFC6CC0
  1

  0
DIMENSION
  5
2460
330
245F
100
AcDbEntity
  8
AM_5
100
AcDbDimension
  2
*D6
 10
-70.00000100000002
 20
5.000008477104842
 30
0.0
 11
-70.00000100000002
 21
-0.0000052981910228
 31
0.0
 12
81.81989987690661
 22
-0.0000161332966199
 32
0.0
 70
   128
  1
%%c<>
 51
359.9999999999998
  3
AM_JIS$0
100
AcDbAlignedDimension
 13
-55.75448184543748
 23
-5.000019073486843
 33
0.0
 14
-55.75448184543756
 24
5.000008477104838
 34
0.0
 50
270.0
100
AcDbRotatedDimension
1001
ACAD
1000
DSTYLE
1002
{
1070
   271
1070
     0
1002
}
1001
GENIUS_GENDTOL_13
1000

1000
h7
1000

1040
0.0
  0
LINE
  5
2461
330
245F
100
AcDbEntity
  8
AM_0
 48
0.5
100
AcDbLine
 10
-56.0
 20
-4.754495620727796
 30
0.0
 11
-56.00000000000003
 21
4.754485024345811
 31
0.0
  0
LINE
  5
2462
330
245F
100
AcDbEntity
  8
AM_0
 48
0.5
100
AcDbLine
 10
-55.75448184543751
 20
-5.000019073486843
 30
0.0
 11
-55.75448184543754
 21
5.000008477104838
 31
0.0
  0
LINE
  5
2463
330
245F
100
AcDbEntity
  8
AM_0
100
AcDbLine
 10
-0.0000000000000142
 20
4.999995231627903
 30
0.0
 11
-55.75448184543754
 21
4.999995231627746
 31
0.0
  0
LINE
  5
2464
330
245F
100
AcDbEntity
  8
AM_0
 48
0.5
100
AcDbLine
 10
-55.99996821086117
 20
4.754439989725671
 30
0.0
 11
-55.75443945990975
 21
4.999963442484006
 31
0.0
  0
LINE
  5
2465
330
245F
100
AcDbEntity
  8
AM_0
100
AcDbLine
 10
-55.75448184543751
 20
-5.000008477105588
 30
0.0
 11
0.0000000000000142
 21
-5.00000847710543
 31
0.0
  0
LINE
  5
2466
330
245F
100
AcDbEntity
  8
AM_0
 48
0.5
100
AcDbLine
 10
-55.99996821086114
 20
-4.754474427965309
 30
0.0
 11
-55.75443945990972
 21
-4.999997880724334
 31
0.0
  0
LINE
  5
2467
330
245F
100
AcDbEntity
  8
AM_0
100
AcDbLine
 10
0.7794201296714505
 20
4.549985867772141
 30
0.0
 11
0.7794201296714789
 21
-4.550003370497427
 31
0.0
  0
LINE
  5
2468
330
245F
100
AcDbEntity
  8
AM_0
 48
0.5
100
AcDbLine
 10
0.0000000000000142
 20
-5.00000847710543
 30
0.0
 11
-0.0000000000000142
 21
5.000008477104995
 31
0.0
  0
LINE
  5
2469
330
245F
100
AcDbEntity
  8
AM_0
 48
0.5
100
AcDbLine
 10
0.7794201296714647
 20
-4.550003370497435
 30
0.0
 11
-0.0000105963812445
 21
-5.00000847710543
 31
0.0
  0
LINE
  5
246A
330
245F
100
AcDbEntity
  8
AM_0
 48
0.5
100
AcDbLine
 10
0.7794201296714647
 20
4.549985867772141
 30
0.0
 11
-0.0000000000000142
 21
4.999984635246652
 31
0.0
  0
ENDBLK
  5
246C
330
245F
100
AcDbEntity
  8
0
100
AcDbBlockEnd
  0
BLOCK
  5
5D7E
330
5D74
100
AcDbEntity
  8
0
100
AcDbBlockBegin
  2
*D8
 70
     1
 10
0.0
 20
0.0
 30
0.0
  3
*D8
  1

  0
LINE
  5
6295
330
5D74
100
AcDbEntity
  8
AM_5
 62
     3
100
AcDbLine
 10
-188.218164545524
 20
16.03490960877382
 30
0.0
 11
-210.9877495064502
 21
16.03490960877376
 31
0.0
  0
LINE
  5
6296
330
5D74
100
AcDbEntity
  8
AM_5
 62
     3
100
AcDbLine
 10
-188.2181645455237
 20
-15.96496588266052
 30
0.0
 11
-210.9877495064501
 21
-15.96496588266058
 31
0.0
  0
LINE
  5
6297
330
5D74
100
AcDbEntity
  8
AM_5
 62
     3
100
AcDbLine
 10
-209.9877495064502
 20
13.53490960877376
 30
0.0
 11
-209.9877495064502
 21
-13.46496588266058
 31
0.0
  0
INSERT
  5
6298
330
5D74
100
AcDbEntity
  8
AM_5
 62
     3
100
AcDbBlockReference
  2
_OPEN30
 10
-209.9877495064502
 20
16.03490960877376
 30
0.0
 41
2.5
 42
2.5
 43
2.5
 50
90.00000000000017
  0
INSERT
  5
6299
330
5D74
100
AcDbEntity
  8
AM_5
 62
     3
100
AcDbBlockReference
  2
_OPEN30
 10
-209.9877495064501
 20
-15.96496588266058
 30
0.0
 41
2.5
 42
2.5
 43
2.5
 50
270.0000000000001
  0
MTEXT
  5
629A
330
5D74
100
AcDbEntity
  8
AM_5
 62
     2
100
AcDbMText
 10
-213.3877495064502
 20
0.0349718630565885
 30
0.0
 40
3.799999999999999
 41
0.0
 71
     5
 72
     1
  1
%%C32
 11
-0.0000000000000028
 21
1.0
 31
0.0
1001
ACAD
1000
MTEXTBEGIN
1070
    73
1070
     1
1070
    44
1040
1.0
1070
    74
1070
     0
1000
MTEXTEND
  0
POINT
  5
629B
330
5D74
100
AcDbEntity
  8
DEFPOINTS
 62
     0
100
AcDbPoint
 10
-187.4181645455239
 20
16.03490960877441
 30
0.0
  0
POINT
  5
629C
330
5D74
100
AcDbEntity
  8
DEFPOINTS
 62
     0
100
AcDbPoint
 10
-187.4181645455237
 20
-15.96496588265994
 30
0.0
  0
POINT
  5
629D
330
5D74
100
AcDbEntity
  8
DEFPOINTS
 62
     0
100
AcDbPoint
 10
-209.9877495064502
 20
-15.96496588265993
 30
0.0
  0
ENDBLK
  5
5D7F
330
5D74
100
AcDbEntity
  8
0
100
AcDbBlockEnd
  0
BLOCK
  5
5D8A
330
5D80
100
AcDbEntity
  8
0
100
AcDbBlockBegin
  2
*D9
 70
     1
 10
0.0
 20
0.0
 30
0.0
  3
*D9
  1

  0
LINE
  5
62A7
330
5D80
100
AcDbEntity
  8
AM_5
 62
     3
100
AcDbLine
 10
-128.2957929061912
 20
-16.76514898497698
 30
0.0
 11
-128.2957929061911
 21
-44.17956413823655
 31
0.0
  0
LINE
  5
62A8
330
5D80
100
AcDbEntity
  8
AM_5
 62
     3
100
AcDbLine
 10
-188.2957929061911
 20
-15.91665655333552
 30
0.0
 11
-188.295792906191
 21
-44.17956413823673
 31
0.0
  0
LINE
  5
62A9
330
5D80
100
AcDbEntity
  8
AM_5
 62
     3
100
AcDbLine
 10
-130.7957929061911
 20
-43.17956413823656
 30
0.0
 11
-185.795792906191
 21
-43.17956413823671
 31
0.0
  0
INSERT
  5
62AA
330
5D80
100
AcDbEntity
  8
AM_5
 62
     3
100
AcDbBlockReference
  2
_OPEN30
 10
-128.2957929061911
 20
-43.17956413823655
 30
0.0
 41
2.5
 42
2.5
 43
2.5
 50
0.0000000000001527
  0
INSERT
  5
62AB
330
5D80
100
AcDbEntity
  8
AM_5
 62
     3
100
AcDbBlockReference
  2
_OPEN30
 10
-188.2957929061911
 20
-43.17956413823672
 30
0.0
 41
2.5
 42
2.5
 43
2.5
 50
180.0000000000001
  0
MTEXT
  5
62AC
330
5D80
100
AcDbEntity
  8
AM_5
 62
     2
100
AcDbMText
 10
-158.2957929061911
 20
-39.77956413823664
 30
0.0
 40
3.799999999999999
 41
0.0
 71
     5
 72
     1
  1
60
1001
ACAD
1000
MTEXTBEGIN
1070
    73
1070
     1
1070
    44
1040
1.0
1070
    74
1070
     0
1000
MTEXTEND
  0
POINT
  5
62AD
330
5D80
100
AcDbEntity
  8
DEFPOINTS
 62
     0
100
AcDbPoint
 10
-128.2957929061912
 20
-15.9651489849766
 30
0.0
  0
POINT
  5
62AE
330
5D80
100
AcDbEntity
  8
DEFPOINTS
 62
     0
100
AcDbPoint
 10
-188.2957929061912
 20
-15.11665655333497
 30
0.0
  0
POINT
  5
62AF
330
5D80
100
AcDbEntity
  8
DEFPOINTS
 62
     0
100
AcDbPoint
 10
-188.2957929061912
 20
-43.17956413823618
 30
0.0
  0
ENDBLK
  5
5D8B
330
5D80
100
AcDbEntity
  8
0
100
AcDbBlockEnd
  0
BLOCK
  5
5D98
330
5D8C
100
AcDbEntity
  8
0
100
AcDbBlockBegin
  2
*D10
 70
     1
 10
0.0
 20
0.0
 30
0.0
  3
*D10
  1

  0
LINE
  5
62B0
330
5D8C
100
AcDbEntity
  8
AM_5
 62
     3
100
AcDbLine
 10
-188.2957070755161
 20
-12.6091968626098
 30
0.0
 11
-188.2957070755161
 21
-32.47651962916092
 31
0.0
  0
LINE
  5
62B1
330
5D8C
100
AcDbEntity
  8
AM_5
 62
     3
100
AcDbLine
 10
-182.2958042715938
 20
-0.797102403542618
 30
0.0
 11
-182.2958042715937
 21
-32.47651962916091
 31
0.0
  0
LINE
  5
62B2
330
5D8C
100
AcDbEntity
  8
AM_5
 62
     3
100
AcDbLine
 10
-190.7957070755161
 20
-31.47651962916093
 30
0.0
 11
-193.2957070755161
 21
-31.47651962916094
 31
0.0
  0
LINE
  5
62B3
330
5D8C
100
AcDbEntity
  8
AM_5
 62
     3
100
AcDbLine
 10
-179.7958042715937
 20
-31.4765196291609
 30
0.0
 11
-177.2958042715937
 21
-31.47651962916089
 31
0.0
  0
LINE
  5
62B4
330
5D8C
100
AcDbEntity
  8
AM_5
 62
     3
100
AcDbLine
 10
-188.2957070755161
 20
-31.47651962916092
 30
0.0
 11
-182.2958042715937
 21
-31.47651962916091
 31
0.0
  0
INSERT
  5
62B5
330
5D8C
100
AcDbEntity
  8
AM_5
 62
     3
100
AcDbBlockReference
  2
_OPEN30
 10
-188.2957070755161
 20
-31.47651962916092
 30
0.0
 41
2.5
 42
2.5
 43
2.5
 50
0.0000000000001527
  0
INSERT
  5
62B6
330
5D8C
100
AcDbEntity
  8
AM_5
 62
     3
100
AcDbBlockReference
  2
_OPEN30
 10
-182.2958042715937
 20
-31.47651962916091
 30
0.0
 41
2.5
 42
2.5
 43
2.5
 50
180.0000000000001
  0
MTEXT
  5
62B7
330
5D8C
100
AcDbEntity
  8
AM_5
 62
     2
100
AcDbMText
 10
-185.2957556735549
 20
-28.07651962916092
 30
0.0
 40
3.799999999999999
 41
0.0
 71
     5
 72
     1
  1
6
1001
ACAD
1000
MTEXTBEGIN
1070
    73
1070
     1
1070
    44
1040
1.0
1070
    74
1070
     0
1000
MTEXTEND
  0
POINT
  5
62B8
330
5D8C
100
AcDbEntity
  8
DEFPOINTS
 62
     0
100
AcDbPoint
 10
-188.2957070755161
 20
-11.80919686260925
 30
0.0
  0
POINT
  5
62B9
330
5D8C
100
AcDbEntity
  8
DEFPOINTS
 62
     0
100
AcDbPoint
 10
-182.2958042715938
 20
0.0028975964579124
 30
0.0
  0
POINT
  5
62BA
330
5D8C
100
AcDbEntity
  8
DEFPOINTS
 62
     0
100
AcDbPoint
 10
-182.2958042715938
 20
-31.47651962916038
 30
0.0
  0
ENDBLK
  5
5D99
330
5D8C
100
AcDbEntity
  8
0
100
AcDbBlockEnd
  0
BLOCK
  5
5DA4
330
5D9A
100
AcDbEntity
  8
0
100
AcDbBlockBegin
  2
*D11
 70
     1
 10
0.0
 20
0.0
 30
0.0
  3
*D11
  1

  0
LINE
  5
629E
330
5D9A
100
AcDbEntity
  8
AM_5
 62
     3
100
AcDbLine
 10
-182.2958042715938
 20
-0.797102403542618
 30
0.0
 11
-182.2958042715937
 21
-32.47651962916069
 31
0.0
  0
LINE
  5
629F
330
5D9A
100
AcDbEntity
  8
AM_5
 62
     3
100
AcDbLine
 10
-132.2957929061913
 20
-0.7971024035423589
 30
0.0
 11
-132.2957929061912
 21
-32.47651962916055
 31
0.0
  0
LINE
  5
62A0
330
5D9A
100
AcDbEntity
  8
AM_5
 62
     3
100
AcDbLine
 10
-179.7958042715937
 20
-31.47651962916068
 30
0.0
 11
-134.7957929061912
 21
-31.47651962916055
 31
0.0
  0
INSERT
  5
62A1
330
5D9A
100
AcDbEntity
  8
AM_5
 62
     3
100
AcDbBlockReference
  2
_OPEN30
 10
-182.2958042715937
 20
-31.47651962916069
 30
0.0
 41
2.5
 42
2.5
 43
2.5
 50
180.0000000000001
  0
INSERT
  5
62A2
330
5D9A
100
AcDbEntity
  8
AM_5
 62
     3
100
AcDbBlockReference
  2
_OPEN30
 10
-132.2957929061912
 20
-31.47651962916055
 30
0.0
 41
2.5
 42
2.5
 43
2.5
 50
0.0000000000001527
  0
MTEXT
  5
62A3
330
5D9A
100
AcDbEntity
  8
AM_5
 62
     2
100
AcDbMText
 10
-157.2957985888924
 20
-28.07651962916062
 30
0.0
 40
3.799999999999999
 41
0.0
 71
     5
 72
     1
  1
50
1001
ACAD
1000
MTEXTBEGIN
1070
    73
1070
     1
1070
    44
1040
1.0
1070
    74
1070
     0
1000
MTEXTEND
  0
POINT
  5
62A4
330
5D9A
100
AcDbEntity
  8
DEFPOINTS
 62
     0
100
AcDbPoint
 10
-182.2958042715938
 20
0.0028975964579124
 30
0.0
  0
POINT
  5
62A5
330
5D9A
100
AcDbEntity
  8
DEFPOINTS
 62
     0
100
AcDbPoint
 10
-132.2957929061913
 20
0.0028975964580261
 30
0.0
  0
POINT
  5
62A6
330
5D9A
100
AcDbEntity
  8
DEFPOINTS
 62
     0
100
AcDbPoint
 10
-132.2957929061913
 20
-31.47651962916016
 30
0.0
  0
ENDBLK
  5
5DA5
330
5D9A
100
AcDbEntity
  8
0
100
AcDbBlockEnd
  0
BLOCK
  5
5DB0
330
5DA6
100
AcDbEntity
  8
0
100
AcDbBlockBegin
  2
*D12
 70
     1
 10
0.0
 20
0.0
 30
0.0
  3
*D12
  1

  0
LINE
  5
62BB
330
5DA6
100
AcDbEntity
  8
AM_5
 62
     3
100
AcDbLine
 10
-3.295792906191294
 20
-12.8489874342198
 30
0.0
 11
-3.295792906191168
 21
-56.70837903443157
 31
0.0
  0
LINE
  5
62BC
330
5DA6
100
AcDbEntity
  8
AM_5
 62
     3
100
AcDbLine
 10
-188.2956830429271
 20
-15.91658331114859
 30
0.0
 11
-188.2956830429269
 21
-56.70837903443211
 31
0.0
  0
LINE
  5
62BD
330
5DA6
100
AcDbEntity
  8
AM_5
 62
     3
100
AcDbLine
 10
-5.795792906191172
 20
-55.70837903443158
 30
0.0
 11
-185.7956830429269
 21
-55.7083790344321
 31
0.0
  0
INSERT
  5
62BE
330
5DA6
100
AcDbEntity
  8
AM_5
 62
     3
100
AcDbBlockReference
  2
_OPEN30
 10
-3.295792906191171
 20
-55.70837903443157
 30
0.0
 41
2.5
 42
2.5
 43
2.5
 50
0.0000000000001527
  0
INSERT
  5
62BF
330
5DA6
100
AcDbEntity
  8
AM_5
 62
     3
100
AcDbBlockReference
  2
_OPEN30
 10
-188.2956830429269
 20
-55.70837903443211
 30
0.0
 41
2.5
 42
2.5
 43
2.5
 50
180.0000000000001
  0
MTEXT
  5
62C0
330
5DA6
100
AcDbEntity
  8
AM_5
 62
     2
100
AcDbMText
 10
-95.79573797455909
 20
-52.30837903443184
 30
0.0
 40
3.799999999999999
 41
0.0
 71
     5
 72
     1
  1
185
1001
ACAD
1000
MTEXTBEGIN
1070
    73
1070
     1
1070
    44
1040
1.0
1070
    74
1070
     0
1000
MTEXTEND
  0
POINT
  5
62C1
330
5DA6
100
AcDbEntity
  8
DEFPOINTS
 62
     0
100
AcDbPoint
 10
-3.295792906191331
 20
-12.04898743421979
 30
0.0
  0
POINT
  5
62C2
330
5DA6
100
AcDbEntity
  8
DEFPOINTS
 62
     0
100
AcDbPoint
 10
-188.2956830429271
 20
-15.11658331114804
 30
0.0
  0
POINT
  5
62C3
330
5DA6
100
AcDbEntity
  8
DEFPOINTS
 62
     0
100
AcDbPoint
 10
-188.2956830429271
 20
-55.70837903443156
 30
0.0
  0
ENDBLK
  5
5DB1
330
5DA6
100
AcDbEntity
  8
0
100
AcDbBlockEnd
  0
BLOCK
  5
5EFA
330
5EEC
100
AcDbEntity
  8
0
100
AcDbBlockBegin
  2
*D13
 70
     1
 10
0.0
 20
0.0
 30
0.0
  3
*D13
  1

  0
LINE
  5
5FBB
330
5EEC
100
AcDbEntity
  8
AM_5
100
AcDbLine
 10
0.2588235327313181
 20
-0.9659336693633257
 30
0.0
 11
8.782571362077071
 21
-32.77699397920485
 31
0.0
  0
LINE
  5
5FBC
330
5EEC
100
AcDbEntity
  8
AM_5
100
AcDbLine
 10
0.2588209057385371
 20
0.9659301054235424
 30
0.0
 11
8.782594056286548
 21
32.77699681359182
 31
0.0
  0
ARC
  5
5FBD
330
5EEC
100
AcDbEntity
  8
AM_5
100
AcDbCircle
 10
0.000001194425791
 20
0.0000044576452124
 30
0.0
 40
32.93324572272729
100
AcDbArc
 50
289.3504323762698
 51
70.64952795315003
  0
INSERT
  5
5FBE
330
5EEC
100
AcDbEntity
  8
AM_5
100
AcDbBlockReference
  2
_OPEN30
 10
8.523752319554152
 20
-31.81106815222458
 30
0.0
 41
2.5
 42
2.5
 43
2.5
 50
197.1752161116279
  0
INSERT
  5
5FBF
330
5EEC
100
AcDbEntity
  8
AM_5
100
AcDbBlockReference
  2
_OPEN30
 10
8.523774344973801
 20
31.81107116581349
 30
0.0
 41
2.5
 42
2.5
 43
2.5
 50
162.8247442177919
  0
MTEXT
  5
5FC0
330
5EEC
100
AcDbEntity
  8
AM_5
 62
     2
100
AcDbMText
 10
29.83324691715111
 20
-0.0000069435519961
 30
0.0
 40
3.2
 41
0.0
 71
     5
 72
     1
  1
150°
  7
ASAMI
 11
-0.0000000000000028
 21
1.0
 31
0.0
1001
ACAD
1000
MTEXTBEGIN
1070
    73
1070
     1
1070
    44
1040
1.0
1070
    74
1070
     0
1000
MTEXTEND
  0
POINT
  5
5FC1
330
5EEC
100
AcDbEntity
  8
DEFPOINTS
 62
     0
100
AcDbPoint
 10
29.84766465740409
 20
13.91818176770725
 30
0.0
  0
POINT
  5
5FC2
330
5EEC
100
AcDbEntity
  8
DEFPOINTS
 62
     0
100
AcDbPoint
 10
0.0
 20
-0.0000000000002274
 30
0.0
  0
POINT
  5
5FC3
330
5EEC
100
AcDbEntity
  8
DEFPOINTS
 62
     0
100
AcDbPoint
 10
0.0000044902083971
 20
-0.0000078423830558
 30
0.0
  0
POINT
  5
5FC4
330
5EEC
100
AcDbEntity
  8
DEFPOINTS
 62
     0
100
AcDbPoint
 10
-3.215385784616955
 20
11.99999215761687
 30
0.0
  0
POINT
  5
5FC5
330
5EEC
100
AcDbEntity
  8
DEFPOINTS
 62
     0
100
AcDbPoint
 10
-3.215401281309596
 20
-12.00000784238305
 30
0.0
  0
ENDBLK
  5
5EFB
330
5EEC
100
AcDbEntity
  8
0
100
AcDbBlockEnd
  0
BLOCK
  5
6021
330
6017
100
AcDbEntity
  8
0
100
AcDbBlockBegin
  2
*D14
 70
     1
 10
0.0
 20
0.0
 30
0.0
  3
*D14
  1

  0
LINE
  5
6346
330
6017
100
AcDbEntity
  8
AM_5
 62
     3
100
AcDbLine
 10
-103.2957929061911
 20
9.338357599406204
 30
0.0
 11
-103.2957929061911
 21
32.10073212579978
 31
0.0
  0
LINE
  5
6347
330
6017
100
AcDbEntity
  8
AM_5
 62
     3
100
AcDbLine
 10
-3.295777346246921
 20
12.8489717494536
 30
0.0
 11
-3.295777346246976
 21
32.10073212580007
 31
0.0
  0
LINE
  5
6348
330
6017
100
AcDbEntity
  8
AM_5
 62
     3
100
AcDbLine
 10
-100.7957929061911
 20
31.10073212579978
 30
0.0
 11
-5.795777346246973
 21
31.10073212580006
 31
0.0
  0
INSERT
  5
6349
330
6017
100
AcDbEntity
  8
AM_5
 62
     3
100
AcDbBlockReference
  2
_OPEN30
 10
-103.2957929061911
 20
31.10073212579978
 30
0.0
 41
2.5
 42
2.5
 43
2.5
 50
180.0000000000001
  0
INSERT
  5
634A
330
6017
100
AcDbEntity
  8
AM_5
 62
     3
100
AcDbBlockReference
  2
_OPEN30
 10
-3.295777346246973
 20
31.10073212580007
 30
0.0
 41
2.5
 42
2.5
 43
2.5
 50
0.0000000000001527
  0
MTEXT
  5
634B
330
6017
100
AcDbEntity
  8
AM_5
 62
     2
100
AcDbMText
 10
-53.29578512621908
 20
34.50073212579992
 30
0.0
 40
3.799999999999999
 41
0.0
 71
     5
 72
     1
  1
100
1001
ACAD
1000
MTEXTBEGIN
1070
    73
1070
     1
1070
    44
1040
1.0
1070
    74
1070
     0
1000
MTEXTEND
  0
POINT
  5
634C
330
6017
100
AcDbEntity
  8
DEFPOINTS
 62
     0
100
AcDbPoint
 10
-103.295792906191
 20
8.538357599406504
 30
0.0
  0
POINT
  5
634D
330
6017
100
AcDbEntity
  8
DEFPOINTS
 62
     0
100
AcDbPoint
 10
-3.295777346246884
 20
12.0489717494536
 30
0.0
  0
POINT
  5
634E
330
6017
100
AcDbEntity
  8
DEFPOINTS
 62
     0
100
AcDbPoint
 10
-3.295777346246882
 20
31.10073212580008
 30
0.0
  0
ENDBLK
  5
6022
330
6017
100
AcDbEntity
  8
0
100
AcDbBlockEnd
  0
BLOCK
  5
60CB
330
60C1
100
AcDbEntity
  8
0
100
AcDbBlockBegin
  2
*D15
 70
     1
 10
0.0
 20
0.0
 30
0.0
  3
*D15
  1

  0
LINE
  5
633D
330
60C1
100
AcDbEntity
  8
AM_5
 62
     3
100
AcDbLine
 10
-128.2957929061911
 20
-17.56514898497735
 30
0.0
 11
-128.295792906191
 21
-44.36730894865125
 31
0.0
  0
LINE
  5
633E
330
60C1
100
AcDbEntity
  8
AM_5
 62
     3
100
AcDbLine
 10
-3.295792906191294
 20
-12.8489874342198
 30
0.0
 11
-3.295792906191203
 21
-44.36730894865088
 31
0.0
  0
LINE
  5
633F
330
60C1
100
AcDbEntity
  8
AM_5
 62
     3
100
AcDbLine
 10
-125.795792906191
 20
-43.36730894865125
 30
0.0
 11
-5.795792906191207
 21
-43.36730894865089
 31
0.0
  0
INSERT
  5
6340
330
60C1
100
AcDbEntity
  8
AM_5
 62
     3
100
AcDbBlockReference
  2
_OPEN30
 10
-128.2957929061911
 20
-43.36730894865126
 30
0.0
 41
2.5
 42
2.5
 43
2.5
 50
180.0000000000001
  0
INSERT
  5
6341
330
60C1
100
AcDbEntity
  8
AM_5
 62
     3
100
AcDbBlockReference
  2
_OPEN30
 10
-3.295792906191207
 20
-43.36730894865088
 30
0.0
 41
2.5
 42
2.5
 43
2.5
 50
0.0000000000001527
  0
MTEXT
  5
6342
330
60C1
100
AcDbEntity
  8
AM_5
 62
     2
100
AcDbMText
 10
-65.79579290619117
 20
-39.96730894865107
 30
0.0
 40
3.799999999999999
 41
0.0
 71
     5
 72
     1
  1
125
1001
ACAD
1000
MTEXTBEGIN
1070
    73
1070
     1
1070
    44
1040
1.0
1070
    74
1070
     0
1000
MTEXTEND
  0
POINT
  5
6343
330
60C1
100
AcDbEntity
  8
DEFPOINTS
 62
     0
100
AcDbPoint
 10
-128.2957929061912
 20
-16.76514898497698
 30
0.0
  0
POINT
  5
6344
330
60C1
100
AcDbEntity
  8
DEFPOINTS
 62
     0
100
AcDbPoint
 10
-3.295792906191331
 20
-12.04898743421979
 30
0.0
  0
POINT
  5
6345
330
60C1
100
AcDbEntity
  8
DEFPOINTS
 62
     0
100
AcDbPoint
 10
-3.295792906191333
 20
-43.36730894865088
 30
0.0
  0
ENDBLK
  5
60CC
330
60C1
100
AcDbEntity
  8
0
100
AcDbBlockEnd
  0
BLOCK
  5
61F7
330
61ED
100
AcDbEntity
  8
0
100
AcDbBlockBegin
  2
*D16
 70
     1
 10
0.0
 20
0.0
 30
0.0
  3
*D16
  1

  0
LINE
  5
625F
330
61ED
100
AcDbEntity
  8
AM_5
 62
     3
100
AcDbLine
 10
-1.576551335179801
 20
12.29999215761683
 30
0.0
 11
16.66726052125238
 21
12.29999215761682
 31
0.0
  0
LINE
  5
6260
330
61ED
100
AcDbEntity
  8
AM_5
 62
     3
100
AcDbLine
 10
-1.576566895124319
 20
-12.30000784238306
 30
0.0
 11
16.66726052125237
 21
-12.30000784238306
 31
0.0
  0
LINE
  5
6261
330
61ED
100
AcDbEntity
  8
AM_5
 62
     3
100
AcDbLine
 10
15.66726052125238
 20
9.799992157616827
 30
0.0
 11
15.66726052125237
 21
-9.800007842383068
 31
0.0
  0
INSERT
  5
6262
330
61ED
100
AcDbEntity
  8
AM_5
 62
     3
100
AcDbBlockReference
  2
_OPEN30
 10
15.66726052125238
 20
12.29999215761682
 30
0.0
 41
2.5
 42
2.5
 43
2.5
 50
90.0
  0
INSERT
  5
6263
330
61ED
100
AcDbEntity
  8
AM_5
 62
     3
100
AcDbBlockReference
  2
_OPEN30
 10
15.66726052125237
 20
-12.30000784238306
 30
0.0
 41
2.5
 42
2.5
 43
2.5
 50
270.0
  0
MTEXT
  5
6264
330
61ED
100
AcDbEntity
  8
AM_5
 62
     2
100
AcDbMText
 10
12.26726052125237
 20
-0.0000078423831177
 30
0.0
 40
3.799999999999999
 41
0.0
 71
     5
 72
     1
  1
%%c24.6
 11
0.0000000000000001
 21
1.0
 31
0.0
1001
ACAD
1000
MTEXTBEGIN
1070
    73
1070
     1
1070
    44
1040
1.0
1070
    74
1070
     0
1000
MTEXTEND
  0
POINT
  5
6265
330
61ED
100
AcDbEntity
  8
DEFPOINTS
 62
     0
100
AcDbPoint
 10
-2.376551335179801
 20
12.29999215761683
 30
0.0
  0
POINT
  5
6266
330
61ED
100
AcDbEntity
  8
DEFPOINTS
 62
     0
100
AcDbPoint
 10
-2.376566895124319
 20
-12.30000784238306
 30
0.0
  0
POINT
  5
6267
330
61ED
100
AcDbEntity
  8
DEFPOINTS
 62
     0
100
AcDbPoint
 10
15.66726052125237
 20
-12.30000784238306
 30
0.0
  0
ENDBLK
  5
61F8
330
61ED
100
AcDbEntity
  8
0
100
AcDbBlockEnd
  0
ENDSEC
  0
SECTION
  2
ENTITIES
  0
TEXT
  5
19BD
330
1F
100
AcDbEntity
  8
AM_6
100
AcDbText
 10
-114.5248701592011
 20
-77.98192224096829
 30
0.0
 40
5.0
  1
KDS246BAK
 50
0.0000000000001527
 72
     4
 11
-93.21534634967731
 21
-75.48192224096823
 31
0.0
100
AcDbText
  0
LINE
  5
35CA
330
1F
100
AcDbEntity
  8
PV0001_1
  6
CONTINUOUS
 48
0.5
100
AcDbLine
 10
-589.2017441852486
 20
-57.69694534177202
 30
0.0
 11
-567.9171279738763
 21
-62.69376548307545
 31
0.0
  0
LINE
  5
5CCE
330
1F
100
AcDbEntity
  8
AM_7
  6
AM_ISO08W050
100
AcDbLine
 10
5.575492385997222
 20
0.0028975964583985
 30
0.0
 11
-190.4878072702285
 21
0.0028975964578512
 31
0.0
  0
DIMENSION
  5
5D62
330
1F
100
AcDbEntity
  8
AM_5
100
AcDbDimension
  2
*D11
 10
-132.2957929061913
 20
-31.47651962916016
 30
0.0
 11
-157.2957985888925
 21
-28.07651962916017
 31
0.0
 70
    32
  1
<>
 51
359.9999999999998
  3
AM_JIS$0
100
AcDbAlignedDimension
 13
-182.2958042715938
 23
0.0028975964579124
 33
0.0
 14
-132.2957929061913
 24
0.0028975964580261
 34
0.0
100
AcDbRotatedDimension
1001
ACAD
1000
DSTYLE
1002
{
1070
   271
1070
     3
1002
}
1001
GENIUS_GENDTOL_13
1000

1000
h7
1000

1040
0.0
  0
LINE
  5
5D63
330
1F
100
AcDbEntity
  8
PV0001_1
  6
CONTINUOUS
 48
0.5
100
AcDbLine
 10
-188.2957929061913
 20
0.0348620013519528
 30
0.0
 11
-188.2957929061913
 21
15.18638055603944
 31
0.0
  0
LINE
  5
5D64
330
1F
100
AcDbEntity
  8
PV0001_1
  6
CONTINUOUS
 48
0.5
100
AcDbLine
 10
-187.4472821640232
 20
0.0348620013519528
 30
0.0
 11
-187.4472821640233
 21
16.03490960877441
 31
0.0
  0
LINE
  5
5D65
330
1F
100
AcDbEntity
  8
PV0001_1
  6
CONTINUOUS
 48
0.5
100
AcDbLine
 10
-187.4472821640232
 20
0.0348620013519528
 30
0.0
 11
-187.4472821640232
 21
-15.9651856060705
 31
0.0
  0
LINE
  5
5D66
330
1F
100
AcDbEntity
  8
PV0001_1
  6
CONTINUOUS
 48
0.5
100
AcDbLine
 10
-188.2957929061913
 20
0.0348620013519528
 30
0.0
 11
-188.2957929061912
 21
-15.11665655333497
 31
0.0
  0
LINE
  5
5D67
330
1F
100
AcDbEntity
  8
PV0001_1
  6
CONTINUOUS
 48
0.5
100
AcDbLine
 10
-188.2956830429271
 20
-15.11658331114804
 30
0.0
 11
-187.4471356796392
 21
-15.965112363883
 31
0.0
  0
LINE
  5
5D68
330
1F
100
AcDbEntity
  8
PV0001_1
  6
CONTINUOUS
 48
0.5
100
AcDbLine
 10
-188.2956830429272
 20
15.18622491639217
 30
0.0
 11
-187.4471356796392
 21
16.0347539691248
 31
0.0
  0
ARC
  5
5D69
330
1F
100
AcDbEntity
  8
AM_0
100
AcDbCircle
 10
-137.1370220889505
 20
0.0028975964580119
 30
0.0
 40
4.841229182759249
100
AcDbArc
 50
270.0000000000001
 51
90.00000000000017
  0
ARC
  5
5D6A
330
1F
100
AcDbEntity
  8
AM_0
100
AcDbCircle
 10
-177.4545750888345
 20
0.0028975964579124
 30
0.0
 40
4.841229182759249
100
AcDbArc
 50
90.00000000000168
 51
270.0000000000017
  0
LINE
  5
5D6B
330
1F
100
AcDbEntity
  8
AM_0
100
AcDbLine
 10
-177.4545750888344
 20
-4.838331586301394
 30
0.0
 11
-137.1370220889505
 21
-4.83833158630128
 31
0.0
  0
LINE
  5
5D6C
330
1F
100
AcDbEntity
  8
AM_0
100
AcDbLine
 10
-137.1370220889505
 20
4.844126779217263
 30
0.0
 11
-177.4545750888345
 21
4.844126779217149
 31
0.0
  0
LINE
  5
5D6D
330
1F
100
AcDbEntity
  8
PV0001_1
  6
CONTINUOUS
100
AcDbLine
 10
-128.2957929061913
 20
16.0348638324056
 30
0.0
 11
-187.4181645455239
 21
16.03486383240547
 31
0.0
  0
LINE
  5
5D6E
330
1F
100
AcDbEntity
  8
PV0001_1
  6
CONTINUOUS
100
AcDbLine
 10
-128.2957929061912
 20
-15.9651489849766
 30
0.0
 11
-128.2957929061913
 21
16.0348638324056
 31
0.0
  0
LINE
  5
5D6F
330
1F
100
AcDbEntity
  8
PV0001_1
  6
CONTINUOUS
100
AcDbLine
 10
-187.4181645455237
 20
-15.96514898497675
 30
0.0
 11
-128.2957929061912
 21
-15.9651489849766
 31
0.0
  0
DIMENSION
  5
5D70
330
1F
100
AcDbEntity
  8
AM_5
100
AcDbDimension
  2
*D12
 10
-188.2956830429271
 20
-55.70837903443156
 30
0.0
 11
-95.79573797455925
 21
-52.30837903443156
 31
0.0
 70
    32
  1
<>
 51
359.9999999999998
  3
AM_JIS$0
100
AcDbAlignedDimension
 13
-3.295792906191331
 23
-12.04898743421979
 33
0.0
 14
-188.2956830429271
 24
-15.11658331114804
 34
0.0
100
AcDbRotatedDimension
1001
ACAD
1000
DSTYLE
1002
{
1070
   271
1070
     3
1002
}
1001
GENIUS_GENDTOL_13
1000

1000
h7
1000

1040
0.0
  0
DIMENSION
  5
5D71
330
1F
100
AcDbEntity
  8
AM_5
100
AcDbDimension
  2
*D10
 10
-182.2958042715938
 20
-31.47651962916038
 30
0.0
 11
-185.295755673555
 21
-31.47651962916038
 31
0.0
 70
   160
  1
<>
 51
359.9999999999998
  3
AM_JIS$0
100
AcDbAlignedDimension
 13
-188.2957070755161
 23
-11.80919686260925
 33
0.0
 14
-182.2958042715938
 24
0.0028975964579124
 34
0.0
100
AcDbRotatedDimension
1001
ACAD
1000
DSTYLE
1002
{
1070
   271
1070
     3
1002
}
1001
GENIUS_GENDTOL_13
1000

1000
h7
1000

1040
0.0
  0
DIMENSION
  5
5D72
330
1F
100
AcDbEntity
  8
AM_5
100
AcDbDimension
  2
*D9
 10
-188.2957929061912
 20
-43.17956413823618
 30
0.0
 11
-158.2957929061912
 21
-39.77956413823618
 31
0.0
 70
    32
  1
<>
 51
359.9999999999998
  3
AM_JIS$0
100
AcDbAlignedDimension
 13
-128.2957929061912
 23
-15.9651489849766
 33
0.0
 14
-188.2957929061912
 24
-15.11665655333497
 34
0.0
100
AcDbRotatedDimension
1001
ACAD
1000
DSTYLE
1002
{
1070
   271
1070
     3
1002
}
1001
GENIUS_GENDTOL_13
1000

1000
h7
1000

1040
0.0
  0
DIMENSION
  5
5D73
330
1F
100
AcDbEntity
  8
AM_5
100
AcDbDimension
  2
*D8
 10
-209.9877495064502
 20
-15.96496588265993
 30
0.0
 11
-213.3877495064502
 21
0.0349718630572093
 31
0.0
 70
    32
  1
%%C<>
 51
359.9999999999998
  3
AM_JIS$0
100
AcDbAlignedDimension
 13
-187.4181645455239
 23
16.03490960877441
 33
0.0
 14
-187.4181645455237
 24
-15.96496588265994
 34
0.0
 50
270.0000000000002
100
AcDbRotatedDimension
1001
ACAD
1000
DSTYLE
1002
{
1070
   271
1070
     3
1002
}
1001
GENIUS_GENDTOL_13
1000

1000
h7
1000

1040
0.0
  0
LINE
  5
5EC1
330
1F
100
AcDbEntity
  8
AM_0
  6
CONTINUOUS
 48
0.5
100
AcDbLine
 10
-118.205537583465
 20
-14.43940510922726
 30
0.0
 11
-128.2957929061912
 21
-15.9651489849766
 31
0.0
  0
LINE
  5
5EDD
330
1F
100
AcDbEntity
  8
AM_0
  6
CONTINUOUS
 48
0.5
100
AcDbLine
 10
-122.2162595174757
 20
15.1266127504278
 30
0.0
 11
-128.2957929061913
 21
16.0348638324056
 31
0.0
  0
DIMENSION
  5
5EEB
330
1F
100
AcDbEntity
  8
AM_5
100
AcDbDimension
  2
*D13
 10
-3.215401281309596
 20
-12.00000784238305
 30
0.0
 11
29.83324691715111
 21
-0.0000069435520877
 31
0.0
 70
    34
  1
<>
 51
359.9999999999998
  3
AM_JIS$2
100
AcDb2LineAngularDimension
 13
0.0000044902083971
 23
-0.0000078423830558
 33
0.0
 14
-3.215385784616955
 24
11.99999215761687
 34
0.0
 15
0.0
 25
-0.0000000000002274
 35
0.0
 16
29.84766465740409
 26
13.91818176770725
 36
0.0
1001
ACAD
1000
DSTYLE
1002
{
1070
   179
1070
     3
1002
}
1001
GENIUS_GENDTOL_13
1000

1000
h7
1000

1040
0.0
  0
DIMENSION
  5
6016
330
1F
100
AcDbEntity
  8
AM_5
100
AcDbDimension
  2
*D14
 10
-3.295777346246882
 20
31.10073212580008
 30
0.0
 11
-53.29578512621898
 21
34.50073212580008
 31
0.0
 70
    32
  1
<>
 51
359.9999999999998
  3
AM_JIS$0
100
AcDbAlignedDimension
 13
-103.295792906191
 23
8.538357599406504
 33
0.0
 14
-3.295777346246884
 24
12.0489717494536
 34
0.0
 50
180.0000000000001
100
AcDbRotatedDimension
1001
ACAD
1000
DSTYLE
1002
{
1070
   271
1070
     3
1002
}
1001
GENIUS_GENDTOL_13
1000

1000
h7
1000

1040
0.0
  0
DIMENSION
  5
60C0
330
1F
100
AcDbEntity
  8
AM_5
100
AcDbDimension
  2
*D15
 10
-3.295792906191333
 20
-43.36730894865088
 30
0.0
 11
-65.79579290619128
 21
-39.96730894865088
 31
0.0
 70
    32
  1
<>
 51
359.9999999999998
  3
AM_JIS$0
100
AcDbAlignedDimension
 13
-128.2957929061912
 23
-16.76514898497698
 33
0.0
 14
-3.295792906191331
 24
-12.04898743421979
 34
0.0
 50
0.0000000000002659
100
AcDbRotatedDimension
1001
ACAD
1000
DSTYLE
1002
{
1070
   271
1070
     3
1002
}
1001
GENIUS_GENDTOL_13
1000

1000
h7
1000

1040
0.0
  0
LINE
  5
6154
330
1F
100
AcDbEntity
  8
AM_0
  6
CONTINUOUS
 48
0.5
100
AcDbLine
 10
-0.0000000183273812
 20
0.0000000320094985
 30
0.0
 11
-3.295772940086266
 21
12.29999215761688
 31
0.0
  0
LINE
  5
6155
330
1F
100
AcDbEntity
  8
AM_0
  6
CONTINUOUS
 48
0.5
100
AcDbLine
 10
-0.0000045268631595
 20
0.0000079064020528
 30
0.0
 11
-3.295792906191294
 21
-12.30000784238304
 31
0.0
  0
LINE
  5
61D9
330
1F
100
AcDbEntity
  8
AM_0
  6
CONTINUOUS
 48
0.5
100
AcDbLine
 10
-16.72197209441373
 20
12.29999215761701
 30
0.0
 11
-3.295772940086266
 21
12.29999215761688
 31
0.0
  0
LINE
  5
61DA
330
1F
100
AcDbEntity
  8
AM_0
  6
CONTINUOUS
 48
0.5
100
AcDbLine
 10
-2.856336688272712
 20
10.65999372164194
 30
0.0
 11
-16.74412112257837
 21
10.65999372164195
 31
0.0
  0
LINE
  5
61DE
330
1F
100
AcDbEntity
  8
AM_0
  6
CONTINUOUS
 48
0.5
100
AcDbLine
 10
-12.33221020511821
 20
3.107341890277329
 30
0.0
 11
-8.156408443078367
 21
1.224808650182748
 31
0.0
  0
ELLIPSE
  5
61DF
330
1F
100
AcDbEntity
  8
AM_0
100
AcDbEllipse
 10
-5.131352654368583
 20
3.66853039951809
 30
0.0
 11
4.347618283629611
 21
0.5504090699008684
 31
0.0
210
0.0
220
0.0
230
0.9999999999999998
 40
0.7112755259465889
 41
3.856952443573636
 42
5.97367781198943
  0
LINE
  5
61E0
330
1F
100
AcDbEntity
  8
AM_0
100
AcDbLine
 10
-2.250916853460926
 20
-3.043833312099702
 30
0.0
 11
-6.136574138225151
 21
-4.885773348054
 31
0.0
  0
LINE
  5
61E1
330
1F
100
AcDbEntity
  8
AM_0
100
AcDbLine
 10
-3.274478511801021
 20
0.921172681963765
 30
0.0
 11
-2.250916853460926
 21
-3.043833312099702
 31
0.0
  0
LINE
  5
61E2
330
1F
100
AcDbEntity
  8
AM_0
  6
CONTINUOUS
 48
0.5
100
AcDbLine
 10
-18.29579245616088
 20
-12.30000784238303
 30
0.0
 11
-3.295792906191294
 21
-12.30000784238304
 31
0.0
  0
LINE
  5
61E3
330
1F
100
AcDbEntity
  8
AM_0
  6
CONTINUOUS
 48
0.5
100
AcDbLine
 10
-18.29579245616087
 20
-10.62273511511029
 30
0.0
 11
-4.240238865075132
 21
-10.62273511511038
 31
0.0
  0
LINE
  5
61E4
330
1F
100
AcDbEntity
  8
AM_0
  6
CONTINUOUS
 48
0.5
100
AcDbLine
 10
-2.250916853460926
 20
-3.043833312099774
 30
0.0
 11
-4.240238865075132
 21
-10.62273511511038
 31
0.0
  0
LINE
  5
61E6
330
1F
100
AcDbEntity
  8
AM_0
  6
CONTINUOUS
 48
0.5
100
AcDbLine
 10
-8.156408443078362
 20
1.224808650182694
 30
0.0
 11
-4.240238865075132
 21
-10.62273511511038
 31
0.0
  0
DIMENSION
  5
61EC
330
1F
100
AcDbEntity
  8
AM_5
100
AcDbDimension
  2
*D16
 10
15.66726052125237
 20
-12.30000784238306
 30
0.0
 11
12.26726052125237
 21
-0.0000078423831177
 31
0.0
 70
    32
  1
%%c<>
  3
AM_JIS$0
100
AcDbAlignedDimension
 13
-2.376551335179801
 23
12.29999215761683
 33
0.0
 14
-2.376566895124319
 24
-12.30000784238306
 34
0.0
 50
89.99999999999984
100
AcDbRotatedDimension
1001
GENIUS_GENDTOL_13
1000

1000
h7
1000

1040
0.0
  0
ELLIPSE
  5
6333
330
1F
100
AcDbEntity
  8
AM_0
100
AcDbEllipse
 10
-125.7952942522048
 20
15.94284594277778
 30
0.0
 11
32.53626718864548
 21
0.0000000000011146
 31
0.0
210
0.0
220
0.0
230
1.0
 40
0.9651307010610032
 41
-1.19245653936342
 42
-0.9416303594893538
  0
ELLIPSE
  5
6334
330
1F
100
AcDbEntity
  8
AM_0
100
AcDbEllipse
 10
-121.6445680044885
 20
5.573809217349064
 30
0.0
 11
21.01951415192102
 21
0.0000000000001226
 31
0.0
210
0.0
220
0.0
230
1.0
 40
0.9651307010610038
 41
4.657979235188529
 42
5.096023414668469
  0
SPLINE
  5
6335
330
1F
100
AcDbEntity
  8
AM_0
  6
CONTINUOUS
 48
0.5
100
AcDbSpline
210
0.0
220
0.0
230
1.0
 70
     8
 71
     3
 72
    23
 73
    19
 74
     0
 42
0.0000000001
 43
0.0000000001
 40
0.0
 40
0.0
 40
0.0
 40
0.0
 40
1.010743684496582
 40
2.022833576468826
 40
3.037578957496683
 40
4.056212745003485
 40
5.079857003665509
 40
6.109500240690275
 40
7.145961322679365
 40
8.189880470204213
 40
9.241703023925269
 40
10.30166930151765
 40
11.3698269246763
 40
12.44598301520777
 40
13.52983529054051
 40
14.62080810761866
 40
15.71821804889404
 40
16.41798914862032
 40
16.41798914862032
 40
16.41798914862032
 40
16.41798914862032
 10
-88.29513613182498
 20
-12.30000784238256
 30
0.0
 10
-88.97912737761405
 20
-12.29283899174214
 30
0.0
 10
-90.34802087575355
 20
-12.27849174228365
 30
0.0
 10
-92.40086295504111
 20
-12.16283679510193
 30
0.0
 10
-94.45361741219945
 20
-11.97897566691956
 30
0.0
 10
-96.50624480154073
 20
-11.72128721050433
 30
0.0
 10
-98.55872474803311
 20
-11.39326400363906
 30
0.0
 10
-100.611016358314
 20
-10.99636318624546
 30
0.0
 10
-102.6631182670854
 20
-10.53326637424367
 30
0.0
 10
-104.7150164790572
 20
-10.00678618443532
 30
0.0
 10
-106.7667061433436
 20
-9.420189338433999
 30
0.0
 10
-108.8182041454269
 20
-8.777126863800189
 30
0.0
 10
-110.8695019845697
 20
-8.081569464033472
 30
0.0
 10
-112.9206229025538
 20
-7.337783860704056
 30
0.0
 10
-114.9715943242801
 20
-6.550430528702958
 30
0.0
 10
-117.0224206811266
 20
-5.724285756245189
 30
0.0
 10
-118.8218821275343
 20
-4.969818527336667
 30
0.0
 10
-119.9369662453343
 20
-4.48969455865191
 30
0.0
 10
-120.3705236584307
 20
-4.301341104417167
 30
0.0
  0
ELLIPSE
  5
6336
330
1F
100
AcDbEntity
  8
AM_0
  6
CONTINUOUS
 48
0.5
100
AcDbEllipse
 10
-123.0491910429647
 20
-10.48762297969517
 30
0.0
 11
-2.919940393881722
 21
3.376362366539521
 31
0.0
210
0.0
220
0.0
230
1.0
 40
0.8612027227279376
 41
0.9574011822366582
 42
2.417606019943871
  0
ELLIPSE
  5
6337
330
1F
100
AcDbEntity
  8
AM_0
  6
CONTINUOUS
 48
0.5
100
AcDbEllipse
 10
-121.6454347880452
 20
-9.436397960018556
 30
0.0
 11
-5.458610298307741
 21
1.560461220268135
 31
0.0
210
0.0
220
0.0
230
1.0
 40
0.9318776263691013
 41
-1.538095303547828
 42
0.5181805871759995
  0
LINE
  5
6338
330
1F
100
AcDbEntity
  8
AM_0
  6
CONTINUOUS
100
AcDbLine
 10
-103.2957929061911
 20
-10.36714283213882
 30
0.0
 11
-103.295792906191
 21
8.720198009727317
 31
0.0
  0
ELLIPSE
  5
63A1
330
1F
100
AcDbEntity
  8
AM_0
100
AcDbEllipse
 10
-149.1584111047003
 20
-88.70791305496641
 30
0.0
 11
-26.8430324654569
 21
104.1608223966483
 31
0.0
210
0.0
220
0.0
230
1.0
 40
0.9868413074651599
 41
-0.8489269797792891
 42
-0.5117753618002583
  0
SPLINE
  5
63A2
330
1F
100
AcDbEntity
  8
AM_0
  6
CONTINUOUS
100
AcDbSpline
210
0.0
220
0.0
230
1.0
 70
     8
 71
     3
 72
    25
 73
    21
 74
     0
 42
0.0000000001
 43
0.0000000001
 40
24.56499986022253
 40
24.56499986022253
 40
24.56499986022253
 40
24.56499986022253
 40
24.6081876908653
 40
25.71582455492886
 40
26.81883757994213
 40
27.91624752121713
 40
29.00722033829659
 40
30.09105838626677
 40
31.16722880550176
 40
32.23537921050758
 40
33.29534548809967
 40
34.347168041821
 40
35.39108718934584
 40
36.42754827133493
 40
37.45720575381954
 40
38.48085062012849
 40
39.49948440763516
 40
40.51422944315121
 40
41.52631975251916
 40
42.53706336680078
 40
42.53706336680078
 40
42.53706336680078
 40
42.53706336680078
 10
-12.33221020511821
 20
3.107341890277329
 30
0.0
 10
-12.35759117117288
 20
3.119346493583451
 30
0.0
 10
-13.03395790638062
 20
3.439134961468204
 30
0.0
 10
-14.36075712562731
 20
4.060254282753687
 30
0.0
 10
-16.31618670342734
 20
4.952297318015193
 30
0.0
 10
-18.27149199001904
 20
5.815385128490699
 30
0.0
 10
-20.22665172246843
 20
6.644102880221666
 30
0.0
 10
-22.18165100979507
 20
7.433253746005394
 30
0.0
 10
-24.13647119614139
 20
8.177879716618635
 30
0.0
 10
-26.09108620771133
 20
8.873315069468036
 30
0.0
 10
-28.04548698453745
 20
9.515140428754545
 30
0.0
 10
-29.99964066156723
 20
10.0993315902211
 30
0.0
 10
-31.9535334239474
 20
10.62214807508989
 30
0.0
 10
-33.90714219903499
 20
11.08028026939446
 30
0.0
 10
-35.86043087653457
 20
11.47077521285114
 30
0.0
 10
-37.81336493663219
 20
11.79110943670594
 30
0.0
 10
-39.76589212185533
 20
12.03922883124045
 30
0.0
 10
-41.71798688716322
 20
12.21343568295143
 30
0.0
 10
-43.66959949909779
 20
12.31259752988165
 30
0.0
 10
-44.97061329355692
 20
12.32819469193046
 30
0.0
 10
-45.62059220357966
 20
12.3233234761776
 30
0.0
  0
SPLINE
  5
63A3
330
1F
100
AcDbEntity
  8
AM_0
  6
CONTINUOUS
100
AcDbSpline
210
0.0
220
0.0
230
1.0
 70
     8
 71
     3
 72
    54
 73
    50
 74
     0
 42
0.0000000001
 43
0.0000000001
 40
0.0
 40
0.0
 40
0.0
 40
0.0
 40
1.010743684496582
 40
2.022833576467832
 40
3.037578957496688
 40
4.056212745003489
 40
5.079857003664532
 40
6.109500240690281
 40
7.145961322679372
 40
8.189895241603872
 40
9.241717795325891
 40
10.30168407291828
 40
11.36983447792315
 40
12.44600489715814
 40
13.52984294512926
 40
14.62081576220742
 40
15.7182257034828
 40
16.82123173843959
 40
17.92886860250316
 40
19.0400688939571
 40
20.15368796660465
 40
21.26852814259644
 40
22.38336992938901
 40
23.49698739941135
 40
24.6081876908653
 40
25.71582455492886
 40
26.81883757994213
 40
27.91624752121713
 40
29.00722033829659
 40
30.09105838626677
 40
31.16722880550176
 40
32.23537921050758
 40
33.29534548809967
 40
34.347168041821
 40
35.39108718934584
 40
36.42754827133493
 40
37.45720575381954
 40
38.48085062012849
 40
39.49948440763516
 40
40.51422944315121
 40
41.52631975251916
 40
42.53706336719636
 40
43.54780698187354
 40
44.55989729124051
 40
45.57464232675757
 40
46.59327611426424
 40
47.6169209805722
 40
48.64656348684535
 40
49.31777037190953
 40
49.31777037190953
 40
49.31777037190953
 40
49.31777037190953
 10
-17.86050967852331
 20
-12.30000784238304
 30
0.0
 10
-18.51050672330666
 20
-12.29268964036879
 30
0.0
 10
-19.81136654262636
 20
-12.27804348924174
 30
0.0
 10
-21.76218286392199
 20
-12.15997906878929
 30
0.0
 10
-23.71291591222438
 20
-11.97228748213741
 30
0.0
 10
-25.66352822930277
 20
-11.70923058499696
 30
0.0
 10
-27.6140003511169
 20
-11.37437330267082
 30
0.0
 10
-29.5642937992127
 20
-10.96920469213153
 30
0.0
 10
-31.51441509723537
 20
-10.49645411355379
 30
0.0
 10
-33.46434695155001
 20
-9.959016465287174
 30
0.0
 10
-35.41407607956694
 20
-9.360191581888519
 30
0.0
 10
-37.36361219960804
 20
-8.703738225249868
 30
0.0
 10
-39.31296053291985
 20
-7.993673934917046
 30
0.0
 10
-41.26214543504834
 20
-7.23441904146686
 30
0.0
 10
-43.21117583008803
 20
-6.430639328893734
 30
0.0
 10
-45.16006979088686
 20
-5.587291786180939
 30
0.0
 10
-47.10884893094259
 20
-4.709579194182119
 30
0.0
 10
-49.05753035378158
 20
-3.802899070061064
 30
0.0
 10
-51.00613297157884
 20
-2.872827849289477
 30
0.0
 10
-52.95467763521068
 20
-1.925090009732296
 30
0.0
 10
-54.90318143526841
 20
-0.9655118541417396
 30
0.0
 10
-56.85167188764395
 20
-0.0000103520295812
 30
0.0
 10
-58.80015359292769
 20
0.9655085297113224
 30
0.0
 10
-60.74866392394544
 20
1.925071742132002
 30
0.0
 10
-62.69720618207273
 20
2.872812450437418
 30
0.0
 10
-64.64581227420696
 20
3.802887214365803
 30
0.0
 10
-66.59450178111113
 20
4.709559600719003
 30
0.0
 10
-68.54328399685531
 20
5.58727664394204
 30
0.0
 10
-70.4921782390096
 20
6.430623502786826
 30
0.0
 10
-72.44120856313029
 20
7.234403384391788
 30
0.0
 10
-74.39039347024984
 20
7.993658278953515
 30
0.0
 10
-76.3397418532131
 20
8.703722399498911
 30
0.0
 10
-78.28927777204076
 20
9.360176426436517
 30
0.0
 10
-80.23899852083816
 20
9.958996022219258
 30
0.0
 10
-82.18891831707651
 20
10.49644070957802
 30
0.0
 10
-84.13903889170539
 20
10.96920079457569
 30
0.0
 10
-86.08934626555006
 20
11.37432312923539
 30
0.0
 10
-88.03982483117295
 20
11.70928405696841
 30
0.0
 10
-89.99043772650013
 20
11.97202913411134
 30
0.0
 10
-91.9411721302311
 20
12.16086050339618
 30
0.0
 10
-93.89198679746703
 20
12.27464536196926
 30
0.0
 10
-95.84284433267214
 20
12.31265711818585
 30
0.0
 10
-97.79370186500685
 20
12.27464536190981
 30
0.0
 10
-99.74451654087072
 20
12.16086050363522
 30
0.0
 10
-101.695250912836
 20
11.9720291332104
 30
0.0
 10
-103.6458639272605
 20
11.7092840603546
 30
0.0
 10
-105.5963325361967
 20
11.37432474949134
 30
0.0
 10
-107.3160778116598
 20
11.01709612077018
 30
0.0
 10
-108.3838293390865
 20
10.76481354530016
 30
0.0
 10
-109.0801874113889
 20
10.56556568796036
 30
0.0
  0
LINE
  5
63A4
330
1F
100
AcDbEntity
  8
AM_11
  6
AM_ISO09W050
 48
0.5
100
AcDbLine
 10
-52.92702907515838
 20
12.29999215761687
 30
0.0
 11
-17.46006244725953
 21
12.29999215761667
 31
0.0
  0
SPLINE
  5
63A5
330
1F
100
AcDbEntity
  8
AM_0
  6
CONTINUOUS
100
AcDbSpline
210
0.0
220
0.0
230
1.0
 70
     8
 71
     3
 72
    11
 73
     7
 74
     0
 42
0.0000000001
 43
0.0000000001
 40
11.27226913003534
 40
11.27226913003534
 40
11.27226913003534
 40
11.2722691300354
 40
12.28301561507924
 40
13.29510212255852
 40
14.30984805882082
 40
15.18258238371378
 40
15.18258238371378
 40
15.18258238371378
 40
15.18258238371378
 10
-54.60886571870378
 20
-12.30000784238273
 30
0.0
 10
-55.25639114617937
 20
-12.23980806802617
 30
0.0
 10
-56.55022064504321
 20
-12.09406703430966
 30
0.0
 10
-58.48428379901128
 20
-11.800071320345
 30
0.0
 10
-60.31974383497086
 20
-11.44892567538656
 30
0.0
 10
-61.50681164688693
 20
-11.17898956734207
 30
0.0
 10
-62.05384629634284
 20
-11.0456485858722
 30
0.0
  0
LINE
  5
63A6
330
1F
100
AcDbEntity
  8
AM_11
  6
AM_ISO09W050
 48
0.5
100
AcDbLine
 10
-49.90285856786347
 20
-12.30000784238325
 30
0.0
 11
-16.74000356134628
 21
-12.30000784238335
 31
0.0
  0
SPLINE
  5
63A7
330
1F
100
AcDbEntity
  8
AM_0
  6
CONTINUOUS
100
AcDbSpline
210
0.0
220
0.0
230
1.0
 70
     8
 71
     3
 72
    17
 73
    13
 74
     0
 42
0.0000000001
 43
0.0000000001
 40
1.580019955310467
 40
1.580019955310467
 40
1.580019955310467
 40
1.580019955310467
 40
2.030549285115227
 40
3.082371838836284
 40
4.126290986361125
 40
5.162752068350215
 40
6.192395305374981
 40
7.216039564037012
 40
8.234688489606833
 40
9.249433870634691
 40
10.26152376260694
 40
11.27226744710342
 40
11.27226744710342
 40
11.27226744710342
 40
11.27226744710352
 10
-36.2332541562546
 20
-9.077770035444263
 30
0.0
 10
-36.50926210363361
 20
-9.171263444791971
 30
0.0
 10
-37.43122137611534
 20
-9.477700581757867
 30
0.0
 10
-39.00523449057314
 20
-9.958358195600478
 30
0.0
 10
-40.95488258364888
 20
-10.49663095951019
 30
0.0
 10
-42.90506741301906
 20
-10.96916297886186
 30
0.0
 10
-44.85534159917747
 20
-11.37436738493218
 30
0.0
 10
-46.80582826421317
 20
-11.70929670130335
 30
0.0
 10
-48.75644968277552
 20
-11.97203963404944
 30
0.0
 10
-50.70719256264202
 20
-12.16089352105172
 30
0.0
 10
-52.6580088425598
 20
-12.2746426879076
 30
0.0
 10
-53.95886868249566
 20
-12.3000079127644
 30
0.0
 10
-54.60886571870362
 20
-12.30000784238273
 30
0.0
  0
LINE
  5
63A8
330
1F
100
AcDbEntity
  8
AM_0
100
AcDbLine
 10
-18.29579245616088
 20
-12.27344335973786
 30
0.0
 11
-18.29579245616079
 21
5.820176485335617
 31
0.0
  0
LINE
  5
63A9
330
1F
100
AcDbEntity
  8
AM_0
100
AcDbLine
 10
-16.81926103120856
 20
5.17228679015914
 30
0.0
 11
-16.72303539147023
 21
12.29999215761689
 31
0.0
  0
SPLINE
  5
63AA
330
1F
100
AcDbEntity
  8
AM_0
  6
CONTINUOUS
 48
0.5
100
AcDbSpline
210
0.0
220
0.0
230
1.0
 70
     8
 71
     3
 72
    15
 73
    11
 74
     0
 42
0.0000000001
 43
0.0000000001
 40
0.0
 40
0.0
 40
0.0
 40
0.0
 40
1.010743614677189
 40
2.022833924044153
 40
3.037578959561199
 40
4.056212747067873
 40
5.079857613375832
 40
6.109500119648989
 40
7.14596120163808
 40
7.516011991058352
 40
7.516011991058352
 40
7.516011991058352
 40
7.516011991058352
 10
-16.72197209441373
 20
12.29999215761701
 30
0.0
 10
-17.32970840126615
 20
12.29991824508093
 30
0.0
 10
-18.54610786563997
 20
12.27467972137133
 30
0.0
 10
-20.3701679174778
 20
12.16085122479001
 30
0.0
 10
-22.19417825071049
 20
11.9720317878445
 30
0.0
 10
-24.01806798097613
 20
11.7092827603611
 30
0.0
 10
-25.84182575118896
 20
11.37432729653552
 30
0.0
 10
-27.66542044887588
 20
10.96919597767639
 30
0.0
 10
-29.09375132010646
 20
10.59887729105774
 30
0.0
 10
-29.91439312417412
 20
10.36645511730342
 30
0.0
 10
-30.31354247413716
 20
10.17723940219401
 30
0.0
  0
LINE
  5
63AB
330
1F
100
AcDbEntity
  8
AM_0
  6
CONTINUOUS
 48
0.5
100
AcDbLine
 10
-90.21591784109164
 20
-12.30000784238267
 30
0.0
 11
-54.60886571870384
 21
-12.30000784238298
 31
0.0
  0
LINE
  5
63AC
330
1F
100
AcDbEntity
  8
AM_0
  6
CONTINUOUS
 48
0.5
100
AcDbLine
 10
-95.84282961389353
 20
12.29999215761737
 30
0.0
 11
-44.09155880666662
 21
12.29999215761692
 31
0.0
  0
SPLINE
  5
63AD
330
1F
100
AcDbEntity
  8
AM_0
  6
CONTINUOUS
100
AcDbSpline
210
0.0
220
0.0
230
1.0
 70
     8
 71
     3
 72
    22
 73
    18
 74
     0
 42
0.0000000001
 43
0.0000000001
 40
17.17441611292
 40
17.17441611292
 40
17.17441611292
 40
17.17441611292
 40
17.38177636558528
 40
18.41823744757437
 40
19.46215659509824
 40
20.51397914882054
 40
21.57394542641293
 40
22.64209583141747
 40
23.71826625065247
 40
24.80210429862395
 40
25.8930771157021
 40
26.99048705697709
 40
28.09349309193389
 40
29.20112995599786
 40
30.31233024745139
 40
31.42594771747373
 40
32.5407895042663
 40
32.54078950426994
 40
32.54078950426994
 40
32.54078950426994
 10
-62.0546994555601
 20
-11.04549686546598
 30
0.0
 10
-62.18532889473602
 20
-11.01702357187206
 30
0.0
 10
-62.9683810417038
 20
-10.84358962838199
 30
0.0
 10
-64.40288845013594
 20
-10.49583199875356
 30
0.0
 10
-66.35280796754696
 20
-9.958385767311858
 30
0.0
 10
-68.30252879225233
 20
-9.3595665907915
 30
0.0
 10
-70.25206468917175
 20
-8.703112446970832
 30
0.0
 10
-72.2014130831037
 20
-7.993048370332546
 30
0.0
 10
-74.15059796826674
 20
-7.233793417741908
 30
0.0
 10
-76.09962836993464
 20
-6.430013725846011
 30
0.0
 10
-78.04852232127332
 20
-5.586666159962851
 30
0.0
 10
-79.99730149274788
 20
-4.708953640389316
 30
0.0
 10
-81.94598279858572
 20
-3.80227324795018
 30
0.0
 10
-83.89458585541493
 20
-2.872203033631238
 30
0.0
 10
-85.8431279359053
 20
-1.924461876471315
 30
0.0
 10
-87.79163790601337
 20
-0.9648978516709398
 30
0.0
 10
-89.09038957330357
 20
-0.3213386146310932
 30
0.0
 10
-89.74012218338211
 20
0.0006177679709957
 30
0.0
  0
VIEWPORT
  5
110
330
101
100
AcDbEntity
 67
     1
  8
0
100
AcDbViewport
 10
420.5
 20
297.0
 30
0.0
 40
948.9782706766916
 41
628.452
 68
     1
 69
     1
1001
ACAD
1000
MVIEW
1002
{
1070
    16
1010
0.0
1020
0.0
1030
0.0
1010
0.0
1020
0.0
1030
1.0
1040
0.0
1040
628.452
1040
420.5
1040
297.0
1040
50.0
1040
0.0
1040
0.0
1070
     0
1070
   100
1070
     1
1070
     1
1070
     0
1070
     0
1070
     0
1070
     0
1040
0.0
1040
0.0
1040
0.0
1040
10.0
1040
10.0
1040
10.0
1040
10.0
1070
     0
1002
{
1002
}
1002
}
  0
ENDSEC
  0
SECTION
  2
OBJECTS
  0
DICTIONARY
  5
C
330
0
100
AcDbDictionary
  3
ACAD_GROUP
350
D
  3
ACAD_LAYOUT
350
1A
  3
ACAD_MLINESTYLE
350
17
  3
ACAD_PLOTSETTINGS
350
19
  3
ACAD_PLOTSTYLENAME
350
E
  3
ACDBVARIABLEDICTIONARY
350
34
  3
ACMDICTIONARY
350
43
  3
AMG
350
2B
  3
AMGSNAPSETTINGS
350
6E
  3
DWGPROPS
350
63CB
  3
ACDBHEADERROUNDTRIPXREC
350
63DB
  0
DICTIONARY
  5
74
330
1F
100
AcDbDictionary
280
     1
  3
ACAD_INDEX
360
63CD
  3
ACAD_LAYOUTSELFREF
360
63FE
  0
DICTIONARY
  5
6403
330
101
100
AcDbDictionary
280
     1
  3
ACAD_LAYOUTSELFREF
360
6404
  0
DICTIONARY
  5
D
102
{ACAD_REACTORS
330
C
102
}
330
C
100
AcDbDictionary
  0
DICTIONARY
  5
1A
102
{ACAD_REACTORS
330
C
102
}
330
C
100
AcDbDictionary
  0
DICTIONARY
  5
17
102
{ACAD_REACTORS
330
C
102
}
330
C
100
AcDbDictionary
  3
STANDARD
350
18
  0
DICTIONARY
  5
19
102
{ACAD_REACTORS
330
C
102
}
330
C
100
AcDbDictionary
  0
ACDBDICTIONARYWDFLT
  5
E
102
{ACAD_REACTORS
330
C
102
}
330
C
100
AcDbDictionary
281
     1
  3
Normal
350
F
100
AcDbDictionaryWithDefault
340
F
  0
DICTIONARY
  5
34
102
{ACAD_REACTORS
330
C
102
}
330
C
100
AcDbDictionary
  3
INDEXCTL
350
35
  3
SORTENTS
350
B5E
  0
DICTIONARY
  5
43
102
{ACAD_REACTORS
330
C
102
}
330
C
100
AcDbDictionary
  3
ACMSTDDICTIONARY
350
260
  0
DICTIONARY
  5
2B
102
{ACAD_REACTORS
330
C
102
}
330
C
100
AcDbDictionary
  3
ACMGSETTINGS
350
2C
  0
DICTIONARY
  5
6E
102
{ACAD_REACTORS
330
C
102
}
330
C
100
AcDbDictionary
  0
XRECORD
  5
63CB
102
{ACAD_REACTORS
330
C
102
}
330
C
100
AcDbXrecord
  1
DWGPROPS COOKIE
  2

  3

  4

  6

  7

  8

  9

300
AmdtFileType=82
301
=
302
=
303
=
304
=
305
=
306
=
307
=
308
=
309
=
 40
0.8501426851851851
 41
2452800.443498622
 42
2453002.625813923
  1

 90
        1
  0
DICTIONARY
  5
63DB
102
{ACAD_REACTORS
330
C
102
}
330
C
100
AcDbDictionary
  3
TSTACKALIGN
350
63DC
  3
TSTACKSIZE
350
63DD
  3
HYPERLINKBASE
350
63DE
  3
STYLESHEET
350
63DF
  3
LAYOUTDICT
350
63E0
  3
PLOTSETDICT
350
63E1
  3
PLOTSTYLNAMDICT
350
63E2
  3
LWETCUNION
350
63E3
  3
INSUNITS
350
63E4
  3
CEPSNTYPE
350
63E5
  3
FINGERPRINTGUID
350
63E6
  3
VERSIONGUID
350
63E7
  3
PSVPSCALE
350
63E8
  3
DIMSTYLEDATA
350
63E9
  3
PUCSORTHOREF
350
63EA
  3
PUCSORTHOVIEW
350
63EB
  3
PUCSBASE
350
63EC
  3
PUCSORGTOP
350
63ED
  3
PUCSORGBOTTOM
350
63EE
  3
PUCSORGLEFT
350
63EF
  3
PUCSORGRIGHT
350
63F0
  3
PUCSORGFRONT
350
63F1
  3
PUCSORGBACK
350
63F2
  3
UCSORTHOREF
350
63F3
  3
UCSORTHOVIEW
350
63F4
  3
UCSBASE
350
63F5
  3
UCSORGTOP
350
63F6
  3
UCSORGBOTTOM
350
63F7
  3
UCSORGLEFT
350
63F8
  3
UCSORGRIGHT
350
63F9
  3
UCSORGFRONT
350
63FA
  3
UCSORGBACK
350
63FB
  0
DICTIONARY
  5
63CD
102
{ACAD_REACTORS
330
74
102
}
330
74
100
AcDbDictionary
  3
*A1
350
63CE
  0
XRECORD
  5
63FE
102
{ACAD_REACTORS
330
74
102
}
330
74
100
AcDbXrecord
340
1F
  0
XRECORD
  5
6404
102
{ACAD_REACTORS
330
6403
102
}
330
6403
100
AcDbXrecord
340
101
  0
MLINESTYLE
  5
18
102
{ACAD_REACTORS
330
17
102
}
330
17
100
AcDbMlineStyle
  2
STANDARD
 70
     0
  3

 62
   256
 51
90.0
 52
90.0
 71
     2
 49
0.5
 62
   256
  6
BYLAYER
 49
-0.5
 62
   256
  6
BYLAYER
  0
ACDBPLACEHOLDER
  5
F
102
{ACAD_REACTORS
330
E
102
}
330
E
100
AcDbPlaceHolder
280
     0
  0
DICTIONARYVAR
  5
35
102
{ACAD_REACTORS
330
34
102
}
330
34
100
DictionaryVariables
280
     0
  1
1
  0
DICTIONARYVAR
  5
B5E
102
{ACAD_REACTORS
330
34
102
}
330
34
100
DictionaryVariables
280
     0
  1
96
  0
DICTIONARY
  5
260
102
{ACAD_REACTORS
330
43
102
}
330
43
100
AcDbDictionary
  0
DICTIONARY
  5
2C
102
{ACAD_REACTORS
330
2B
102
}
330
2B
100
AcDbDictionary
  3
DWGSETTINGS
350
2D
  0
XRECORD
  5
63DC
102
{ACAD_REACTORS
330
63DB
102
}
330
63DB
100
AcDbXrecord
 90
        1
  0
XRECORD
  5
63DD
102
{ACAD_REACTORS
330
63DB
102
}
330
63DB
100
AcDbXrecord
 90
       70
  0
XRECORD
  5
63DE
102
{ACAD_REACTORS
330
63DB
102
}
330
63DB
100
AcDbXrecord
  1

  0
XRECORD
  5
63DF
102
{ACAD_REACTORS
330
63DB
102
}
330
63DB
100
AcDbXrecord
  1
ASAMI.ctb
  0
XRECORD
  5
63E0
102
{ACAD_REACTORS
330
63DB
102
}
330
63DB
100
AcDbXrecord
340
1A
  0
XRECORD
  5
63E1
102
{ACAD_REACTORS
330
63DB
102
}
330
63DB
100
AcDbXrecord
340
19
  0
XRECORD
  5
63E2
102
{ACAD_REACTORS
330
63DB
102
}
330
63DB
100
AcDbXrecord
340
E
  0
XRECORD
  5
63E3
102
{ACAD_REACTORS
330
63DB
102
}
330
63DB
100
AcDbXrecord
 90
    10781
  0
XRECORD
  5
63E4
102
{ACAD_REACTORS
330
63DB
102
}
330
63DB
100
AcDbXrecord
 90
        4
  0
XRECORD
  5
63E5
102
{ACAD_REACTORS
330
63DB
102
}
330
63DB
100
AcDbXrecord
 90
        0
  0
XRECORD
  5
63E6
102
{ACAD_REACTORS
330
63DB
102
}
330
63DB
100
AcDbXrecord
  1
{AFB28963-8C59-40AE-9337-C84526B81ACE}
  0
XRECORD
  5
63E7
102
{ACAD_REACTORS
330
63DB
102
}
330
63DB
100
AcDbXrecord
  1
{D2E9F72F-087B-416A-9CE0-58DF480D6B5E}
  0
XRECORD
  5
63E8
102
{ACAD_REACTORS
330
63DB
102
}
330
63DB
100
AcDbXrecord
 40
0.0
  0
XRECORD
  5
63E9
102
{ACAD_REACTORS
330
63DB
102
}
330
63DB
100
AcDbXrecord
1000
DSTYLE
1002
{
1070
    79
 70
     2
1070
   341
340
59
1070
   342
340
59
1070
   371
 70
    -1
1070
   372
 70
    -1
1002
}
  0
XRECORD
  5
63EA
102
{ACAD_REACTORS
330
63DB
102
}
330
63DB
100
AcDbXrecord
340
0
  0
XRECORD
  5
63EB
102
{ACAD_REACTORS
330
63DB
102
}
330
63DB
100
AcDbXrecord
 70
     0
  0
XRECORD
  5
63EC
102
{ACAD_REACTORS
330
63DB
102
}
330
63DB
100
AcDbXrecord
340
0
  0
XRECORD
  5
63ED
102
{ACAD_REACTORS
330
63DB
102
}
330
63DB
100
AcDbXrecord
 10
0.0
 20
0.0
 30
0.0
  0
XRECORD
  5
63EE
102
{ACAD_REACTORS
330
63DB
102
}
330
63DB
100
AcDbXrecord
 10
0.0
 20
0.0
 30
0.0
  0
XRECORD
  5
63EF
102
{ACAD_REACTORS
330
63DB
102
}
330
63DB
100
AcDbXrecord
 10
0.0
 20
0.0
 30
0.0
  0
XRECORD
  5
63F0
102
{ACAD_REACTORS
330
63DB
102
}
330
63DB
100
AcDbXrecord
 10
0.0
 20
0.0
 30
0.0
  0
XRECORD
  5
63F1
102
{ACAD_REACTORS
330
63DB
102
}
330
63DB
100
AcDbXrecord
 10
0.0
 20
0.0
 30
0.0
  0
XRECORD
  5
63F2
102
{ACAD_REACTORS
330
63DB
102
}
330
63DB
100
AcDbXrecord
 10
0.0
 20
0.0
 30
0.0
  0
XRECORD
  5
63F3
102
{ACAD_REACTORS
330
63DB
102
}
330
63DB
100
AcDbXrecord
340
0
  0
XRECORD
  5
63F4
102
{ACAD_REACTORS
330
63DB
102
}
330
63DB
100
AcDbXrecord
 70
     0
  0
XRECORD
  5
63F5
102
{ACAD_REACTORS
330
63DB
102
}
330
63DB
100
AcDbXrecord
340
0
  0
XRECORD
  5
63F6
102
{ACAD_REACTORS
330
63DB
102
}
330
63DB
100
AcDbXrecord
 10
0.0
 20
0.0
 30
0.0
  0
XRECORD
  5
63F7
102
{ACAD_REACTORS
330
63DB
102
}
330
63DB
100
AcDbXrecord
 10
0.0
 20
0.0
 30
0.0
  0
XRECORD
  5
63F8
102
{ACAD_REACTORS
330
63DB
102
}
330
63DB
100
AcDbXrecord
 10
0.0
 20
0.0
 30
0.0
  0
XRECORD
  5
63F9
102
{ACAD_REACTORS
330
63DB
102
}
330
63DB
100
AcDbXrecord
 10
0.0
 20
0.0
 30
0.0
  0
XRECORD
  5
63FA
102
{ACAD_REACTORS
330
63DB
102
}
330
63DB
100
AcDbXrecord
 10
0.0
 20
0.0
 30
0.0
  0
XRECORD
  5
63FB
102
{ACAD_REACTORS
330
63DB
102
}
330
63DB
100
AcDbXrecord
 10
0.0
 20
0.0
 30
0.0
  0
LAYER_INDEX
  5
63CE
102
{ACAD_REACTORS
330
63CD
102
}
330
63CD
100
AcDbIndex
 40
2453151.719432488
100
AcDbLayerIndex
  8
0
360
63CF
 90
        0
  8
AM_0
360
63D0
 90
       35
  8
PV0001_1
360
63D1
 90
       10
  8
AM_CL
360
63D2
 90
        0
  8
AM_7
360
63D3
 90
        1
  8
AM_11
360
63D4
 90
        2
  8
AM_5
360
63D5
 90
        9
  8
Defpoints
360
63D6
 90
        0
  8
AM_6
360
63D7
 90
        1
  8
AM_4
360
63D8
 90
        0
  8
AM_3
360
63D9
 90
        0
  0
XRECORD
  5
2D
102
{ACAD_REACTORS
330
2C
102
}
330
2C
100
AcDbXrecord
  1
VERSION
140
15.0
  1
PRODUCT
  2
AutoCAD Mechanical 2000
  0
IDBUFFER
  5
63CF
330
0
100
AcDbIdBuffer
  0
IDBUFFER
  5
63D0
330
0
100
AcDbIdBuffer
330
61E4
330
61E6
330
6333
330
6334
330
6335
330
6336
330
6337
330
6338
330
63A1
330
63A2
330
63A3
330
63A5
330
63A7
330
63A8
330
63A9
330
63AA
330
63AB
330
63AC
330
63AD
330
5D69
330
5D6A
330
5D6B
330
5D6C
330
5EC1
330
5EDD
330
6154
330
6155
330
61D9
330
61DA
330
61DE
330
61DF
330
61E0
330
61E1
330
61E2
330
61E3
  0
IDBUFFER
  5
63D1
330
0
100
AcDbIdBuffer
330
35CA
330
5D63
330
5D64
330
5D65
330
5D66
330
5D67
330
5D68
330
5D6D
330
5D6E
330
5D6F
  0
IDBUFFER
  5
63D2
330
0
100
AcDbIdBuffer
  0
IDBUFFER
  5
63D3
330
0
100
AcDbIdBuffer
330
5CCE
  0
IDBUFFER
  5
63D4
330
0
100
AcDbIdBuffer
330
63A4
330
63A6
  0
IDBUFFER
  5
63D5
330
0
100
AcDbIdBuffer
330
5D62
330
5D70
330
5D71
330
5D72
330
5D73
330
5EEB
330
6016
330
60C0
330
61EC
  0
IDBUFFER
  5
63D6
330
0
100
AcDbIdBuffer
  0
IDBUFFER
  5
63D7
330
0
100
AcDbIdBuffer
330
19BD
  0
IDBUFFER
  5
63D8
330
0
100
AcDbIdBuffer
  0
IDBUFFER
  5
63D9
330
0
100
AcDbIdBuffer
  0
ENDSEC
  0
EOF
