  0
SECTION
  2
HEADER
  9
$ACADVER
  1
AC1014
  9
$ACADMAINTVER
 70
     9
  9
$DWGCODEPAGE
  3
ANSI_932
  9
$INSBASE
 10
0.0
 20
0.0
 30
0.0
  9
$EXTMIN
 10
-589.2017441852486
 20
-77.9819222409683
 30
-0.00000001
  9
$EXTMAX
 10
32.93324691715113
 20
36.40073212579995
 30
0.00000001
  9
$LIMMIN
 10
-239.7844400960614
 20
-116.5703257817432
  9
$LIMMAX
 10
63.51757254482572
 20
77.02475587733534
  9
$ORTHOMODE
 70
     0
  9
$REGENMODE
 70
     1
  9
$FILLMODE
 70
     1
  9
$QTEXTMODE
 70
     0
  9
$MIRRTEXT
 70
     0
  9
$DRAGMODE
 70
     2
  9
$LTSCALE
 40
1.0
  9
$OSMODE
 70
    55
  9
$ATTMODE
 70
     1
  9
$TEXTSIZE
 40
2.5
  9
$TRACEWID
 40
1.0
  9
$TEXTSTYLE
  7
STANDARD
  9
$CLAYER
  8
AM_0
  9
$CELTYPE
  6
BYLAYER
  9
$CECOLOR
 62
   256
  9
$CELTSCALE
 40
1.0
  9
$DELOBJ
 70
     1
  9
$DISPSILH
 70
     0
  9
$DIMSCALE
 40
1.0
  9
$DIMASZ
 40
2.5
  9
$DIMEXO
 40
1.0
  9
$DIMDLI
 40
12.0
  9
$DIMRND
 40
0.0
  9
$DIMDLE
 40
0.0
  9
$DIMEXE
 40
1.0
  9
$DIMTP
 40
0.1
  9
$DIMTM
 40
0.1
  9
$DIMTXT
 40
3.2
  9
$DIMCEN
 40
0.0
  9
$DIMTSZ
 40
0.0
  9
$DIMTOL
 70
     0
  9
$DIMLIM
 70
     0
  9
$DIMTIH
 70
     0
  9
$DIMTOH
 70
     0
  9
$DIMSE1
 70
     0
  9
$DIMSE2
 70
     0
  9
$DIMTAD
 70
     3
  9
$DIMZIN
 70
     8
  9
$DIMBLK
  1
OPEN30
  9
$DIMASO
 70
     1
  9
$DIMSHO
 70
     1
  9
$DIMPOST
  1

  9
$DIMAPOST
  1
"
  9
$DIMALT
 70
     0
  9
$DIMALTD
 70
     2
  9
$DIMALTF
 40
0.0393701
  9
$DIMLFAC
 40
1.0
  9
$DIMTOFL
 70
     1
  9
$DIMTVP
 40
0.0
  9
$DIMTIX
 70
     0
  9
$DIMSOXD
 70
     0
  9
$DIMSAH
 70
     0
  9
$DIMBLK1
  1

  9
$DIMBLK2
  1

  9
$DIMSTYLE
  2
AM_JIS
  9
$DIMCLRD
 70
   256
  9
$DIMCLRE
 70
   256
  9
$DIMCLRT
 70
     2
  9
$DIMTFAC
 40
0.71
  9
$DIMGAP
 40
1.5
  9
$DIMJUST
 70
     0
  9
$DIMSD1
 70
     0
  9
$DIMSD2
 70
     0
  9
$DIMTOLJ
 70
     0
  9
$DIMTZIN
 70
     0
  9
$DIMALTZ
 70
     0
  9
$DIMALTTZ
 70
     0
  9
$DIMFIT
 70
     3
  9
$DIMUPT
 70
     0
  9
$DIMUNIT
 70
     2
  9
$DIMDEC
 70
     3
  9
$DIMTDEC
 70
     3
  9
$DIMALTU
 70
     2
  9
$DIMALTTD
 70
     2
  9
$DIMTXSTY
  7
ASAMI
  9
$DIMAUNIT
 70
     0
  9
$LUNITS
 70
     2
  9
$LUPREC
 70
     2
  9
$SKETCHINC
 40
1.0
  9
$FILLETRAD
 40
2.5
  9
$AUNITS
 70
     0
  9
$AUPREC
 70
     0
  9
$MENU
  1
.
  9
$ELEVATION
 40
0.0
  9
$PELEVATION
 40
0.0
  9
$THICKNESS
 40
0.0
  9
$LIMCHECK
 70
     0
  9
$BLIPMODE
 70
     0
  9
$CHAMFERA
 40
2.5
  9
$CHAMFERB
 40
2.5
  9
$CHAMFERC
 40
20.0
  9
$CHAMFERD
 40
0.0
  9
$SKPOLY
 70
     0
  9
$TDCREATE
 40
2452800.443498622
  9
$TDUPDATE
 40
2453151.719642454
  9
$TDINDWG
 40
0.8544424769
  9
$TDUSRTIMER
 40
0.8544424769
  9
$USRTIMER
 70
     1
  9
$ANGBASE
 50
0.0
  9
$ANGDIR
 70
     0
  9
$PDMODE
 70
     0
  9
$PDSIZE
 40
0.0
  9
$PLINEWID
 40
0.0
  9
$COORDS
 70
     1
  9
$SPLFRAME
 70
     0
  9
$SPLINETYPE
 70
     6
  9
$SPLINESEGS
 70
     8
  9
$ATTDIA
 70
     1
  9
$ATTREQ
 70
     1
  9
$HANDLING
 70
 12289
  9
$HANDSEED
  5
64AB
  9
$SURFTAB1
 70
     6
  9
$SURFTAB2
 70
     6
  9
$SURFTYPE
 70
     6
  9
$SURFU
 70
     6
  9
$SURFV
 70
     6
  9
$UCSNAME
  2

  9
$UCSORG
 10
0.0
 20
-0.0000000000002274
 30
0.0
  9
$UCSXDIR
 10
1.0
 20
0.0000000000000027
 30
0.0
  9
$UCSYDIR
 10
-0.0000000000000027
 20
1.0
 30
0.0
  9
$PUCSNAME
  2

  9
$PUCSORG
 10
0.0
 20
0.0
 30
0.0
  9
$PUCSXDIR
 10
1.0
 20
0.0
 30
0.0
  9
$PUCSYDIR
 10
0.0
 20
1.0
 30
0.0
  9
$USERI1
 70
     0
  9
$USERI2
 70
     0
  9
$USERI3
 70
     0
  9
$USERI4
 70
     0
  9
$USERI5
 70
     0
  9
$USERR1
 40
0.0
  9
$USERR2
 40
0.0
  9
$USERR3
 40
0.0
  9
$USERR4
 40
0.0
  9
$USERR5
 40
0.0
  9
$WORLDVIEW
 70
     1
  9
$SHADEDGE
 70
     3
  9
$SHADEDIF
 70
    70
  9
$TILEMODE
 70
     1
  9
$MAXACTVP
 70
    64
  9
$PINSBASE
 10
0.0
 20
0.0
 30
0.0
  9
$PLIMCHECK
 70
     0
  9
$PEXTMIN
 10
1.000000000000000E+20
 20
1.000000000000000E+20
 30
1.000000000000000E+20
  9
$PEXTMAX
 10
-1.000000000000000E+20
 20
-1.000000000000000E+20
 30
-1.000000000000000E+20
  9
$PLIMMIN
 10
0.0
 20
0.0
  9
$PLIMMAX
 10
841.0
 20
594.0
  9
$UNITMODE
 70
     0
  9
$VISRETAIN
 70
     1
  9
$PLINEGEN
 70
     0
  9
$PSLTSCALE
 70
     0
  9
$TREEDEPTH
 70
  3020
  9
$PICKSTYLE
 70
     0
  9
$CMLSTYLE
  2
STANDARD
  9
$CMLJUST
 70
     0
  9
$CMLSCALE
 40
20.0
  9
$PROXYGRAPHICS
 70
     1
  9
$MEASUREMENT
 70
     1
  0
ENDSEC
  0
SECTION
  2
CLASSES
  0
CLASS
  1
ACDBDICTIONARYWDFLT
  2
AcDbDictionaryWithDefault
  3
AutoCAD 2000
 90
        0
280
     0
281
     0
  0
CLASS
  1
ACDBPLACEHOLDER
  2
AcDbPlaceHolder
  3
AutoCAD 2000
 90
        0
280
     0
281
     0
  0
CLASS
  1
LAYOUT
  2
AcDbLayout
  3
AutoCAD 2000
 90
        0
280
     0
281
     0
  0
CLASS
  1
AMGSETTINGSOBJ
  2
AmgSettingsObj
  3
"AcadM|Product Description: AutoCAD Mechanical 2000|Company: Autodesk"
 90
        0
280
     0
281
     0
  0
CLASS
  1
ACME_DOCUMENT
  2
AcMeDbDoc
  3
AcMeServices
 90
        0
280
     0
281
     0
  0
CLASS
  1
ACMESCOPE
  2
AcMeScope
  3
AcMeServices
 90
        0
280
     0
281
     0
  0
CLASS
  1
ACMECOMMANDHISTORY
  2
AcMeCommandHistory
  3
AcMeServices
 90
        0
280
     0
281
     0
  0
CLASS
  1
DICTIONARYVAR
  2
AcDbDictionaryVar
  3
AutoCAD 2000
 90
        0
280
     0
281
     0
  0
CLASS
  1
ACIMSYSVARMAN
  2
AcImSysVarManager
  3
AcMeServices
 90
        0
280
     0
281
     0
  0
CLASS
  1
ACIMREALSYSVAR
  2
AcImRealSysVar
  3
AcMeServices
 90
        0
280
     0
281
     0
  0
CLASS
  1
ACIMINTSYSVAR
  2
AcImIntSysVar
  3
AcMeServices
 90
        0
280
     0
281
     0
  0
CLASS
  1
ACMEDRAWINGMAN
  2
AcMeDrawingMan
  3
AcMeServices
 90
        0
280
     0
281
     0
  0
CLASS
  1
ACMEVIEW
  2
AcMeView
  3
AcMeServices
 90
        0
280
     0
281
     0
  0
CLASS
  1
ACDBENTITYCACHE
  2
AcMeEntityCache
  3
AcMeServices
 90
        0
280
     0
281
     0
  0
CLASS
  1
GSMANAGER
  2
AcMeGSManager
  3
AcMeServices
 90
        0
280
     0
281
     0
  0
CLASS
  1
AmdtInternalReactor
  2
AmdtInternalReactor
  3
AcMeServices
 90
        0
280
     0
281
     0
  0
CLASS
  1
ACMESTATEMGR
  2
AcMeStateMgr
  3
AcMeServices
 90
        0
280
     0
281
     0
  0
CLASS
  1
ACME_DATABASE
  2
AcMeDbDatabase
  3
AcMeServices
 90
        0
280
     0
281
     0
  0
CLASS
  1
ACRFINSADJUSTERMGR
  2
AcRfInsAdjusterMgr
  3
AcMeServices
 90
        0
280
     0
281
     0
  0
CLASS
  1
ACMDATADICTIONARY
  2
AcmDataDictionary
  3
"AcmSymBB|Product Description: AutoCAD Mechanical 2000|Company: Autodesk"
 90
        0
280
     0
281
     0
  0
CLASS
  1
ACMDATAENTRYBLOCK
  2
AcmDataEntryBlock
  3
"AcmSymBB|Product Description: AutoCAD Mechanical 2000|Company: Autodesk"
 90
        0
280
     0
281
     0
  0
CLASS
  1
AMGOBJPROPCFG
  2
AmgObjPropCfg
  3
"AmgLay|Product Description: AutoCAD Mechanical 2000|Company: Autodesk"
 90
        1
280
     0
281
     0
  0
CLASS
  1
ACAMGFILTERDAT
  2
AcAmgFilterDat
  3
"AcadM|Product Description: AutoCAD Mechanical 2000|Company: Autodesk"
 90
        0
280
     0
281
     0
  0
CLASS
  1
LAYER_INDEX
  2
AcDbLayerIndex
  3
AutoCAD 2000
 90
        0
280
     0
281
     0
  0
CLASS
  1
IDBUFFER
  2
AcDbIdBuffer
  3
AutoCAD 2000
 90
        0
280
     0
281
     0
  0
CLASS
  1
ACIMSTRSYSVAR
  2
AcImStrSysVar
  3
AcMeServices
 90
        0
280
     0
281
     0
  0
CLASS
  1
ACMSTANDARDJIS
  2
AcmStandardJIS
  3
"AcmSymBB|Product Description: AutoCAD Mechanical 2000|Company: Autodesk"
 90
        0
280
     0
281
     0
  0
CLASS
  1
ACMSURFSTANDARDJIS
  2
AcmSurfTextStdJIS
  3
"AcmSymBB|Product Description: AutoCAD Mechanical 2000|Company: Autodesk"
 90
        0
280
     0
281
     0
  0
CLASS
  1
ACMFCFSTANDARDJIS
  2
AcmFCFStdJIS
  3
"AcmSymBB|Product Description: AutoCAD Mechanical 2000|Company: Autodesk"
 90
        0
280
     0
281
     0
  0
CLASS
  1
ACMWELDSTANDARDJIS
  2
AcmWeldingStdJIS
  3
"AcmSymBB|Product Description: AutoCAD Mechanical 2000|Company: Autodesk"
 90
        0
280
     0
281
     0
  0
CLASS
  1
ACMIDSTANDARDJIS
  2
AcmIdStdJIS
  3
"AcmSymBB|Product Description: AutoCAD Mechanical 2000|Company: Autodesk"
 90
        0
280
     0
281
     0
  0
CLASS
  1
ACMDATUMSTANDARDJIS
  2
AcmDatumStdJIS
  3
"AcmSymBB|Product Description: AutoCAD Mechanical 2000|Company: Autodesk"
 90
        0
280
     0
281
     0
  0
CLASS
  1
ACMBOMSTANDARDJIS
  2
AcmBOMStdJIS
  3
"AcmSymBB|Product Description: AutoCAD Mechanical 2000|Company: Autodesk"
 90
        0
280
     0
281
     0
  0
CLASS
  1
ACMSTANDARDANSI
  2
AcmStandardANSI
  3
"AcmSymBB|Product Description: AutoCAD Mechanical 2000|Company: Autodesk"
 90
        0
280
     0
281
     0
  0
CLASS
  1
ACMSURFSTANDARDANSI
  2
AcmSurfTextStdANSI
  3
"AcmSymBB|Product Description: AutoCAD Mechanical 2000|Company: Autodesk"
 90
        0
280
     0
281
     0
  0
CLASS
  1
ACMFCFSTANDARDANSI
  2
AcmFCFStdANSI
  3
"AcmSymBB|Product Description: AutoCAD Mechanical 2000|Company: Autodesk"
 90
        0
280
     0
281
     0
  0
CLASS
  1
ACMWELDSTANDARDANSI
  2
AcmWeldingStdANSI
  3
"AcmSymBB|Product Description: AutoCAD Mechanical 2000|Company: Autodesk"
 90
        0
280
     0
281
     0
  0
CLASS
  1
ACMIDSTANDARDANSI
  2
AcmIdStdANSI
  3
"AcmSymBB|Product Description: AutoCAD Mechanical 2000|Company: Autodesk"
 90
        0
280
     0
281
     0
  0
CLASS
  1
ACMDATUMSTANDARDANSI
  2
AcmDatumStdANSI
  3
"AcmSymBB|Product Description: AutoCAD Mechanical 2000|Company: Autodesk"
 90
        0
280
     0
281
     0
  0
CLASS
  1
ACMBOMSTANDARDANSI
  2
AcmBOMStdANSI
  3
"AcmSymBB|Product Description: AutoCAD Mechanical 2000|Company: Autodesk"
 90
        0
280
     0
281
     0
  0
CLASS
  1
ACMSTANDARDBSI
  2
AcmStandardBSI
  3
"AcmSymBB|Product Description: AutoCAD Mechanical 2000|Company: Autodesk"
 90
        0
280
     0
281
     0
  0
CLASS
  1
ACMSURFSTANDARDBSI
  2
AcmSurfTextStdBSI
  3
"AcmSymBB|Product Description: AutoCAD Mechanical 2000|Company: Autodesk"
 90
        0
280
     0
281
     0
  0
CLASS
  1
ACMFCFSTANDARDBSI
  2
AcmFCFStdBSI
  3
"AcmSymBB|Product Description: AutoCAD Mechanical 2000|Company: Autodesk"
 90
        0
280
     0
281
     0
  0
CLASS
  1
ACMWELDSTANDARDBSI
  2
AcmWeldingStdBSI
  3
"AcmSymBB|Product Description: AutoCAD Mechanical 2000|Company: Autodesk"
 90
        0
280
     0
281
     0
  0
CLASS
  1
ACMIDSTANDARDBSI
  2
AcmIdStdBSI
  3
"AcmSymBB|Product Description: AutoCAD Mechanical 2000|Company: Autodesk"
 90
        0
280
     0
281
     0
  0
CLASS
  1
ACMDATUMSTANDARDBSI
  2
AcmDatumStdBSI
  3
"AcmSymBB|Product Description: AutoCAD Mechanical 2000|Company: Autodesk"
 90
        0
280
     0
281
     0
  0
CLASS
  1
ACMBOMSTANDARDBSI
  2
AcmBOMStdBSI
  3
"AcmSymBB|Product Description: AutoCAD Mechanical 2000|Company: Autodesk"
 90
        0
280
     0
281
     0
  0
CLASS
  1
LONG_TRANSACTION
  2
AcDbLongTransaction
  3
AutoCAD 2000
 90
        0
280
     0
281
     0
  0
CLASS
  1
LWPOLYLINE
  2
AcDbPolyline
  3
AutoCAD 2000
 90
        0
280
     0
281
     1
  0
CLASS
  1
HATCH
  2
AcDbHatch
  3
AutoCAD 2000
 90
        0
280
     0
281
     1
  0
CLASS
  1
XRECORD
  2
AcDbXrecord
  3
AutoCAD 2000
 90
        0
280
     0
281
     0
  0
ENDSEC
  0
SECTION
  2
TABLES
  0
TABLE
  2
VPORT
  5
8
330
0
100
AcDbSymbolTable
 70
     3
  0
VPORT
  5
6480
330
8
100
AcDbSymbolTableRecord
100
AcDbViewportTableRecord
  2
*ACTIVE
 70
     0
 10
0.0
 20
0.0
 11
1.0
 21
1.0
 12
-68.07013946889245
 22
-17.8093215767534
 13
0.0
 23
0.0
 14
2.5
 24
2.5
 15
10.0
 25
10.0
 16
0.0
 26
0.0
 36
1.0
 17
0.0
 27
0.0
 37
0.0
 40
278.5100268831531
 41
1.56570841889117
 42
50.0
 43
0.0
 44
0.0
 50
0.0
 51
0.0
 71
     0
 72
   100
 73
     1
 74
     1
 75
     0
 76
     0
 77
     0
 78
     0
  0
ENDTAB
  0
TABLE
  2
LTYPE
  5
5
330
0
100
AcDbSymbolTable
 70
    10
  0
LTYPE
  5
14
330
5
100
AcDbSymbolTableRecord
100
AcDbLinetypeTableRecord
  2
BYBLOCK
 70
     0
  3

 72
    65
 73
     0
 40
0.0
  0
LTYPE
  5
15
330
5
100
AcDbSymbolTableRecord
100
AcDbLinetypeTableRecord
  2
BYLAYER
 70
     0
  3

 72
    65
 73
     0
 40
0.0
  0
LTYPE
  5
16
330
5
100
AcDbSymbolTableRecord
100
AcDbLinetypeTableRecord
  2
CONTINUOUS
 70
     0
  3
Solid line
 72
    65
 73
     0
 40
0.0
  0
LTYPE
  5
4B
330
5
100
AcDbSymbolTableRecord
100
AcDbLinetypeTableRecord
  2
AM_ISO02W050
 70
     0
  3
__ __ __ __ __ __ __ __ __ __ __ __ __ __ __
 72
    65
 73
     2
 40
7.5
 49
6.0
 74
     0
 49
-1.5
 74
     0
  0
LTYPE
  5
4C
330
5
100
AcDbSymbolTableRecord
100
AcDbLinetypeTableRecord
  2
AM_ISO08W050
 70
     0
  3
____ . ____ . ____ . ____ . ____ . ____ . ____
 72
    65
 73
     4
 40
18.0
 49
12.0
 74
     0
 49
-1.5
 74
     0
 49
3.0
 74
     0
 49
-1.5
 74
     0
  0
LTYPE
  5
4D
330
5
100
AcDbSymbolTableRecord
100
AcDbLinetypeTableRecord
  2
AM_ISO09W050
 70
     0
  3
_____ . . _____ . . _____ . . ____ .. ____
 72
    65
 73
     6
 40
22.5
 49
12.0
 74
     0
 49
-1.5
 74
     0
 49
3.0
 74
     0
 49
-1.5
 74
     0
 49
3.0
 74
     0
 49
-1.5
 74
     0
  0
LTYPE
  5
4E
330
5
100
AcDbSymbolTableRecord
100
AcDbLinetypeTableRecord
  2
AMCONSTR
 70
     0
  3
_______________________
 72
    65
 73
     2
 40
9999.0
 49
9999.0
 74
     0
 49
0.0
 74
     0
  0
LTYPE
  5
4F
330
5
100
AcDbSymbolTableRecord
100
AcDbLinetypeTableRecord
  2
AM_ISO02W050X2
 70
     0
  3
 _ _ _ _ _ _ _ _ _ _ _ _
 72
    65
 73
     2
 40
3.75
 49
3.0
 74
     0
 49
-0.75
 74
     0
  0
LTYPE
  5
50
330
5
100
AcDbSymbolTableRecord
100
AcDbLinetypeTableRecord
  2
AM_ISO08W050X2
 70
     0
  3
__ . __ . __ . __ . __ . __
 72
    65
 73
     4
 40
9.0
 49
6.0
 74
     0
 49
-0.75
 74
     0
 49
1.5
 74
     0
 49
-0.75
 74
     0
  0
LTYPE
  5
53
330
5
100
AcDbSymbolTableRecord
100
AcDbLinetypeTableRecord
  2
AMZIGZAG
 70
     0
  3
/\/-/\/-/\/-/\/-/\/-/\/
 72
    65
 73
     2
 40
11.00009999999999
 49
0.0001
 74
     4
 75
   135
340
52
 46
0.04
 50
0.0
 44
0.0
 45
0.0
 49
-11.0
 74
     0
  0
LTYPE
  5
166
330
5
100
AcDbSymbolTableRecord
100
AcDbLinetypeTableRecord
  2
ACJISTGL
 70
     0
  3
_ _ _ _ _
 72
    65
 73
     2
 40
3.0
 49
2.0
 74
     0
 49
-1.0
 74
     0
  0
LTYPE
  5
26A
330
5
100
AcDbSymbolTableRecord
100
AcDbLinetypeTableRecord
  2
ACJISTGB
 70
     0
  3
__ . . __ . .
 72
    65
 73
     6
 40
9.0
 49
4.0
 74
     0
 49
-1.0
 74
     0
 49
1.0
 74
     0
 49
-1.0
 74
     0
 49
1.0
 74
     0
 49
-1.0
 74
     0
  0
ENDTAB
  0
TABLE
  2
LAYER
  5
2
330
0
100
AcDbSymbolTable
 70
    11
  0
LAYER
  5
10
330
2
100
AcDbSymbolTableRecord
100
AcDbLayerTableRecord
  2
0
 70
     0
 62
     7
  6
CONTINUOUS
  0
LAYER
  5
3F9
330
2
100
AcDbSymbolTableRecord
100
AcDbLayerTableRecord
  2
AM_0
 70
     0
 62
     7
  6
CONTINUOUS
  0
LAYER
  5
BA4
330
2
100
AcDbSymbolTableRecord
100
AcDbLayerTableRecord
  2
PV0001_1
 70
     0
 62
     7
  6
CONTINUOUS
  0
LAYER
  5
C6C
330
2
100
AcDbSymbolTableRecord
100
AcDbLayerTableRecord
  2
AM_CL
 70
     0
 62
     1
  6
AMCONSTR
  0
LAYER
  5
C7C
330
2
100
AcDbSymbolTableRecord
100
AcDbLayerTableRecord
  2
AM_7
 70
     0
 62
     4
  6
AM_ISO08W050
  0
LAYER
  5
C97
330
2
100
AcDbSymbolTableRecord
100
AcDbLayerTableRecord
  2
AM_11
 70
     0
 62
     3
  6
AM_ISO09W050
  0
LAYER
  5
CC5
330
2
100
AcDbSymbolTableRecord
100
AcDbLayerTableRecord
  2
AM_5
 70
     0
 62
     3
  6
CONTINUOUS
  0
LAYER
  5
CC7
330
2
100
AcDbSymbolTableRecord
100
AcDbLayerTableRecord
  2
DEFPOINTS
 70
     0
 62
     7
  6
CONTINUOUS
  0
LAYER
  5
19BC
330
2
100
AcDbSymbolTableRecord
100
AcDbLayerTableRecord
  2
AM_6
 70
     0
 62
     2
  6
CONTINUOUS
  0
LAYER
  5
1F8E
330
2
100
AcDbSymbolTableRecord
100
AcDbLayerTableRecord
  2
AM_4
 70
     0
 62
     3
  6
CONTINUOUS
  0
LAYER
  5
3588
330
2
100
AcDbSymbolTableRecord
100
AcDbLayerTableRecord
  2
AM_3
 70
     0
 62
     6
  6
ACJISTGL
  0
ENDTAB
  0
TABLE
  2
STYLE
  5
3
330
0
100
AcDbSymbolTable
 70
     5
  0
STYLE
  5
11
330
3
100
AcDbSymbolTableRecord
100
AcDbTextStyleTableRecord
  2
STANDARD
 70
     0
 40
0.0
 41
1.0
 50
0.0
 71
     0
 42
2.5
  3
simplex.shx
  4
EXTFONT.SHX
  0
STYLE
  5
52
330
3
100
AcDbSymbolTableRecord
100
AcDbTextStyleTableRecord
  2

 70
     1
 40
0.0
 41
1.0
 50
0.0
 71
     0
 42
2.5
  3
ltypeshp.shx
  4

  0
STYLE
  5
6B
330
3
100
AcDbSymbolTableRecord
100
AcDbTextStyleTableRecord
  2
ASAMI
 70
     0
 40
0.0
 41
1.0
 50
0.0
 71
     0
 42
2.5
  3
simplex.shx
  4
EXTFONT.SHX
  0
STYLE
  5
262
330
3
100
AcDbSymbolTableRecord
100
AcDbTextStyleTableRecord
  2
ACJISTS
 70
     0
 40
1.0
 41
1.0
 50
0.0
 71
     0
 42
2.5
  3
simplex.shx
  4
bigfont.shx
  0
STYLE
  5
269
330
3
100
AcDbSymbolTableRecord
100
AcDbTextStyleTableRecord
  2
ACJISGDT
 70
     0
 40
0.0
 41
1.0
 50
0.0
 71
     0
 42
2.5
  3
amgdtans.shx
  4

  0
ENDTAB
  0
TABLE
  2
VIEW
  5
6
330
0
100
AcDbSymbolTable
 70
     0
  0
ENDTAB
  0
TABLE
  2
UCS
  5
7
330
0
100
AcDbSymbolTable
 70
     0
  0
ENDTAB
  0
TABLE
  2
APPID
  5
9
330
0
100
AcDbSymbolTable
 70
    14
  0
APPID
  5
12
330
9
100
AcDbSymbolTableRecord
100
AcDbRegAppTableRecord
  2
ACAD
 70
     0
  0
APPID
  5
30
330
9
100
AcDbSymbolTableRecord
100
AcDbRegAppTableRecord
  2
MCAD_NO_VIS
 70
     0
  0
APPID
  5
31
330
9
100
AcDbSymbolTableRecord
100
AcDbRegAppTableRecord
  2
ACAD_TEMP_GRAPHIC
 70
     0
  0
APPID
  5
2C2
330
9
100
AcDbSymbolTableRecord
100
AcDbRegAppTableRecord
  2
GENIUS_GENDTOL_13
 70
     0
  0
APPID
  5
339
330
9
100
AcDbSymbolTableRecord
100
AcDbRegAppTableRecord
  2
GENIUS_GENODEF_13
 70
     0
  0
APPID
  5
33A
330
9
100
AcDbSymbolTableRecord
100
AcDbRegAppTableRecord
  2
GENIUS_GENOBJ-N-RSBK_13
 70
     0
  0
APPID
  5
33B
330
9
100
AcDbSymbolTableRecord
100
AcDbRegAppTableRecord
  2
GENIUS_GENOBJ-N-LIB_13
 70
     0
  0
APPID
  5
33C
330
9
100
AcDbSymbolTableRecord
100
AcDbRegAppTableRecord
  2
GENIUS_GENSCALE_13
 70
     0
  0
APPID
  5
378
330
9
100
AcDbSymbolTableRecord
100
AcDbRegAppTableRecord
  2
GENIUS_GENDIMSH_14
 70
     0
  0
APPID
  5
C82
330
9
100
AcDbSymbolTableRecord
100
AcDbRegAppTableRecord
  2
GENIUS_GENOBJ-N-CRS_13
 70
     0
  0
APPID
  5
C83
330
9
100
AcDbSymbolTableRecord
100
AcDbRegAppTableRecord
  2
GENIUS_GENOENT_13
 70
     0
  0
APPID
  5
C84
330
9
100
AcDbSymbolTableRecord
100
AcDbRegAppTableRecord
  2
GENIUS_GENOREF_13
 70
     0
  0
APPID
  5
C85
330
9
100
AcDbSymbolTableRecord
100
AcDbRegAppTableRecord
  2
GENIUS_GENOLIS_13
 70
     0
  0
APPID
  5
CA0
330
9
100
AcDbSymbolTableRecord
100
AcDbRegAppTableRecord
  2
GENIUS_GENOBJ-N-CEN_13
 70
     0
  0
ENDTAB
  0
TABLE
  2
DIMSTYLE
  5
A
330
0
100
AcDbSymbolTable
 70
    10
  0
DIMSTYLE
105
58
330
A
100
AcDbSymbolTableRecord
100
AcDbDimStyleTableRecord
  2
AM_JIS
 70
     0
  3

  4
"
  5
OPEN30
  6

  7

 40
1.0
 41
2.5
 42
1.0
 43
12.0
 44
1.0
 45
0.0
 46
0.0
 47
0.1
 48
0.1
140
3.2
141
0.0
142
0.0
143
0.0393701
144
1.0
145
0.0
146
0.71
147
1.5
 71
     0
 72
     0
 73
     0
 74
     0
 75
     0
 76
     0
 77
     3
 78
     8
170
     0
171
     2
172
     1
173
     0
174
     0
175
     0
176
   256
177
   256
178
     2
270
     2
271
     3
272
     3
273
     2
274
     2
340
6B
275
     0
280
     0
281
     0
282
     0
283
     0
284
     0
285
     0
286
     0
287
     3
288
     0
  0
DIMSTYLE
105
5F
330
A
100
AcDbSymbolTableRecord
100
AcDbDimStyleTableRecord
  2
AM_JIS$3
 70
     0
  3

  4
"
  5
OPEN30
  6

  7

 40
1.0
 41
2.5
 42
1.0
 43
10.0
 44
1.0
 45
0.0
 46
0.0
 47
0.1
 48
0.1
140
3.2
141
0.0
142
0.0
143
0.0393701
144
1.0
145
0.0
146
0.71
147
1.5
 71
     0
 72
     0
 73
     0
 74
     1
 75
     0
 76
     0
 77
     3
 78
     8
170
     0
171
     2
172
     0
173
     0
174
     0
175
     0
176
   256
177
   256
178
     2
270
     2
271
     2
272
     3
273
     2
274
     2
340
6B
275
     0
280
     0
281
     0
282
     0
283
     0
284
     0
285
     0
286
     0
287
     0
288
     1
  0
DIMSTYLE
105
60
330
A
100
AcDbSymbolTableRecord
100
AcDbDimStyleTableRecord
  2
AM_JIS$4
 70
     0
  3

  4
"
  5
OPEN30
  6

  7

 40
1.0
 41
2.5
 42
1.0
 43
10.0
 44
1.0
 45
0.0
 46
0.0
 47
0.1
 48
0.1
140
3.2
141
0.0
142
0.0
143
0.0393701
144
1.0
145
0.0
146
0.71
147
1.5
 71
     0
 72
     0
 73
     0
 74
     1
 75
     0
 76
     0
 77
     3
 78
     8
170
     0
171
     2
172
     0
173
     0
174
     0
175
     0
176
   256
177
   256
178
     2
270
     2
271
     2
272
     3
273
     2
274
     2
340
6B
275
     0
280
     0
281
     0
282
     0
283
     0
284
     0
285
     0
286
     0
287
     0
288
     1
  0
DIMSTYLE
105
61
330
A
100
AcDbSymbolTableRecord
100
AcDbDimStyleTableRecord
  2
AM_JIS$6
 70
     0
  3

  4
"
  5
OPEN30
  6

  7

 40
1.0
 41
2.5
 42
1.0
 43
10.0
 44
1.0
 45
0.0
 46
0.0
 47
0.1
 48
0.1
140
3.2
141
0.0
142
0.0
143
0.0393701
144
1.0
145
0.0
146
0.71
147
1.5
 71
     0
 72
     0
 73
     0
 74
     0
 75
     0
 76
     0
 77
     0
 78
     8
170
     0
171
     2
172
     1
173
     0
174
     0
175
     0
176
   256
177
   256
178
     2
270
     2
271
     2
272
     2
273
     2
274
     2
340
6B
275
     0
280
     0
281
     0
282
     0
283
     0
284
     0
285
     0
286
     0
287
     3
288
     0
  0
DIMSTYLE
105
62
330
A
100
AcDbSymbolTableRecord
100
AcDbDimStyleTableRecord
  2
AM_JIS$7
 70
     0
  3

  4
"
  5
OPEN30
  6

  7

 40
1.0
 41
2.5
 42
1.0
 43
10.0
 44
1.0
 45
0.0
 46
0.0
 47
0.1
 48
0.1
140
3.2
141
0.0
142
0.0
143
0.0393701
144
1.0
145
0.0
146
0.71
147
1.5
 71
     0
 72
     0
 73
     0
 74
     0
 75
     0
 76
     0
 77
     3
 78
     8
170
     0
171
     2
172
     1
173
     0
174
     0
175
     0
176
   256
177
   256
178
     2
270
     2
271
     2
272
     3
273
     2
274
     2
340
6B
275
     0
280
     0
281
     0
282
     0
283
     0
284
     0
285
     0
286
     0
287
     3
288
     0
  0
DIMSTYLE
105
63
330
A
100
AcDbSymbolTableRecord
100
AcDbDimStyleTableRecord
  2
AM_JIS$SF
 70
     0
  3

  4
"
  5
OPEN30
  6

  7

 40
1.0
 41
2.5
 42
1.0
 43
10.0
 44
1.0
 45
0.0
 46
0.0
 47
0.1
 48
0.1
140
3.2
141
0.0
142
0.0
143
0.0393701
144
1.0
145
0.0
146
0.71
147
1.5
 71
     0
 72
     0
 73
     0
 74
     0
 75
     1
 76
     1
 77
     3
 78
     8
170
     0
171
     2
172
     1
173
     0
174
     0
175
     0
176
   256
177
   256
178
     2
270
     2
271
     2
272
     2
273
     2
274
     2
340
6B
275
     0
280
     0
281
     0
282
     0
283
     0
284
     0
285
     0
286
     0
287
     3
288
     0
  0
DIMSTYLE
105
68
330
A
100
AcDbSymbolTableRecord
100
AcDbDimStyleTableRecord
  2
AM_JIS$SH
 70
     0
  3

  4
"
  5

  6
GENAXEH
  7
OPEN30
 40
1.0
 41
2.5
 42
1.0
 43
10.0
 44
1.0
 45
0.0
 46
0.0
 47
0.1
 48
0.1
140
3.2
141
0.0
142
0.0
143
0.0393701
144
2.0
145
0.0
146
0.71
147
1.5
 71
     0
 72
     0
 73
     0
 74
     0
 75
     1
 76
     1
 77
     3
 78
     8
170
     0
171
     2
172
     1
173
     1
174
     0
175
     0
176
   256
177
   256
178
     2
270
     2
271
     2
272
     2
273
     2
274
     2
340
6B
275
     0
280
     0
281
     0
282
     0
283
     0
284
     0
285
     0
286
     0
287
     3
288
     0
  0
DIMSTYLE
105
B34
102
{ACAD_REACTORS
330
5EEB
102
}
330
A
100
AcDbSymbolTableRecord
100
AcDbDimStyleTableRecord
  2
AM_JIS$2
 70
     0
  3

  4
"
  5
OPEN30
  6

  7

 40
1.0
 41
2.5
 42
1.0
 43
12.0
 44
1.0
 45
0.0
 46
0.0
 47
0.1
 48
0.1
140
3.2
141
0.0
142
0.0
143
0.0393701
144
1.0
145
0.0
146
0.71
147
1.5
 71
     0
 72
     0
 73
     0
 74
     0
 75
     0
 76
     0
 77
     3
 78
     8
170
     0
171
     2
172
     1
173
     0
174
     0
175
     0
176
   256
177
   256
178
     2
270
     2
271
     3
272
     3
273
     2
274
     2
340
6B
275
     0
280
     0
281
     0
282
     0
283
     0
284
     0
285
     0
286
     0
287
     3
288
     0
  0
DIMSTYLE
105
BA5
102
{ACAD_REACTORS
330
5D73
330
5D72
330
5D71
330
5D62
330
5D70
330
6016
330
60C0
330
638D
102
}
330
A
100
AcDbSymbolTableRecord
100
AcDbDimStyleTableRecord
  2
AM_JIS$0
 70
     0
  3

  4
"
  5
OPEN30
  6

  7

 40
1.0
 41
2.5
 42
0.8
 43
10.0
 44
1.0
 45
0.0
 46
0.0
 47
0.1
 48
0.1000000001
140
3.799999999999999
141
0.0
142
0.0
143
0.0393701
144
1.0
145
0.0
146
0.71
147
1.5
 71
     0
 72
     0
 73
     0
 74
     0
 75
     0
 76
     0
 77
     3
 78
     9
170
     0
171
     2
172
     1
173
     0
174
     0
175
     0
176
     3
177
     3
178
     2
270
     2
271
     2
272
     2
273
     2
274
     2
340
11
275
     1
280
     0
281
     0
282
     0
283
     0
284
     8
285
     0
286
     0
287
     0
288
     0
  0
DIMSTYLE
105
BA6
330
A
100
AcDbSymbolTableRecord
100
AcDbDimStyleTableRecord
  2
AM_JISORG-1P0$2
 70
     0
  3

  4
"
  5
OPEN30
  6

  7

 40
1.0
 41
2.5
 42
0.0
 43
10.0
 44
1.0
 45
0.0
 46
0.0
 47
0.1
 48
0.1000000001
140
3.799999999999999
141
0.0
142
0.0
143
0.0393701
144
-0.999999980146674
145
0.0
146
0.71
147
1.5
 71
     0
 72
     0
 73
     0
 74
     0
 75
     0
 76
     0
 77
     3
 78
     1
170
     0
171
     2
172
     1
173
     0
174
     0
175
     0
176
     3
177
     3
178
     2
270
     2
271
     2
272
     2
273
     2
274
     2
340
11
275
     1
280
     0
281
     0
282
     0
283
     0
284
     8
285
     0
286
     0
287
     0
288
     0
  0
ENDTAB
  0
TABLE
  2
BLOCK_RECORD
  5
1
330
0
100
AcDbSymbolTable
 70
    18
  0
BLOCK_RECORD
  5
1F
102
{ACAD_XDICTIONARY
360
74
102
}
330
1
100
AcDbSymbolTableRecord
100
AcDbBlockTableRecord
  2
*MODEL_SPACE
  0
BLOCK_RECORD
  5
101
102
{ACAD_XDICTIONARY
360
64A9
102
}
330
1
100
AcDbSymbolTableRecord
100
AcDbBlockTableRecord
  2
*PAPER_SPACE
  0
BLOCK_RECORD
  5
59
330
1
100
AcDbSymbolTableRecord
100
AcDbBlockTableRecord
  2
_OPEN30
  0
BLOCK_RECORD
  5
64
330
1
100
AcDbSymbolTableRecord
100
AcDbBlockTableRecord
  2
GENAXEH
  0
BLOCK_RECORD
  5
C31
330
1
100
AcDbSymbolTableRecord
100
AcDbBlockTableRecord
  2
A$C36D02A34
  0
BLOCK_RECORD
  5
2453
330
1
100
AcDbSymbolTableRecord
100
AcDbBlockTableRecord
  2
*D6
  0
BLOCK_RECORD
  5
245F
330
1
100
AcDbSymbolTableRecord
100
AcDbBlockTableRecord
  2
A$C4FFC6CC0
  0
BLOCK_RECORD
  5
5D74
330
1
100
AcDbSymbolTableRecord
100
AcDbBlockTableRecord
  2
*D8
  0
BLOCK_RECORD
  5
5D80
330
1
100
AcDbSymbolTableRecord
100
AcDbBlockTableRecord
  2
*D9
  0
BLOCK_RECORD
  5
5D8C
330
1
100
AcDbSymbolTableRecord
100
AcDbBlockTableRecord
  2
*D10
  0
BLOCK_RECORD
  5
5D9A
330
1
100
AcDbSymbolTableRecord
100
AcDbBlockTableRecord
  2
*D11
  0
BLOCK_RECORD
  5
5DA6
330
1
100
AcDbSymbolTableRecord
100
AcDbBlockTableRecord
  2
*D12
  0
BLOCK_RECORD
  5
5EEC
330
1
100
AcDbSymbolTableRecord
100
AcDbBlockTableRecord
  2
*D13
  0
BLOCK_RECORD
  5
6017
330
1
100
AcDbSymbolTableRecord
100
AcDbBlockTableRecord
  2
*D14
  0
BLOCK_RECORD
  5
60C1
330
1
100
AcDbSymbolTableRecord
100
AcDbBlockTableRecord
  2
*D15
  0
BLOCK_RECORD
  5
638E
330
1
100
AcDbSymbolTableRecord
100
AcDbBlockTableRecord
  2
*D16
  0
ENDTAB
  0
ENDSEC
  0
SECTION
  2
BLOCKS
  0
BLOCK
  5
20
330
1F
100
AcDbEntity
  8
0
100
AcDbBlockBegin
  2
*MODEL_SPACE
 70
     0
 10
0.0
 20
0.0
 30
0.0
  3
*MODEL_SPACE
  1

  0
ENDBLK
  5
21
330
1F
100
AcDbEntity
  8
0
100
AcDbBlockEnd
  0
BLOCK
  5
103
330
101
100
AcDbEntity
 67
     1
  8
0
100
AcDbBlockBegin
  2
*PAPER_SPACE
 70
     0
 10
0.0
 20
0.0
 30
0.0
  3
*PAPER_SPACE
  1

  0
ENDBLK
  5
104
330
101
100
AcDbEntity
 67
     1
  8
0
100
AcDbBlockEnd
  0
BLOCK
  5
5D
330
59
100
AcDbEntity
  8
0
100
AcDbBlockBegin
  2
_OPEN30
 70
     0
 10
0.0
 20
0.0
 30
0.0
  3
_OPEN30
  1

  0
LINE
  5
5A
330
59
100
AcDbEntity
  8
0
 62
     0
100
AcDbLine
 10
-1.0
 20
0.26794919
 30
0.0
 11
0.0
 21
0.0
 31
0.0
  0
LINE
  5
5B
330
59
100
AcDbEntity
  8
0
 62
     0
100
AcDbLine
 10
0.0
 20
0.0
 30
0.0
 11
-1.0
 21
-0.26794919
 31
0.0
  0
LINE
  5
5C
330
59
100
AcDbEntity
  8
0
 62
     0
100
AcDbLine
 10
0.0
 20
0.0
 30
0.0
 11
-1.0
 21
0.0
 31
0.0
  0
ENDBLK
  5
5E
330
59
100
AcDbEntity
  8
0
100
AcDbBlockEnd
  0
BLOCK
  5
66
330
64
100
AcDbEntity
  8
0
100
AcDbBlockBegin
  2
GENAXEH
 70
     0
 10
0.0
 20
0.0
 30
0.0
  3
GENAXEH
  1

  0
LINE
  5
65
330
64
100
AcDbEntity
  8
0
100
AcDbLine
 10
-1.0
 20
0.0
 30
0.0
 11
1.0
 21
0.0
 31
0.0
  0
ENDBLK
  5
67
330
64
100
AcDbEntity
  8
0
100
AcDbBlockEnd
  0
BLOCK
  5
C4B
330
C31
100
AcDbEntity
  8
0
100
AcDbBlockBegin
  2
A$C36D02A34
 70
     0
 10
0.0
 20
0.0
 30
0.0
  3
A$C36D02A34
  1

  0
ARC
  5
C32
330
C31
100
AcDbEntity
  8
PV0001_1
  6
CONTINUOUS
 48
0.5
100
AcDbCircle
 10
18.06811523436999
 20
-11.83651161193799
 30
0.0
 40
21.600000381469
100
AcDbArc
 50
123.2290435713209
 51
126.6341524197568
  0
ARC
  5
C33
330
C31
100
AcDbEntity
  8
PV0001_1
  6
CONTINUOUS
 48
0.5
100
AcDbCircle
 10
18.06811523436999
 20
-11.83651161193799
 30
0.0
 40
21.600000381469
100
AcDbArc
 50
135.0736707620117
 51
146.7709980930592
  0
ARC
  5
C34
330
C31
100
AcDbEntity
  8
PV0001_1
  6
CONTINUOUS
 48
0.5
100
AcDbCircle
 10
-18.0680770874
 20
11.8365631103514
 30
0.0
 40
21.600000381469
100
AcDbArc
 50
315.0734847530392
 51
326.770781348241
  0
ARC
  5
C35
330
C31
100
AcDbEntity
  8
PV0001_1
  6
CONTINUOUS
 48
0.5
100
AcDbCircle
 10
-18.0680770874
 20
11.8365631103514
 30
0.0
 40
21.600000381469
100
AcDbArc
 50
303.2288882981993
 51
306.633986901359
  0
ARC
  5
C36
330
C31
100
AcDbEntity
  8
PV0001_1
  6
CONTINUOUS
 48
0.5
100
AcDbCircle
 10
-0.6269836425800009
 20
-2.044216156005997
 30
0.0
 40
2.0
100
AcDbArc
 50
337.4067997351092
 51
43.42231293132884
  0
ARC
  5
C37
330
C31
100
AcDbEntity
  8
PV0001_1
  6
CONTINUOUS
 48
0.5
100
AcDbCircle
 10
0.626953125
 20
2.044223785401001
 30
0.0
 40
2.0
100
AcDbArc
 50
157.4068184044407
 51
223.4222769591536
  0
CIRCLE
  5
C38
330
C31
100
AcDbEntity
  8
PV0001_1
  6
CONTINUOUS
 48
0.5
100
AcDbCircle
 10
3.856727600100001
 20
4.596265792847002
 30
0.0
 40
1.6000000238419
  0
CIRCLE
  5
C39
330
C31
100
AcDbEntity
  8
PV0001_1
  6
CONTINUOUS
 48
0.5
100
AcDbCircle
 10
-3.856727600100001
 20
-4.596265792845997
 30
0.0
 40
1.6000000238419
  0
ARC
  5
C3A
330
C31
100
AcDbEntity
  8
PV0001_1
  6
CONTINUOUS
 48
0.5
100
AcDbCircle
 10
-5.58123779297
 20
5.092639923096001
 30
0.0
 40
5.019082546234099
100
AcDbArc
 50
240.2658959250867
 51
321.5156269706421
  0
ARC
  5
C3B
330
C31
100
AcDbEntity
  8
PV0001_1
  6
CONTINUOUS
 48
0.5
100
AcDbCircle
 10
5.486755371089998
 20
-4.601703643798998
 30
0.0
 40
4.651036739349399
100
AcDbArc
 50
56.25271400417071
 51
145.528859890601
  0
ARC
  5
C3C
330
C31
100
AcDbEntity
  8
PV0001_1
  6
CONTINUOUS
 48
0.5
100
AcDbCircle
 10
-2.11590576172
 20
-3.453323364257997
 30
0.0
 40
4.050000190734899
100
AcDbArc
 50
43.42230610113921
 51
58.50391703385149
  0
ARC
  5
C3D
330
C31
100
AcDbEntity
  8
PV0001_1
  6
CONTINUOUS
 48
0.5
100
AcDbCircle
 10
2.115875244139999
 20
3.453330993653001
 30
0.0
 40
4.050000190734899
100
AcDbArc
 50
223.4222942619974
 51
238.5038164022482
  0
ARC
  5
C3E
330
C31
100
AcDbEntity
  8
PV0001_1
  6
CONTINUOUS
 48
0.5
100
AcDbCircle
 10
-6.70369720459
 20
5.094657897949002
 30
0.0
 40
5.940000057220499
100
AcDbArc
 50
328.2536768887549
 51
31.74641873389623
  0
ARC
  5
C3F
330
C31
100
AcDbEntity
  8
PV0001_1
  6
CONTINUOUS
 48
0.5
100
AcDbCircle
 10
6.703674316410001
 20
-5.094650268553998
 30
0.0
 40
5.940000057220499
100
AcDbArc
 50
148.2533403882529
 51
211.7466423089037
  0
ARC
  5
C40
330
C31
100
AcDbEntity
  8
PV0001_1
  6
CONTINUOUS
 48
0.5
100
AcDbCircle
 10
0.0
 20
0.0
 30
0.0
 40
8.812800407409699
100
AcDbArc
 50
175.2198288164333
 51
272.8622597568298
  0
ARC
  5
C41
330
C31
100
AcDbEntity
  8
PV0001_1
  6
CONTINUOUS
 48
0.5
100
AcDbCircle
 10
0.0
 20
0.0
 30
0.0
 40
9.1800003051758
100
AcDbArc
 50
272.7511362215027
 51
280.3697477877874
  0
ARC
  5
C42
330
C31
100
AcDbEntity
  8
PV0001_1
  6
CONTINUOUS
 48
0.5
100
AcDbCircle
 10
0.0
 20
0.0
 30
0.0
 40
8.812800407409699
100
AcDbArc
 50
355.2198199654955
 51
92.86229572901076
  0
ARC
  5
C43
330
C31
100
AcDbEntity
  8
PV0001_1
  6
CONTINUOUS
 48
0.5
100
AcDbCircle
 10
0.0
 20
0.0
 30
0.0
 40
9.1800003051758
100
AcDbArc
 50
92.75115489083434
 51
100.3697664571193
  0
CIRCLE
  5
C44
330
C31
100
AcDbEntity
  8
PV0001_1
  6
CONTINUOUS
100
AcDbCircle
 10
0.0
 20
0.0
 30
0.0
 40
9.1800003051758
  0
LINE
  5
C45
330
C31
100
AcDbEntity
  8
PV0001_1
  6
CONTINUOUS
 48
0.5
100
AcDbLine
 10
-1.652404785160001
 20
9.030059814453
 30
0.0
 11
-1.652404785160001
 21
8.220062255860002
 31
0.0
  0
LINE
  5
C46
330
C31
100
AcDbEntity
  8
PV0001_1
  6
CONTINUOUS
 48
0.5
100
AcDbLine
 10
1.652404785160001
 20
-8.220058441161999
 30
0.0
 11
1.652404785160001
 21
-9.030055999755997
 31
0.0
  0
LINE
  5
C47
330
C31
100
AcDbEntity
  8
PV0001_1
  6
CONTINUOUS
 48
0.5
100
AcDbLine
 10
-8.78217315674
 20
0.7343807220460015
 30
0.0
 11
-8.070594787600001
 21
0.7343997955320028
 31
0.0
  0
LINE
  5
C48
330
C31
100
AcDbEntity
  8
PV0001_1
  6
CONTINUOUS
 48
0.5
100
AcDbLine
 10
8.07057952881
 20
-0.7343864440919994
 30
0.0
 11
8.78215789795
 21
-0.7343654632569994
 31
0.0
  0
LINE
  5
C49
330
C31
100
AcDbEntity
  8
PV0001_1
  6
CONTINUOUS
 48
0.5
100
AcDbLine
 10
0.4406127929700006
 20
-9.169414520263
 30
0.0
 11
0.4406127929700006
 21
-8.812801361083998
 31
0.0
  0
LINE
  5
C4A
330
C31
100
AcDbEntity
  8
PV0001_1
  6
CONTINUOUS
 48
0.5
100
AcDbLine
 10
-0.4406127929700006
 20
9.169418334961001
 30
0.0
 11
-0.4406127929700006
 21
8.812805175781001
 31
0.0
  0
ENDBLK
  5
C4C
330
C31
100
AcDbEntity
  8
0
100
AcDbBlockEnd
  0
BLOCK
  5
245D
330
2453
100
AcDbEntity
  8
0
100
AcDbBlockBegin
  2
*D6
 70
     1
 10
0.0
 20
0.0
 30
0.0
  3
*D6
  1

  0
LINE
  5
2454
330
2453
100
AcDbEntity
  8
AM_5
 62
     3
100
AcDbLine
 10
-137.574381722344
 20
-5.00000294019065
 30
0.0
 11
-152.8199008769066
 21
-5.000002940190694
 31
0.0
  0
LINE
  5
2455
330
2453
100
AcDbEntity
  8
AM_5
 62
     3
100
AcDbLine
 10
-137.5743817223442
 20
5.00002461040103
 30
0.0
 11
-152.8199008769066
 21
5.000024610400987
 31
0.0
  0
LINE
  5
2456
330
2453
100
AcDbEntity
  8
AM_5
 62
     3
100
AcDbLine
 10
-151.8199008769066
 20
-2.500002940190691
 30
0.0
 11
-151.8199008769066
 21
2.50002461040099
 31
0.0
  0
INSERT
  5
2457
330
2453
100
AcDbEntity
  8
AM_5
 62
     3
100
AcDbBlockReference
  2
_OPEN30
 10
-151.8199008769066
 20
-5.00000294019069
 30
0.0
 41
2.5
 42
2.5
 43
2.5
 50
270.0000000000001
  0
INSERT
  5
2458
330
2453
100
AcDbEntity
  8
AM_5
 62
     3
100
AcDbBlockReference
  2
_OPEN30
 10
-151.8199008769066
 20
5.00002461040099
 30
0.0
 41
2.5
 42
2.5
 43
2.5
 50
90.00000000000015
  0
MTEXT
  5
2459
330
2453
100
AcDbEntity
  8
AM_5
 62
     2
100
AcDbMText
 10
-155.2199008769066
 20
0.000010835105146
 30
0.0
 40
3.799999999999999
 41
0.0
 71
     5
 72
     1
  1
%%c10
 11
-0.0000000000000028
 21
1.0
 31
0.0
1001
ACAD
1000
MTEXTBEGIN
1070
    73
1070
     1
1070
    44
1040
1.0
1070
    74
1070
     0
1000
MTEXTEND
  0
POINT
  5
245A
330
2453
100
AcDbEntity
  8
DEFPOINTS
 62
     0
100
AcDbPoint
 10
-137.5743817223441
 20
-5.000002940190223
 30
0.0
  0
POINT
  5
245B
330
2453
100
AcDbEntity
  8
DEFPOINTS
 62
     0
100
AcDbPoint
 10
-137.5743817223441
 20
5.000024610401458
 30
0.0
  0
POINT
  5
245C
330
2453
100
AcDbEntity
  8
DEFPOINTS
 62
     0
100
AcDbPoint
 10
-151.8199008769066
 20
5.000024610401462
 30
0.0
  0
ENDBLK
  5
245E
330
2453
100
AcDbEntity
  8
0
100
AcDbBlockEnd
  0
BLOCK
  5
246B
330
245F
100
AcDbEntity
  8
0
100
AcDbBlockBegin
  2
A$C4FFC6CC0
 70
     0
 10
0.0
 20
0.0
 30
0.0
  3
A$C4FFC6CC0
  1

  0
DIMENSION
  5
2460
330
245F
100
AcDbEntity
  8
AM_5
100
AcDbDimension
  2
*D6
 10
-70.00000100000002
 20
5.000008477104842
 30
0.0
 11
-70.00000100000002
 21
-0.0000052981910228
 31
0.0
 12
81.81989987690661
 22
-0.0000161332966199
 32
0.0
 70
   128
  1
%%c<>
 51
359.9999999999998
  3
AM_JIS$0
100
AcDbAlignedDimension
 13
-55.75448184543748
 23
-5.000019073486843
 33
0.0
 14
-55.75448184543756
 24
5.000008477104838
 34
0.0
 50
270.0
100
AcDbRotatedDimension
1001
ACAD
1000
DSTYLE
1002
{
1070
   271
1070
     0
1002
}
1001
GENIUS_GENDTOL_13
1000

1000
h7
1000

1040
0.0
  0
LINE
  5
2461
330
245F
100
AcDbEntity
  8
AM_0
 48
0.5
100
AcDbLine
 10
-56.0
 20
-4.754495620727796
 30
0.0
 11
-56.00000000000003
 21
4.754485024345811
 31
0.0
  0
LINE
  5
2462
330
245F
100
AcDbEntity
  8
AM_0
 48
0.5
100
AcDbLine
 10
-55.75448184543751
 20
-5.000019073486843
 30
0.0
 11
-55.75448184543754
 21
5.000008477104838
 31
0.0
  0
LINE
  5
2463
330
245F
100
AcDbEntity
  8
AM_0
100
AcDbLine
 10
-0.0000000000000142
 20
4.999995231627903
 30
0.0
 11
-55.75448184543754
 21
4.999995231627746
 31
0.0
  0
LINE
  5
2464
330
245F
100
AcDbEntity
  8
AM_0
 48
0.5
100
AcDbLine
 10
-55.99996821086117
 20
4.754439989725671
 30
0.0
 11
-55.75443945990975
 21
4.999963442484006
 31
0.0
  0
LINE
  5
2465
330
245F
100
AcDbEntity
  8
AM_0
100
AcDbLine
 10
-55.75448184543751
 20
-5.000008477105588
 30
0.0
 11
0.0000000000000142
 21
-5.00000847710543
 31
0.0
  0
LINE
  5
2466
330
245F
100
AcDbEntity
  8
AM_0
 48
0.5
100
AcDbLine
 10
-55.99996821086114
 20
-4.754474427965309
 30
0.0
 11
-55.75443945990972
 21
-4.999997880724334
 31
0.0
  0
LINE
  5
2467
330
245F
100
AcDbEntity
  8
AM_0
100
AcDbLine
 10
0.7794201296714505
 20
4.549985867772141
 30
0.0
 11
0.7794201296714789
 21
-4.550003370497427
 31
0.0
  0
LINE
  5
2468
330
245F
100
AcDbEntity
  8
AM_0
 48
0.5
100
AcDbLine
 10
0.0000000000000142
 20
-5.00000847710543
 30
0.0
 11
-0.0000000000000142
 21
5.000008477104995
 31
0.0
  0
LINE
  5
2469
330
245F
100
AcDbEntity
  8
AM_0
 48
0.5
100
AcDbLine
 10
0.7794201296714647
 20
-4.550003370497435
 30
0.0
 11
-0.0000105963812445
 21
-5.00000847710543
 31
0.0
  0
LINE
  5
246A
330
245F
100
AcDbEntity
  8
AM_0
 48
0.5
100
AcDbLine
 10
0.7794201296714647
 20
4.549985867772141
 30
0.0
 11
-0.0000000000000142
 21
4.999984635246652
 31
0.0
  0
ENDBLK
  5
246C
330
245F
100
AcDbEntity
  8
0
100
AcDbBlockEnd
  0
BLOCK
  5
5D7E
330
5D74
100
AcDbEntity
  8
0
100
AcDbBlockBegin
  2
*D8
 70
     1
 10
0.0
 20
0.0
 30
0.0
  3
*D8
  1

  0
LINE
  5
63BC
330
5D74
100
AcDbEntity
  8
AM_5
 62
     3
100
AcDbLine
 10
-188.2305336415578
 20
16.03490960877382
 30
0.0
 11
-211.0001186024841
 21
16.03490960877376
 31
0.0
  0
LINE
  5
63BD
330
5D74
100
AcDbEntity
  8
AM_5
 62
     3
100
AcDbLine
 10
-188.2305336415576
 20
-15.96496588266052
 30
0.0
 11
-211.000118602484
 21
-15.96496588266058
 31
0.0
  0
LINE
  5
63BE
330
5D74
100
AcDbEntity
  8
AM_5
 62
     3
100
AcDbLine
 10
-210.0001186024841
 20
13.53490960877376
 30
0.0
 11
-210.0001186024841
 21
-13.46496588266058
 31
0.0
  0
INSERT
  5
63BF
330
5D74
100
AcDbEntity
  8
AM_5
 62
     3
100
AcDbBlockReference
  2
_OPEN30
 10
-210.0001186024841
 20
16.03490960877376
 30
0.0
 41
2.5
 42
2.5
 43
2.5
 50
90.00000000000017
  0
INSERT
  5
63C0
330
5D74
100
AcDbEntity
  8
AM_5
 62
     3
100
AcDbBlockReference
  2
_OPEN30
 10
-210.000118602484
 20
-15.96496588266058
 30
0.0
 41
2.5
 42
2.5
 43
2.5
 50
270.0000000000001
  0
MTEXT
  5
63C1
330
5D74
100
AcDbEntity
  8
AM_5
 62
     2
100
AcDbMText
 10
-213.4001186024841
 20
0.0349718630565884
 30
0.0
 40
3.799999999999999
 41
0.0
 71
     5
 72
     1
  1
%%C32
 11
-0.0000000000000028
 21
1.0
 31
0.0
1001
ACAD
1000
MTEXTBEGIN
1070
    73
1070
     1
1070
    44
1040
1.0
1070
    74
1070
     0
1000
MTEXTEND
  0
POINT
  5
63C2
330
5D74
100
AcDbEntity
  8
DEFPOINTS
 62
     0
100
AcDbPoint
 10
-187.4305336415578
 20
16.03490960877441
 30
0.0
  0
POINT
  5
63C3
330
5D74
100
AcDbEntity
  8
DEFPOINTS
 62
     0
100
AcDbPoint
 10
-187.4305336415577
 20
-15.96496588265994
 30
0.0
  0
POINT
  5
63C4
330
5D74
100
AcDbEntity
  8
DEFPOINTS
 62
     0
100
AcDbPoint
 10
-210.0001186024841
 20
-15.96496588265993
 30
0.0
  0
ENDBLK
  5
5D7F
330
5D74
100
AcDbEntity
  8
0
100
AcDbBlockEnd
  0
BLOCK
  5
5D8A
330
5D80
100
AcDbEntity
  8
0
100
AcDbBlockBegin
  2
*D9
 70
     1
 10
0.0
 20
0.0
 30
0.0
  3
*D9
  1

  0
LINE
  5
63D9
330
5D80
100
AcDbEntity
  8
AM_5
 62
     3
100
AcDbLine
 10
-128.3081620022251
 20
-16.76514898497698
 30
0.0
 11
-128.308162002225
 21
-44.17956413823655
 31
0.0
  0
LINE
  5
63DA
330
5D80
100
AcDbEntity
  8
AM_5
 62
     3
100
AcDbLine
 10
-188.308162002225
 20
-15.91665655333552
 30
0.0
 11
-188.3081620022249
 21
-44.17956413823673
 31
0.0
  0
LINE
  5
63DB
330
5D80
100
AcDbEntity
  8
AM_5
 62
     3
100
AcDbLine
 10
-130.808162002225
 20
-43.17956413823656
 30
0.0
 11
-185.808162002225
 21
-43.17956413823671
 31
0.0
  0
INSERT
  5
63DC
330
5D80
100
AcDbEntity
  8
AM_5
 62
     3
100
AcDbBlockReference
  2
_OPEN30
 10
-128.308162002225
 20
-43.17956413823655
 30
0.0
 41
2.5
 42
2.5
 43
2.5
 50
0.0000000000001527
  0
INSERT
  5
63DD
330
5D80
100
AcDbEntity
  8
AM_5
 62
     3
100
AcDbBlockReference
  2
_OPEN30
 10
-188.308162002225
 20
-43.17956413823672
 30
0.0
 41
2.5
 42
2.5
 43
2.5
 50
180.0000000000001
  0
MTEXT
  5
63DE
330
5D80
100
AcDbEntity
  8
AM_5
 62
     2
100
AcDbMText
 10
-158.308162002225
 20
-39.77956413823664
 30
0.0
 40
3.799999999999999
 41
0.0
 71
     5
 72
     1
  1
60
1001
ACAD
1000
MTEXTBEGIN
1070
    73
1070
     1
1070
    44
1040
1.0
1070
    74
1070
     0
1000
MTEXTEND
  0
POINT
  5
63DF
330
5D80
100
AcDbEntity
  8
DEFPOINTS
 62
     0
100
AcDbPoint
 10
-128.3081620022251
 20
-15.9651489849766
 30
0.0
  0
POINT
  5
63E0
330
5D80
100
AcDbEntity
  8
DEFPOINTS
 62
     0
100
AcDbPoint
 10
-188.3081620022251
 20
-15.11665655333497
 30
0.0
  0
POINT
  5
63E1
330
5D80
100
AcDbEntity
  8
DEFPOINTS
 62
     0
100
AcDbPoint
 10
-188.3081620022251
 20
-43.17956413823618
 30
0.0
  0
ENDBLK
  5
5D8B
330
5D80
100
AcDbEntity
  8
0
100
AcDbBlockEnd
  0
BLOCK
  5
5D98
330
5D8C
100
AcDbEntity
  8
0
100
AcDbBlockBegin
  2
*D10
 70
     1
 10
0.0
 20
0.0
 30
0.0
  3
*D10
  1

  0
LINE
  5
63CE
330
5D8C
100
AcDbEntity
  8
AM_5
 62
     3
100
AcDbLine
 10
-188.30807617155
 20
-12.6091968626098
 30
0.0
 11
-188.30807617155
 21
-32.47651962916092
 31
0.0
  0
LINE
  5
63CF
330
5D8C
100
AcDbEntity
  8
AM_5
 62
     3
100
AcDbLine
 10
-182.3081733676277
 20
-0.7971024035426181
 30
0.0
 11
-182.3081733676276
 21
-32.47651962916091
 31
0.0
  0
LINE
  5
63D0
330
5D8C
100
AcDbEntity
  8
AM_5
 62
     3
100
AcDbLine
 10
-190.8080761715499
 20
-31.47651962916093
 30
0.0
 11
-193.30807617155
 21
-31.47651962916094
 31
0.0
  0
LINE
  5
63D1
330
5D8C
100
AcDbEntity
  8
AM_5
 62
     3
100
AcDbLine
 10
-179.8081733676276
 20
-31.4765196291609
 30
0.0
 11
-177.3081733676276
 21
-31.47651962916089
 31
0.0
  0
LINE
  5
63D2
330
5D8C
100
AcDbEntity
  8
AM_5
 62
     3
100
AcDbLine
 10
-188.30807617155
 20
-31.47651962916092
 30
0.0
 11
-182.3081733676276
 21
-31.47651962916091
 31
0.0
  0
INSERT
  5
63D3
330
5D8C
100
AcDbEntity
  8
AM_5
 62
     3
100
AcDbBlockReference
  2
_OPEN30
 10
-188.30807617155
 20
-31.47651962916092
 30
0.0
 41
2.5
 42
2.5
 43
2.5
 50
0.0000000000001527
  0
INSERT
  5
63D4
330
5D8C
100
AcDbEntity
  8
AM_5
 62
     3
100
AcDbBlockReference
  2
_OPEN30
 10
-182.3081733676276
 20
-31.47651962916091
 30
0.0
 41
2.5
 42
2.5
 43
2.5
 50
180.0000000000001
  0
MTEXT
  5
63D5
330
5D8C
100
AcDbEntity
  8
AM_5
 62
     2
100
AcDbMText
 10
-185.3081247695888
 20
-28.07651962916092
 30
0.0
 40
3.799999999999999
 41
0.0
 71
     5
 72
     1
  1
6
1001
ACAD
1000
MTEXTBEGIN
1070
    73
1070
     1
1070
    44
1040
1.0
1070
    74
1070
     0
1000
MTEXTEND
  0
POINT
  5
63D6
330
5D8C
100
AcDbEntity
  8
DEFPOINTS
 62
     0
100
AcDbPoint
 10
-188.30807617155
 20
-11.80919686260925
 30
0.0
  0
POINT
  5
63D7
330
5D8C
100
AcDbEntity
  8
DEFPOINTS
 62
     0
100
AcDbPoint
 10
-182.3081733676277
 20
0.0028975964579124
 30
0.0
  0
POINT
  5
63D8
330
5D8C
100
AcDbEntity
  8
DEFPOINTS
 62
     0
100
AcDbPoint
 10
-182.3081733676277
 20
-31.47651962916038
 30
0.0
  0
ENDBLK
  5
5D99
330
5D8C
100
AcDbEntity
  8
0
100
AcDbBlockEnd
  0
BLOCK
  5
5DA4
330
5D9A
100
AcDbEntity
  8
0
100
AcDbBlockBegin
  2
*D11
 70
     1
 10
0.0
 20
0.0
 30
0.0
  3
*D11
  1

  0
LINE
  5
63E2
330
5D9A
100
AcDbEntity
  8
AM_5
 62
     3
100
AcDbLine
 10
-182.3081733676277
 20
-0.7971024035426181
 30
0.0
 11
-182.3081733676276
 21
-32.47651962916069
 31
0.0
  0
LINE
  5
63E3
330
5D9A
100
AcDbEntity
  8
AM_5
 62
     3
100
AcDbLine
 10
-132.3081620022252
 20
-0.7971024035423589
 30
0.0
 11
-132.3081620022251
 21
-32.47651962916055
 31
0.0
  0
LINE
  5
63E4
330
5D9A
100
AcDbEntity
  8
AM_5
 62
     3
100
AcDbLine
 10
-179.8081733676276
 20
-31.47651962916068
 30
0.0
 11
-134.8081620022251
 21
-31.47651962916055
 31
0.0
  0
INSERT
  5
63E5
330
5D9A
100
AcDbEntity
  8
AM_5
 62
     3
100
AcDbBlockReference
  2
_OPEN30
 10
-182.3081733676276
 20
-31.47651962916069
 30
0.0
 41
2.5
 42
2.5
 43
2.5
 50
180.0000000000001
  0
INSERT
  5
63E6
330
5D9A
100
AcDbEntity
  8
AM_5
 62
     3
100
AcDbBlockReference
  2
_OPEN30
 10
-132.3081620022251
 20
-31.47651962916055
 30
0.0
 41
2.5
 42
2.5
 43
2.5
 50
0.0000000000001527
  0
MTEXT
  5
63E7
330
5D9A
100
AcDbEntity
  8
AM_5
 62
     2
100
AcDbMText
 10
-157.3081676849264
 20
-28.07651962916062
 30
0.0
 40
3.799999999999999
 41
0.0
 71
     5
 72
     1
  1
50
1001
ACAD
1000
MTEXTBEGIN
1070
    73
1070
     1
1070
    44
1040
1.0
1070
    74
1070
     0
1000
MTEXTEND
  0
POINT
  5
63E8
330
5D9A
100
AcDbEntity
  8
DEFPOINTS
 62
     0
100
AcDbPoint
 10
-182.3081733676277
 20
0.0028975964579124
 30
0.0
  0
POINT
  5
63E9
330
5D9A
100
AcDbEntity
  8
DEFPOINTS
 62
     0
100
AcDbPoint
 10
-132.3081620022252
 20
0.0028975964580261
 30
0.0
  0
POINT
  5
63EA
330
5D9A
100
AcDbEntity
  8
DEFPOINTS
 62
     0
100
AcDbPoint
 10
-132.3081620022252
 20
-31.47651962916016
 30
0.0
  0
ENDBLK
  5
5DA5
330
5D9A
100
AcDbEntity
  8
0
100
AcDbBlockEnd
  0
BLOCK
  5
5DB0
330
5DA6
100
AcDbEntity
  8
0
100
AcDbBlockBegin
  2
*D12
 70
     1
 10
0.0
 20
0.0
 30
0.0
  3
*D12
  1

  0
LINE
  5
63C5
330
5DA6
100
AcDbEntity
  8
AM_5
 62
     3
100
AcDbLine
 10
-3.308162002225185
 20
-12.8489874342198
 30
0.0
 11
-3.30816200222506
 21
-56.70837903443157
 31
0.0
  0
LINE
  5
63C6
330
5DA6
100
AcDbEntity
  8
AM_5
 62
     3
100
AcDbLine
 10
-188.308052138961
 20
-15.91658331114859
 30
0.0
 11
-188.3080521389608
 21
-56.70837903443211
 31
0.0
  0
LINE
  5
63C7
330
5DA6
100
AcDbEntity
  8
AM_5
 62
     3
100
AcDbLine
 10
-5.808162002225063
 20
-55.70837903443158
 30
0.0
 11
-185.8080521389608
 21
-55.7083790344321
 31
0.0
  0
INSERT
  5
63C8
330
5DA6
100
AcDbEntity
  8
AM_5
 62
     3
100
AcDbBlockReference
  2
_OPEN30
 10
-3.308162002225063
 20
-55.70837903443157
 30
0.0
 41
2.5
 42
2.5
 43
2.5
 50
0.0000000000001527
  0
INSERT
  5
63C9
330
5DA6
100
AcDbEntity
  8
AM_5
 62
     3
100
AcDbBlockReference
  2
_OPEN30
 10
-188.3080521389608
 20
-55.70837903443211
 30
0.0
 41
2.5
 42
2.5
 43
2.5
 50
180.0000000000001
  0
MTEXT
  5
63CA
330
5DA6
100
AcDbEntity
  8
AM_5
 62
     2
100
AcDbMText
 10
-95.80810707059297
 20
-52.30837903443184
 30
0.0
 40
3.799999999999999
 41
0.0
 71
     5
 72
     1
  1
185
1001
ACAD
1000
MTEXTBEGIN
1070
    73
1070
     1
1070
    44
1040
1.0
1070
    74
1070
     0
1000
MTEXTEND
  0
POINT
  5
63CB
330
5DA6
100
AcDbEntity
  8
DEFPOINTS
 62
     0
100
AcDbPoint
 10
-3.308162002225222
 20
-12.04898743421979
 30
0.0
  0
POINT
  5
63CC
330
5DA6
100
AcDbEntity
  8
DEFPOINTS
 62
     0
100
AcDbPoint
 10
-188.308052138961
 20
-15.11658331114804
 30
0.0
  0
POINT
  5
63CD
330
5DA6
100
AcDbEntity
  8
DEFPOINTS
 62
     0
100
AcDbPoint
 10
-188.308052138961
 20
-55.70837903443156
 30
0.0
  0
ENDBLK
  5
5DB1
330
5DA6
100
AcDbEntity
  8
0
100
AcDbBlockEnd
  0
BLOCK
  5
5EFA
330
5EEC
100
AcDbEntity
  8
0
100
AcDbBlockBegin
  2
*D13
 70
     1
 10
0.0
 20
0.0
 30
0.0
  3
*D13
  1

  0
LINE
  5
5FBB
330
5EEC
100
AcDbEntity
  8
AM_5
100
AcDbLine
 10
0.2588235327313181
 20
-0.9659336693633257
 30
0.0
 11
8.782571362077071
 21
-32.77699397920485
 31
0.0
  0
LINE
  5
5FBC
330
5EEC
100
AcDbEntity
  8
AM_5
100
AcDbLine
 10
0.2588209057385371
 20
0.9659301054235424
 30
0.0
 11
8.782594056286548
 21
32.77699681359182
 31
0.0
  0
ARC
  5
5FBD
330
5EEC
100
AcDbEntity
  8
AM_5
100
AcDbCircle
 10
0.000001194425791
 20
0.0000044576452124
 30
0.0
 40
32.93324572272729
100
AcDbArc
 50
289.3504323762698
 51
70.64952795315003
  0
INSERT
  5
5FBE
330
5EEC
100
AcDbEntity
  8
AM_5
100
AcDbBlockReference
  2
_OPEN30
 10
8.523752319554152
 20
-31.81106815222458
 30
0.0
 41
2.5
 42
2.5
 43
2.5
 50
197.1752161116279
  0
INSERT
  5
5FBF
330
5EEC
100
AcDbEntity
  8
AM_5
100
AcDbBlockReference
  2
_OPEN30
 10
8.523774344973801
 20
31.81107116581349
 30
0.0
 41
2.5
 42
2.5
 43
2.5
 50
162.8247442177919
  0
MTEXT
  5
5FC0
330
5EEC
100
AcDbEntity
  8
AM_5
 62
     2
100
AcDbMText
 10
29.83324691715111
 20
-0.0000069435519961
 30
0.0
 40
3.2
 41
0.0
 71
     5
 72
     1
  1
150°
  7
ASAMI
 11
-0.0000000000000028
 21
1.0
 31
0.0
1001
ACAD
1000
MTEXTBEGIN
1070
    73
1070
     1
1070
    44
1040
1.0
1070
    74
1070
     0
1000
MTEXTEND
  0
POINT
  5
5FC1
330
5EEC
100
AcDbEntity
  8
DEFPOINTS
 62
     0
100
AcDbPoint
 10
29.84766465740409
 20
13.91818176770725
 30
0.0
  0
POINT
  5
5FC2
330
5EEC
100
AcDbEntity
  8
DEFPOINTS
 62
     0
100
AcDbPoint
 10
0.0
 20
-0.0000000000002274
 30
0.0
  0
POINT
  5
5FC3
330
5EEC
100
AcDbEntity
  8
DEFPOINTS
 62
     0
100
AcDbPoint
 10
0.0000044902083971
 20
-0.0000078423830558
 30
0.0
  0
POINT
  5
5FC4
330
5EEC
100
AcDbEntity
  8
DEFPOINTS
 62
     0
100
AcDbPoint
 10
-3.215385784616955
 20
11.99999215761687
 30
0.0
  0
POINT
  5
5FC5
330
5EEC
100
AcDbEntity
  8
DEFPOINTS
 62
     0
100
AcDbPoint
 10
-3.215401281309596
 20
-12.00000784238305
 30
0.0
  0
ENDBLK
  5
5EFB
330
5EEC
100
AcDbEntity
  8
0
100
AcDbBlockEnd
  0
BLOCK
  5
6021
330
6017
100
AcDbEntity
  8
0
100
AcDbBlockBegin
  2
*D14
 70
     1
 10
0.0
 20
0.0
 30
0.0
  3
*D14
  1

  0
LINE
  5
63B3
330
6017
100
AcDbEntity
  8
AM_5
 62
     3
100
AcDbLine
 10
-103.308162002225
 20
9.338357599406204
 30
0.0
 11
-103.308162002225
 21
32.10073212579978
 31
0.0
  0
LINE
  5
63B4
330
6017
100
AcDbEntity
  8
AM_5
 62
     3
100
AcDbLine
 10
-3.308146442280813
 20
12.8489717494536
 30
0.0
 11
-3.308146442280867
 21
32.10073212580007
 31
0.0
  0
LINE
  5
63B5
330
6017
100
AcDbEntity
  8
AM_5
 62
     3
100
AcDbLine
 10
-100.808162002225
 20
31.10073212579978
 30
0.0
 11
-5.808146442280865
 21
31.10073212580006
 31
0.0
  0
INSERT
  5
63B6
330
6017
100
AcDbEntity
  8
AM_5
 62
     3
100
AcDbBlockReference
  2
_OPEN30
 10
-103.308162002225
 20
31.10073212579978
 30
0.0
 41
2.5
 42
2.5
 43
2.5
 50
180.0000000000001
  0
INSERT
  5
63B7
330
6017
100
AcDbEntity
  8
AM_5
 62
     3
100
AcDbBlockReference
  2
_OPEN30
 10
-3.308146442280865
 20
31.10073212580007
 30
0.0
 41
2.5
 42
2.5
 43
2.5
 50
0.0000000000001527
  0
MTEXT
  5
63B8
330
6017
100
AcDbEntity
  8
AM_5
 62
     2
100
AcDbMText
 10
-53.30815422225297
 20
34.50073212579992
 30
0.0
 40
3.799999999999999
 41
0.0
 71
     5
 72
     1
  1
100
1001
ACAD
1000
MTEXTBEGIN
1070
    73
1070
     1
1070
    44
1040
1.0
1070
    74
1070
     0
1000
MTEXTEND
  0
POINT
  5
63B9
330
6017
100
AcDbEntity
  8
DEFPOINTS
 62
     0
100
AcDbPoint
 10
-103.3081620022249
 20
8.538357599406504
 30
0.0
  0
POINT
  5
63BA
330
6017
100
AcDbEntity
  8
DEFPOINTS
 62
     0
100
AcDbPoint
 10
-3.308146442280775
 20
12.0489717494536
 30
0.0
  0
POINT
  5
63BB
330
6017
100
AcDbEntity
  8
DEFPOINTS
 62
     0
100
AcDbPoint
 10
-3.308146442280774
 20
31.10073212580008
 30
0.0
  0
ENDBLK
  5
6022
330
6017
100
AcDbEntity
  8
0
100
AcDbBlockEnd
  0
BLOCK
  5
60CB
330
60C1
100
AcDbEntity
  8
0
100
AcDbBlockBegin
  2
*D15
 70
     1
 10
0.0
 20
0.0
 30
0.0
  3
*D15
  1

  0
LINE
  5
63EB
330
60C1
100
AcDbEntity
  8
AM_5
 62
     3
100
AcDbLine
 10
-128.308162002225
 20
-17.56514898497735
 30
0.0
 11
-128.3081620022249
 21
-44.36730894865125
 31
0.0
  0
LINE
  5
63EC
330
60C1
100
AcDbEntity
  8
AM_5
 62
     3
100
AcDbLine
 10
-3.308162002225185
 20
-12.8489874342198
 30
0.0
 11
-3.308162002225095
 21
-44.36730894865088
 31
0.0
  0
LINE
  5
63ED
330
60C1
100
AcDbEntity
  8
AM_5
 62
     3
100
AcDbLine
 10
-125.8081620022249
 20
-43.36730894865125
 30
0.0
 11
-5.808162002225098
 21
-43.36730894865089
 31
0.0
  0
INSERT
  5
63EE
330
60C1
100
AcDbEntity
  8
AM_5
 62
     3
100
AcDbBlockReference
  2
_OPEN30
 10
-128.308162002225
 20
-43.36730894865126
 30
0.0
 41
2.5
 42
2.5
 43
2.5
 50
180.0000000000001
  0
INSERT
  5
63EF
330
60C1
100
AcDbEntity
  8
AM_5
 62
     3
100
AcDbBlockReference
  2
_OPEN30
 10
-3.308162002225098
 20
-43.36730894865088
 30
0.0
 41
2.5
 42
2.5
 43
2.5
 50
0.0000000000001527
  0
MTEXT
  5
63F0
330
60C1
100
AcDbEntity
  8
AM_5
 62
     2
100
AcDbMText
 10
-65.80816200222506
 20
-39.96730894865107
 30
0.0
 40
3.799999999999999
 41
0.0
 71
     5
 72
     1
  1
125
1001
ACAD
1000
MTEXTBEGIN
1070
    73
1070
     1
1070
    44
1040
1.0
1070
    74
1070
     0
1000
MTEXTEND
  0
POINT
  5
63F1
330
60C1
100
AcDbEntity
  8
DEFPOINTS
 62
     0
100
AcDbPoint
 10
-128.3081620022251
 20
-16.76514898497698
 30
0.0
  0
POINT
  5
63F2
330
60C1
100
AcDbEntity
  8
DEFPOINTS
 62
     0
100
AcDbPoint
 10
-3.308162002225222
 20
-12.04898743421979
 30
0.0
  0
POINT
  5
63F3
330
60C1
100
AcDbEntity
  8
DEFPOINTS
 62
     0
100
AcDbPoint
 10
-3.308162002225224
 20
-43.36730894865088
 30
0.0
  0
ENDBLK
  5
60CC
330
60C1
100
AcDbEntity
  8
0
100
AcDbBlockEnd
  0
BLOCK
  5
6398
330
638E
100
AcDbEntity
  8
0
100
AcDbBlockBegin
  2
*D16
 70
     1
 10
0.0
 20
0.0
 30
0.0
  3
*D16
  1

  0
LINE
  5
63A0
330
638E
100
AcDbEntity
  8
AM_5
 62
     3
100
AcDbLine
 10
-1.576551335179768
 20
12.34999209359739
 30
0.0
 11
16.66726052125234
 21
12.34999209359738
 31
0.0
  0
LINE
  5
63A1
330
638E
100
AcDbEntity
  8
AM_5
 62
     3
100
AcDbLine
 10
-1.576566895124352
 20
-12.3500079064025
 30
0.0
 11
16.66726052125234
 21
-12.35000790640251
 31
0.0
  0
LINE
  5
63A2
330
638E
100
AcDbEntity
  8
AM_5
 62
     3
100
AcDbLine
 10
15.66726052125234
 20
9.849992093597384
 30
0.0
 11
15.66726052125234
 21
-9.850007906402513
 31
0.0
  0
INSERT
  5
63A3
330
638E
100
AcDbEntity
  8
AM_5
 62
     3
100
AcDbBlockReference
  2
_OPEN30
 10
15.66726052125235
 20
12.34999209359738
 30
0.0
 41
2.5
 42
2.5
 43
2.5
 50
90.0
  0
INSERT
  5
63A4
330
638E
100
AcDbEntity
  8
AM_5
 62
     3
100
AcDbBlockReference
  2
_OPEN30
 10
15.66726052125234
 20
-12.35000790640251
 30
0.0
 41
2.5
 42
2.5
 43
2.5
 50
270.0
  0
MTEXT
  5
63A5
330
638E
100
AcDbEntity
  8
AM_5
 62
     2
100
AcDbMText
 10
12.26726052125234
 20
-0.0000079064025616
 30
0.0
 40
3.799999999999999
 41
0.0
 71
     5
 72
     1
  1
%%c24.7
 11
0.0000000000000001
 21
1.0
 31
0.0
1001
ACAD
1000
MTEXTBEGIN
1070
    73
1070
     1
1070
    44
1040
1.0
1070
    74
1070
     0
1000
MTEXTEND
  0
POINT
  5
63A6
330
638E
100
AcDbEntity
  8
DEFPOINTS
 62
     0
100
AcDbPoint
 10
-2.376551335179768
 20
12.34999209359739
 30
0.0
  0
POINT
  5
63A7
330
638E
100
AcDbEntity
  8
DEFPOINTS
 62
     0
100
AcDbPoint
 10
-2.376566895124352
 20
-12.3500079064025
 30
0.0
  0
POINT
  5
63A8
330
638E
100
AcDbEntity
  8
DEFPOINTS
 62
     0
100
AcDbPoint
 10
15.66726052125234
 20
-12.35000790640251
 30
0.0
  0
ENDBLK
  5
6399
330
638E
100
AcDbEntity
  8
0
100
AcDbBlockEnd
  0
ENDSEC
  0
SECTION
  2
ENTITIES
  0
TEXT
  5
19BD
330
1F
100
AcDbEntity
  8
AM_6
100
AcDbText
 10
-114.5248701592011
 20
-77.98192224096829
 30
0.0
 40
5.0
  1
KDS247BAK
 50
0.0000000000001527
 72
     4
 11
-93.21534634967731
 21
-75.48192224096823
 31
0.0
100
AcDbText
  0
LINE
  5
35CA
330
1F
100
AcDbEntity
  8
PV0001_1
  6
CONTINUOUS
 48
0.5
100
AcDbLine
 10
-589.2017441852486
 20
-57.69694534177202
 30
0.0
 11
-567.9171279738763
 21
-62.69376548307545
 31
0.0
  0
LINE
  5
5CCE
330
1F
100
AcDbEntity
  8
AM_7
  6
AM_ISO08W050
100
AcDbLine
 10
5.575492385997222
 20
0.0028975964583985
 30
0.0
 11
-190.4878072702285
 21
0.0028975964578512
 31
0.0
  0
DIMENSION
  5
5D62
330
1F
100
AcDbEntity
  8
AM_5
100
AcDbDimension
  2
*D11
 10
-132.3081620022252
 20
-31.47651962916016
 30
0.0
 11
-157.3081676849264
 21
-28.07651962916017
 31
0.0
 70
    32
  1
<>
 51
359.9999999999998
  3
AM_JIS$0
100
AcDbAlignedDimension
 13
-182.3081733676277
 23
0.0028975964579124
 33
0.0
 14
-132.3081620022252
 24
0.0028975964580261
 34
0.0
100
AcDbRotatedDimension
1001
ACAD
1000
DSTYLE
1002
{
1070
   271
1070
     3
1002
}
1001
GENIUS_GENDTOL_13
1000

1000
h7
1000

1040
0.0
  0
LINE
  5
5D63
330
1F
100
AcDbEntity
  8
PV0001_1
  6
CONTINUOUS
 48
0.5
100
AcDbLine
 10
-188.3081620022251
 20
0.0348620013519536
 30
0.0
 11
-188.3081620022252
 21
15.18638055603943
 31
0.0
  0
LINE
  5
5D64
330
1F
100
AcDbEntity
  8
PV0001_1
  6
CONTINUOUS
 48
0.5
100
AcDbLine
 10
-187.4596512600571
 20
0.0348620013519536
 30
0.0
 11
-187.4596512600572
 21
16.03490960877441
 31
0.0
  0
LINE
  5
5D65
330
1F
100
AcDbEntity
  8
PV0001_1
  6
CONTINUOUS
 48
0.5
100
AcDbLine
 10
-187.4596512600571
 20
0.0348620013519536
 30
0.0
 11
-187.4596512600571
 21
-15.9651856060705
 31
0.0
  0
LINE
  5
5D66
330
1F
100
AcDbEntity
  8
PV0001_1
  6
CONTINUOUS
 48
0.5
100
AcDbLine
 10
-188.3081620022251
 20
0.0348620013519536
 30
0.0
 11
-188.3081620022251
 21
-15.11665655333497
 31
0.0
  0
LINE
  5
5D67
330
1F
100
AcDbEntity
  8
PV0001_1
  6
CONTINUOUS
 48
0.5
100
AcDbLine
 10
-188.308052138961
 20
-15.11658331114804
 30
0.0
 11
-187.4595047756731
 21
-15.965112363883
 31
0.0
  0
LINE
  5
5D68
330
1F
100
AcDbEntity
  8
PV0001_1
  6
CONTINUOUS
 48
0.5
100
AcDbLine
 10
-188.3080521389612
 20
15.18622491639217
 30
0.0
 11
-187.4595047756731
 21
16.0347539691248
 31
0.0
  0
ARC
  5
5D69
330
1F
100
AcDbEntity
  8
AM_0
100
AcDbCircle
 10
-137.1493911849844
 20
0.0028975964580127
 30
0.0
 40
4.841229182759249
100
AcDbArc
 50
270.0000000000001
 51
90.00000000000017
  0
ARC
  5
5D6A
330
1F
100
AcDbEntity
  8
AM_0
100
AcDbCircle
 10
-177.4669441848684
 20
0.0028975964579132
 30
0.0
 40
4.841229182759249
100
AcDbArc
 50
90.00000000000168
 51
270.0000000000017
  0
LINE
  5
5D6B
330
1F
100
AcDbEntity
  8
AM_0
100
AcDbLine
 10
-177.4669441848683
 20
-4.838331586301393
 30
0.0
 11
-137.1493911849844
 21
-4.838331586301279
 31
0.0
  0
LINE
  5
5D6C
330
1F
100
AcDbEntity
  8
AM_0
100
AcDbLine
 10
-137.1493911849845
 20
4.844126779217262
 30
0.0
 11
-177.4669441848684
 21
4.844126779217148
 31
0.0
  0
LINE
  5
5D6D
330
1F
100
AcDbEntity
  8
PV0001_1
  6
CONTINUOUS
100
AcDbLine
 10
-128.3081620022252
 20
16.0348638324056
 30
0.0
 11
-187.4305336415578
 21
16.03486383240547
 31
0.0
  0
LINE
  5
5D6E
330
1F
100
AcDbEntity
  8
PV0001_1
  6
CONTINUOUS
100
AcDbLine
 10
-128.3081620022251
 20
-15.9651489849766
 30
0.0
 11
-128.3081620022252
 21
16.0348638324056
 31
0.0
  0
LINE
  5
5D6F
330
1F
100
AcDbEntity
  8
PV0001_1
  6
CONTINUOUS
100
AcDbLine
 10
-187.4305336415577
 20
-15.96514898497675
 30
0.0
 11
-128.3081620022251
 21
-15.9651489849766
 31
0.0
  0
DIMENSION
  5
5D70
330
1F
100
AcDbEntity
  8
AM_5
100
AcDbDimension
  2
*D12
 10
-188.308052138961
 20
-55.70837903443156
 30
0.0
 11
-95.80810707059313
 21
-52.30837903443156
 31
0.0
 70
    32
  1
<>
 51
359.9999999999998
  3
AM_JIS$0
100
AcDbAlignedDimension
 13
-3.308162002225222
 23
-12.04898743421979
 33
0.0
 14
-188.308052138961
 24
-15.11658331114804
 34
0.0
100
AcDbRotatedDimension
1001
ACAD
1000
DSTYLE
1002
{
1070
   271
1070
     3
1002
}
1001
GENIUS_GENDTOL_13
1000

1000
h7
1000

1040
0.0
  0
DIMENSION
  5
5D71
330
1F
100
AcDbEntity
  8
AM_5
100
AcDbDimension
  2
*D10
 10
-182.3081733676277
 20
-31.47651962916038
 30
0.0
 11
-185.3081247695889
 21
-31.47651962916038
 31
0.0
 70
   160
  1
<>
 51
359.9999999999998
  3
AM_JIS$0
100
AcDbAlignedDimension
 13
-188.30807617155
 23
-11.80919686260925
 33
0.0
 14
-182.3081733676277
 24
0.0028975964579124
 34
0.0
100
AcDbRotatedDimension
1001
ACAD
1000
DSTYLE
1002
{
1070
   271
1070
     3
1002
}
1001
GENIUS_GENDTOL_13
1000

1000
h7
1000

1040
0.0
  0
DIMENSION
  5
5D72
330
1F
100
AcDbEntity
  8
AM_5
100
AcDbDimension
  2
*D9
 10
-188.3081620022251
 20
-43.17956413823618
 30
0.0
 11
-158.3081620022251
 21
-39.77956413823618
 31
0.0
 70
    32
  1
<>
 51
359.9999999999998
  3
AM_JIS$0
100
AcDbAlignedDimension
 13
-128.3081620022251
 23
-15.9651489849766
 33
0.0
 14
-188.3081620022251
 24
-15.11665655333497
 34
0.0
100
AcDbRotatedDimension
1001
ACAD
1000
DSTYLE
1002
{
1070
   271
1070
     3
1002
}
1001
GENIUS_GENDTOL_13
1000

1000
h7
1000

1040
0.0
  0
DIMENSION
  5
5D73
330
1F
100
AcDbEntity
  8
AM_5
100
AcDbDimension
  2
*D8
 10
-210.0001186024841
 20
-15.96496588265993
 30
0.0
 11
-213.4001186024841
 21
0.0349718630572093
 31
0.0
 70
    32
  1
%%C<>
 51
359.9999999999998
  3
AM_JIS$0
100
AcDbAlignedDimension
 13
-187.4305336415578
 23
16.03490960877441
 33
0.0
 14
-187.4305336415577
 24
-15.96496588265994
 34
0.0
 50
270.0000000000002
100
AcDbRotatedDimension
1001
ACAD
1000
DSTYLE
1002
{
1070
   271
1070
     3
1002
}
1001
GENIUS_GENDTOL_13
1000

1000
h7
1000

1040
0.0
  0
LINE
  5
5EC1
330
1F
100
AcDbEntity
  8
AM_0
  6
CONTINUOUS
 48
0.5
100
AcDbLine
 10
-118.2179066794989
 20
-14.43940510922726
 30
0.0
 11
-128.3081620022251
 21
-15.9651489849766
 31
0.0
  0
LINE
  5
5EDD
330
1F
100
AcDbEntity
  8
AM_0
  6
CONTINUOUS
 48
0.5
100
AcDbLine
 10
-122.2177665463503
 20
15.12499001334929
 30
0.0
 11
-128.3081620022252
 21
16.0348638324056
 31
0.0
  0
DIMENSION
  5
5EEB
330
1F
100
AcDbEntity
  8
AM_5
100
AcDbDimension
  2
*D13
 10
-3.215401281309596
 20
-12.00000784238305
 30
0.0
 11
29.83324691715111
 21
-0.0000069435520877
 31
0.0
 70
    34
  1
<>
 51
359.9999999999998
  3
AM_JIS$2
100
AcDb2LineAngularDimension
 13
0.0000044902083971
 23
-0.0000078423830558
 33
0.0
 14
-3.215385784616955
 24
11.99999215761687
 34
0.0
 15
0.0
 25
-0.0000000000002274
 35
0.0
 16
29.84766465740409
 26
13.91818176770725
 36
0.0
1001
ACAD
1000
DSTYLE
1002
{
1070
   179
1070
     3
1002
}
1001
GENIUS_GENDTOL_13
1000

1000
h7
1000

1040
0.0
  0
DIMENSION
  5
6016
330
1F
100
AcDbEntity
  8
AM_5
100
AcDbDimension
  2
*D14
 10
-3.308146442280774
 20
31.10073212580008
 30
0.0
 11
-53.30815422225287
 21
34.50073212580008
 31
0.0
 70
    32
  1
<>
 51
359.9999999999998
  3
AM_JIS$0
100
AcDbAlignedDimension
 13
-103.3081620022249
 23
8.538357599406504
 33
0.0
 14
-3.308146442280775
 24
12.0489717494536
 34
0.0
 50
180.0000000000001
100
AcDbRotatedDimension
1001
ACAD
1000
DSTYLE
1002
{
1070
   271
1070
     3
1002
}
1001
GENIUS_GENDTOL_13
1000

1000
h7
1000

1040
0.0
  0
DIMENSION
  5
60C0
330
1F
100
AcDbEntity
  8
AM_5
100
AcDbDimension
  2
*D15
 10
-3.308162002225224
 20
-43.36730894865088
 30
0.0
 11
-65.80816200222518
 21
-39.96730894865088
 31
0.0
 70
    32
  1
<>
 51
359.9999999999998
  3
AM_JIS$0
100
AcDbAlignedDimension
 13
-128.3081620022251
 23
-16.76514898497698
 33
0.0
 14
-3.308162002225222
 24
-12.04898743421979
 34
0.0
 50
0.0000000000002659
100
AcDbRotatedDimension
1001
ACAD
1000
DSTYLE
1002
{
1070
   271
1070
     3
1002
}
1001
GENIUS_GENDTOL_13
1000

1000
h7
1000

1040
0.0
  0
ELLIPSE
  5
6333
330
1F
100
AcDbEntity
  8
AM_0
100
AcDbEllipse
 10
-125.8076633482387
 20
15.94284594277778
 30
0.0
 11
32.53626718864548
 21
0.0000000000011146
 31
0.0
210
0.0
220
0.0
230
1.0
 40
0.9651307010610032
 41
-1.19245653936342
 42
-0.9416303594893538
  0
ELLIPSE
  5
6334
330
1F
100
AcDbEntity
  8
AM_0
100
AcDbEllipse
 10
-121.6569371005224
 20
5.573809217349064
 30
0.0
 11
21.01951415192102
 21
0.0000000000001226
 31
0.0
210
0.0
220
0.0
230
1.0
 40
0.9651307010610038
 41
4.657979235188529
 42
5.096023414668469
  0
SPLINE
  5
6335
330
1F
100
AcDbEntity
  8
AM_0
  6
CONTINUOUS
 48
0.5
100
AcDbSpline
210
0.0
220
0.0
230
1.0
 70
     8
 71
     3
 72
    23
 73
    19
 74
     0
 42
0.0000000001
 43
0.0000000001
 40
0.0
 40
0.0
 40
0.0
 40
0.0
 40
1.010743684496582
 40
2.022833576468826
 40
3.037578957496683
 40
4.056212745003485
 40
5.079857003665509
 40
6.109500240690275
 40
7.145961322679365
 40
8.189880470204213
 40
9.241703023925269
 40
10.30166930151765
 40
11.3698269246763
 40
12.44598301520777
 40
13.52983529054051
 40
14.62080810761866
 40
15.71821804889404
 40
16.41798914862032
 40
16.41798914862032
 40
16.41798914862032
 40
16.41798914862032
 10
-88.22543829751316
 20
-12.35000790640178
 30
0.0
 10
-88.90942954330222
 20
-12.34283905576135
 30
0.0
 10
-90.27832304144173
 20
-12.32849180630287
 30
0.0
 10
-92.33116512072928
 20
-12.21283685912114
 30
0.0
 10
-94.38391957788763
 20
-12.02897573093878
 30
0.0
 10
-96.4365469672289
 20
-11.77128727452354
 30
0.0
 10
-98.48902691372128
 20
-11.44326406765828
 30
0.0
 10
-100.5413185240022
 20
-11.04636325026468
 30
0.0
 10
-102.5934204327735
 20
-10.58326643826288
 30
0.0
 10
-104.6453186447453
 20
-10.05678624845453
 30
0.0
 10
-106.6970083090318
 20
-9.470189402453213
 30
0.0
 10
-108.7485063111151
 20
-8.827126927819403
 30
0.0
 10
-110.7998041502579
 20
-8.131569528052686
 30
0.0
 10
-112.850925068242
 20
-7.38778392472327
 30
0.0
 10
-114.9018964899683
 20
-6.600430592722172
 30
0.0
 10
-116.9527228468148
 20
-5.774285820264402
 30
0.0
 10
-118.7521842932224
 20
-5.019818591355881
 30
0.0
 10
-119.8672684110225
 20
-4.539694622671124
 30
0.0
 10
-120.3008258241189
 20
-4.35134116843638
 30
0.0
  0
ELLIPSE
  5
6336
330
1F
100
AcDbEntity
  8
AM_0
  6
CONTINUOUS
 48
0.5
100
AcDbEllipse
 10
-123.0615601389985
 20
-10.48762297969517
 30
0.0
 11
-2.919940393881722
 21
3.376362366539521
 31
0.0
210
0.0
220
0.0
230
1.0
 40
0.8612027227279376
 41
0.9574011822366582
 42
2.417606019943871
  0
ELLIPSE
  5
6337
330
1F
100
AcDbEntity
  8
AM_0
  6
CONTINUOUS
 48
0.5
100
AcDbEllipse
 10
-121.6578038840791
 20
-9.436397960018556
 30
0.0
 11
-5.468371544778822
 21
1.561081778251469
 31
0.0
210
0.0
220
0.0
230
1.0
 40
0.9254517659550804
 41
-1.554786729195724
 42
0.5207808019900449
  0
LINE
  5
6350
330
1F
100
AcDbEntity
  8
AM_0
  6
CONTINUOUS
 48
0.5
100
AcDbLine
 10
0.0
 20
-0.0000000000002274
 30
0.0
 11
-3.309170372660343
 21
12.34999209359744
 31
0.0
  0
LINE
  5
6351
330
1F
100
AcDbEntity
  8
AM_0
  6
CONTINUOUS
 48
0.5
100
AcDbLine
 10
-0.0000045085357741
 20
0.0000078743923311
 30
0.0
 11
-3.309190393024012
 21
-12.35000790640248
 31
0.0
  0
LINE
  5
637B
330
1F
100
AcDbEntity
  8
AM_0
  6
CONTINUOUS
 48
0.5
100
AcDbLine
 10
-16.73451153214573
 20
12.34999209359761
 30
0.0
 11
-3.309170372660343
 21
12.34999209359744
 31
0.0
  0
LINE
  5
637C
330
1F
100
AcDbEntity
  8
AM_0
  6
CONTINUOUS
 48
0.5
100
AcDbLine
 10
-2.867947794619904
 20
10.70332699731365
 30
0.0
 11
-16.75665812402205
 21
10.7033269973137
 31
0.0
  0
ELLIPSE
  5
6380
330
1F
100
AcDbEntity
  8
AM_0
100
AcDbEllipse
 10
-5.566254756439549
 20
4.426330476419671
 30
0.0
 11
-4.798630013465517
 21
0.7122611230533762
 31
0.0
210
0.0
220
0.0
230
0.9999999999999998
 40
0.7774450247646936
 41
1.113846970578898
 42
3.019247614886899
  0
LINE
  5
6381
330
1F
100
AcDbEntity
  8
AM_0
  6
CONTINUOUS
 48
0.5
100
AcDbLine
 10
-12.30273335837685
 20
3.2717594112907
 30
0.0
 11
-8.18040155683343
 21
1.392674912072171
 31
0.0
  0
LINE
  5
6382
330
1F
100
AcDbEntity
  8
AM_0
100
AcDbLine
 10
-2.250916853460934
 20
-3.056206650386288
 30
0.0
 11
-6.124324786832426
 21
-4.899804014157711
 31
0.0
  0
LINE
  5
6383
330
1F
100
AcDbEntity
  8
AM_0
100
AcDbLine
 10
-3.274478511801018
 20
0.9249172542221549
 30
0.0
 11
-2.250916853460934
 21
-3.056206650386288
 31
0.0
  0
LINE
  5
6384
330
1F
100
AcDbEntity
  8
AM_0
  6
CONTINUOUS
 48
0.5
100
AcDbLine
 10
-18.30815735935919
 20
-12.35000790640244
 30
0.0
 11
-3.309190393024012
 21
-12.35000790640248
 31
0.0
  0
LINE
  5
6385
330
1F
100
AcDbEntity
  8
AM_0
  6
CONTINUOUS
 48
0.5
100
AcDbLine
 10
-18.30815735935918
 20
-10.66591699731151
 30
0.0
 11
-4.24023886507516
 21
-10.66591699731164
 31
0.0
  0
LINE
  5
6387
330
1F
100
AcDbEntity
  8
AM_0
  6
CONTINUOUS
 48
0.5
100
AcDbLine
 10
-8.18040155683343
 20
1.392674912072171
 30
0.0
 11
-4.24023886507516
 21
-10.66591699731164
 31
0.0
  0
LINE
  5
6388
330
1F
100
AcDbEntity
  8
AM_0
  6
CONTINUOUS
 48
0.5
100
AcDbLine
 10
-2.250916853460934
 20
-3.056206650386361
 30
0.0
 11
-4.24023886507516
 21
-10.66591699731164
 31
0.0
  0
DIMENSION
  5
638D
330
1F
100
AcDbEntity
  8
AM_5
100
AcDbDimension
  2
*D16
 10
15.66726052125234
 20
-12.35000790640251
 30
0.0
 11
12.26726052125234
 21
-0.0000079064025616
 31
0.0
 70
    32
  1
%%c<>
  3
AM_JIS$0
100
AcDbAlignedDimension
 13
-2.376551335179768
 23
12.34999209359739
 33
0.0
 14
-2.376566895124352
 24
-12.3500079064025
 34
0.0
 50
89.99999999999969
100
AcDbRotatedDimension
1001
GENIUS_GENDTOL_13
1000

1000
h7
1000

1040
0.0
  0
ELLIPSE
  5
6447
330
1F
100
AcDbEntity
  8
AM_0
100
AcDbEllipse
 10
-149.1567988017037
 20
-88.70791305496641
 30
0.0
 11
-26.64124088064888
 21
104.2118842851633
 31
0.0
210
0.0
220
0.0
230
1.0
 40
0.9867489338623606
 41
-0.8469920127761625
 42
-0.5098403947971307
  0
SPLINE
  5
6448
330
1F
100
AcDbEntity
  8
AM_0
  6
CONTINUOUS
100
AcDbSpline
210
0.0
220
0.0
230
1.0
 70
     8
 71
     3
 72
    54
 73
    50
 74
     0
 42
0.0000000001
 43
0.0000000001
 40
0.0
 40
0.0
 40
0.0
 40
0.0
 40
1.010743684496582
 40
2.022833576467832
 40
3.037578957496688
 40
4.056212745003489
 40
5.079857003664532
 40
6.109500240690281
 40
7.145961322679372
 40
8.189895241603872
 40
9.241717795325891
 40
10.30168407291828
 40
11.36983447792315
 40
12.44600489715814
 40
13.52984294512926
 40
14.62081576220742
 40
15.7182257034828
 40
16.82123173843959
 40
17.92886860250316
 40
19.0400688939571
 40
20.15368796660465
 40
21.26852814259644
 40
22.38336992938901
 40
23.49698739941135
 40
24.6081876908653
 40
25.71582455492886
 40
26.81883757994213
 40
27.91624752121713
 40
29.00722033829659
 40
30.09105838626677
 40
31.16722880550176
 40
32.23537921050758
 40
33.29534548809967
 40
34.347168041821
 40
35.39108718934584
 40
36.42754827133493
 40
37.45720575381954
 40
38.48085062012849
 40
39.49948440763516
 40
40.51422944315121
 40
41.52631975251916
 40
42.53706336719636
 40
43.54780698187354
 40
44.55989729124051
 40
45.57464232675757
 40
46.59327611426424
 40
47.6169209805722
 40
48.64656348684535
 40
49.31777037190953
 40
49.31777037190953
 40
49.31777037190953
 40
49.31777037190953
 10
-17.87292107350974
 20
-12.35000790640246
 30
0.0
 10
-18.52284869325166
 20
-12.34265995559953
 30
0.0
 10
-19.8235695700214
 20
-12.32795426727278
 30
0.0
 10
-21.774177528056
 20
-12.20940991015182
 30
0.0
 10
-23.72470222199159
 20
-12.02095534957045
 30
0.0
 10
-25.67510619759825
 20
-11.75682911544975
 30
0.0
 10
-27.62536999291467
 20
-11.42061062465886
 30
0.0
 10
-29.57545513359659
 20
-11.01379498724746
 30
0.0
 10
-31.52536814259242
 20
-10.53912265835029
 30
0.0
 10
-33.47509172811439
 20
-9.999500304196402
 30
0.0
 10
-35.42461260899145
 20
-9.398241173304253
 30
0.0
 10
-37.37394050250756
 20
-8.739119307085763
 30
0.0
 10
-39.32308062935152
 20
-8.026168576548331
 30
0.0
 10
-41.27205734246799
 20
-7.263827281092244
 30
0.0
 10
-43.22087956499825
 20
-6.456780171313532
 30
0.0
 10
-45.16956536785999
 20
-5.610004386557183
 30
0.0
 10
-47.11813636224241
 20
-4.728723857192509
 30
0.0
 10
-49.06660964984512
 20
-3.81835804150998
 30
0.0
 10
-51.01500414082308
 20
-2.884506043418178
 30
0.0
 10
-52.96334068382565
 20
-1.932915611017263
 30
0.0
 10
-54.91163636761864
 20
-0.9694367312169834
 30
0.0
 10
-56.85991870515512
 20
-0.0000104262507052
 30
0.0
 10
-58.80819229653403
 20
0.969433328993216
 30
0.0
 10
-60.75649451058949
 20
1.932897204879025
 30
0.0
 10
-62.70482864834443
 20
2.884490517689754
 30
0.0
 10
-64.6532266132883
 20
3.818346073341431
 30
0.0
 10
-66.60170798409271
 20
4.728704119801762
 30
0.0
 10
-68.55028205383509
 20
5.609989118485061
 30
0.0
 10
-70.49896813802222
 20
6.456764216593449
 30
0.0
 10
-72.44779028964109
 20
7.263811496091121
 30
0.0
 10
-74.39676700774805
 20
8.026152792663266
 30
0.0
 10
-76.34590718423817
 20
8.739103352723079
 30
0.0
 10
-78.29523487656231
 20
9.398225891965317
 30
0.0
 10
-80.24474737911484
 20
9.999479713747181
 30
0.0
 10
-82.1944589078484
 20
10.5391091356074
 30
0.0
 10
-84.1443711935277
 20
11.01379100956849
 30
0.0
 10
-86.09447025847114
 20
11.42056018298697
 30
0.0
 10
-88.04474049690805
 20
11.75688274050753
 30
0.0
 10
-89.99514505070175
 20
12.02069588706975
 30
0.0
 10
-91.94567109992116
 20
12.2102948635468
 30
0.0
 10
-93.89627740407268
 20
12.32454226219539
 30
0.0
 10
-95.84692657161477
 20
12.3627085377462
 30
0.0
 10
-97.79757573628675
 20
12.32454226213571
 30
0.0
 10
-99.74818204906533
 20
12.21029486378683
 30
0.0
 10
-101.6987080665224
 20
12.02069588616517
 30
0.0
 10
-103.6491127394007
 20
11.75688274390752
 30
0.0
 10
-105.5993730222144
 20
11.42056180982938
 30
0.0
 10
-107.3189346147086
 20
11.06188103221098
 30
0.0
 10
-108.3865720974721
 20
10.8085729178163
 30
0.0
 10
-109.0828557929933
 20
10.6085151098369
 30
0.0
  0
SPLINE
  5
6449
330
1F
100
AcDbEntity
  8
AM_0
  6
CONTINUOUS
100
AcDbSpline
210
0.0
220
0.0
230
1.0
 70
     8
 71
     3
 72
    25
 73
    21
 74
     0
 42
0.0000000001
 43
0.0000000001
 40
24.56499986022253
 40
24.56499986022253
 40
24.56499986022253
 40
24.56499986022253
 40
24.6081876908653
 40
25.71582455492886
 40
26.81883757994213
 40
27.91624752121713
 40
29.00722033829659
 40
30.09105838626677
 40
31.16722880550176
 40
32.23537921050758
 40
33.29534548809967
 40
34.347168041821
 40
35.39108718934584
 40
36.42754827133493
 40
37.45720575381954
 40
38.48085062012849
 40
39.49948440763516
 40
40.51422944315121
 40
41.52631975251916
 40
42.53706336680078
 40
42.53706336680078
 40
42.53706336680078
 40
42.53706336680078
 10
-12.30273335837685
 20
3.2717594112907
 30
0.0
 10
-12.32816710483175
 20
3.283696885951117
 30
0.0
 10
-13.00593981864428
 20
3.601695995620458
 30
0.0
 10
-14.33546831156631
 20
4.219280092445337
 30
0.0
 10
-16.29481179746188
 20
5.106018232713068
 30
0.0
 10
-18.25389653829077
 20
5.963684328829637
 30
0.0
 10
-20.21267612705496
 20
6.786841691745128
 30
0.0
 10
-22.17111154039043
 20
7.570272493908555
 30
0.0
 10
-24.12916109956995
 20
8.308998711109062
 30
0.0
 10
-26.08677706617807
 20
8.998335824558282
 30
0.0
 10
-28.04392985767492
 20
9.633846583346013
 30
0.0
 10
-30.0005679244016
 20
10.21149061876239
 30
0.0
 10
-31.9566600822943
 20
10.72751235090579
 30
0.0
 10
-33.91216789152366
 20
11.17858885367778
 30
0.0
 10
-35.86704153243685
 20
11.56175536004256
 30
0.0
 10
-37.82123477024009
 20
11.87447832842519
 30
0.0
 10
-39.77468581426481
 20
12.11469556002418
 30
0.0
 10
-41.7273612382574
 20
12.28070257523667
 30
0.0
 10
-43.67920605541136
 20
12.37136254792875
 30
0.0
 10
-44.98014008807806
 20
12.38108729949055
 30
0.0
 10
-45.63002034028706
 20
12.37323092313612
 30
0.0
  0
LINE
  5
644A
330
1F
100
AcDbEntity
  8
AM_11
  6
AM_ISO09W050
 48
0.5
100
AcDbLine
 10
-52.9356950768674
 20
12.34999209359755
 30
0.0
 11
-17.47251661331053
 21
12.34999209359725
 31
0.0
  0
SPLINE
  5
644B
330
1F
100
AcDbEntity
  8
AM_0
  6
CONTINUOUS
100
AcDbSpline
210
0.0
220
0.0
230
1.0
 70
     8
 71
     3
 72
    11
 73
     7
 74
     0
 42
0.0000000001
 43
0.0000000001
 40
11.27226913003534
 40
11.27226913003534
 40
11.27226913003534
 40
11.2722691300354
 40
12.28301561507924
 40
13.29510212255852
 40
14.30984805882082
 40
15.18258238371378
 40
15.18258238371378
 40
15.18258238371378
 40
15.18258238371378
 10
-54.61735208639822
 20
-12.35000790640205
 30
0.0
 10
-55.26480835282149
 20
-12.28956341751558
 30
0.0
 10
-56.55849966003157
 20
-12.14322994057257
 30
0.0
 10
-58.49235624011493
 20
-11.84803912207959
 30
0.0
 10
-60.32762023381547
 20
-11.49546605580018
 30
0.0
 10
-61.51456125710582
 20
-11.22443264650348
 30
0.0
 10
-62.06153747875271
 20
-11.09054962852356
 30
0.0
  0
SPLINE
  5
644C
330
1F
100
AcDbEntity
  8
AM_0
  6
CONTINUOUS
100
AcDbSpline
210
0.0
220
0.0
230
1.0
 70
     8
 71
     3
 72
    17
 73
    13
 74
     0
 42
0.0000000001
 43
0.0000000001
 40
1.580019955310467
 40
1.580019955310467
 40
1.580019955310467
 40
1.580019955310467
 40
2.030549285115227
 40
3.082371838836284
 40
4.126290986361125
 40
5.162752068350215
 40
6.192395305374981
 40
7.216039564037012
 40
8.234688489606833
 40
9.249433870634691
 40
10.26152376260694
 40
11.27226744710342
 40
11.27226744710342
 40
11.27226744710342
 40
11.27226744710352
 10
-36.24370319070917
 20
-9.114671571793147
 30
0.0
 10
-36.51968165816462
 20
-9.208545035650399
 30
0.0
 10
-37.4415424577976
 20
-9.516227852034852
 30
0.0
 10
-39.01538745468232
 20
-9.998839358616656
 30
0.0
 10
-40.96482730927341
 20
-10.53930022319266
 30
0.0
 10
-42.91480384283111
 20
-11.01375310441161
 30
0.0
 10
-44.86486972363296
 20
-11.42060468286432
 30
0.0
 10
-46.81514806061762
 20
-11.75689550052155
 30
0.0
 10
-48.76556113673614
 20
-12.02070649396986
 30
0.0
 10
-50.71609566118573
 20
-12.21032807969978
 30
0.0
 10
-52.66670357784689
 20
-12.32453964154287
 30
0.0
 10
-53.96742447523061
 20
-12.35000797706982
 30
0.0
 10
-54.61735208639807
 20
-12.35000790640205
 30
0.0
  0
LINE
  5
644D
330
1F
100
AcDbEntity
  8
AM_11
  6
AM_ISO09W050
 48
0.5
100
AcDbLine
 10
-49.91184757590684
 20
-12.35000790640258
 30
0.0
 11
-16.75253463562081
 21
-12.35000790640277
 31
0.0
  0
LINE
  5
644E
330
1F
100
AcDbEntity
  8
AM_0
100
AcDbLine
 10
-18.30815735935919
 20
-12.32333543805547
 30
0.0
 11
-18.30815735935905
 21
5.981218804966305
 31
0.0
  0
LINE
  5
644F
330
1F
100
AcDbEntity
  8
AM_0
100
AcDbLine
 10
-16.82983475311113
 20
5.338274199981502
 30
0.0
 11
-16.73556827808511
 21
12.34999209359747
 31
0.0
  0
SPLINE
  5
6450
330
1F
100
AcDbEntity
  8
AM_0
  6
CONTINUOUS
 48
0.5
100
AcDbSpline
210
0.0
220
0.0
230
1.0
 70
     8
 71
     3
 72
    15
 73
    11
 74
     0
 42
0.0000000001
 43
0.0000000001
 40
0.0
 40
0.0
 40
0.0
 40
0.0
 40
1.010743614677189
 40
2.022833924044153
 40
3.037578959561199
 40
4.056212747067873
 40
5.079857613375832
 40
6.109500119648989
 40
7.14596120163808
 40
7.488344792359157
 40
7.488344792359157
 40
7.488344792359157
 40
7.488344792359157
 10
-16.735646607454
 20
12.34416580766364
 30
0.0
 10
-17.34331800306009
 20
12.34409159467009
 30
0.0
 10
-18.559587545946
 20
12.31875047533566
 30
0.0
 10
-20.38345277313702
 20
12.20445926128856
 30
0.0
 10
-22.20726828703328
 20
12.01487226565629
 30
0.0
 10
-24.03096321084389
 20
11.75105515269532
 30
0.0
 10
-25.85452618869609
 20
11.41473808129323
 30
0.0
 10
-27.67792611143988
 20
11.00795988715418
 30
0.0
 10
-29.08988472515179
 20
10.64035861419614
 30
0.0
 10
-29.89437513307441
 20
10.41194265234523
 30
0.0
 10
-30.12627414188079
 20
10.23625619058256
 30
0.0
  0
LINE
  5
6451
330
1F
100
AcDbEntity
  8
AM_0
  6
CONTINUOUS
100
AcDbLine
 10
-103.3081620022252
 20
-10.34920193593553
 30
0.0
 11
-103.308162002225
 21
7.953385951320708
 31
0.0
  0
LINE
  5
6452
330
1F
100
AcDbEntity
  8
AM_0
  6
CONTINUOUS
 48
0.5
100
AcDbLine
 10
-88.22543829751316
 20
-12.35000790640191
 30
0.0
 11
-54.61735208639828
 21
-12.3500079064023
 31
0.0
  0
LINE
  5
6453
330
1F
100
AcDbEntity
  8
AM_0
  6
CONTINUOUS
 48
0.5
100
AcDbLine
 10
-95.84691185440826
 20
12.34999209359817
 30
0.0
 11
-44.1072785433945
 21
12.34999209359758
 31
0.0
  0
SPLINE
  5
6454
330
1F
100
AcDbEntity
  8
AM_0
  6
CONTINUOUS
100
AcDbSpline
210
0.0
220
0.0
230
1.0
 70
     8
 71
     3
 72
    22
 73
    18
 74
     0
 42
0.0000000001
 43
0.0000000001
 40
17.17441611292
 40
17.17441611292
 40
17.17441611292
 40
17.17441611292
 40
17.38177636558528
 40
18.41823744757437
 40
19.46215659509824
 40
20.51397914882054
 40
21.57394542641293
 40
22.64209583141747
 40
23.71826625065247
 40
24.80210429862395
 40
25.8930771157021
 40
26.99048705697709
 40
28.09349309193389
 40
29.20112995599786
 40
30.31233024745139
 40
31.42594771747373
 40
32.5407895042663
 40
32.54078950426994
 40
32.54078950426994
 40
32.54078950426994
 10
-62.06239054684552
 20
-11.09039729136772
 30
0.0
 10
-62.19300603372073
 20
-11.0618082526779
 30
0.0
 10
-62.97597454426561
 20
-10.88766929315737
 30
0.0
 10
-64.41032873548383
 20
-10.53849801462801
 30
0.0
 10
-66.36003998541983
 20
-9.998867042408086
 30
0.0
 10
-68.30955256387222
 20
-9.397613641592926
 30
0.0
 10
-70.25888023429046
 20
-8.738490984992493
 30
0.0
 10
-72.2080204217481
 20
-8.025540469018274
 30
0.0
 10
-74.1569971179009
 20
-7.263199114181326
 30
0.0
 10
-76.10581934705868
 20
-6.456152025163897
 30
0.0
 10
-78.05450514046128
 20
-5.609376217142994
 30
0.0
 10
-80.00307616625917
 20
-4.728095760498018
 30
0.0
 10
-81.95154933687325
 20
-3.817729675406683
 30
0.0
 10
-83.89994426683628
 20
-2.883878687858797
 30
0.0
 10
-85.84827822697324
 20
-1.932284924368951
 30
0.0
 10
-87.79658008015758
 20
-0.9688202328010882
 30
0.0
 10
-89.09519303006586
 20
-0.3226449013017264
 30
0.0
 10
-89.74485624334679
 20
0.0006202470832996
 30
0.0
  0
VIEWPORT
  5
110
330
101
100
AcDbEntity
 67
     1
  8
0
100
AcDbViewport
 10
420.5
 20
297.0
 30
0.0
 40
948.9782706766916
 41
628.452
 68
     1
 69
     1
1001
ACAD
1000
MVIEW
1002
{
1070
    16
1010
0.0
1020
0.0
1030
0.0
1010
0.0
1020
0.0
1030
1.0
1040
0.0
1040
628.452
1040
420.5
1040
297.0
1040
50.0
1040
0.0
1040
0.0
1070
     0
1070
   100
1070
     1
1070
     1
1070
     0
1070
     0
1070
     0
1070
     0
1040
0.0
1040
0.0
1040
0.0
1040
10.0
1040
10.0
1040
10.0
1040
10.0
1070
     0
1002
{
1002
}
1002
}
  0
ENDSEC
  0
SECTION
  2
OBJECTS
  0
DICTIONARY
  5
C
330
0
100
AcDbDictionary
  3
ACAD_GROUP
350
D
  3
ACAD_LAYOUT
350
1A
  3
ACAD_MLINESTYLE
350
17
  3
ACAD_PLOTSETTINGS
350
19
  3
ACAD_PLOTSTYLENAME
350
E
  3
ACDBVARIABLEDICTIONARY
350
34
  3
ACMDICTIONARY
350
43
  3
AMG
350
2B
  3
AMGSNAPSETTINGS
350
6E
  3
DWGPROPS
350
6471
  3
ACDBHEADERROUNDTRIPXREC
350
6481
  0
DICTIONARY
  5
74
330
1F
100
AcDbDictionary
280
     1
  3
ACAD_INDEX
360
6473
  3
ACAD_LAYOUTSELFREF
360
64A4
  0
DICTIONARY
  5
64A9
330
101
100
AcDbDictionary
280
     1
  3
ACAD_LAYOUTSELFREF
360
64AA
  0
DICTIONARY
  5
D
102
{ACAD_REACTORS
330
C
102
}
330
C
100
AcDbDictionary
  0
DICTIONARY
  5
1A
102
{ACAD_REACTORS
330
C
102
}
330
C
100
AcDbDictionary
  0
DICTIONARY
  5
17
102
{ACAD_REACTORS
330
C
102
}
330
C
100
AcDbDictionary
  3
STANDARD
350
18
  0
DICTIONARY
  5
19
102
{ACAD_REACTORS
330
C
102
}
330
C
100
AcDbDictionary
  0
ACDBDICTIONARYWDFLT
  5
E
102
{ACAD_REACTORS
330
C
102
}
330
C
100
AcDbDictionary
281
     1
  3
Normal
350
F
100
AcDbDictionaryWithDefault
340
F
  0
DICTIONARY
  5
34
102
{ACAD_REACTORS
330
C
102
}
330
C
100
AcDbDictionary
  3
INDEXCTL
350
35
  3
SORTENTS
350
B5E
  0
DICTIONARY
  5
43
102
{ACAD_REACTORS
330
C
102
}
330
C
100
AcDbDictionary
  3
ACMSTDDICTIONARY
350
260
  0
DICTIONARY
  5
2B
102
{ACAD_REACTORS
330
C
102
}
330
C
100
AcDbDictionary
  3
ACMGSETTINGS
350
2C
  0
DICTIONARY
  5
6E
102
{ACAD_REACTORS
330
C
102
}
330
C
100
AcDbDictionary
  0
XRECORD
  5
6471
102
{ACAD_REACTORS
330
C
102
}
330
C
100
AcDbXrecord
  1
DWGPROPS COOKIE
  2

  3

  4

  6

  7

  8

  9

300
AmdtFileType=82
301
=
302
=
303
=
304
=
305
=
306
=
307
=
308
=
309
=
 40
0.8542659722222222
 41
2452800.443498622
 42
2453002.621208344
  1

 90
        1
  0
DICTIONARY
  5
6481
102
{ACAD_REACTORS
330
C
102
}
330
C
100
AcDbDictionary
  3
TSTACKALIGN
350
6482
  3
TSTACKSIZE
350
6483
  3
HYPERLINKBASE
350
6484
  3
STYLESHEET
350
6485
  3
LAYOUTDICT
350
6486
  3
PLOTSETDICT
350
6487
  3
PLOTSTYLNAMDICT
350
6488
  3
LWETCUNION
350
6489
  3
INSUNITS
350
648A
  3
CEPSNTYPE
350
648B
  3
FINGERPRINTGUID
350
648C
  3
VERSIONGUID
350
648D
  3
PSVPSCALE
350
648E
  3
DIMSTYLEDATA
350
648F
  3
PUCSORTHOREF
350
6490
  3
PUCSORTHOVIEW
350
6491
  3
PUCSBASE
350
6492
  3
PUCSORGTOP
350
6493
  3
PUCSORGBOTTOM
350
6494
  3
PUCSORGLEFT
350
6495
  3
PUCSORGRIGHT
350
6496
  3
PUCSORGFRONT
350
6497
  3
PUCSORGBACK
350
6498
  3
UCSORTHOREF
350
6499
  3
UCSORTHOVIEW
350
649A
  3
UCSBASE
350
649B
  3
UCSORGTOP
350
649C
  3
UCSORGBOTTOM
350
649D
  3
UCSORGLEFT
350
649E
  3
UCSORGRIGHT
350
649F
  3
UCSORGFRONT
350
64A0
  3
UCSORGBACK
350
64A1
  0
DICTIONARY
  5
6473
102
{ACAD_REACTORS
330
74
102
}
330
74
100
AcDbDictionary
  3
*A1
350
6474
  0
XRECORD
  5
64A4
102
{ACAD_REACTORS
330
74
102
}
330
74
100
AcDbXrecord
340
1F
  0
XRECORD
  5
64AA
102
{ACAD_REACTORS
330
64A9
102
}
330
64A9
100
AcDbXrecord
340
101
  0
MLINESTYLE
  5
18
102
{ACAD_REACTORS
330
17
102
}
330
17
100
AcDbMlineStyle
  2
STANDARD
 70
     0
  3

 62
   256
 51
90.0
 52
90.0
 71
     2
 49
0.5
 62
   256
  6
BYLAYER
 49
-0.5
 62
   256
  6
BYLAYER
  0
ACDBPLACEHOLDER
  5
F
102
{ACAD_REACTORS
330
E
102
}
330
E
100
AcDbPlaceHolder
280
     0
  0
DICTIONARYVAR
  5
35
102
{ACAD_REACTORS
330
34
102
}
330
34
100
DictionaryVariables
280
     0
  1
1
  0
DICTIONARYVAR
  5
B5E
102
{ACAD_REACTORS
330
34
102
}
330
34
100
DictionaryVariables
280
     0
  1
96
  0
DICTIONARY
  5
260
102
{ACAD_REACTORS
330
43
102
}
330
43
100
AcDbDictionary
  0
DICTIONARY
  5
2C
102
{ACAD_REACTORS
330
2B
102
}
330
2B
100
AcDbDictionary
  3
DWGSETTINGS
350
2D
  0
XRECORD
  5
6482
102
{ACAD_REACTORS
330
6481
102
}
330
6481
100
AcDbXrecord
 90
        1
  0
XRECORD
  5
6483
102
{ACAD_REACTORS
330
6481
102
}
330
6481
100
AcDbXrecord
 90
       70
  0
XRECORD
  5
6484
102
{ACAD_REACTORS
330
6481
102
}
330
6481
100
AcDbXrecord
  1

  0
XRECORD
  5
6485
102
{ACAD_REACTORS
330
6481
102
}
330
6481
100
AcDbXrecord
  1
ASAMI.ctb
  0
XRECORD
  5
6486
102
{ACAD_REACTORS
330
6481
102
}
330
6481
100
AcDbXrecord
340
1A
  0
XRECORD
  5
6487
102
{ACAD_REACTORS
330
6481
102
}
330
6481
100
AcDbXrecord
340
19
  0
XRECORD
  5
6488
102
{ACAD_REACTORS
330
6481
102
}
330
6481
100
AcDbXrecord
340
E
  0
XRECORD
  5
6489
102
{ACAD_REACTORS
330
6481
102
}
330
6481
100
AcDbXrecord
 90
    10781
  0
XRECORD
  5
648A
102
{ACAD_REACTORS
330
6481
102
}
330
6481
100
AcDbXrecord
 90
        4
  0
XRECORD
  5
648B
102
{ACAD_REACTORS
330
6481
102
}
330
6481
100
AcDbXrecord
 90
        0
  0
XRECORD
  5
648C
102
{ACAD_REACTORS
330
6481
102
}
330
6481
100
AcDbXrecord
  1
{AFB28963-8C59-40AE-9337-C84526B81ACE}
  0
XRECORD
  5
648D
102
{ACAD_REACTORS
330
6481
102
}
330
6481
100
AcDbXrecord
  1
{B11F6C10-69D6-4669-8392-29EA6C113857}
  0
XRECORD
  5
648E
102
{ACAD_REACTORS
330
6481
102
}
330
6481
100
AcDbXrecord
 40
0.0
  0
XRECORD
  5
648F
102
{ACAD_REACTORS
330
6481
102
}
330
6481
100
AcDbXrecord
1000
DSTYLE
1002
{
1070
    79
 70
     2
1070
   341
340
59
1070
   342
340
59
1070
   371
 70
    -1
1070
   372
 70
    -1
1002
}
  0
XRECORD
  5
6490
102
{ACAD_REACTORS
330
6481
102
}
330
6481
100
AcDbXrecord
340
0
  0
XRECORD
  5
6491
102
{ACAD_REACTORS
330
6481
102
}
330
6481
100
AcDbXrecord
 70
     0
  0
XRECORD
  5
6492
102
{ACAD_REACTORS
330
6481
102
}
330
6481
100
AcDbXrecord
340
0
  0
XRECORD
  5
6493
102
{ACAD_REACTORS
330
6481
102
}
330
6481
100
AcDbXrecord
 10
0.0
 20
0.0
 30
0.0
  0
XRECORD
  5
6494
102
{ACAD_REACTORS
330
6481
102
}
330
6481
100
AcDbXrecord
 10
0.0
 20
0.0
 30
0.0
  0
XRECORD
  5
6495
102
{ACAD_REACTORS
330
6481
102
}
330
6481
100
AcDbXrecord
 10
0.0
 20
0.0
 30
0.0
  0
XRECORD
  5
6496
102
{ACAD_REACTORS
330
6481
102
}
330
6481
100
AcDbXrecord
 10
0.0
 20
0.0
 30
0.0
  0
XRECORD
  5
6497
102
{ACAD_REACTORS
330
6481
102
}
330
6481
100
AcDbXrecord
 10
0.0
 20
0.0
 30
0.0
  0
XRECORD
  5
6498
102
{ACAD_REACTORS
330
6481
102
}
330
6481
100
AcDbXrecord
 10
0.0
 20
0.0
 30
0.0
  0
XRECORD
  5
6499
102
{ACAD_REACTORS
330
6481
102
}
330
6481
100
AcDbXrecord
340
0
  0
XRECORD
  5
649A
102
{ACAD_REACTORS
330
6481
102
}
330
6481
100
AcDbXrecord
 70
     0
  0
XRECORD
  5
649B
102
{ACAD_REACTORS
330
6481
102
}
330
6481
100
AcDbXrecord
340
0
  0
XRECORD
  5
649C
102
{ACAD_REACTORS
330
6481
102
}
330
6481
100
AcDbXrecord
 10
0.0
 20
0.0
 30
0.0
  0
XRECORD
  5
649D
102
{ACAD_REACTORS
330
6481
102
}
330
6481
100
AcDbXrecord
 10
0.0
 20
0.0
 30
0.0
  0
XRECORD
  5
649E
102
{ACAD_REACTORS
330
6481
102
}
330
6481
100
AcDbXrecord
 10
0.0
 20
0.0
 30
0.0
  0
XRECORD
  5
649F
102
{ACAD_REACTORS
330
6481
102
}
330
6481
100
AcDbXrecord
 10
0.0
 20
0.0
 30
0.0
  0
XRECORD
  5
64A0
102
{ACAD_REACTORS
330
6481
102
}
330
6481
100
AcDbXrecord
 10
0.0
 20
0.0
 30
0.0
  0
XRECORD
  5
64A1
102
{ACAD_REACTORS
330
6481
102
}
330
6481
100
AcDbXrecord
 10
0.0
 20
0.0
 30
0.0
  0
LAYER_INDEX
  5
6474
102
{ACAD_REACTORS
330
6473
102
}
330
6473
100
AcDbIndex
 40
2453151.719642454
100
AcDbLayerIndex
  8
0
360
6475
 90
        0
  8
AM_0
360
6476
 90
       35
  8
PV0001_1
360
6477
 90
       10
  8
AM_CL
360
6478
 90
        0
  8
AM_7
360
6479
 90
        1
  8
AM_11
360
647A
 90
        2
  8
AM_5
360
647B
 90
        9
  8
Defpoints
360
647C
 90
        0
  8
AM_6
360
647D
 90
        1
  8
AM_4
360
647E
 90
        0
  8
AM_3
360
647F
 90
        0
  0
XRECORD
  5
2D
102
{ACAD_REACTORS
330
2C
102
}
330
2C
100
AcDbXrecord
  1
VERSION
140
15.0
  1
PRODUCT
  2
AutoCAD Mechanical 2000
  0
IDBUFFER
  5
6475
330
0
100
AcDbIdBuffer
  0
IDBUFFER
  5
6476
330
0
100
AcDbIdBuffer
330
6381
330
6382
330
6383
330
6384
330
6385
330
6387
330
6388
330
6447
330
6448
330
6449
330
644B
330
644C
330
644E
330
644F
330
6450
330
6451
330
6452
330
6453
330
6454
330
5D69
330
5D6A
330
5D6B
330
5D6C
330
5EC1
330
5EDD
330
6333
330
6334
330
6335
330
6336
330
6337
330
6350
330
6351
330
637B
330
637C
330
6380
  0
IDBUFFER
  5
6477
330
0
100
AcDbIdBuffer
330
35CA
330
5D63
330
5D64
330
5D65
330
5D66
330
5D67
330
5D68
330
5D6D
330
5D6E
330
5D6F
  0
IDBUFFER
  5
6478
330
0
100
AcDbIdBuffer
  0
IDBUFFER
  5
6479
330
0
100
AcDbIdBuffer
330
5CCE
  0
IDBUFFER
  5
647A
330
0
100
AcDbIdBuffer
330
644A
330
644D
  0
IDBUFFER
  5
647B
330
0
100
AcDbIdBuffer
330
5D62
330
5D70
330
5D71
330
5D72
330
5D73
330
5EEB
330
6016
330
60C0
330
638D
  0
IDBUFFER
  5
647C
330
0
100
AcDbIdBuffer
  0
IDBUFFER
  5
647D
330
0
100
AcDbIdBuffer
330
19BD
  0
IDBUFFER
  5
647E
330
0
100
AcDbIdBuffer
  0
IDBUFFER
  5
647F
330
0
100
AcDbIdBuffer
  0
ENDSEC
  0
EOF
