  0
SECTION
  2
HEADER
  9
$ACADVER
  1
AC1014
  9
$ACADMAINTVER
 70
     9
  9
$DWGCODEPAGE
  3
ANSI_932
  9
$INSBASE
 10
0.0
 20
0.0
 30
0.0
  9
$EXTMIN
 10
-321.5415982876972
 20
-80.59819160459351
 30
-0.00000001
  9
$EXTMAX
 10
32.93608004276064
 20
47.06970134232394
 30
0.00000001
  9
$LIMMIN
 10
-350.906445004251
 20
-122.3680943041307
  9
$LIMMAX
 10
64.68503168566257
 20
92.10668520037723
  9
$ORTHOMODE
 70
     0
  9
$REGENMODE
 70
     1
  9
$FILLMODE
 70
     1
  9
$QTEXTMODE
 70
     0
  9
$MIRRTEXT
 70
     0
  9
$DRAGMODE
 70
     2
  9
$LTSCALE
 40
1.0
  9
$OSMODE
 70
    55
  9
$ATTMODE
 70
     1
  9
$TEXTSIZE
 40
2.5
  9
$TRACEWID
 40
1.0
  9
$TEXTSTYLE
  7
STANDARD
  9
$CLAYER
  8
AM_0
  9
$CELTYPE
  6
BYLAYER
  9
$CECOLOR
 62
   256
  9
$CELTSCALE
 40
1.0
  9
$DELOBJ
 70
     1
  9
$DISPSILH
 70
     0
  9
$DIMSCALE
 40
1.0
  9
$DIMASZ
 40
2.5
  9
$DIMEXO
 40
1.0
  9
$DIMDLI
 40
12.0
  9
$DIMRND
 40
0.0
  9
$DIMDLE
 40
0.0
  9
$DIMEXE
 40
1.0
  9
$DIMTP
 40
0.1
  9
$DIMTM
 40
0.1
  9
$DIMTXT
 40
3.2
  9
$DIMCEN
 40
0.0
  9
$DIMTSZ
 40
0.0
  9
$DIMTOL
 70
     0
  9
$DIMLIM
 70
     0
  9
$DIMTIH
 70
     0
  9
$DIMTOH
 70
     0
  9
$DIMSE1
 70
     0
  9
$DIMSE2
 70
     0
  9
$DIMTAD
 70
     3
  9
$DIMZIN
 70
     8
  9
$DIMBLK
  1
OPEN30
  9
$DIMASO
 70
     1
  9
$DIMSHO
 70
     1
  9
$DIMPOST
  1

  9
$DIMAPOST
  1
"
  9
$DIMALT
 70
     0
  9
$DIMALTD
 70
     2
  9
$DIMALTF
 40
0.0393701
  9
$DIMLFAC
 40
1.0
  9
$DIMTOFL
 70
     1
  9
$DIMTVP
 40
0.0
  9
$DIMTIX
 70
     0
  9
$DIMSOXD
 70
     0
  9
$DIMSAH
 70
     0
  9
$DIMBLK1
  1

  9
$DIMBLK2
  1

  9
$DIMSTYLE
  2
AM_JIS
  9
$DIMCLRD
 70
   256
  9
$DIMCLRE
 70
   256
  9
$DIMCLRT
 70
     2
  9
$DIMTFAC
 40
0.71
  9
$DIMGAP
 40
1.5
  9
$DIMJUST
 70
     0
  9
$DIMSD1
 70
     0
  9
$DIMSD2
 70
     0
  9
$DIMTOLJ
 70
     0
  9
$DIMTZIN
 70
     0
  9
$DIMALTZ
 70
     0
  9
$DIMALTTZ
 70
     0
  9
$DIMFIT
 70
     3
  9
$DIMUPT
 70
     0
  9
$DIMUNIT
 70
     2
  9
$DIMDEC
 70
     3
  9
$DIMTDEC
 70
     3
  9
$DIMALTU
 70
     2
  9
$DIMALTTD
 70
     2
  9
$DIMTXSTY
  7
ASAMI
  9
$DIMAUNIT
 70
     0
  9
$LUNITS
 70
     2
  9
$LUPREC
 70
     2
  9
$SKETCHINC
 40
1.0
  9
$FILLETRAD
 40
2.5
  9
$AUNITS
 70
     0
  9
$AUPREC
 70
     0
  9
$MENU
  1
.
  9
$ELEVATION
 40
0.0
  9
$PELEVATION
 40
0.0
  9
$THICKNESS
 40
0.0
  9
$LIMCHECK
 70
     0
  9
$BLIPMODE
 70
     0
  9
$CHAMFERA
 40
2.5
  9
$CHAMFERB
 40
2.5
  9
$CHAMFERC
 40
20.0
  9
$CHAMFERD
 40
0.0
  9
$SKPOLY
 70
     0
  9
$TDCREATE
 40
2452800.443498622
  9
$TDUPDATE
 40
2453151.717133958
  9
$TDINDWG
 40
0.8835669676
  9
$TDUSRTIMER
 40
0.8835669676
  9
$USRTIMER
 70
     1
  9
$ANGBASE
 50
0.0
  9
$ANGDIR
 70
     0
  9
$PDMODE
 70
     0
  9
$PDSIZE
 40
0.0
  9
$PLINEWID
 40
0.0
  9
$COORDS
 70
     1
  9
$SPLFRAME
 70
     0
  9
$SPLINETYPE
 70
     6
  9
$SPLINESEGS
 70
     8
  9
$ATTDIA
 70
     1
  9
$ATTREQ
 70
     1
  9
$HANDLING
 70
 12289
  9
$HANDSEED
  5
51F7
  9
$SURFTAB1
 70
     6
  9
$SURFTAB2
 70
     6
  9
$SURFTYPE
 70
     6
  9
$SURFU
 70
     6
  9
$SURFV
 70
     6
  9
$UCSNAME
  2

  9
$UCSORG
 10
0.0
 20
0.0
 30
0.0
  9
$UCSXDIR
 10
1.0
 20
0.0000000000000027
 30
0.0
  9
$UCSYDIR
 10
-0.0000000000000027
 20
1.0
 30
0.0
  9
$PUCSNAME
  2

  9
$PUCSORG
 10
0.0
 20
0.0
 30
0.0
  9
$PUCSXDIR
 10
1.0
 20
0.0
 30
0.0
  9
$PUCSYDIR
 10
0.0
 20
1.0
 30
0.0
  9
$USERI1
 70
     0
  9
$USERI2
 70
     0
  9
$USERI3
 70
     0
  9
$USERI4
 70
     0
  9
$USERI5
 70
     0
  9
$USERR1
 40
0.0
  9
$USERR2
 40
0.0
  9
$USERR3
 40
0.0
  9
$USERR4
 40
0.0
  9
$USERR5
 40
0.0
  9
$WORLDVIEW
 70
     1
  9
$SHADEDGE
 70
     3
  9
$SHADEDIF
 70
    70
  9
$TILEMODE
 70
     1
  9
$MAXACTVP
 70
    64
  9
$PINSBASE
 10
0.0
 20
0.0
 30
0.0
  9
$PLIMCHECK
 70
     0
  9
$PEXTMIN
 10
1.000000000000000E+20
 20
1.000000000000000E+20
 30
1.000000000000000E+20
  9
$PEXTMAX
 10
-1.000000000000000E+20
 20
-1.000000000000000E+20
 30
-1.000000000000000E+20
  9
$PLIMMIN
 10
0.0
 20
0.0
  9
$PLIMMAX
 10
841.0
 20
594.0
  9
$UNITMODE
 70
     0
  9
$VISRETAIN
 70
     1
  9
$PLINEGEN
 70
     0
  9
$PSLTSCALE
 70
     0
  9
$TREEDEPTH
 70
  3020
  9
$PICKSTYLE
 70
     0
  9
$CMLSTYLE
  2
STANDARD
  9
$CMLJUST
 70
     0
  9
$CMLSCALE
 40
20.0
  9
$PROXYGRAPHICS
 70
     1
  9
$MEASUREMENT
 70
     1
  0
ENDSEC
  0
SECTION
  2
CLASSES
  0
CLASS
  1
ACDBDICTIONARYWDFLT
  2
AcDbDictionaryWithDefault
  3
AutoCAD 2000
 90
        0
280
     0
281
     0
  0
CLASS
  1
ACDBPLACEHOLDER
  2
AcDbPlaceHolder
  3
AutoCAD 2000
 90
        0
280
     0
281
     0
  0
CLASS
  1
LAYOUT
  2
AcDbLayout
  3
AutoCAD 2000
 90
        0
280
     0
281
     0
  0
CLASS
  1
AMGSETTINGSOBJ
  2
AmgSettingsObj
  3
"AcadM|Product Description: AutoCAD Mechanical 2000|Company: Autodesk"
 90
        0
280
     0
281
     0
  0
CLASS
  1
ACME_DOCUMENT
  2
AcMeDbDoc
  3
AcMeServices
 90
        0
280
     0
281
     0
  0
CLASS
  1
ACMESCOPE
  2
AcMeScope
  3
AcMeServices
 90
        0
280
     0
281
     0
  0
CLASS
  1
ACMECOMMANDHISTORY
  2
AcMeCommandHistory
  3
AcMeServices
 90
        0
280
     0
281
     0
  0
CLASS
  1
DICTIONARYVAR
  2
AcDbDictionaryVar
  3
AutoCAD 2000
 90
        0
280
     0
281
     0
  0
CLASS
  1
ACIMSYSVARMAN
  2
AcImSysVarManager
  3
AcMeServices
 90
        0
280
     0
281
     0
  0
CLASS
  1
ACIMREALSYSVAR
  2
AcImRealSysVar
  3
AcMeServices
 90
        0
280
     0
281
     0
  0
CLASS
  1
ACIMINTSYSVAR
  2
AcImIntSysVar
  3
AcMeServices
 90
        0
280
     0
281
     0
  0
CLASS
  1
ACMEDRAWINGMAN
  2
AcMeDrawingMan
  3
AcMeServices
 90
        0
280
     0
281
     0
  0
CLASS
  1
ACMEVIEW
  2
AcMeView
  3
AcMeServices
 90
        0
280
     0
281
     0
  0
CLASS
  1
ACDBENTITYCACHE
  2
AcMeEntityCache
  3
AcMeServices
 90
        0
280
     0
281
     0
  0
CLASS
  1
GSMANAGER
  2
AcMeGSManager
  3
AcMeServices
 90
        0
280
     0
281
     0
  0
CLASS
  1
AmdtInternalReactor
  2
AmdtInternalReactor
  3
AcMeServices
 90
        0
280
     0
281
     0
  0
CLASS
  1
ACMESTATEMGR
  2
AcMeStateMgr
  3
AcMeServices
 90
        0
280
     0
281
     0
  0
CLASS
  1
ACME_DATABASE
  2
AcMeDbDatabase
  3
AcMeServices
 90
        0
280
     0
281
     0
  0
CLASS
  1
ACRFINSADJUSTERMGR
  2
AcRfInsAdjusterMgr
  3
AcMeServices
 90
        0
280
     0
281
     0
  0
CLASS
  1
ACMDATADICTIONARY
  2
AcmDataDictionary
  3
"AcmSymBB|Product Description: AutoCAD Mechanical 2000|Company: Autodesk"
 90
        0
280
     0
281
     0
  0
CLASS
  1
ACMDATAENTRYBLOCK
  2
AcmDataEntryBlock
  3
"AcmSymBB|Product Description: AutoCAD Mechanical 2000|Company: Autodesk"
 90
        0
280
     0
281
     0
  0
CLASS
  1
AMGOBJPROPCFG
  2
AmgObjPropCfg
  3
"AmgLay|Product Description: AutoCAD Mechanical 2000|Company: Autodesk"
 90
        1
280
     0
281
     0
  0
CLASS
  1
ACAMGFILTERDAT
  2
AcAmgFilterDat
  3
"AcadM|Product Description: AutoCAD Mechanical 2000|Company: Autodesk"
 90
        0
280
     0
281
     0
  0
CLASS
  1
LAYER_INDEX
  2
AcDbLayerIndex
  3
AutoCAD 2000
 90
        0
280
     0
281
     0
  0
CLASS
  1
IDBUFFER
  2
AcDbIdBuffer
  3
AutoCAD 2000
 90
        0
280
     0
281
     0
  0
CLASS
  1
ACIMSTRSYSVAR
  2
AcImStrSysVar
  3
AcMeServices
 90
        0
280
     0
281
     0
  0
CLASS
  1
ACMSTANDARDJIS
  2
AcmStandardJIS
  3
"AcmSymBB|Product Description: AutoCAD Mechanical 2000|Company: Autodesk"
 90
        0
280
     0
281
     0
  0
CLASS
  1
ACMSURFSTANDARDJIS
  2
AcmSurfTextStdJIS
  3
"AcmSymBB|Product Description: AutoCAD Mechanical 2000|Company: Autodesk"
 90
        0
280
     0
281
     0
  0
CLASS
  1
ACMFCFSTANDARDJIS
  2
AcmFCFStdJIS
  3
"AcmSymBB|Product Description: AutoCAD Mechanical 2000|Company: Autodesk"
 90
        0
280
     0
281
     0
  0
CLASS
  1
ACMWELDSTANDARDJIS
  2
AcmWeldingStdJIS
  3
"AcmSymBB|Product Description: AutoCAD Mechanical 2000|Company: Autodesk"
 90
        0
280
     0
281
     0
  0
CLASS
  1
ACMIDSTANDARDJIS
  2
AcmIdStdJIS
  3
"AcmSymBB|Product Description: AutoCAD Mechanical 2000|Company: Autodesk"
 90
        0
280
     0
281
     0
  0
CLASS
  1
ACMDATUMSTANDARDJIS
  2
AcmDatumStdJIS
  3
"AcmSymBB|Product Description: AutoCAD Mechanical 2000|Company: Autodesk"
 90
        0
280
     0
281
     0
  0
CLASS
  1
ACMBOMSTANDARDJIS
  2
AcmBOMStdJIS
  3
"AcmSymBB|Product Description: AutoCAD Mechanical 2000|Company: Autodesk"
 90
        0
280
     0
281
     0
  0
CLASS
  1
ACMSTANDARDANSI
  2
AcmStandardANSI
  3
"AcmSymBB|Product Description: AutoCAD Mechanical 2000|Company: Autodesk"
 90
        0
280
     0
281
     0
  0
CLASS
  1
ACMSURFSTANDARDANSI
  2
AcmSurfTextStdANSI
  3
"AcmSymBB|Product Description: AutoCAD Mechanical 2000|Company: Autodesk"
 90
        0
280
     0
281
     0
  0
CLASS
  1
ACMFCFSTANDARDANSI
  2
AcmFCFStdANSI
  3
"AcmSymBB|Product Description: AutoCAD Mechanical 2000|Company: Autodesk"
 90
        0
280
     0
281
     0
  0
CLASS
  1
ACMWELDSTANDARDANSI
  2
AcmWeldingStdANSI
  3
"AcmSymBB|Product Description: AutoCAD Mechanical 2000|Company: Autodesk"
 90
        0
280
     0
281
     0
  0
CLASS
  1
ACMIDSTANDARDANSI
  2
AcmIdStdANSI
  3
"AcmSymBB|Product Description: AutoCAD Mechanical 2000|Company: Autodesk"
 90
        0
280
     0
281
     0
  0
CLASS
  1
ACMDATUMSTANDARDANSI
  2
AcmDatumStdANSI
  3
"AcmSymBB|Product Description: AutoCAD Mechanical 2000|Company: Autodesk"
 90
        0
280
     0
281
     0
  0
CLASS
  1
ACMBOMSTANDARDANSI
  2
AcmBOMStdANSI
  3
"AcmSymBB|Product Description: AutoCAD Mechanical 2000|Company: Autodesk"
 90
        0
280
     0
281
     0
  0
CLASS
  1
ACMSTANDARDBSI
  2
AcmStandardBSI
  3
"AcmSymBB|Product Description: AutoCAD Mechanical 2000|Company: Autodesk"
 90
        0
280
     0
281
     0
  0
CLASS
  1
ACMSURFSTANDARDBSI
  2
AcmSurfTextStdBSI
  3
"AcmSymBB|Product Description: AutoCAD Mechanical 2000|Company: Autodesk"
 90
        0
280
     0
281
     0
  0
CLASS
  1
ACMFCFSTANDARDBSI
  2
AcmFCFStdBSI
  3
"AcmSymBB|Product Description: AutoCAD Mechanical 2000|Company: Autodesk"
 90
        0
280
     0
281
     0
  0
CLASS
  1
ACMWELDSTANDARDBSI
  2
AcmWeldingStdBSI
  3
"AcmSymBB|Product Description: AutoCAD Mechanical 2000|Company: Autodesk"
 90
        0
280
     0
281
     0
  0
CLASS
  1
ACMIDSTANDARDBSI
  2
AcmIdStdBSI
  3
"AcmSymBB|Product Description: AutoCAD Mechanical 2000|Company: Autodesk"
 90
        0
280
     0
281
     0
  0
CLASS
  1
ACMDATUMSTANDARDBSI
  2
AcmDatumStdBSI
  3
"AcmSymBB|Product Description: AutoCAD Mechanical 2000|Company: Autodesk"
 90
        0
280
     0
281
     0
  0
CLASS
  1
ACMBOMSTANDARDBSI
  2
AcmBOMStdBSI
  3
"AcmSymBB|Product Description: AutoCAD Mechanical 2000|Company: Autodesk"
 90
        0
280
     0
281
     0
  0
CLASS
  1
LONG_TRANSACTION
  2
AcDbLongTransaction
  3
AutoCAD 2000
 90
        0
280
     0
281
     0
  0
CLASS
  1
LWPOLYLINE
  2
AcDbPolyline
  3
AutoCAD 2000
 90
        0
280
     0
281
     1
  0
CLASS
  1
HATCH
  2
AcDbHatch
  3
AutoCAD 2000
 90
        0
280
     0
281
     1
  0
CLASS
  1
XRECORD
  2
AcDbXrecord
  3
AutoCAD 2000
 90
        0
280
     0
281
     0
  0
ENDSEC
  0
SECTION
  2
TABLES
  0
TABLE
  2
VPORT
  5
8
330
0
100
AcDbSymbolTable
 70
     3
  0
VPORT
  5
51CC
330
8
100
AcDbSymbolTableRecord
100
AcDbViewportTableRecord
  2
*ACTIVE
 70
     0
 10
0.0
 20
0.0
 11
1.0
 21
1.0
 12
-142.1829712488934
 22
6.873422542368501
 13
0.0
 23
0.0
 14
2.5
 24
2.5
 15
10.0
 25
10.0
 16
0.0
 26
0.0
 36
1.0
 17
0.0
 27
0.0
 37
0.0
 40
276.1944452085712
 41
1.56570841889117
 42
50.0
 43
0.0
 44
0.0
 50
0.0
 51
0.0
 71
     0
 72
   100
 73
     1
 74
     1
 75
     0
 76
     0
 77
     0
 78
     0
  0
ENDTAB
  0
TABLE
  2
LTYPE
  5
5
330
0
100
AcDbSymbolTable
 70
    10
  0
LTYPE
  5
14
330
5
100
AcDbSymbolTableRecord
100
AcDbLinetypeTableRecord
  2
BYBLOCK
 70
     0
  3

 72
    65
 73
     0
 40
0.0
  0
LTYPE
  5
15
330
5
100
AcDbSymbolTableRecord
100
AcDbLinetypeTableRecord
  2
BYLAYER
 70
     0
  3

 72
    65
 73
     0
 40
0.0
  0
LTYPE
  5
16
330
5
100
AcDbSymbolTableRecord
100
AcDbLinetypeTableRecord
  2
CONTINUOUS
 70
     0
  3
Solid line
 72
    65
 73
     0
 40
0.0
  0
LTYPE
  5
4B
330
5
100
AcDbSymbolTableRecord
100
AcDbLinetypeTableRecord
  2
AM_ISO02W050
 70
     0
  3
__ __ __ __ __ __ __ __ __ __ __ __ __ __ __
 72
    65
 73
     2
 40
7.5
 49
6.0
 74
     0
 49
-1.5
 74
     0
  0
LTYPE
  5
4C
330
5
100
AcDbSymbolTableRecord
100
AcDbLinetypeTableRecord
  2
AM_ISO08W050
 70
     0
  3
____ . ____ . ____ . ____ . ____ . ____ . ____
 72
    65
 73
     4
 40
18.0
 49
12.0
 74
     0
 49
-1.5
 74
     0
 49
3.0
 74
     0
 49
-1.5
 74
     0
  0
LTYPE
  5
4D
330
5
100
AcDbSymbolTableRecord
100
AcDbLinetypeTableRecord
  2
AM_ISO09W050
 70
     0
  3
_____ . . _____ . . _____ . . ____ .. ____
 72
    65
 73
     6
 40
22.5
 49
12.0
 74
     0
 49
-1.5
 74
     0
 49
3.0
 74
     0
 49
-1.5
 74
     0
 49
3.0
 74
     0
 49
-1.5
 74
     0
  0
LTYPE
  5
4E
330
5
100
AcDbSymbolTableRecord
100
AcDbLinetypeTableRecord
  2
AMCONSTR
 70
     0
  3
_______________________
 72
    65
 73
     2
 40
9999.0
 49
9999.0
 74
     0
 49
0.0
 74
     0
  0
LTYPE
  5
4F
330
5
100
AcDbSymbolTableRecord
100
AcDbLinetypeTableRecord
  2
AM_ISO02W050X2
 70
     0
  3
 _ _ _ _ _ _ _ _ _ _ _ _
 72
    65
 73
     2
 40
3.75
 49
3.0
 74
     0
 49
-0.75
 74
     0
  0
LTYPE
  5
50
330
5
100
AcDbSymbolTableRecord
100
AcDbLinetypeTableRecord
  2
AM_ISO08W050X2
 70
     0
  3
__ . __ . __ . __ . __ . __
 72
    65
 73
     4
 40
9.0
 49
6.0
 74
     0
 49
-0.75
 74
     0
 49
1.5
 74
     0
 49
-0.75
 74
     0
  0
LTYPE
  5
53
330
5
100
AcDbSymbolTableRecord
100
AcDbLinetypeTableRecord
  2
AMZIGZAG
 70
     0
  3
/\/-/\/-/\/-/\/-/\/-/\/
 72
    65
 73
     2
 40
11.00009999999999
 49
0.0001
 74
     4
 75
   135
340
52
 46
0.04
 50
0.0
 44
0.0
 45
0.0
 49
-11.0
 74
     0
  0
LTYPE
  5
166
330
5
100
AcDbSymbolTableRecord
100
AcDbLinetypeTableRecord
  2
ACJISTGL
 70
     0
  3
_ _ _ _ _
 72
    65
 73
     2
 40
3.0
 49
2.0
 74
     0
 49
-1.0
 74
     0
  0
LTYPE
  5
26A
330
5
100
AcDbSymbolTableRecord
100
AcDbLinetypeTableRecord
  2
ACJISTGB
 70
     0
  3
__ . . __ . .
 72
    65
 73
     6
 40
9.0
 49
4.0
 74
     0
 49
-1.0
 74
     0
 49
1.0
 74
     0
 49
-1.0
 74
     0
 49
1.0
 74
     0
 49
-1.0
 74
     0
  0
ENDTAB
  0
TABLE
  2
LAYER
  5
2
330
0
100
AcDbSymbolTable
 70
    11
  0
LAYER
  5
10
330
2
100
AcDbSymbolTableRecord
100
AcDbLayerTableRecord
  2
0
 70
     0
 62
     7
  6
CONTINUOUS
  0
LAYER
  5
3F9
330
2
100
AcDbSymbolTableRecord
100
AcDbLayerTableRecord
  2
AM_0
 70
     0
 62
     7
  6
CONTINUOUS
  0
LAYER
  5
BA4
330
2
100
AcDbSymbolTableRecord
100
AcDbLayerTableRecord
  2
PV0001_1
 70
     0
 62
     7
  6
CONTINUOUS
  0
LAYER
  5
C6C
330
2
100
AcDbSymbolTableRecord
100
AcDbLayerTableRecord
  2
AM_CL
 70
     0
 62
     1
  6
AMCONSTR
  0
LAYER
  5
C7C
330
2
100
AcDbSymbolTableRecord
100
AcDbLayerTableRecord
  2
AM_7
 70
     0
 62
     4
  6
AM_ISO08W050
  0
LAYER
  5
C97
330
2
100
AcDbSymbolTableRecord
100
AcDbLayerTableRecord
  2
AM_11
 70
     0
 62
     3
  6
AM_ISO09W050
  0
LAYER
  5
CC5
330
2
100
AcDbSymbolTableRecord
100
AcDbLayerTableRecord
  2
AM_5
 70
     0
 62
     3
  6
CONTINUOUS
  0
LAYER
  5
CC7
330
2
100
AcDbSymbolTableRecord
100
AcDbLayerTableRecord
  2
DEFPOINTS
 70
     0
 62
     7
  6
CONTINUOUS
  0
LAYER
  5
19BC
330
2
100
AcDbSymbolTableRecord
100
AcDbLayerTableRecord
  2
AM_6
 70
     0
 62
     2
  6
CONTINUOUS
  0
LAYER
  5
1F8E
330
2
100
AcDbSymbolTableRecord
100
AcDbLayerTableRecord
  2
AM_4
 70
     0
 62
     3
  6
CONTINUOUS
  0
LAYER
  5
3588
330
2
100
AcDbSymbolTableRecord
100
AcDbLayerTableRecord
  2
AM_3
 70
     0
 62
     6
  6
ACJISTGL
  0
ENDTAB
  0
TABLE
  2
STYLE
  5
3
330
0
100
AcDbSymbolTable
 70
     5
  0
STYLE
  5
11
330
3
100
AcDbSymbolTableRecord
100
AcDbTextStyleTableRecord
  2
STANDARD
 70
     0
 40
0.0
 41
1.0
 50
0.0
 71
     0
 42
2.5
  3
simplex.shx
  4
EXTFONT.SHX
  0
STYLE
  5
52
330
3
100
AcDbSymbolTableRecord
100
AcDbTextStyleTableRecord
  2

 70
     1
 40
0.0
 41
1.0
 50
0.0
 71
     0
 42
2.5
  3
ltypeshp.shx
  4

  0
STYLE
  5
6B
330
3
100
AcDbSymbolTableRecord
100
AcDbTextStyleTableRecord
  2
ASAMI
 70
     0
 40
0.0
 41
1.0
 50
0.0
 71
     0
 42
2.5
  3
simplex.shx
  4
EXTFONT.SHX
  0
STYLE
  5
262
330
3
100
AcDbSymbolTableRecord
100
AcDbTextStyleTableRecord
  2
ACJISTS
 70
     0
 40
1.0
 41
1.0
 50
0.0
 71
     0
 42
2.5
  3
simplex.shx
  4
bigfont.shx
  0
STYLE
  5
269
330
3
100
AcDbSymbolTableRecord
100
AcDbTextStyleTableRecord
  2
ACJISGDT
 70
     0
 40
0.0
 41
1.0
 50
0.0
 71
     0
 42
2.5
  3
amgdtans.shx
  4

  0
ENDTAB
  0
TABLE
  2
VIEW
  5
6
330
0
100
AcDbSymbolTable
 70
     0
  0
ENDTAB
  0
TABLE
  2
UCS
  5
7
330
0
100
AcDbSymbolTable
 70
     0
  0
ENDTAB
  0
TABLE
  2
APPID
  5
9
330
0
100
AcDbSymbolTable
 70
    14
  0
APPID
  5
12
330
9
100
AcDbSymbolTableRecord
100
AcDbRegAppTableRecord
  2
ACAD
 70
     0
  0
APPID
  5
30
330
9
100
AcDbSymbolTableRecord
100
AcDbRegAppTableRecord
  2
MCAD_NO_VIS
 70
     0
  0
APPID
  5
31
330
9
100
AcDbSymbolTableRecord
100
AcDbRegAppTableRecord
  2
ACAD_TEMP_GRAPHIC
 70
     0
  0
APPID
  5
2C2
330
9
100
AcDbSymbolTableRecord
100
AcDbRegAppTableRecord
  2
GENIUS_GENDTOL_13
 70
     0
  0
APPID
  5
339
330
9
100
AcDbSymbolTableRecord
100
AcDbRegAppTableRecord
  2
GENIUS_GENODEF_13
 70
     0
  0
APPID
  5
33A
330
9
100
AcDbSymbolTableRecord
100
AcDbRegAppTableRecord
  2
GENIUS_GENOBJ-N-RSBK_13
 70
     0
  0
APPID
  5
33B
330
9
100
AcDbSymbolTableRecord
100
AcDbRegAppTableRecord
  2
GENIUS_GENOBJ-N-LIB_13
 70
     0
  0
APPID
  5
33C
330
9
100
AcDbSymbolTableRecord
100
AcDbRegAppTableRecord
  2
GENIUS_GENSCALE_13
 70
     0
  0
APPID
  5
378
330
9
100
AcDbSymbolTableRecord
100
AcDbRegAppTableRecord
  2
GENIUS_GENDIMSH_14
 70
     0
  0
APPID
  5
C82
330
9
100
AcDbSymbolTableRecord
100
AcDbRegAppTableRecord
  2
GENIUS_GENOBJ-N-CRS_13
 70
     0
  0
APPID
  5
C83
330
9
100
AcDbSymbolTableRecord
100
AcDbRegAppTableRecord
  2
GENIUS_GENOENT_13
 70
     0
  0
APPID
  5
C84
330
9
100
AcDbSymbolTableRecord
100
AcDbRegAppTableRecord
  2
GENIUS_GENOREF_13
 70
     0
  0
APPID
  5
C85
330
9
100
AcDbSymbolTableRecord
100
AcDbRegAppTableRecord
  2
GENIUS_GENOLIS_13
 70
     0
  0
APPID
  5
CA0
330
9
100
AcDbSymbolTableRecord
100
AcDbRegAppTableRecord
  2
GENIUS_GENOBJ-N-CEN_13
 70
     0
  0
ENDTAB
  0
TABLE
  2
DIMSTYLE
  5
A
330
0
100
AcDbSymbolTable
 70
    10
  0
DIMSTYLE
105
58
330
A
100
AcDbSymbolTableRecord
100
AcDbDimStyleTableRecord
  2
AM_JIS
 70
     0
  3

  4
"
  5
OPEN30
  6

  7

 40
1.0
 41
2.5
 42
1.0
 43
12.0
 44
1.0
 45
0.0
 46
0.0
 47
0.1
 48
0.1
140
3.2
141
0.0
142
0.0
143
0.0393701
144
1.0
145
0.0
146
0.71
147
1.5
 71
     0
 72
     0
 73
     0
 74
     0
 75
     0
 76
     0
 77
     3
 78
     8
170
     0
171
     2
172
     1
173
     0
174
     0
175
     0
176
   256
177
   256
178
     2
270
     2
271
     3
272
     3
273
     2
274
     2
340
6B
275
     0
280
     0
281
     0
282
     0
283
     0
284
     0
285
     0
286
     0
287
     3
288
     0
  0
DIMSTYLE
105
5F
330
A
100
AcDbSymbolTableRecord
100
AcDbDimStyleTableRecord
  2
AM_JIS$3
 70
     0
  3

  4
"
  5
OPEN30
  6

  7

 40
1.0
 41
2.5
 42
1.0
 43
10.0
 44
1.0
 45
0.0
 46
0.0
 47
0.1
 48
0.1
140
3.2
141
0.0
142
0.0
143
0.0393701
144
1.0
145
0.0
146
0.71
147
1.5
 71
     0
 72
     0
 73
     0
 74
     1
 75
     0
 76
     0
 77
     3
 78
     8
170
     0
171
     2
172
     0
173
     0
174
     0
175
     0
176
   256
177
   256
178
     2
270
     2
271
     2
272
     3
273
     2
274
     2
340
6B
275
     0
280
     0
281
     0
282
     0
283
     0
284
     0
285
     0
286
     0
287
     0
288
     1
  0
DIMSTYLE
105
60
330
A
100
AcDbSymbolTableRecord
100
AcDbDimStyleTableRecord
  2
AM_JIS$4
 70
     0
  3

  4
"
  5
OPEN30
  6

  7

 40
1.0
 41
2.5
 42
1.0
 43
10.0
 44
1.0
 45
0.0
 46
0.0
 47
0.1
 48
0.1
140
3.2
141
0.0
142
0.0
143
0.0393701
144
1.0
145
0.0
146
0.71
147
1.5
 71
     0
 72
     0
 73
     0
 74
     1
 75
     0
 76
     0
 77
     3
 78
     8
170
     0
171
     2
172
     0
173
     0
174
     0
175
     0
176
   256
177
   256
178
     2
270
     2
271
     2
272
     3
273
     2
274
     2
340
6B
275
     0
280
     0
281
     0
282
     0
283
     0
284
     0
285
     0
286
     0
287
     0
288
     1
  0
DIMSTYLE
105
61
330
A
100
AcDbSymbolTableRecord
100
AcDbDimStyleTableRecord
  2
AM_JIS$6
 70
     0
  3

  4
"
  5
OPEN30
  6

  7

 40
1.0
 41
2.5
 42
1.0
 43
10.0
 44
1.0
 45
0.0
 46
0.0
 47
0.1
 48
0.1
140
3.2
141
0.0
142
0.0
143
0.0393701
144
1.0
145
0.0
146
0.71
147
1.5
 71
     0
 72
     0
 73
     0
 74
     0
 75
     0
 76
     0
 77
     0
 78
     8
170
     0
171
     2
172
     1
173
     0
174
     0
175
     0
176
   256
177
   256
178
     2
270
     2
271
     2
272
     2
273
     2
274
     2
340
6B
275
     0
280
     0
281
     0
282
     0
283
     0
284
     0
285
     0
286
     0
287
     3
288
     0
  0
DIMSTYLE
105
62
330
A
100
AcDbSymbolTableRecord
100
AcDbDimStyleTableRecord
  2
AM_JIS$7
 70
     0
  3

  4
"
  5
OPEN30
  6

  7

 40
1.0
 41
2.5
 42
1.0
 43
10.0
 44
1.0
 45
0.0
 46
0.0
 47
0.1
 48
0.1
140
3.2
141
0.0
142
0.0
143
0.0393701
144
1.0
145
0.0
146
0.71
147
1.5
 71
     0
 72
     0
 73
     0
 74
     0
 75
     0
 76
     0
 77
     3
 78
     8
170
     0
171
     2
172
     1
173
     0
174
     0
175
     0
176
   256
177
   256
178
     2
270
     2
271
     2
272
     3
273
     2
274
     2
340
6B
275
     0
280
     0
281
     0
282
     0
283
     0
284
     0
285
     0
286
     0
287
     3
288
     0
  0
DIMSTYLE
105
63
330
A
100
AcDbSymbolTableRecord
100
AcDbDimStyleTableRecord
  2
AM_JIS$SF
 70
     0
  3

  4
"
  5
OPEN30
  6

  7

 40
1.0
 41
2.5
 42
1.0
 43
10.0
 44
1.0
 45
0.0
 46
0.0
 47
0.1
 48
0.1
140
3.2
141
0.0
142
0.0
143
0.0393701
144
1.0
145
0.0
146
0.71
147
1.5
 71
     0
 72
     0
 73
     0
 74
     0
 75
     1
 76
     1
 77
     3
 78
     8
170
     0
171
     2
172
     1
173
     0
174
     0
175
     0
176
   256
177
   256
178
     2
270
     2
271
     2
272
     2
273
     2
274
     2
340
6B
275
     0
280
     0
281
     0
282
     0
283
     0
284
     0
285
     0
286
     0
287
     3
288
     0
  0
DIMSTYLE
105
68
330
A
100
AcDbSymbolTableRecord
100
AcDbDimStyleTableRecord
  2
AM_JIS$SH
 70
     0
  3

  4
"
  5

  6
GENAXEH
  7
OPEN30
 40
1.0
 41
2.5
 42
1.0
 43
10.0
 44
1.0
 45
0.0
 46
0.0
 47
0.1
 48
0.1
140
3.2
141
0.0
142
0.0
143
0.0393701
144
2.0
145
0.0
146
0.71
147
1.5
 71
     0
 72
     0
 73
     0
 74
     0
 75
     1
 76
     1
 77
     3
 78
     8
170
     0
171
     2
172
     1
173
     1
174
     0
175
     0
176
   256
177
   256
178
     2
270
     2
271
     2
272
     2
273
     2
274
     2
340
6B
275
     0
280
     0
281
     0
282
     0
283
     0
284
     0
285
     0
286
     0
287
     3
288
     0
  0
DIMSTYLE
105
B34
102
{ACAD_REACTORS
330
36BA
102
}
330
A
100
AcDbSymbolTableRecord
100
AcDbDimStyleTableRecord
  2
AM_JIS$2
 70
     0
  3

  4
"
  5
OPEN30
  6

  7

 40
1.0
 41
2.5
 42
1.0
 43
12.0
 44
1.0
 45
0.0
 46
0.0
 47
0.1
 48
0.1
140
3.2
141
0.0
142
0.0
143
0.0393701
144
1.0
145
0.0
146
0.71
147
1.5
 71
     0
 72
     0
 73
     0
 74
     0
 75
     0
 76
     0
 77
     3
 78
     8
170
     0
171
     2
172
     1
173
     0
174
     0
175
     0
176
   256
177
   256
178
     2
270
     2
271
     3
272
     3
273
     2
274
     2
340
6B
275
     0
280
     0
281
     0
282
     0
283
     0
284
     0
285
     0
286
     0
287
     3
288
     0
  0
DIMSTYLE
105
BA5
102
{ACAD_REACTORS
330
378E
330
3990
330
3B0D
330
3BB8
330
3CCB
330
4FC3
330
4FC4
330
4FC5
330
4FC8
102
}
330
A
100
AcDbSymbolTableRecord
100
AcDbDimStyleTableRecord
  2
AM_JIS$0
 70
     0
  3

  4
"
  5
OPEN30
  6

  7

 40
1.0
 41
2.5
 42
0.8
 43
10.0
 44
1.0
 45
0.0
 46
0.0
 47
0.1
 48
0.1000000001
140
3.799999999999999
141
0.0
142
0.0
143
0.0393701
144
1.0
145
0.0
146
0.71
147
1.5
 71
     0
 72
     0
 73
     0
 74
     0
 75
     0
 76
     0
 77
     3
 78
     9
170
     0
171
     2
172
     1
173
     0
174
     0
175
     0
176
     3
177
     3
178
     2
270
     2
271
     2
272
     2
273
     2
274
     2
340
11
275
     1
280
     0
281
     0
282
     0
283
     0
284
     8
285
     0
286
     0
287
     0
288
     0
  0
DIMSTYLE
105
BA6
330
A
100
AcDbSymbolTableRecord
100
AcDbDimStyleTableRecord
  2
AM_JISORG-1P0$2
 70
     0
  3

  4
"
  5
OPEN30
  6

  7

 40
1.0
 41
2.5
 42
0.0
 43
10.0
 44
1.0
 45
0.0
 46
0.0
 47
0.1
 48
0.1000000001
140
3.799999999999999
141
0.0
142
0.0
143
0.0393701
144
-0.999999980146674
145
0.0
146
0.71
147
1.5
 71
     0
 72
     0
 73
     0
 74
     0
 75
     0
 76
     0
 77
     3
 78
     1
170
     0
171
     2
172
     1
173
     0
174
     0
175
     0
176
     3
177
     3
178
     2
270
     2
271
     2
272
     2
273
     2
274
     2
340
11
275
     1
280
     0
281
     0
282
     0
283
     0
284
     8
285
     0
286
     0
287
     0
288
     0
  0
ENDTAB
  0
TABLE
  2
BLOCK_RECORD
  5
1
330
0
100
AcDbSymbolTable
 70
    18
  0
BLOCK_RECORD
  5
1F
102
{ACAD_XDICTIONARY
360
74
102
}
330
1
100
AcDbSymbolTableRecord
100
AcDbBlockTableRecord
  2
*MODEL_SPACE
  0
BLOCK_RECORD
  5
101
102
{ACAD_XDICTIONARY
360
51F5
102
}
330
1
100
AcDbSymbolTableRecord
100
AcDbBlockTableRecord
  2
*PAPER_SPACE
  0
BLOCK_RECORD
  5
59
330
1
100
AcDbSymbolTableRecord
100
AcDbBlockTableRecord
  2
_OPEN30
  0
BLOCK_RECORD
  5
64
330
1
100
AcDbSymbolTableRecord
100
AcDbBlockTableRecord
  2
GENAXEH
  0
BLOCK_RECORD
  5
C31
330
1
100
AcDbSymbolTableRecord
100
AcDbBlockTableRecord
  2
A$C36D02A34
  0
BLOCK_RECORD
  5
2453
330
1
100
AcDbSymbolTableRecord
100
AcDbBlockTableRecord
  2
*D6
  0
BLOCK_RECORD
  5
245F
330
1
100
AcDbSymbolTableRecord
100
AcDbBlockTableRecord
  2
A$C4FFC6CC0
  0
BLOCK_RECORD
  5
36BB
330
1
100
AcDbSymbolTableRecord
100
AcDbBlockTableRecord
  2
*D8
  0
BLOCK_RECORD
  5
378F
330
1
100
AcDbSymbolTableRecord
100
AcDbBlockTableRecord
  2
*D9
  0
BLOCK_RECORD
  5
3991
330
1
100
AcDbSymbolTableRecord
100
AcDbBlockTableRecord
  2
*D10
  0
BLOCK_RECORD
  5
3B0E
330
1
100
AcDbSymbolTableRecord
100
AcDbBlockTableRecord
  2
*D11
  0
BLOCK_RECORD
  5
3BB9
330
1
100
AcDbSymbolTableRecord
100
AcDbBlockTableRecord
  2
*D12
  0
BLOCK_RECORD
  5
3CCC
330
1
100
AcDbSymbolTableRecord
100
AcDbBlockTableRecord
  2
*D13
  0
BLOCK_RECORD
  5
4FD4
330
1
100
AcDbSymbolTableRecord
100
AcDbBlockTableRecord
  2
*D14
  0
BLOCK_RECORD
  5
4FE0
330
1
100
AcDbSymbolTableRecord
100
AcDbBlockTableRecord
  2
*D15
  0
BLOCK_RECORD
  5
4FEE
330
1
100
AcDbSymbolTableRecord
100
AcDbBlockTableRecord
  2
*D16
  0
BLOCK_RECORD
  5
4FFA
330
1
100
AcDbSymbolTableRecord
100
AcDbBlockTableRecord
  2
*D17
  0
ENDTAB
  0
ENDSEC
  0
SECTION
  2
BLOCKS
  0
BLOCK
  5
20
330
1F
100
AcDbEntity
  8
0
100
AcDbBlockBegin
  2
*MODEL_SPACE
 70
     0
 10
0.0
 20
0.0
 30
0.0
  3
*MODEL_SPACE
  1

  0
ENDBLK
  5
21
330
1F
100
AcDbEntity
  8
0
100
AcDbBlockEnd
  0
BLOCK
  5
103
330
101
100
AcDbEntity
 67
     1
  8
0
100
AcDbBlockBegin
  2
*PAPER_SPACE
 70
     0
 10
0.0
 20
0.0
 30
0.0
  3
*PAPER_SPACE
  1

  0
ENDBLK
  5
104
330
101
100
AcDbEntity
 67
     1
  8
0
100
AcDbBlockEnd
  0
BLOCK
  5
5D
330
59
100
AcDbEntity
  8
0
100
AcDbBlockBegin
  2
_OPEN30
 70
     0
 10
0.0
 20
0.0
 30
0.0
  3
_OPEN30
  1

  0
LINE
  5
5A
330
59
100
AcDbEntity
  8
0
 62
     0
100
AcDbLine
 10
-1.0
 20
0.26794919
 30
0.0
 11
0.0
 21
0.0
 31
0.0
  0
LINE
  5
5B
330
59
100
AcDbEntity
  8
0
 62
     0
100
AcDbLine
 10
0.0
 20
0.0
 30
0.0
 11
-1.0
 21
-0.26794919
 31
0.0
  0
LINE
  5
5C
330
59
100
AcDbEntity
  8
0
 62
     0
100
AcDbLine
 10
0.0
 20
0.0
 30
0.0
 11
-1.0
 21
0.0
 31
0.0
  0
ENDBLK
  5
5E
330
59
100
AcDbEntity
  8
0
100
AcDbBlockEnd
  0
BLOCK
  5
66
330
64
100
AcDbEntity
  8
0
100
AcDbBlockBegin
  2
GENAXEH
 70
     0
 10
0.0
 20
0.0
 30
0.0
  3
GENAXEH
  1

  0
LINE
  5
65
330
64
100
AcDbEntity
  8
0
100
AcDbLine
 10
-1.0
 20
0.0
 30
0.0
 11
1.0
 21
0.0
 31
0.0
  0
ENDBLK
  5
67
330
64
100
AcDbEntity
  8
0
100
AcDbBlockEnd
  0
BLOCK
  5
C4B
330
C31
100
AcDbEntity
  8
0
100
AcDbBlockBegin
  2
A$C36D02A34
 70
     0
 10
0.0
 20
0.0
 30
0.0
  3
A$C36D02A34
  1

  0
ARC
  5
C32
330
C31
100
AcDbEntity
  8
PV0001_1
  6
CONTINUOUS
 48
0.5
100
AcDbCircle
 10
18.06811523436999
 20
-11.83651161193799
 30
0.0
 40
21.600000381469
100
AcDbArc
 50
123.2290435713209
 51
126.6341524197568
  0
ARC
  5
C33
330
C31
100
AcDbEntity
  8
PV0001_1
  6
CONTINUOUS
 48
0.5
100
AcDbCircle
 10
18.06811523436999
 20
-11.83651161193799
 30
0.0
 40
21.600000381469
100
AcDbArc
 50
135.0736707620117
 51
146.7709980930592
  0
ARC
  5
C34
330
C31
100
AcDbEntity
  8
PV0001_1
  6
CONTINUOUS
 48
0.5
100
AcDbCircle
 10
-18.0680770874
 20
11.8365631103514
 30
0.0
 40
21.600000381469
100
AcDbArc
 50
315.0734847530392
 51
326.770781348241
  0
ARC
  5
C35
330
C31
100
AcDbEntity
  8
PV0001_1
  6
CONTINUOUS
 48
0.5
100
AcDbCircle
 10
-18.0680770874
 20
11.8365631103514
 30
0.0
 40
21.600000381469
100
AcDbArc
 50
303.2288882981993
 51
306.633986901359
  0
ARC
  5
C36
330
C31
100
AcDbEntity
  8
PV0001_1
  6
CONTINUOUS
 48
0.5
100
AcDbCircle
 10
-0.6269836425800009
 20
-2.044216156005997
 30
0.0
 40
2.0
100
AcDbArc
 50
337.4067997351092
 51
43.42231293132884
  0
ARC
  5
C37
330
C31
100
AcDbEntity
  8
PV0001_1
  6
CONTINUOUS
 48
0.5
100
AcDbCircle
 10
0.626953125
 20
2.044223785401001
 30
0.0
 40
2.0
100
AcDbArc
 50
157.4068184044407
 51
223.4222769591536
  0
CIRCLE
  5
C38
330
C31
100
AcDbEntity
  8
PV0001_1
  6
CONTINUOUS
 48
0.5
100
AcDbCircle
 10
3.856727600100001
 20
4.596265792847002
 30
0.0
 40
1.6000000238419
  0
CIRCLE
  5
C39
330
C31
100
AcDbEntity
  8
PV0001_1
  6
CONTINUOUS
 48
0.5
100
AcDbCircle
 10
-3.856727600100001
 20
-4.596265792845997
 30
0.0
 40
1.6000000238419
  0
ARC
  5
C3A
330
C31
100
AcDbEntity
  8
PV0001_1
  6
CONTINUOUS
 48
0.5
100
AcDbCircle
 10
-5.58123779297
 20
5.092639923096001
 30
0.0
 40
5.019082546234099
100
AcDbArc
 50
240.2658959250867
 51
321.5156269706421
  0
ARC
  5
C3B
330
C31
100
AcDbEntity
  8
PV0001_1
  6
CONTINUOUS
 48
0.5
100
AcDbCircle
 10
5.486755371089998
 20
-4.601703643798998
 30
0.0
 40
4.651036739349399
100
AcDbArc
 50
56.25271400417071
 51
145.528859890601
  0
ARC
  5
C3C
330
C31
100
AcDbEntity
  8
PV0001_1
  6
CONTINUOUS
 48
0.5
100
AcDbCircle
 10
-2.11590576172
 20
-3.453323364257997
 30
0.0
 40
4.050000190734899
100
AcDbArc
 50
43.42230610113921
 51
58.50391703385149
  0
ARC
  5
C3D
330
C31
100
AcDbEntity
  8
PV0001_1
  6
CONTINUOUS
 48
0.5
100
AcDbCircle
 10
2.115875244139999
 20
3.453330993653001
 30
0.0
 40
4.050000190734899
100
AcDbArc
 50
223.4222942619974
 51
238.5038164022482
  0
ARC
  5
C3E
330
C31
100
AcDbEntity
  8
PV0001_1
  6
CONTINUOUS
 48
0.5
100
AcDbCircle
 10
-6.70369720459
 20
5.094657897949002
 30
0.0
 40
5.940000057220499
100
AcDbArc
 50
328.2536768887549
 51
31.74641873389623
  0
ARC
  5
C3F
330
C31
100
AcDbEntity
  8
PV0001_1
  6
CONTINUOUS
 48
0.5
100
AcDbCircle
 10
6.703674316410001
 20
-5.094650268553998
 30
0.0
 40
5.940000057220499
100
AcDbArc
 50
148.2533403882529
 51
211.7466423089037
  0
ARC
  5
C40
330
C31
100
AcDbEntity
  8
PV0001_1
  6
CONTINUOUS
 48
0.5
100
AcDbCircle
 10
0.0
 20
0.0
 30
0.0
 40
8.812800407409699
100
AcDbArc
 50
175.2198288164333
 51
272.8622597568298
  0
ARC
  5
C41
330
C31
100
AcDbEntity
  8
PV0001_1
  6
CONTINUOUS
 48
0.5
100
AcDbCircle
 10
0.0
 20
0.0
 30
0.0
 40
9.1800003051758
100
AcDbArc
 50
272.7511362215027
 51
280.3697477877874
  0
ARC
  5
C42
330
C31
100
AcDbEntity
  8
PV0001_1
  6
CONTINUOUS
 48
0.5
100
AcDbCircle
 10
0.0
 20
0.0
 30
0.0
 40
8.812800407409699
100
AcDbArc
 50
355.2198199654955
 51
92.86229572901076
  0
ARC
  5
C43
330
C31
100
AcDbEntity
  8
PV0001_1
  6
CONTINUOUS
 48
0.5
100
AcDbCircle
 10
0.0
 20
0.0
 30
0.0
 40
9.1800003051758
100
AcDbArc
 50
92.75115489083434
 51
100.3697664571193
  0
CIRCLE
  5
C44
330
C31
100
AcDbEntity
  8
PV0001_1
  6
CONTINUOUS
100
AcDbCircle
 10
0.0
 20
0.0
 30
0.0
 40
9.1800003051758
  0
LINE
  5
C45
330
C31
100
AcDbEntity
  8
PV0001_1
  6
CONTINUOUS
 48
0.5
100
AcDbLine
 10
-1.652404785160001
 20
9.030059814453
 30
0.0
 11
-1.652404785160001
 21
8.220062255860002
 31
0.0
  0
LINE
  5
C46
330
C31
100
AcDbEntity
  8
PV0001_1
  6
CONTINUOUS
 48
0.5
100
AcDbLine
 10
1.652404785160001
 20
-8.220058441161999
 30
0.0
 11
1.652404785160001
 21
-9.030055999755997
 31
0.0
  0
LINE
  5
C47
330
C31
100
AcDbEntity
  8
PV0001_1
  6
CONTINUOUS
 48
0.5
100
AcDbLine
 10
-8.78217315674
 20
0.7343807220460015
 30
0.0
 11
-8.070594787600001
 21
0.7343997955320028
 31
0.0
  0
LINE
  5
C48
330
C31
100
AcDbEntity
  8
PV0001_1
  6
CONTINUOUS
 48
0.5
100
AcDbLine
 10
8.07057952881
 20
-0.7343864440919994
 30
0.0
 11
8.78215789795
 21
-0.7343654632569994
 31
0.0
  0
LINE
  5
C49
330
C31
100
AcDbEntity
  8
PV0001_1
  6
CONTINUOUS
 48
0.5
100
AcDbLine
 10
0.4406127929700006
 20
-9.169414520263
 30
0.0
 11
0.4406127929700006
 21
-8.812801361083998
 31
0.0
  0
LINE
  5
C4A
330
C31
100
AcDbEntity
  8
PV0001_1
  6
CONTINUOUS
 48
0.5
100
AcDbLine
 10
-0.4406127929700006
 20
9.169418334961001
 30
0.0
 11
-0.4406127929700006
 21
8.812805175781001
 31
0.0
  0
ENDBLK
  5
C4C
330
C31
100
AcDbEntity
  8
0
100
AcDbBlockEnd
  0
BLOCK
  5
245D
330
2453
100
AcDbEntity
  8
0
100
AcDbBlockBegin
  2
*D6
 70
     1
 10
0.0
 20
0.0
 30
0.0
  3
*D6
  1

  0
LINE
  5
2454
330
2453
100
AcDbEntity
  8
AM_5
 62
     3
100
AcDbLine
 10
-137.574381722344
 20
-5.00000294019065
 30
0.0
 11
-152.8199008769066
 21
-5.000002940190694
 31
0.0
  0
LINE
  5
2455
330
2453
100
AcDbEntity
  8
AM_5
 62
     3
100
AcDbLine
 10
-137.5743817223442
 20
5.00002461040103
 30
0.0
 11
-152.8199008769066
 21
5.000024610400987
 31
0.0
  0
LINE
  5
2456
330
2453
100
AcDbEntity
  8
AM_5
 62
     3
100
AcDbLine
 10
-151.8199008769066
 20
-2.500002940190691
 30
0.0
 11
-151.8199008769066
 21
2.50002461040099
 31
0.0
  0
INSERT
  5
2457
330
2453
100
AcDbEntity
  8
AM_5
 62
     3
100
AcDbBlockReference
  2
_OPEN30
 10
-151.8199008769066
 20
-5.00000294019069
 30
0.0
 41
2.5
 42
2.5
 43
2.5
 50
270.0000000000001
  0
INSERT
  5
2458
330
2453
100
AcDbEntity
  8
AM_5
 62
     3
100
AcDbBlockReference
  2
_OPEN30
 10
-151.8199008769066
 20
5.00002461040099
 30
0.0
 41
2.5
 42
2.5
 43
2.5
 50
90.00000000000015
  0
MTEXT
  5
2459
330
2453
100
AcDbEntity
  8
AM_5
 62
     2
100
AcDbMText
 10
-155.2199008769066
 20
0.000010835105146
 30
0.0
 40
3.799999999999999
 41
0.0
 71
     5
 72
     1
  1
%%c10
 11
-0.0000000000000028
 21
1.0
 31
0.0
1001
ACAD
1000
MTEXTBEGIN
1070
    73
1070
     1
1070
    44
1040
1.0
1070
    74
1070
     0
1000
MTEXTEND
  0
POINT
  5
245A
330
2453
100
AcDbEntity
  8
DEFPOINTS
 62
     0
100
AcDbPoint
 10
-137.5743817223441
 20
-5.000002940190223
 30
0.0
  0
POINT
  5
245B
330
2453
100
AcDbEntity
  8
DEFPOINTS
 62
     0
100
AcDbPoint
 10
-137.5743817223441
 20
5.000024610401458
 30
0.0
  0
POINT
  5
245C
330
2453
100
AcDbEntity
  8
DEFPOINTS
 62
     0
100
AcDbPoint
 10
-151.8199008769066
 20
5.000024610401462
 30
0.0
  0
ENDBLK
  5
245E
330
2453
100
AcDbEntity
  8
0
100
AcDbBlockEnd
  0
BLOCK
  5
246B
330
245F
100
AcDbEntity
  8
0
100
AcDbBlockBegin
  2
A$C4FFC6CC0
 70
     0
 10
0.0
 20
0.0
 30
0.0
  3
A$C4FFC6CC0
  1

  0
DIMENSION
  5
2460
330
245F
100
AcDbEntity
  8
AM_5
100
AcDbDimension
  2
*D6
 10
-70.00000100000002
 20
5.000008477104842
 30
0.0
 11
-70.00000100000002
 21
-0.0000052981910228
 31
0.0
 12
81.81989987690661
 22
-0.0000161332966199
 32
0.0
 70
   128
  1
%%c<>
 51
359.9999999999998
  3
AM_JIS$0
100
AcDbAlignedDimension
 13
-55.75448184543748
 23
-5.000019073486843
 33
0.0
 14
-55.75448184543756
 24
5.000008477104838
 34
0.0
 50
270.0
100
AcDbRotatedDimension
1001
ACAD
1000
DSTYLE
1002
{
1070
   271
1070
     0
1002
}
1001
GENIUS_GENDTOL_13
1000

1000
h7
1000

1040
0.0
  0
LINE
  5
2461
330
245F
100
AcDbEntity
  8
AM_0
 48
0.5
100
AcDbLine
 10
-56.0
 20
-4.754495620727796
 30
0.0
 11
-56.00000000000003
 21
4.754485024345811
 31
0.0
  0
LINE
  5
2462
330
245F
100
AcDbEntity
  8
AM_0
 48
0.5
100
AcDbLine
 10
-55.75448184543751
 20
-5.000019073486843
 30
0.0
 11
-55.75448184543754
 21
5.000008477104838
 31
0.0
  0
LINE
  5
2463
330
245F
100
AcDbEntity
  8
AM_0
100
AcDbLine
 10
-0.0000000000000142
 20
4.999995231627903
 30
0.0
 11
-55.75448184543754
 21
4.999995231627746
 31
0.0
  0
LINE
  5
2464
330
245F
100
AcDbEntity
  8
AM_0
 48
0.5
100
AcDbLine
 10
-55.99996821086117
 20
4.754439989725671
 30
0.0
 11
-55.75443945990975
 21
4.999963442484006
 31
0.0
  0
LINE
  5
2465
330
245F
100
AcDbEntity
  8
AM_0
100
AcDbLine
 10
-55.75448184543751
 20
-5.000008477105588
 30
0.0
 11
0.0000000000000142
 21
-5.00000847710543
 31
0.0
  0
LINE
  5
2466
330
245F
100
AcDbEntity
  8
AM_0
 48
0.5
100
AcDbLine
 10
-55.99996821086114
 20
-4.754474427965309
 30
0.0
 11
-55.75443945990972
 21
-4.999997880724334
 31
0.0
  0
LINE
  5
2467
330
245F
100
AcDbEntity
  8
AM_0
100
AcDbLine
 10
0.7794201296714505
 20
4.549985867772141
 30
0.0
 11
0.7794201296714789
 21
-4.550003370497427
 31
0.0
  0
LINE
  5
2468
330
245F
100
AcDbEntity
  8
AM_0
 48
0.5
100
AcDbLine
 10
0.0000000000000142
 20
-5.00000847710543
 30
0.0
 11
-0.0000000000000142
 21
5.000008477104995
 31
0.0
  0
LINE
  5
2469
330
245F
100
AcDbEntity
  8
AM_0
 48
0.5
100
AcDbLine
 10
0.7794201296714647
 20
-4.550003370497435
 30
0.0
 11
-0.0000105963812445
 21
-5.00000847710543
 31
0.0
  0
LINE
  5
246A
330
245F
100
AcDbEntity
  8
AM_0
 48
0.5
100
AcDbLine
 10
0.7794201296714647
 20
4.549985867772141
 30
0.0
 11
-0.0000000000000142
 21
4.999984635246652
 31
0.0
  0
ENDBLK
  5
246C
330
245F
100
AcDbEntity
  8
0
100
AcDbBlockEnd
  0
BLOCK
  5
36C9
330
36BB
100
AcDbEntity
  8
0
100
AcDbBlockBegin
  2
*D8
 70
     1
 10
0.0
 20
0.0
 30
0.0
  3
*D8
  1

  0
LINE
  5
4D37
330
36BB
100
AcDbEntity
  8
AM_5
100
AcDbLine
 10
0.3420201408161502
 20
-0.9396926216994629
 30
0.0
 11
11.65074289968212
 21
-32.01015330273436
 31
0.0
  0
LINE
  5
4D38
330
36BB
100
AcDbEntity
  8
AM_5
100
AcDbLine
 10
0.3420201408161393
 20
0.939692621699157
 30
0.0
 11
11.65074289968175
 21
32.01015330273419
 31
0.0
  0
ARC
  5
4D39
330
36BB
100
AcDbEntity
  8
AM_5
100
AcDbCircle
 10
0.0000000000000263
 20
-0.000000000000155
 30
0.0
 40
33.06449360520479
100
AcDbArc
 50
294.3331552961364
 51
65.66684470386431
  0
INSERT
  5
4D3A
330
36BB
100
AcDbEntity
  8
AM_5
100
AcDbBlockReference
  2
_OPEN30
 10
11.30872275886599
 20
-31.07046068103505
 30
0.0
 41
2.5
 42
2.5
 43
2.5
 50
202.166577571561
  0
INSERT
  5
4D3B
330
36BB
100
AcDbEntity
  8
AM_5
100
AcDbBlockReference
  2
_OPEN30
 10
11.30872275886563
 20
31.07046068103487
 30
0.0
 41
2.5
 42
2.5
 43
2.5
 50
157.8334224284395
  0
MTEXT
  5
4D3C
330
36BB
100
AcDbEntity
  8
AM_5
 62
     2
100
AcDbMText
 10
29.96449360520482
 20
0.0000000000000419
 30
0.0
 40
3.2
 41
0.0
 71
     5
 72
     1
  1
140°
  7
ASAMI
 11
-0.0000000000000028
 21
1.0
 31
0.0
1001
ACAD
1000
MTEXTBEGIN
1070
    73
1070
     1
1070
    44
1040
1.0
1070
    74
1070
     0
1000
MTEXTEND
  0
POINT
  5
4D3D
330
36BB
100
AcDbEntity
  8
DEFPOINTS
 62
     0
100
AcDbPoint
 10
30.36035058248067
 20
-13.09617691837965
 30
0.0
  0
POINT
  5
4D3E
330
36BB
100
AcDbEntity
  8
DEFPOINTS
 62
     0
100
AcDbPoint
 10
0.0
 20
-0.0000000000002274
 30
0.0
  0
POINT
  5
4D3F
330
36BB
100
AcDbEntity
  8
DEFPOINTS
 62
     0
100
AcDbPoint
 10
0.0
 20
-0.0000000000000827
 30
0.0
  0
POINT
  5
4D40
330
36BB
100
AcDbEntity
  8
DEFPOINTS
 62
     0
100
AcDbPoint
 10
-2.547791618692619
 20
6.999999999999763
 30
0.0
  0
POINT
  5
4D41
330
36BB
100
AcDbEntity
  8
DEFPOINTS
 62
     0
100
AcDbPoint
 10
-2.547791618692583
 20
-7.000000000000091
 30
0.0
  0
ENDBLK
  5
36CA
330
36BB
100
AcDbEntity
  8
0
100
AcDbBlockEnd
  0
BLOCK
  5
3799
330
378F
100
AcDbEntity
  8
0
100
AcDbBlockBegin
  2
*D9
 70
     1
 10
0.0
 20
0.0
 30
0.0
  3
*D9
  1

  0
LINE
  5
50D3
330
378F
100
AcDbEntity
  8
AM_5
 62
     3
100
AcDbLine
 10
-3.749627612367663
 20
12.49998522516453
 30
0.0
 11
18.88106867040243
 21
12.4999852251646
 31
0.0
  0
LINE
  5
50D4
330
378F
100
AcDbEntity
  8
AM_5
 62
     3
100
AcDbLine
 10
-3.749641687438348
 20
-12.5000068275499
 30
0.0
 11
18.8810686704025
 21
-12.50000682754983
 31
0.0
  0
LINE
  5
50D5
330
378F
100
AcDbEntity
  8
AM_5
 62
     3
100
AcDbLine
 10
17.88106867040244
 20
9.999985225164598
 30
0.0
 11
17.88106867040249
 21
-10.00000682754984
 31
0.0
  0
INSERT
  5
50D6
330
378F
100
AcDbEntity
  8
AM_5
 62
     3
100
AcDbBlockReference
  2
_OPEN30
 10
17.88106867040243
 20
12.4999852251646
 30
0.0
 41
2.5
 42
2.5
 43
2.5
 50
90.00000000000017
  0
INSERT
  5
50D7
330
378F
100
AcDbEntity
  8
AM_5
 62
     3
100
AcDbBlockReference
  2
_OPEN30
 10
17.8810686704025
 20
-12.50000682754984
 30
0.0
 41
2.5
 42
2.5
 43
2.5
 50
270.0000000000001
  0
MTEXT
  5
50D8
330
378F
100
AcDbEntity
  8
AM_5
 62
     2
100
AcDbMText
 10
14.48106867040246
 20
-0.0000108011925783
 30
0.0
 40
3.799999999999999
 41
0.0
 71
     5
 72
     1
  1
%%C25
 11
-0.0000000000000028
 21
1.0
 31
0.0
1001
ACAD
1000
MTEXTBEGIN
1070
    73
1070
     1
1070
    44
1040
1.0
1070
    74
1070
     0
1000
MTEXTEND
  0
POINT
  5
50D9
330
378F
100
AcDbEntity
  8
DEFPOINTS
 62
     0
100
AcDbPoint
 10
-4.549627612367624
 20
12.49998522516455
 30
0.0
  0
POINT
  5
50DA
330
378F
100
AcDbEntity
  8
DEFPOINTS
 62
     0
100
AcDbPoint
 10
-4.549641687438387
 20
-12.50000682754988
 30
0.0
  0
POINT
  5
50DB
330
378F
100
AcDbEntity
  8
DEFPOINTS
 62
     0
100
AcDbPoint
 10
17.88106867040246
 20
-12.50000682754989
 30
0.0
  0
ENDBLK
  5
379A
330
378F
100
AcDbEntity
  8
0
100
AcDbBlockEnd
  0
BLOCK
  5
399B
330
3991
100
AcDbEntity
  8
0
100
AcDbBlockBegin
  2
*D10
 70
     1
 10
0.0
 20
0.0
 30
0.0
  3
*D10
  1

  0
LINE
  5
5174
330
3991
100
AcDbEntity
  8
AM_5
 62
     3
100
AcDbLine
 10
-4.549634237303938
 20
12.51803493139984
 30
0.0
 11
-4.549634237303987
 21
29.47247292580868
 31
0.0
  0
LINE
  5
5175
330
3991
100
AcDbEntity
  8
AM_5
 62
     3
100
AcDbLine
 10
-204.5496416874384
 20
13.29999317244862
 30
0.0
 11
-204.5496416874385
 21
29.4724729258081
 31
0.0
  0
LINE
  5
5176
330
3991
100
AcDbEntity
  8
AM_5
 62
     3
100
AcDbLine
 10
-7.049634237303983
 20
28.47247292580867
 30
0.0
 11
-202.0496416874385
 21
28.47247292580811
 31
0.0
  0
INSERT
  5
5177
330
3991
100
AcDbEntity
  8
AM_5
 62
     3
100
AcDbBlockReference
  2
_OPEN30
 10
-4.549634237303983
 20
28.47247292580868
 30
0.0
 41
2.5
 42
2.5
 43
2.5
 50
0.0000000000001527
  0
INSERT
  5
5178
330
3991
100
AcDbEntity
  8
AM_5
 62
     3
100
AcDbBlockReference
  2
_OPEN30
 10
-204.5496416874385
 20
28.4724729258081
 30
0.0
 41
2.5
 42
2.5
 43
2.5
 50
180.0000000000001
  0
MTEXT
  5
5179
330
3991
100
AcDbEntity
  8
AM_5
 62
     2
100
AcDbMText
 10
-104.5496379623712
 20
31.87247292580839
 30
0.0
 40
3.799999999999999
 41
0.0
 71
     5
 72
     1
  1
200
1001
ACAD
1000
MTEXTBEGIN
1070
    73
1070
     1
1070
    44
1040
1.0
1070
    74
1070
     0
1000
MTEXTEND
  0
POINT
  5
517A
330
3991
100
AcDbEntity
  8
DEFPOINTS
 62
     0
100
AcDbPoint
 10
-4.549634237303902
 20
11.71803493139985
 30
0.0
  0
POINT
  5
517B
330
3991
100
AcDbEntity
  8
DEFPOINTS
 62
     0
100
AcDbPoint
 10
-204.5496416874384
 20
12.49999317244921
 30
0.0
  0
POINT
  5
517C
330
3991
100
AcDbEntity
  8
DEFPOINTS
 62
     0
100
AcDbPoint
 10
-204.5496416874384
 20
28.4724729258087
 30
0.0
  0
ENDBLK
  5
399C
330
3991
100
AcDbEntity
  8
0
100
AcDbBlockEnd
  0
BLOCK
  5
3B18
330
3B0E
100
AcDbEntity
  8
0
100
AcDbBlockBegin
  2
*D11
 70
     1
 10
0.0
 20
0.0
 30
0.0
  3
*D11
  1

  0
LINE
  5
516B
330
3B0E
100
AcDbEntity
  8
AM_5
 62
     3
100
AcDbLine
 10
-4.549634237303938
 20
12.51803493139984
 30
0.0
 11
-4.549634237304024
 21
42.76970134232422
 31
0.0
  0
LINE
  5
516C
330
3B0E
100
AcDbEntity
  8
AM_5
 62
     3
100
AcDbLine
 10
-212.5496416874384
 20
14.26938367767042
 30
0.0
 11
-212.5496416874385
 21
42.76970134232361
 31
0.0
  0
LINE
  5
516D
330
3B0E
100
AcDbEntity
  8
AM_5
 62
     3
100
AcDbLine
 10
-7.049634237304021
 20
41.76970134232421
 30
0.0
 11
-210.0496416874385
 21
41.76970134232361
 31
0.0
  0
INSERT
  5
516E
330
3B0E
100
AcDbEntity
  8
AM_5
 62
     3
100
AcDbBlockReference
  2
_OPEN30
 10
-4.549634237304021
 20
41.76970134232422
 30
0.0
 41
2.5
 42
2.5
 43
2.5
 50
0.0000000000001527
  0
INSERT
  5
516F
330
3B0E
100
AcDbEntity
  8
AM_5
 62
     3
100
AcDbBlockReference
  2
_OPEN30
 10
-212.5496416874385
 20
41.76970134232361
 30
0.0
 41
2.5
 42
2.5
 43
2.5
 50
180.0000000000001
  0
MTEXT
  5
5170
330
3B0E
100
AcDbEntity
  8
AM_5
 62
     2
100
AcDbMText
 10
-108.5496379623713
 20
45.16970134232392
 30
0.0
 40
3.799999999999999
 41
0.0
 71
     5
 72
     1
  1
208
1001
ACAD
1000
MTEXTBEGIN
1070
    73
1070
     1
1070
    44
1040
1.0
1070
    74
1070
     0
1000
MTEXTEND
  0
POINT
  5
5171
330
3B0E
100
AcDbEntity
  8
DEFPOINTS
 62
     0
100
AcDbPoint
 10
-4.549634237303902
 20
11.71803493139985
 30
0.0
  0
POINT
  5
5172
330
3B0E
100
AcDbEntity
  8
DEFPOINTS
 62
     0
100
AcDbPoint
 10
-212.5496416874384
 20
13.46938367767104
 30
0.0
  0
POINT
  5
5173
330
3B0E
100
AcDbEntity
  8
DEFPOINTS
 62
     0
100
AcDbPoint
 10
-212.5496416874384
 20
41.76970134232423
 30
0.0
  0
ENDBLK
  5
3B19
330
3B0E
100
AcDbEntity
  8
0
100
AcDbBlockEnd
  0
BLOCK
  5
3BC3
330
3BB9
100
AcDbEntity
  8
0
100
AcDbBlockBegin
  2
*D12
 70
     1
 10
0.0
 20
0.0
 30
0.0
  3
*D12
  1

  0
LINE
  5
5141
330
3BB9
100
AcDbEntity
  8
AM_5
 62
     3
100
AcDbLine
 10
-4.549641687438387
 20
-12.51805546185835
 30
0.0
 11
-4.549641687438294
 21
-45.1997232154846
 31
0.0
  0
LINE
  5
5142
330
3BB9
100
AcDbEntity
  8
AM_5
 62
     3
100
AcDbLine
 10
-234.5496416874383
 20
-16.80001098633049
 30
0.0
 11
-234.5496416874382
 21
-45.19972321548527
 31
0.0
  0
LINE
  5
5143
330
3BB9
100
AcDbEntity
  8
AM_5
 62
     3
100
AcDbLine
 10
-7.049641687438296
 20
-44.19972321548461
 30
0.0
 11
-232.0496416874382
 21
-44.19972321548526
 31
0.0
  0
INSERT
  5
5144
330
3BB9
100
AcDbEntity
  8
AM_5
 62
     3
100
AcDbBlockReference
  2
_OPEN30
 10
-4.549641687438296
 20
-44.1997232154846
 30
0.0
 41
2.5
 42
2.5
 43
2.5
 50
0.0000000000001527
  0
INSERT
  5
5145
330
3BB9
100
AcDbEntity
  8
AM_5
 62
     3
100
AcDbBlockReference
  2
_OPEN30
 10
-234.5496416874382
 20
-44.19972321548526
 30
0.0
 41
2.5
 42
2.5
 43
2.5
 50
180.0000000000001
  0
MTEXT
  5
5146
330
3BB9
100
AcDbEntity
  8
AM_5
 62
     2
100
AcDbMText
 10
-119.5496416874382
 20
-40.79972321548494
 30
0.0
 40
3.799999999999999
 41
0.0
 71
     5
 72
     1
  1
230
1001
ACAD
1000
MTEXTBEGIN
1070
    73
1070
     1
1070
    44
1040
1.0
1070
    74
1070
     0
1000
MTEXTEND
  0
POINT
  5
5147
330
3BB9
100
AcDbEntity
  8
DEFPOINTS
 62
     0
100
AcDbPoint
 10
-4.549641687438423
 20
-11.71805546185834
 30
0.0
  0
POINT
  5
5148
330
3BB9
100
AcDbEntity
  8
DEFPOINTS
 62
     0
100
AcDbPoint
 10
-234.5496416874383
 20
-16.00001098632981
 30
0.0
  0
POINT
  5
5149
330
3BB9
100
AcDbEntity
  8
DEFPOINTS
 62
     0
100
AcDbPoint
 10
-234.5496416874383
 20
-44.19972321548459
 30
0.0
  0
ENDBLK
  5
3BC4
330
3BB9
100
AcDbEntity
  8
0
100
AcDbBlockEnd
  0
BLOCK
  5
3CD6
330
3CCC
100
AcDbEntity
  8
0
100
AcDbBlockBegin
  2
*D13
 70
     1
 10
0.0
 20
0.0
 30
0.0
  3
*D13
  1

  0
LINE
  5
5138
330
3CCC
100
AcDbEntity
  8
AM_5
 62
     3
100
AcDbLine
 10
-4.549641687438387
 20
-12.51805546185835
 30
0.0
 11
-4.549641687438254
 21
-59.09819160459302
 31
0.0
  0
LINE
  5
5139
330
3CCC
100
AcDbEntity
  8
AM_5
 62
     3
100
AcDbLine
 10
-294.5496416874382
 20
-15.95151855468934
 30
0.0
 11
-294.5496416874381
 21
-59.09819160459386
 31
0.0
  0
LINE
  5
513A
330
3CCC
100
AcDbEntity
  8
AM_5
 62
     3
100
AcDbLine
 10
-7.049641687438257
 20
-58.09819160459302
 30
0.0
 11
-292.0496416874381
 21
-58.09819160459386
 31
0.0
  0
INSERT
  5
513B
330
3CCC
100
AcDbEntity
  8
AM_5
 62
     3
100
AcDbBlockReference
  2
_OPEN30
 10
-4.549641687438257
 20
-58.09819160459301
 30
0.0
 41
2.5
 42
2.5
 43
2.5
 50
0.0000000000001527
  0
INSERT
  5
513C
330
3CCC
100
AcDbEntity
  8
AM_5
 62
     3
100
AcDbBlockReference
  2
_OPEN30
 10
-294.5496416874381
 20
-58.09819160459387
 30
0.0
 41
2.5
 42
2.5
 43
2.5
 50
180.0000000000001
  0
MTEXT
  5
513D
330
3CCC
100
AcDbEntity
  8
AM_5
 62
     2
100
AcDbMText
 10
-149.5496416874382
 20
-54.69819160459344
 30
0.0
 40
3.799999999999999
 41
0.0
 71
     5
 72
     1
  1
290
1001
ACAD
1000
MTEXTBEGIN
1070
    73
1070
     1
1070
    44
1040
1.0
1070
    74
1070
     0
1000
MTEXTEND
  0
POINT
  5
513E
330
3CCC
100
AcDbEntity
  8
DEFPOINTS
 62
     0
100
AcDbPoint
 10
-4.549641687438423
 20
-11.71805546185834
 30
0.0
  0
POINT
  5
513F
330
3CCC
100
AcDbEntity
  8
DEFPOINTS
 62
     0
100
AcDbPoint
 10
-294.5496416874383
 20
-15.15151855468849
 30
0.0
  0
POINT
  5
5140
330
3CCC
100
AcDbEntity
  8
DEFPOINTS
 62
     0
100
AcDbPoint
 10
-294.5496416874383
 20
-58.09819160459301
 30
0.0
  0
ENDBLK
  5
3CD7
330
3CCC
100
AcDbEntity
  8
0
100
AcDbBlockEnd
  0
BLOCK
  5
4FDE
330
4FD4
100
AcDbEntity
  8
0
100
AcDbBlockBegin
  2
*D14
 70
     1
 10
0.0
 20
0.0
 30
0.0
  3
*D14
  1

  0
LINE
  5
514A
330
4FD4
100
AcDbEntity
  8
AM_5
 62
     3
100
AcDbLine
 10
-234.5496416874383
 20
-16.80001098632981
 30
0.0
 11
-234.5496416874383
 21
-45.19972321548518
 31
0.0
  0
LINE
  5
514B
330
4FD4
100
AcDbEntity
  8
AM_5
 62
     3
100
AcDbLine
 10
-294.5496416874383
 20
-15.95151855468849
 30
0.0
 11
-294.5496416874383
 21
-45.19972321548518
 31
0.0
  0
LINE
  5
514C
330
4FD4
100
AcDbEntity
  8
AM_5
 62
     3
100
AcDbLine
 10
-237.0496416874383
 20
-44.19972321548518
 30
0.0
 11
-292.0496416874383
 21
-44.19972321548518
 31
0.0
  0
INSERT
  5
514D
330
4FD4
100
AcDbEntity
  8
AM_5
 62
     3
100
AcDbBlockReference
  2
_OPEN30
 10
-234.5496416874383
 20
-44.19972321548518
 30
0.0
 41
2.5
 42
2.5
 43
2.5
  0
INSERT
  5
514E
330
4FD4
100
AcDbEntity
  8
AM_5
 62
     3
100
AcDbBlockReference
  2
_OPEN30
 10
-294.5496416874383
 20
-44.19972321548518
 30
0.0
 41
2.5
 42
2.5
 43
2.5
 50
180.0
  0
MTEXT
  5
514F
330
4FD4
100
AcDbEntity
  8
AM_5
 62
     2
100
AcDbMText
 10
-264.5496416874383
 20
-40.79972321548519
 30
0.0
 40
3.799999999999999
 41
0.0
 71
     5
 72
     1
  1
60
1001
ACAD
1000
MTEXTBEGIN
1070
    73
1070
     1
1070
    44
1040
1.0
1070
    74
1070
     0
1000
MTEXTEND
  0
POINT
  5
5150
330
4FD4
100
AcDbEntity
  8
DEFPOINTS
 62
     0
100
AcDbPoint
 10
-234.5496416874383
 20
-16.00001098632981
 30
0.0
  0
POINT
  5
5151
330
4FD4
100
AcDbEntity
  8
DEFPOINTS
 62
     0
100
AcDbPoint
 10
-294.5496416874383
 20
-15.15151855468849
 30
0.0
  0
POINT
  5
5152
330
4FD4
100
AcDbEntity
  8
DEFPOINTS
 62
     0
100
AcDbPoint
 10
-294.5496416874383
 20
-44.19972321548518
 30
0.0
  0
ENDBLK
  5
4FDF
330
4FD4
100
AcDbEntity
  8
0
100
AcDbBlockEnd
  0
BLOCK
  5
4FEC
330
4FE0
100
AcDbEntity
  8
0
100
AcDbBlockBegin
  2
*D15
 70
     1
 10
0.0
 20
0.0
 30
0.0
  3
*D15
  1

  0
LINE
  5
512D
330
4FE0
100
AcDbEntity
  8
AM_5
 62
     3
100
AcDbLine
 10
-294.5495558567632
 20
-12.64405886396277
 30
0.0
 11
-294.5495558567632
 21
-32.51138163051388
 31
0.0
  0
LINE
  5
512E
330
4FE0
100
AcDbEntity
  8
AM_5
 62
     3
100
AcDbLine
 10
-288.549653052841
 20
-0.8319644048955742
 30
0.0
 11
-288.549653052841
 21
-32.51138163051388
 31
0.0
  0
LINE
  5
512F
330
4FE0
100
AcDbEntity
  8
AM_5
 62
     3
100
AcDbLine
 10
-297.0495558567632
 20
-31.51138163051388
 30
0.0
 11
-299.5495558567633
 21
-31.51138163051388
 31
0.0
  0
LINE
  5
5130
330
4FE0
100
AcDbEntity
  8
AM_5
 62
     3
100
AcDbLine
 10
-286.049653052841
 20
-31.51138163051388
 30
0.0
 11
-283.549653052841
 21
-31.51138163051388
 31
0.0
  0
LINE
  5
5131
330
4FE0
100
AcDbEntity
  8
AM_5
 62
     3
100
AcDbLine
 10
-294.5495558567632
 20
-31.51138163051388
 30
0.0
 11
-288.549653052841
 21
-31.51138163051388
 31
0.0
  0
INSERT
  5
5132
330
4FE0
100
AcDbEntity
  8
AM_5
 62
     3
100
AcDbBlockReference
  2
_OPEN30
 10
-294.5495558567632
 20
-31.51138163051388
 30
0.0
 41
2.5
 42
2.5
 43
2.5
  0
INSERT
  5
5133
330
4FE0
100
AcDbEntity
  8
AM_5
 62
     3
100
AcDbBlockReference
  2
_OPEN30
 10
-288.549653052841
 20
-31.51138163051388
 30
0.0
 41
2.5
 42
2.5
 43
2.5
 50
180.0
  0
MTEXT
  5
5134
330
4FE0
100
AcDbEntity
  8
AM_5
 62
     2
100
AcDbMText
 10
-291.5496044548021
 20
-28.11138163051388
 30
0.0
 40
3.799999999999999
 41
0.0
 71
     5
 72
     1
  1
6
1001
ACAD
1000
MTEXTBEGIN
1070
    73
1070
     1
1070
    44
1040
1.0
1070
    74
1070
     0
1000
MTEXTEND
  0
POINT
  5
5135
330
4FE0
100
AcDbEntity
  8
DEFPOINTS
 62
     0
100
AcDbPoint
 10
-294.5495558567632
 20
-11.84405886396277
 30
0.0
  0
POINT
  5
5136
330
4FE0
100
AcDbEntity
  8
DEFPOINTS
 62
     0
100
AcDbPoint
 10
-288.549653052841
 20
-0.0319644048955742
 30
0.0
  0
POINT
  5
5137
330
4FE0
100
AcDbEntity
  8
DEFPOINTS
 62
     0
100
AcDbPoint
 10
-288.549653052841
 20
-31.51138163051388
 30
0.0
  0
ENDBLK
  5
4FED
330
4FE0
100
AcDbEntity
  8
0
100
AcDbBlockEnd
  0
BLOCK
  5
4FF8
330
4FEE
100
AcDbEntity
  8
0
100
AcDbBlockBegin
  2
*D16
 70
     1
 10
0.0
 20
0.0
 30
0.0
  3
*D16
  1

  0
LINE
  5
5124
330
4FEE
100
AcDbEntity
  8
AM_5
 62
     3
100
AcDbLine
 10
-288.549653052841
 20
-0.8319644048955742
 30
0.0
 11
-288.549653052841
 21
-32.51138163051339
 31
0.0
  0
LINE
  5
5125
330
4FEE
100
AcDbEntity
  8
AM_5
 62
     3
100
AcDbLine
 10
-238.5496416874385
 20
-0.8319644048951978
 30
0.0
 11
-238.5496416874385
 21
-32.51138163051339
 31
0.0
  0
LINE
  5
5126
330
4FEE
100
AcDbEntity
  8
AM_5
 62
     3
100
AcDbLine
 10
-286.049653052841
 20
-31.51138163051339
 30
0.0
 11
-241.0496416874385
 21
-31.51138163051339
 31
0.0
  0
INSERT
  5
5127
330
4FEE
100
AcDbEntity
  8
AM_5
 62
     3
100
AcDbBlockReference
  2
_OPEN30
 10
-288.549653052841
 20
-31.51138163051339
 30
0.0
 41
2.5
 42
2.5
 43
2.5
 50
180.0
  0
INSERT
  5
5128
330
4FEE
100
AcDbEntity
  8
AM_5
 62
     3
100
AcDbBlockReference
  2
_OPEN30
 10
-238.5496416874385
 20
-31.51138163051339
 30
0.0
 41
2.5
 42
2.5
 43
2.5
  0
MTEXT
  5
5129
330
4FEE
100
AcDbEntity
  8
AM_5
 62
     2
100
AcDbMText
 10
-263.5496473701397
 20
-28.11138163051339
 30
0.0
 40
3.799999999999999
 41
0.0
 71
     5
 72
     1
  1
50
1001
ACAD
1000
MTEXTBEGIN
1070
    73
1070
     1
1070
    44
1040
1.0
1070
    74
1070
     0
1000
MTEXTEND
  0
POINT
  5
512A
330
4FEE
100
AcDbEntity
  8
DEFPOINTS
 62
     0
100
AcDbPoint
 10
-288.549653052841
 20
-0.0319644048955742
 30
0.0
  0
POINT
  5
512B
330
4FEE
100
AcDbEntity
  8
DEFPOINTS
 62
     0
100
AcDbPoint
 10
-238.5496416874385
 20
-0.0319644048951979
 30
0.0
  0
POINT
  5
512C
330
4FEE
100
AcDbEntity
  8
DEFPOINTS
 62
     0
100
AcDbPoint
 10
-238.5496416874385
 20
-31.51138163051339
 30
0.0
  0
ENDBLK
  5
4FF9
330
4FEE
100
AcDbEntity
  8
0
100
AcDbBlockEnd
  0
BLOCK
  5
5004
330
4FFA
100
AcDbEntity
  8
0
100
AcDbBlockBegin
  2
*D17
 70
     1
 10
0.0
 20
0.0
 30
0.0
  3
*D17
  1

  0
LINE
  5
5112
330
4FFA
100
AcDbEntity
  8
AM_5
 62
     3
100
AcDbLine
 10
-294.4720133267712
 20
16.0000476074209
 30
0.0
 11
-317.2415982876973
 21
16.00004760742091
 31
0.0
  0
LINE
  5
5113
330
4FFA
100
AcDbEntity
  8
AM_5
 62
     3
100
AcDbLine
 10
-294.4720133267709
 20
-15.99982788401345
 30
0.0
 11
-317.2415982876973
 21
-15.99982788401344
 31
0.0
  0
LINE
  5
5114
330
4FFA
100
AcDbEntity
  8
AM_5
 62
     3
100
AcDbLine
 10
-316.2415982876972
 20
13.50004760742091
 30
0.0
 11
-316.2415982876972
 21
-13.49982788401344
 31
0.0
  0
INSERT
  5
5115
330
4FFA
100
AcDbEntity
  8
AM_5
 62
     3
100
AcDbBlockReference
  2
_OPEN30
 10
-316.2415982876972
 20
16.00004760742091
 30
0.0
 41
2.5
 42
2.5
 43
2.5
 50
90.0
  0
INSERT
  5
5116
330
4FFA
100
AcDbEntity
  8
AM_5
 62
     3
100
AcDbBlockReference
  2
_OPEN30
 10
-316.2415982876972
 20
-15.99982788401344
 30
0.0
 41
2.5
 42
2.5
 43
2.5
 50
270.0
  0
MTEXT
  5
5117
330
4FFA
100
AcDbEntity
  8
AM_5
 62
     2
100
AcDbMText
 10
-319.6415982876972
 20
0.0001098617036812
 30
0.0
 40
3.799999999999999
 41
0.0
 71
     5
 72
     1
  1
%%C32
 11
0.0000000000000001
 21
1.0
 31
0.0
1001
ACAD
1000
MTEXTBEGIN
1070
    73
1070
     1
1070
    44
1040
1.0
1070
    74
1070
     0
1000
MTEXTEND
  0
POINT
  5
5118
330
4FFA
100
AcDbEntity
  8
DEFPOINTS
 62
     0
100
AcDbPoint
 10
-293.6720133267712
 20
16.0000476074209
 30
0.0
  0
POINT
  5
5119
330
4FFA
100
AcDbEntity
  8
DEFPOINTS
 62
     0
100
AcDbPoint
 10
-293.6720133267709
 20
-15.99982788401345
 30
0.0
  0
POINT
  5
511A
330
4FFA
100
AcDbEntity
  8
DEFPOINTS
 62
     0
100
AcDbPoint
 10
-316.2415982876972
 20
-15.99982788401344
 30
0.0
  0
ENDBLK
  5
5005
330
4FFA
100
AcDbEntity
  8
0
100
AcDbBlockEnd
  0
ENDSEC
  0
SECTION
  2
ENTITIES
  0
TEXT
  5
19BD
330
1F
100
AcDbEntity
  8
AM_6
100
AcDbText
 10
-170.8591654969619
 20
-80.59819160459349
 30
0.0
 40
5.0
  1
KDS250DAK
 50
0.0000000000001527
 72
     4
 11
-149.5496416874381
 21
-78.09819160459344
 31
0.0
100
AcDbText
  0
LINE
  5
35D1
330
1F
100
AcDbEntity
  8
AM_7
100
AcDbLine
 10
4.745369175493294
 20
-0.0000000000001137
 30
0.0
 11
-305.5001502761992
 21
-0.0000000000008778
 31
0.0
  0
DIMENSION
  5
36BA
330
1F
100
AcDbEntity
  8
AM_5
100
AcDbDimension
  2
*D8
 10
-2.547791618692583
 20
-7.000000000000091
 30
0.0
 11
29.96449360520482
 21
-0.0000000000000501
 31
0.0
 70
    34
  1
<>
 51
359.9999999999998
  3
AM_JIS$2
100
AcDb2LineAngularDimension
 13
0.0
 23
-0.0000000000000827
 33
0.0
 14
-2.547791618692619
 24
6.999999999999763
 34
0.0
 15
0.0
 25
-0.0000000000002274
 35
0.0
 16
30.36035058248067
 26
-13.09617691837965
 36
0.0
1001
ACAD
1000
DSTYLE
1002
{
1070
   179
1070
     3
1002
}
1001
GENIUS_GENDTOL_13
1000

1000
h7
1000

1040
0.0
  0
DIMENSION
  5
378E
330
1F
100
AcDbEntity
  8
AM_5
100
AcDbDimension
  2
*D9
 10
17.88106867040246
 20
-12.50000682754989
 30
0.0
 11
17.88106867040246
 21
-0.0000108011926209
 31
0.0
 70
   160
  1
%%C<>
 51
359.9999999999998
  3
AM_JIS$0
100
AcDbAlignedDimension
 13
-4.549627612367624
 23
12.49998522516455
 33
0.0
 14
-4.549641687438387
 24
-12.50000682754988
 34
0.0
 50
90.00000000000005
100
AcDbRotatedDimension
1001
GENIUS_GENDTOL_13
1000

1000
h7
1000

1040
0.0
1001
ACAD
1000
DSTYLE
1002
{
1070
   271
1070
     3
1002
}
  0
DIMENSION
  5
3990
330
1F
100
AcDbEntity
  8
AM_5
100
AcDbDimension
  2
*D10
 10
-204.5496416874384
 20
28.4724729258087
 30
0.0
 11
-104.5496379623711
 21
31.87247292580869
 31
0.0
 70
    32
  1
<>
 51
359.9999999999998
  3
AM_JIS$0
100
AcDbAlignedDimension
 13
-4.549634237303902
 23
11.71803493139985
 33
0.0
 14
-204.5496416874384
 24
12.49999317244921
 34
0.0
 50
180.0000000000001
100
AcDbRotatedDimension
1001
ACAD
1000
DSTYLE
1002
{
1070
   271
1070
     3
1002
}
1001
GENIUS_GENDTOL_13
1000

1000
h7
1000

1040
0.0
  0
DIMENSION
  5
3B0D
330
1F
100
AcDbEntity
  8
AM_5
100
AcDbDimension
  2
*D11
 10
-212.5496416874384
 20
41.76970134232423
 30
0.0
 11
-108.5496379623711
 21
45.16970134232423
 31
0.0
 70
    32
  1
<>
 51
359.9999999999998
  3
AM_JIS$0
100
AcDbAlignedDimension
 13
-4.549634237303902
 23
11.71803493139985
 33
0.0
 14
-212.5496416874384
 24
13.46938367767104
 34
0.0
 50
180.0000000000001
100
AcDbRotatedDimension
1001
ACAD
1000
DSTYLE
1002
{
1070
   271
1070
     3
1002
}
1001
GENIUS_GENDTOL_13
1000

1000
h7
1000

1040
0.0
  0
DIMENSION
  5
3BB8
330
1F
100
AcDbEntity
  8
AM_5
100
AcDbDimension
  2
*D12
 10
-234.5496416874383
 20
-44.19972321548459
 30
0.0
 11
-119.5496416874384
 21
-40.79972321548459
 31
0.0
 70
    32
  1
<>
 51
359.9999999999998
  3
AM_JIS$0
100
AcDbAlignedDimension
 13
-4.549641687438423
 23
-11.71805546185834
 33
0.0
 14
-234.5496416874383
 24
-16.00001098632981
 34
0.0
 50
0.0000000000001641
100
AcDbRotatedDimension
1001
ACAD
1000
DSTYLE
1002
{
1070
   271
1070
     3
1002
}
1001
GENIUS_GENDTOL_13
1000

1000
h7
1000

1040
0.0
  0
DIMENSION
  5
3CCB
330
1F
100
AcDbEntity
  8
AM_5
100
AcDbDimension
  2
*D13
 10
-294.5496416874383
 20
-58.09819160459301
 30
0.0
 11
-149.5496416874384
 21
-54.69819160459301
 31
0.0
 70
    32
  1
<>
 51
359.9999999999998
  3
AM_JIS$0
100
AcDbAlignedDimension
 13
-4.549641687438423
 23
-11.71805546185834
 33
0.0
 14
-294.5496416874383
 24
-15.15151855468849
 34
0.0
 50
0.0000000000002659
100
AcDbRotatedDimension
1001
ACAD
1000
DSTYLE
1002
{
1070
   271
1070
     3
1002
}
1001
GENIUS_GENDTOL_13
1000

1000
h7
1000

1040
0.0
  0
SPLINE
  5
408D
330
1F
100
AcDbEntity
  8
PV0001_1
  6
CONTINUOUS
100
AcDbSpline
210
0.0
220
0.0
230
1.0
 70
     8
 71
     3
 72
    29
 73
    25
 74
     0
 42
0.0000000001
 43
0.0000000001
 40
1.055225455848574
 40
1.055225455848574
 40
1.055225455848574
 40
1.055225455848574
 40
2.022833576467832
 40
3.037578957496688
 40
4.056212745003489
 40
5.079857003664532
 40
6.109500240690281
 40
7.145961322679372
 40
8.189895241603872
 40
9.241717795325891
 40
10.30168407291828
 40
11.36983447792315
 40
12.44600489715814
 40
13.52984294512926
 40
14.62081576220742
 40
15.7182257034828
 40
16.82123173843959
 40
17.92886860250316
 40
19.0400688939571
 40
20.15368796660465
 40
21.26852814259644
 40
22.38336992938901
 40
23.49698739941135
 40
24.18722991438619
 40
24.18722991438619
 40
24.18722991438619
 40
24.18722991438619
 10
-15.0496416874384
 20
-12.45824349355448
 30
0.0
 10
-17.89363143429157
 20
-12.43422438622709
 30
0.0
 10
-23.71626661665112
 20
-12.35491518593022
 30
0.0
 10
-32.5081633544369
 20
-12.16695768095866
 30
0.0
 10
-41.42982472148203
 20
-11.89962343589727
 30
0.0
 10
-50.35084486696749
 20
-11.55932131971224
 30
0.0
 10
-59.27104779911083
 20
-11.14756460168468
 30
0.0
 10
-68.1904633555964
 20
-10.66712702182917
 30
0.0
 10
-77.10901243923292
 20
-10.12095055001359
 30
0.0
 10
-86.02663429844744
 20
-9.512388676640963
 30
0.0
 10
-94.94337338265529
 20
-8.845261281683072
 30
0.0
 10
-103.8592535726617
 20
-8.123651230531834
 30
0.0
 10
-112.7743862652482
 20
-7.352050729058166
 30
0.0
 10
-121.6888122772131
 20
-6.535201427662721
 30
0.0
 10
-130.6026142696916
 20
-5.678140916775675
 30
0.0
 10
-139.5158910979549
 20
-4.786156575313435
 30
0.0
 10
-148.4287209896787
 20
-3.864733684946686
 30
0.0
 10
-157.3411904448924
 20
-2.919539354894196
 30
0.0
 10
-166.2533948308077
 20
-1.956391143962176
 30
0.0
 10
-175.1654123159399
 20
-0.9812100915328587
 30
0.0
 10
-184.0773687517794
 20
0.0019618552584412
 30
0.0
 10
-193.2092705854542
 20
0.9684908436273378
 30
0.0
 10
-198.5595084563859
 20
1.627006278191401
 30
0.0
 10
-202.2311706509629
 20
2.077373230850933
 30
0.0
 10
-216.8796094173054
 20
4.160025576877728
 30
0.0
  0
LINE
  5
408E
330
1F
100
AcDbEntity
  8
AM_11
  6
AM_ISO09W050
 48
0.5
100
AcDbLine
 10
-204.5496416874383
 20
-12.50000682755045
 30
0.0
 11
-15.04964168743839
 21
-12.50000682754991
 31
0.0
  0
LINE
  5
408F
330
1F
100
AcDbEntity
  8
AM_11
  6
AM_ISO09W050
 48
0.5
100
AcDbLine
 10
-53.21412886276558
 20
12.49999317244993
 30
0.0
 11
-11.19445310305815
 21
12.49999317245004
 31
0.0
  0
SPLINE
  5
4090
330
1F
100
AcDbEntity
  8
PV0001_1
  6
CONTINUOUS
100
AcDbSpline
210
0.0
220
0.0
230
1.0
 70
     8
 71
     3
 72
    25
 73
    21
 74
     0
 42
0.0000000001
 43
0.0000000001
 40
24.56499986022253
 40
24.56499986022253
 40
24.56499986022253
 40
24.56499986022253
 40
24.6081876908653
 40
25.71582455492886
 40
26.81883757994213
 40
27.91624752121713
 40
29.00722033829659
 40
30.09105838626677
 40
31.16722880550176
 40
32.23537921050758
 40
33.29534548809967
 40
34.347168041821
 40
35.39108718934584
 40
36.42754827133493
 40
37.45720575381954
 40
38.48085062012849
 40
39.49948440763516
 40
40.51422944315121
 40
41.52631975251916
 40
42.53706336680078
 40
42.53706336680078
 40
42.53706336680078
 40
42.53706336680078
 10
-6.575963179823169
 20
2.880894662018068
 30
0.0
 10
-6.603274643629751
 20
2.893287422691403
 30
0.0
 10
-7.331087353304598
 20
3.223417831706925
 30
0.0
 10
-8.758856047626824
 20
3.864723921178452
 30
0.0
 10
-10.86328294664197
 20
4.786138947960052
 30
0.0
 10
-12.9678099636988
 20
5.678127813024024
 30
0.0
 10
-15.07245796020848
 20
6.535187628923426
 30
0.0
 10
-17.17725291422463
 20
7.352037102099064
 30
0.0
 10
-19.28221480536407
 20
8.123637604702436
 30
0.0
 10
-21.38735323717955
 20
8.84524748330547
 30
0.0
 10
-23.49269419254543
 20
9.512375559461402
 30
0.0
 10
-25.59823474931469
 20
10.12093205924079
 30
0.0
 10
-27.70399026120489
 20
10.66711568460535
 30
0.0
 10
-29.80996259750158
 20
11.14756292545645
 30
0.0
 10
-31.91613666182792
 20
11.55927261515127
 30
0.0
 10
-34.02249559941487
 20
11.89968006203443
 30
0.0
 10
-36.12899960220699
 20
12.16669741685428
 30
0.0
 10
-38.23563482423741
 20
12.35859921490813
 30
0.0
 10
-40.34235672408074
 20
12.47423423376802
 30
0.0
 10
-41.74718060538885
 20
12.4999931724502
 30
0.0
 10
-42.44912491706857
 20
12.4999931724502
 30
0.0
  0
SPLINE
  5
4092
330
1F
100
AcDbEntity
  8
PV0001_1
  6
CONTINUOUS
 48
0.5
100
AcDbSpline
210
0.0
220
0.0
230
1.0
 70
     8
 71
     3
 72
    15
 73
    11
 74
     0
 42
0.0000000001
 43
0.0000000001
 40
0.9782767664316855
 40
0.9782767664316855
 40
0.9782767664316855
 40
0.9782767664316855
 40
1.010743614677189
 40
2.022833924044153
 40
3.037578959561199
 40
4.056212747067873
 40
5.079857613375832
 40
6.109500119648989
 40
7.14596120163808
 40
7.561184154167792
 40
7.561184154167792
 40
7.561184154167792
 40
7.561184154167792
 10
-13.33321378450562
 20
12.46388839432225
 30
0.0
 10
-13.35574769633821
 20
12.46309109268752
 30
0.0
 10
-14.08071650683086
 20
12.43701368031254
 30
0.0
 10
-15.50893604553043
 20
12.35858978543113
 30
0.0
 10
-17.61557750132763
 20
12.16670011373836
 30
0.0
 10
-19.72207966668011
 20
11.8996787443445
 30
0.0
 10
-21.82842942471792
 20
11.55927685021302
 30
0.0
 10
-23.934590842077
 20
11.14755803023403
 30
0.0
 10
-25.61483065068759
 20
10.76423965016453
 30
0.0
 10
-26.59291792584659
 20
10.51982508941427
 30
0.0
 10
-26.87227026436046
 20
10.44831908181287
 30
0.0
  0
LINE
  5
4093
330
1F
100
AcDbEntity
  8
PV0001_1
  6
CONTINUOUS
 48
0.5
100
AcDbLine
 10
-4.170494387880318
 20
-11.45832426631228
 30
0.0
 11
-4.549635559653232
 21
-12.5000068275499
 31
0.0
  0
LINE
  5
4094
330
1F
100
AcDbEntity
  8
PV0001_1
  6
CONTINUOUS
 48
0.5
100
AcDbLine
 10
-15.04964168743839
 20
-12.5000068275499
 30
0.0
 11
-4.549641687438386
 21
-12.5000068275499
 31
0.0
  0
LINE
  5
4095
330
1F
100
AcDbEntity
  8
PV0001_1
  6
CONTINUOUS
 48
0.5
100
AcDbLine
 10
-15.04964168743841
 20
-10.79546137300449
 30
0.0
 11
-5.138529774484958
 21
-10.79546137300449
 31
0.0
  0
LINE
  5
4099
330
1F
100
AcDbEntity
  8
AM_0
100
AcDbLine
 10
-13.43060650542513
 20
5.747498764186566
 30
0.0
 11
-13.33268021462445
 21
12.49999317245031
 31
0.0
  0
ARC
  5
409A
330
1F
100
AcDbEntity
  8
AM_0
100
AcDbCircle
 10
-4.391454203544538
 20
4.480092750205232
 30
0.0
 40
3.680808507781726
100
AcDbArc
 50
236.5318133831115
 51
334.8156197533175
  0
LINE
  5
409B
330
1F
100
AcDbEntity
  8
AM_0
100
AcDbLine
 10
-3.397051395519108
 20
0.9361522419081326
 30
0.0
 11
-2.335175521987095
 21
-3.093325394335141
 31
0.0
  0
LINE
  5
409C
330
1F
100
AcDbEntity
  8
PV0001_1
  6
CONTINUOUS
 48
0.5
100
AcDbLine
 10
0.0000028706237646
 20
-0.0000068275499271
 30
0.0
 11
-1.060531967251354
 21
2.913788716268973
 31
0.0
  0
LINE
  5
409D
330
1F
100
AcDbEntity
  8
PV0001_1
  6
CONTINUOUS
 48
0.5
100
AcDbLine
 10
-6.575963179823166
 20
2.880894662018095
 30
0.0
 11
-6.421323977105839
 21
1.409591166857571
 31
0.0
  0
LINE
  5
409E
330
1F
100
AcDbEntity
  8
PV0001_1
  6
CONTINUOUS
 48
0.5
100
AcDbLine
 10
-4.170510282451203
 20
11.45838213678564
 30
0.0
 11
-4.549627612367623
 21
12.49998522516454
 31
0.0
  0
LINE
  5
409F
330
1F
100
AcDbEntity
  8
PV0001_1
  6
CONTINUOUS
 48
0.5
100
AcDbLine
 10
-1.060531967251354
 20
2.913788716268973
 30
0.0
 11
-4.549625019898781
 21
12.49999317245009
 31
0.0
  0
LINE
  5
40A0
330
1F
100
AcDbEntity
  8
PV0001_1
  6
CONTINUOUS
 48
0.5
100
AcDbLine
 10
-13.33225184492411
 20
12.49999317245003
 30
0.0
 11
-4.549625019898781
 21
12.49999317245009
 31
0.0
  0
LINE
  5
40A1
330
1F
100
AcDbEntity
  8
PV0001_1
  6
CONTINUOUS
 48
0.5
100
AcDbLine
 10
-4.045904785725917
 20
10.83332809523974
 30
0.0
 11
-13.35643235592309
 21
10.8333280952396
 31
0.0
  0
LINE
  5
40A2
330
1F
100
AcDbEntity
  8
AM_0
100
AcDbLine
 10
-15.04964168743841
 20
-12.47301040209709
 30
0.0
 11
-15.04964168743841
 21
6.405214418352871
 31
0.0
  0
LINE
  5
40A3
330
1F
100
AcDbEntity
  8
PV0001_1
  6
CONTINUOUS
 48
0.5
100
AcDbLine
 10
-2.335175521987095
 20
-3.093325394335141
 30
0.0
 11
-5.138529774484958
 21
-10.79546137300449
 31
0.0
  0
LINE
  5
40A4
330
1F
100
AcDbEntity
  8
PV0001_1
  6
CONTINUOUS
 48
0.5
100
AcDbLine
 10
-0.0000011030177811
 20
0.0000011197356513
 30
0.0
 11
-4.549641687438386
 21
-12.5000068275499
 31
0.0
  0
LINE
  5
40A5
330
1F
100
AcDbEntity
  8
PV0001_1
  6
CONTINUOUS
 48
0.5
100
AcDbLine
 10
-6.421323977105839
 20
1.409591166857571
 30
0.0
 11
-5.138529774484958
 21
-10.79546137300449
 31
0.0
  0
LINE
  5
40A6
330
1F
100
AcDbEntity
  8
AM_0
100
AcDbLine
 10
-2.335175521987095
 20
-3.093325394335141
 30
0.0
 11
-5.77992687579526
 21
-4.692935103073472
 31
0.0
  0
LINE
  5
40A8
330
1F
100
AcDbEntity
  8
PV0001_1
  6
CONTINUOUS
 48
0.5
100
AcDbLine
 10
-204.5496416874383
 20
-12.50000682755044
 30
0.0
 11
-53.21412886276558
 21
-11.42304612551612
 31
0.0
  0
LINE
  5
40A9
330
1F
100
AcDbEntity
  8
PV0001_1
  6
CONTINUOUS
 48
0.5
100
AcDbLine
 10
-204.5496416874384
 20
12.49999317244921
 30
0.0
 11
-42.44912491706858
 21
12.49999317245021
 31
0.0
  0
LINE
  5
40AA
330
1F
100
AcDbEntity
  8
AM_0
100
AcDbLine
 10
-204.5496416874384
 20
12.49999317244921
 30
0.0
 11
-234.5496416874386
 21
16.00000183105241
 31
0.0
  0
ELLIPSE
  5
40AB
330
1F
100
AcDbEntity
  8
AM_0
100
AcDbEllipse
 10
-215.7168197505228
 20
-3.361613651748887
 30
0.0
 11
-16.72444301377536
 21
4.525732545435002
 31
0.0
210
0.0
220
0.0
230
0.9999999999999998
 40
0.4080522885760559
 41
-1.391659050756679
 42
0.8573280370949412
  0
LINE
  5
40AD
330
1F
100
AcDbEntity
  8
AM_0
100
AcDbLine
 10
-204.5496416874384
 20
12.49999317244923
 30
0.0
 11
-204.5496416874384
 21
1.615199747601776
 31
0.0
  0
LINE
  5
41FF
330
1F
100
AcDbEntity
  8
AM_11
 48
0.5
100
AcDbLine
 10
-212.5496416874383
 20
-13.6298127319545
 30
0.0
 11
-212.5496416874384
 21
13.46938367767104
 31
0.0
  0
ARC
  5
4209
330
1F
100
AcDbEntity
  8
AM_0
100
AcDbCircle
 10
-204.5082648916701
 20
30.89911191547816
 30
0.0
 40
43.403451679372
100
AcDbArc
 50
237.1397695429575
 51
270.8095995599318
  0
LINE
  5
4333
330
1F
100
AcDbEntity
  8
AM_0
100
AcDbLine
 10
-204.5496416874383
 20
-12.50000682755044
 30
0.0
 11
-234.5496416874383
 21
-16.00001098632981
 31
0.0
  0
DIMENSION
  5
4FC3
330
1F
100
AcDbEntity
  8
AM_5
100
AcDbDimension
  2
*D14
 10
-294.5496416874383
 20
-44.19972321548518
 30
0.0
 11
-264.5496416874383
 21
-40.79972321548519
 31
0.0
 70
    32
  1
<>
  3
AM_JIS$0
100
AcDbAlignedDimension
 13
-234.5496416874383
 23
-16.00001098632981
 33
0.0
 14
-294.5496416874383
 24
-15.15151855468849
 34
0.0
 50
0.0000000000005713
100
AcDbRotatedDimension
1001
ACAD
1000
DSTYLE
1002
{
1070
   271
1070
     3
1002
}
1001
GENIUS_GENDTOL_13
1000

1000
h7
1000

1040
0.0
  0
DIMENSION
  5
4FC4
330
1F
100
AcDbEntity
  8
AM_5
100
AcDbDimension
  2
*D15
 10
-288.549653052841
 20
-31.51138163051388
 30
0.0
 11
-291.5496044548021
 21
-31.51138163051388
 31
0.0
 70
   160
  1
<>
  3
AM_JIS$0
100
AcDbAlignedDimension
 13
-294.5495558567632
 23
-11.84405886396277
 33
0.0
 14
-288.549653052841
 24
-0.0319644048955742
 34
0.0
 50
0.0000000000005713
100
AcDbRotatedDimension
1001
ACAD
1000
DSTYLE
1002
{
1070
   271
1070
     3
1002
}
1001
GENIUS_GENDTOL_13
1000

1000
h7
1000

1040
0.0
  0
DIMENSION
  5
4FC5
330
1F
100
AcDbEntity
  8
AM_5
100
AcDbDimension
  2
*D16
 10
-238.5496416874385
 20
-31.51138163051339
 30
0.0
 11
-263.5496473701397
 21
-28.11138163051339
 31
0.0
 70
    32
  1
<>
  3
AM_JIS$0
100
AcDbAlignedDimension
 13
-288.549653052841
 23
-0.0319644048955742
 33
0.0
 14
-238.5496416874385
 24
-0.0319644048951979
 34
0.0
 50
0.0000000000005713
100
AcDbRotatedDimension
1001
ACAD
1000
DSTYLE
1002
{
1070
   271
1070
     3
1002
}
1001
GENIUS_GENDTOL_13
1000

1000
h7
1000

1040
0.0
  0
LINE
  5
4FC6
330
1F
100
AcDbEntity
  8
PV0001_1
  6
CONTINUOUS
 48
0.5
100
AcDbLine
 10
-294.5495318241745
 20
15.15136291503866
 30
0.0
 11
-293.7009844608865
 21
15.99989196777129
 31
0.0
  0
LINE
  5
4FC7
330
1F
100
AcDbEntity
  8
PV0001_1
  6
CONTINUOUS
 48
0.5
100
AcDbLine
 10
-294.5495318241743
 20
-15.15144531250157
 30
0.0
 11
-293.7009844608863
 21
-15.99997436523652
 31
0.0
  0
DIMENSION
  5
4FC8
330
1F
100
AcDbEntity
  8
AM_5
100
AcDbDimension
  2
*D17
 10
-316.2415982876972
 20
-15.99982788401344
 30
0.0
 11
-319.6415982876972
 21
0.0001098617036812
 31
0.0
 70
    32
  1
%%C<>
  3
AM_JIS$0
100
AcDbAlignedDimension
 13
-293.6720133267712
 23
16.0000476074209
 33
0.0
 14
-293.6720133267709
 24
-15.99982788401345
 34
0.0
 50
270.0
100
AcDbRotatedDimension
1001
ACAD
1000
DSTYLE
1002
{
1070
   271
1070
     3
1002
}
1001
GENIUS_GENDTOL_13
1000

1000
h7
1000

1040
0.0
  0
LINE
  5
4FC9
330
1F
100
AcDbEntity
  8
PV0001_1
  6
CONTINUOUS
 48
0.5
100
AcDbLine
 10
-294.5496416874384
 20
-0.000000000001565
 30
0.0
 11
-294.5496416874385
 21
15.15151855468592
 31
0.0
  0
LINE
  5
4FCA
330
1F
100
AcDbEntity
  8
PV0001_1
  6
CONTINUOUS
 48
0.5
100
AcDbLine
 10
-294.5496416874384
 20
-0.000000000001565
 30
0.0
 11
-294.5496416874383
 21
-15.15151855468849
 31
0.0
  0
LINE
  5
4FCB
330
1F
100
AcDbEntity
  8
PV0001_1
  6
CONTINUOUS
100
AcDbLine
 10
-234.5496416874386
 20
16.00000183105241
 30
0.0
 11
-293.6720133267712
 21
16.00000183105196
 31
0.0
  0
LINE
  5
4FCC
330
1F
100
AcDbEntity
  8
PV0001_1
  6
CONTINUOUS
100
AcDbLine
 10
-293.6720133267709
 20
-16.00001098633025
 30
0.0
 11
-234.5496416874383
 21
-16.00001098632981
 31
0.0
  0
LINE
  5
4FCD
330
1F
100
AcDbEntity
  8
PV0001_1
  6
CONTINUOUS
 48
0.5
100
AcDbLine
 10
-293.7011309452704
 20
-0.0000000000015614
 30
0.0
 11
-293.7011309452706
 21
16.00004760742089
 31
0.0
  0
LINE
  5
4FCE
330
1F
100
AcDbEntity
  8
AM_0
100
AcDbLine
 10
-243.3908708701978
 20
4.809264777864012
 30
0.0
 11
-283.7084238700817
 21
4.809264777863692
 31
0.0
  0
LINE
  5
4FCF
330
1F
100
AcDbEntity
  8
AM_0
100
AcDbLine
 10
-283.7084238700816
 20
-4.873193587654847
 30
0.0
 11
-243.3908708701977
 21
-4.873193587654526
 31
0.0
  0
ARC
  5
4FD0
330
1F
100
AcDbEntity
  8
AM_0
100
AcDbCircle
 10
-283.7084238700817
 20
-0.0319644048955539
 30
0.0
 40
4.841229182759249
100
AcDbArc
 50
90.00000000000325
 51
270.0000000000032
  0
LINE
  5
4FD1
330
1F
100
AcDbEntity
  8
PV0001_1
  6
CONTINUOUS
 48
0.5
100
AcDbLine
 10
-293.7011309452704
 20
-0.0000000000015614
 30
0.0
 11
-293.7011309452703
 21
-16.00004760742402
 31
0.0
  0
ARC
  5
4FD2
330
1F
100
AcDbEntity
  8
AM_0
100
AcDbCircle
 10
-243.3908708701978
 20
-0.0319644048952323
 30
0.0
 40
4.841229182759249
100
AcDbArc
 50
270.0
 51
90.0
  0
LINE
  5
4FD3
330
1F
100
AcDbEntity
  8
PV0001_1
  6
CONTINUOUS
100
AcDbLine
 10
-234.5496416874383
 20
-16.00001098632981
 30
0.0
 11
-234.5496416874386
 21
16.00000183105241
 31
0.0
  0
VIEWPORT
  5
110
330
101
100
AcDbEntity
 67
     1
  8
0
100
AcDbViewport
 10
420.5
 20
297.0
 30
0.0
 40
948.9782706766916
 41
628.452
 68
     1
 69
     1
1001
ACAD
1000
MVIEW
1002
{
1070
    16
1010
0.0
1020
0.0
1030
0.0
1010
0.0
1020
0.0
1030
1.0
1040
0.0
1040
628.452
1040
420.5
1040
297.0
1040
50.0
1040
0.0
1040
0.0
1070
     0
1070
   100
1070
     1
1070
     1
1070
     0
1070
     0
1070
     0
1070
     0
1040
0.0
1040
0.0
1040
0.0
1040
10.0
1040
10.0
1040
10.0
1040
10.0
1070
     0
1002
{
1002
}
1002
}
  0
ENDSEC
  0
SECTION
  2
OBJECTS
  0
DICTIONARY
  5
C
330
0
100
AcDbDictionary
  3
ACAD_GROUP
350
D
  3
ACAD_LAYOUT
350
1A
  3
ACAD_MLINESTYLE
350
17
  3
ACAD_PLOTSETTINGS
350
19
  3
ACAD_PLOTSTYLENAME
350
E
  3
ACDBVARIABLEDICTIONARY
350
34
  3
ACMDICTIONARY
350
43
  3
AMG
350
2B
  3
AMGSNAPSETTINGS
350
6E
  3
DWGPROPS
350
51BD
  3
ACDBHEADERROUNDTRIPXREC
350
51CD
  0
DICTIONARY
  5
74
330
1F
100
AcDbDictionary
280
     1
  3
ACAD_INDEX
360
51BF
  3
ACAD_LAYOUTSELFREF
360
51F0
  0
DICTIONARY
  5
51F5
330
101
100
AcDbDictionary
280
     1
  3
ACAD_LAYOUTSELFREF
360
51F6
  0
DICTIONARY
  5
D
102
{ACAD_REACTORS
330
C
102
}
330
C
100
AcDbDictionary
  0
DICTIONARY
  5
1A
102
{ACAD_REACTORS
330
C
102
}
330
C
100
AcDbDictionary
  0
DICTIONARY
  5
17
102
{ACAD_REACTORS
330
C
102
}
330
C
100
AcDbDictionary
  3
STANDARD
350
18
  0
DICTIONARY
  5
19
102
{ACAD_REACTORS
330
C
102
}
330
C
100
AcDbDictionary
  0
ACDBDICTIONARYWDFLT
  5
E
102
{ACAD_REACTORS
330
C
102
}
330
C
100
AcDbDictionary
281
     1
  3
Normal
350
F
100
AcDbDictionaryWithDefault
340
F
  0
DICTIONARY
  5
34
102
{ACAD_REACTORS
330
C
102
}
330
C
100
AcDbDictionary
  3
INDEXCTL
350
35
  3
SORTENTS
350
B5E
  0
DICTIONARY
  5
43
102
{ACAD_REACTORS
330
C
102
}
330
C
100
AcDbDictionary
  3
ACMSTDDICTIONARY
350
260
  0
DICTIONARY
  5
2B
102
{ACAD_REACTORS
330
C
102
}
330
C
100
AcDbDictionary
  3
ACMGSETTINGS
350
2C
  0
DICTIONARY
  5
6E
102
{ACAD_REACTORS
330
C
102
}
330
C
100
AcDbDictionary
  0
XRECORD
  5
51BD
102
{ACAD_REACTORS
330
C
102
}
330
C
100
AcDbXrecord
  1
DWGPROPS COOKIE
  2

  3

  4

  6

  7

  8

  9

300
AmdtFileType=82
301
=
302
=
303
=
304
=
305
=
306
=
307
=
308
=
309
=
 40
0.8833924421296297
 41
2452800.443498622
 42
2453001.996284502
  1

 90
        1
  0
DICTIONARY
  5
51CD
102
{ACAD_REACTORS
330
C
102
}
330
C
100
AcDbDictionary
  3
TSTACKALIGN
350
51CE
  3
TSTACKSIZE
350
51CF
  3
HYPERLINKBASE
350
51D0
  3
STYLESHEET
350
51D1
  3
LAYOUTDICT
350
51D2
  3
PLOTSETDICT
350
51D3
  3
PLOTSTYLNAMDICT
350
51D4
  3
LWETCUNION
350
51D5
  3
INSUNITS
350
51D6
  3
CEPSNTYPE
350
51D7
  3
FINGERPRINTGUID
350
51D8
  3
VERSIONGUID
350
51D9
  3
PSVPSCALE
350
51DA
  3
DIMSTYLEDATA
350
51DB
  3
PUCSORTHOREF
350
51DC
  3
PUCSORTHOVIEW
350
51DD
  3
PUCSBASE
350
51DE
  3
PUCSORGTOP
350
51DF
  3
PUCSORGBOTTOM
350
51E0
  3
PUCSORGLEFT
350
51E1
  3
PUCSORGRIGHT
350
51E2
  3
PUCSORGFRONT
350
51E3
  3
PUCSORGBACK
350
51E4
  3
UCSORTHOREF
350
51E5
  3
UCSORTHOVIEW
350
51E6
  3
UCSBASE
350
51E7
  3
UCSORGTOP
350
51E8
  3
UCSORGBOTTOM
350
51E9
  3
UCSORGLEFT
350
51EA
  3
UCSORGRIGHT
350
51EB
  3
UCSORGFRONT
350
51EC
  3
UCSORGBACK
350
51ED
  0
DICTIONARY
  5
51BF
102
{ACAD_REACTORS
330
74
102
}
330
74
100
AcDbDictionary
  3
*A1
350
51C0
  0
XRECORD
  5
51F0
102
{ACAD_REACTORS
330
74
102
}
330
74
100
AcDbXrecord
340
1F
  0
XRECORD
  5
51F6
102
{ACAD_REACTORS
330
51F5
102
}
330
51F5
100
AcDbXrecord
340
101
  0
MLINESTYLE
  5
18
102
{ACAD_REACTORS
330
17
102
}
330
17
100
AcDbMlineStyle
  2
STANDARD
 70
     0
  3

 62
   256
 51
90.0
 52
90.0
 71
     2
 49
0.5
 62
   256
  6
BYLAYER
 49
-0.5
 62
   256
  6
BYLAYER
  0
ACDBPLACEHOLDER
  5
F
102
{ACAD_REACTORS
330
E
102
}
330
E
100
AcDbPlaceHolder
280
     0
  0
DICTIONARYVAR
  5
35
102
{ACAD_REACTORS
330
34
102
}
330
34
100
DictionaryVariables
280
     0
  1
1
  0
DICTIONARYVAR
  5
B5E
102
{ACAD_REACTORS
330
34
102
}
330
34
100
DictionaryVariables
280
     0
  1
96
  0
DICTIONARY
  5
260
102
{ACAD_REACTORS
330
43
102
}
330
43
100
AcDbDictionary
  0
DICTIONARY
  5
2C
102
{ACAD_REACTORS
330
2B
102
}
330
2B
100
AcDbDictionary
  3
DWGSETTINGS
350
2D
  0
XRECORD
  5
51CE
102
{ACAD_REACTORS
330
51CD
102
}
330
51CD
100
AcDbXrecord
 90
        1
  0
XRECORD
  5
51CF
102
{ACAD_REACTORS
330
51CD
102
}
330
51CD
100
AcDbXrecord
 90
       70
  0
XRECORD
  5
51D0
102
{ACAD_REACTORS
330
51CD
102
}
330
51CD
100
AcDbXrecord
  1

  0
XRECORD
  5
51D1
102
{ACAD_REACTORS
330
51CD
102
}
330
51CD
100
AcDbXrecord
  1
ASAMI.ctb
  0
XRECORD
  5
51D2
102
{ACAD_REACTORS
330
51CD
102
}
330
51CD
100
AcDbXrecord
340
1A
  0
XRECORD
  5
51D3
102
{ACAD_REACTORS
330
51CD
102
}
330
51CD
100
AcDbXrecord
340
19
  0
XRECORD
  5
51D4
102
{ACAD_REACTORS
330
51CD
102
}
330
51CD
100
AcDbXrecord
340
E
  0
XRECORD
  5
51D5
102
{ACAD_REACTORS
330
51CD
102
}
330
51CD
100
AcDbXrecord
 90
    10781
  0
XRECORD
  5
51D6
102
{ACAD_REACTORS
330
51CD
102
}
330
51CD
100
AcDbXrecord
 90
        4
  0
XRECORD
  5
51D7
102
{ACAD_REACTORS
330
51CD
102
}
330
51CD
100
AcDbXrecord
 90
        0
  0
XRECORD
  5
51D8
102
{ACAD_REACTORS
330
51CD
102
}
330
51CD
100
AcDbXrecord
  1
{AFB28963-8C59-40AE-9337-C84526B81ACE}
  0
XRECORD
  5
51D9
102
{ACAD_REACTORS
330
51CD
102
}
330
51CD
100
AcDbXrecord
  1
{F9CA9135-2510-4135-9C4A-27BAB49F4A16}
  0
XRECORD
  5
51DA
102
{ACAD_REACTORS
330
51CD
102
}
330
51CD
100
AcDbXrecord
 40
0.0
  0
XRECORD
  5
51DB
102
{ACAD_REACTORS
330
51CD
102
}
330
51CD
100
AcDbXrecord
1000
DSTYLE
1002
{
1070
    79
 70
     2
1070
   341
340
59
1070
   342
340
59
1070
   371
 70
    -1
1070
   372
 70
    -1
1002
}
  0
XRECORD
  5
51DC
102
{ACAD_REACTORS
330
51CD
102
}
330
51CD
100
AcDbXrecord
340
0
  0
XRECORD
  5
51DD
102
{ACAD_REACTORS
330
51CD
102
}
330
51CD
100
AcDbXrecord
 70
     0
  0
XRECORD
  5
51DE
102
{ACAD_REACTORS
330
51CD
102
}
330
51CD
100
AcDbXrecord
340
0
  0
XRECORD
  5
51DF
102
{ACAD_REACTORS
330
51CD
102
}
330
51CD
100
AcDbXrecord
 10
0.0
 20
0.0
 30
0.0
  0
XRECORD
  5
51E0
102
{ACAD_REACTORS
330
51CD
102
}
330
51CD
100
AcDbXrecord
 10
0.0
 20
0.0
 30
0.0
  0
XRECORD
  5
51E1
102
{ACAD_REACTORS
330
51CD
102
}
330
51CD
100
AcDbXrecord
 10
0.0
 20
0.0
 30
0.0
  0
XRECORD
  5
51E2
102
{ACAD_REACTORS
330
51CD
102
}
330
51CD
100
AcDbXrecord
 10
0.0
 20
0.0
 30
0.0
  0
XRECORD
  5
51E3
102
{ACAD_REACTORS
330
51CD
102
}
330
51CD
100
AcDbXrecord
 10
0.0
 20
0.0
 30
0.0
  0
XRECORD
  5
51E4
102
{ACAD_REACTORS
330
51CD
102
}
330
51CD
100
AcDbXrecord
 10
0.0
 20
0.0
 30
0.0
  0
XRECORD
  5
51E5
102
{ACAD_REACTORS
330
51CD
102
}
330
51CD
100
AcDbXrecord
340
0
  0
XRECORD
  5
51E6
102
{ACAD_REACTORS
330
51CD
102
}
330
51CD
100
AcDbXrecord
 70
     0
  0
XRECORD
  5
51E7
102
{ACAD_REACTORS
330
51CD
102
}
330
51CD
100
AcDbXrecord
340
0
  0
XRECORD
  5
51E8
102
{ACAD_REACTORS
330
51CD
102
}
330
51CD
100
AcDbXrecord
 10
0.0
 20
0.0
 30
0.0
  0
XRECORD
  5
51E9
102
{ACAD_REACTORS
330
51CD
102
}
330
51CD
100
AcDbXrecord
 10
0.0
 20
0.0
 30
0.0
  0
XRECORD
  5
51EA
102
{ACAD_REACTORS
330
51CD
102
}
330
51CD
100
AcDbXrecord
 10
0.0
 20
0.0
 30
0.0
  0
XRECORD
  5
51EB
102
{ACAD_REACTORS
330
51CD
102
}
330
51CD
100
AcDbXrecord
 10
0.0
 20
0.0
 30
0.0
  0
XRECORD
  5
51EC
102
{ACAD_REACTORS
330
51CD
102
}
330
51CD
100
AcDbXrecord
 10
0.0
 20
0.0
 30
0.0
  0
XRECORD
  5
51ED
102
{ACAD_REACTORS
330
51CD
102
}
330
51CD
100
AcDbXrecord
 10
0.0
 20
0.0
 30
0.0
  0
LAYER_INDEX
  5
51C0
102
{ACAD_REACTORS
330
51BF
102
}
330
51BF
100
AcDbIndex
 40
2453151.717133958
100
AcDbLayerIndex
  8
0
360
51C1
 90
        0
  8
AM_0
360
51C2
 90
       14
  8
PV0001_1
360
51C3
 90
       26
  8
AM_CL
360
51C4
 90
        0
  8
AM_7
360
51C5
 90
        1
  8
AM_11
360
51C6
 90
        3
  8
AM_5
360
51C7
 90
       10
  8
Defpoints
360
51C8
 90
        0
  8
AM_6
360
51C9
 90
        1
  8
AM_4
360
51CA
 90
        0
  8
AM_3
360
51CB
 90
        0
  0
XRECORD
  5
2D
102
{ACAD_REACTORS
330
2C
102
}
330
2C
100
AcDbXrecord
  1
VERSION
140
15.0
  1
PRODUCT
  2
AutoCAD Mechanical 2000
  0
IDBUFFER
  5
51C1
330
0
100
AcDbIdBuffer
  0
IDBUFFER
  5
51C2
330
0
100
AcDbIdBuffer
330
4099
330
409A
330
409B
330
40A2
330
40A6
330
40AA
330
40AB
330
40AD
330
4209
330
4333
330
4FCE
330
4FCF
330
4FD0
330
4FD2
  0
IDBUFFER
  5
51C3
330
0
100
AcDbIdBuffer
330
40A9
330
4FC6
330
4FC7
330
4FC9
330
4FCA
330
4FCB
330
4FCC
330
4FCD
330
4FD1
330
4FD3
330
408D
330
4090
330
4092
330
4093
330
4094
330
4095
330
409C
330
409D
330
409E
330
409F
330
40A0
330
40A1
330
40A3
330
40A4
330
40A5
330
40A8
  0
IDBUFFER
  5
51C4
330
0
100
AcDbIdBuffer
  0
IDBUFFER
  5
51C5
330
0
100
AcDbIdBuffer
330
35D1
  0
IDBUFFER
  5
51C6
330
0
100
AcDbIdBuffer
330
408E
330
408F
330
41FF
  0
IDBUFFER
  5
51C7
330
0
100
AcDbIdBuffer
330
36BA
330
378E
330
3990
330
3B0D
330
3BB8
330
3CCB
330
4FC3
330
4FC4
330
4FC5
330
4FC8
  0
IDBUFFER
  5
51C8
330
0
100
AcDbIdBuffer
  0
IDBUFFER
  5
51C9
330
0
100
AcDbIdBuffer
330
19BD
  0
IDBUFFER
  5
51CA
330
0
100
AcDbIdBuffer
  0
IDBUFFER
  5
51CB
330
0
100
AcDbIdBuffer
  0
ENDSEC
  0
EOF
