  0
SECTION
  2
HEADER
  9
$ACADVER
  1
AC1014
  9
$ACADMAINTVER
 70
     9
  9
$DWGCODEPAGE
  3
ANSI_932
  9
$INSBASE
 10
0.0
 20
0.0
 30
0.0
  9
$EXTMIN
 10
-256.4487349419956
 20
-79.03267133519271
 30
-0.00000001
  9
$EXTMAX
 10
36.08870150610942
 20
49.97667567202997
 30
0.00000001
  9
$LIMMIN
 10
-293.7542546760654
 20
-125.0389276702648
  9
$LIMMAX
 10
64.35267037130393
 20
89.5091566112144
  9
$ORTHOMODE
 70
     0
  9
$REGENMODE
 70
     1
  9
$FILLMODE
 70
     1
  9
$QTEXTMODE
 70
     0
  9
$MIRRTEXT
 70
     0
  9
$DRAGMODE
 70
     2
  9
$LTSCALE
 40
1.0
  9
$OSMODE
 70
    55
  9
$ATTMODE
 70
     1
  9
$TEXTSIZE
 40
2.5
  9
$TRACEWID
 40
1.0
  9
$TEXTSTYLE
  7
STANDARD
  9
$CLAYER
  8
AM_0
  9
$CELTYPE
  6
BYLAYER
  9
$CECOLOR
 62
   256
  9
$CELTSCALE
 40
1.0
  9
$DELOBJ
 70
     1
  9
$DISPSILH
 70
     0
  9
$DIMSCALE
 40
1.0
  9
$DIMASZ
 40
2.5
  9
$DIMEXO
 40
1.0
  9
$DIMDLI
 40
12.0
  9
$DIMRND
 40
0.0
  9
$DIMDLE
 40
0.0
  9
$DIMEXE
 40
1.0
  9
$DIMTP
 40
0.1
  9
$DIMTM
 40
0.1
  9
$DIMTXT
 40
3.2
  9
$DIMCEN
 40
0.0
  9
$DIMTSZ
 40
0.0
  9
$DIMTOL
 70
     0
  9
$DIMLIM
 70
     0
  9
$DIMTIH
 70
     0
  9
$DIMTOH
 70
     0
  9
$DIMSE1
 70
     0
  9
$DIMSE2
 70
     0
  9
$DIMTAD
 70
     3
  9
$DIMZIN
 70
     8
  9
$DIMBLK
  1
OPEN30
  9
$DIMASO
 70
     1
  9
$DIMSHO
 70
     1
  9
$DIMPOST
  1

  9
$DIMAPOST
  1
"
  9
$DIMALT
 70
     0
  9
$DIMALTD
 70
     2
  9
$DIMALTF
 40
0.0393701
  9
$DIMLFAC
 40
1.0
  9
$DIMTOFL
 70
     1
  9
$DIMTVP
 40
0.0
  9
$DIMTIX
 70
     0
  9
$DIMSOXD
 70
     0
  9
$DIMSAH
 70
     0
  9
$DIMBLK1
  1

  9
$DIMBLK2
  1

  9
$DIMSTYLE
  2
AM_JIS
  9
$DIMCLRD
 70
   256
  9
$DIMCLRE
 70
   256
  9
$DIMCLRT
 70
     2
  9
$DIMTFAC
 40
0.71
  9
$DIMGAP
 40
1.5
  9
$DIMJUST
 70
     0
  9
$DIMSD1
 70
     0
  9
$DIMSD2
 70
     0
  9
$DIMTOLJ
 70
     0
  9
$DIMTZIN
 70
     0
  9
$DIMALTZ
 70
     0
  9
$DIMALTTZ
 70
     0
  9
$DIMFIT
 70
     3
  9
$DIMUPT
 70
     0
  9
$DIMUNIT
 70
     2
  9
$DIMDEC
 70
     3
  9
$DIMTDEC
 70
     3
  9
$DIMALTU
 70
     2
  9
$DIMALTTD
 70
     2
  9
$DIMTXSTY
  7
ASAMI
  9
$DIMAUNIT
 70
     0
  9
$LUNITS
 70
     2
  9
$LUPREC
 70
     2
  9
$SKETCHINC
 40
1.0
  9
$FILLETRAD
 40
2.5
  9
$AUNITS
 70
     0
  9
$AUPREC
 70
     0
  9
$MENU
  1
.
  9
$ELEVATION
 40
0.0
  9
$PELEVATION
 40
0.0
  9
$THICKNESS
 40
0.0
  9
$LIMCHECK
 70
     0
  9
$BLIPMODE
 70
     0
  9
$CHAMFERA
 40
2.5
  9
$CHAMFERB
 40
2.5
  9
$CHAMFERC
 40
20.0
  9
$CHAMFERD
 40
0.0
  9
$SKPOLY
 70
     0
  9
$TDCREATE
 40
2452800.443498622
  9
$TDUPDATE
 40
2453151.709455463
  9
$TDINDWG
 40
0.5115172569
  9
$TDUSRTIMER
 40
0.5115172569
  9
$USRTIMER
 70
     1
  9
$ANGBASE
 50
0.0
  9
$ANGDIR
 70
     0
  9
$PDMODE
 70
     0
  9
$PDSIZE
 40
0.0
  9
$PLINEWID
 40
0.0
  9
$COORDS
 70
     1
  9
$SPLFRAME
 70
     0
  9
$SPLINETYPE
 70
     6
  9
$SPLINESEGS
 70
     8
  9
$ATTDIA
 70
     1
  9
$ATTREQ
 70
     1
  9
$HANDLING
 70
 12289
  9
$HANDSEED
  5
555E
  9
$SURFTAB1
 70
     6
  9
$SURFTAB2
 70
     6
  9
$SURFTYPE
 70
     6
  9
$SURFU
 70
     6
  9
$SURFV
 70
     6
  9
$UCSNAME
  2

  9
$UCSORG
 10
-0.0000000000002549
 20
-0.0000000000001167
 30
0.0
  9
$UCSXDIR
 10
1.0
 20
0.0000000000000027
 30
0.0
  9
$UCSYDIR
 10
-0.0000000000000027
 20
1.0
 30
0.0
  9
$PUCSNAME
  2

  9
$PUCSORG
 10
0.0
 20
0.0
 30
0.0
  9
$PUCSXDIR
 10
1.0
 20
0.0
 30
0.0
  9
$PUCSYDIR
 10
0.0
 20
1.0
 30
0.0
  9
$USERI1
 70
     0
  9
$USERI2
 70
     0
  9
$USERI3
 70
     0
  9
$USERI4
 70
     0
  9
$USERI5
 70
     0
  9
$USERR1
 40
0.0
  9
$USERR2
 40
0.0
  9
$USERR3
 40
0.0
  9
$USERR4
 40
0.0
  9
$USERR5
 40
0.0
  9
$WORLDVIEW
 70
     1
  9
$SHADEDGE
 70
     3
  9
$SHADEDIF
 70
    70
  9
$TILEMODE
 70
     1
  9
$MAXACTVP
 70
    64
  9
$PINSBASE
 10
0.0
 20
0.0
 30
0.0
  9
$PLIMCHECK
 70
     0
  9
$PEXTMIN
 10
1.000000000000000E+20
 20
1.000000000000000E+20
 30
1.000000000000000E+20
  9
$PEXTMAX
 10
-1.000000000000000E+20
 20
-1.000000000000000E+20
 30
-1.000000000000000E+20
  9
$PLIMMIN
 10
0.0
 20
0.0
  9
$PLIMMAX
 10
841.0
 20
594.0
  9
$UNITMODE
 70
     0
  9
$VISRETAIN
 70
     1
  9
$PLINEGEN
 70
     0
  9
$PSLTSCALE
 70
     0
  9
$TREEDEPTH
 70
  3020
  9
$PICKSTYLE
 70
     0
  9
$CMLSTYLE
  2
STANDARD
  9
$CMLJUST
 70
     0
  9
$CMLSCALE
 40
20.0
  9
$PROXYGRAPHICS
 70
     1
  9
$MEASUREMENT
 70
     1
  0
ENDSEC
  0
SECTION
  2
CLASSES
  0
CLASS
  1
ACDBDICTIONARYWDFLT
  2
AcDbDictionaryWithDefault
  3
AutoCAD 2000
 90
        0
280
     0
281
     0
  0
CLASS
  1
ACDBPLACEHOLDER
  2
AcDbPlaceHolder
  3
AutoCAD 2000
 90
        0
280
     0
281
     0
  0
CLASS
  1
LAYOUT
  2
AcDbLayout
  3
AutoCAD 2000
 90
        0
280
     0
281
     0
  0
CLASS
  1
AMGSETTINGSOBJ
  2
AmgSettingsObj
  3
"AcadM|Product Description: AutoCAD Mechanical 2000|Company: Autodesk"
 90
        0
280
     0
281
     0
  0
CLASS
  1
ACME_DOCUMENT
  2
AcMeDbDoc
  3
AcMeServices
 90
        0
280
     0
281
     0
  0
CLASS
  1
ACMESCOPE
  2
AcMeScope
  3
AcMeServices
 90
        0
280
     0
281
     0
  0
CLASS
  1
ACMECOMMANDHISTORY
  2
AcMeCommandHistory
  3
AcMeServices
 90
        0
280
     0
281
     0
  0
CLASS
  1
DICTIONARYVAR
  2
AcDbDictionaryVar
  3
AutoCAD 2000
 90
        0
280
     0
281
     0
  0
CLASS
  1
ACIMSYSVARMAN
  2
AcImSysVarManager
  3
AcMeServices
 90
        0
280
     0
281
     0
  0
CLASS
  1
ACIMREALSYSVAR
  2
AcImRealSysVar
  3
AcMeServices
 90
        0
280
     0
281
     0
  0
CLASS
  1
ACIMINTSYSVAR
  2
AcImIntSysVar
  3
AcMeServices
 90
        0
280
     0
281
     0
  0
CLASS
  1
ACMEDRAWINGMAN
  2
AcMeDrawingMan
  3
AcMeServices
 90
        0
280
     0
281
     0
  0
CLASS
  1
ACMEVIEW
  2
AcMeView
  3
AcMeServices
 90
        0
280
     0
281
     0
  0
CLASS
  1
ACDBENTITYCACHE
  2
AcMeEntityCache
  3
AcMeServices
 90
        0
280
     0
281
     0
  0
CLASS
  1
GSMANAGER
  2
AcMeGSManager
  3
AcMeServices
 90
        0
280
     0
281
     0
  0
CLASS
  1
AmdtInternalReactor
  2
AmdtInternalReactor
  3
AcMeServices
 90
        0
280
     0
281
     0
  0
CLASS
  1
ACMESTATEMGR
  2
AcMeStateMgr
  3
AcMeServices
 90
        0
280
     0
281
     0
  0
CLASS
  1
ACME_DATABASE
  2
AcMeDbDatabase
  3
AcMeServices
 90
        0
280
     0
281
     0
  0
CLASS
  1
ACRFINSADJUSTERMGR
  2
AcRfInsAdjusterMgr
  3
AcMeServices
 90
        0
280
     0
281
     0
  0
CLASS
  1
ACMDATADICTIONARY
  2
AcmDataDictionary
  3
"AcmSymBB|Product Description: AutoCAD Mechanical 2000|Company: Autodesk"
 90
        0
280
     0
281
     0
  0
CLASS
  1
ACMDATAENTRYBLOCK
  2
AcmDataEntryBlock
  3
"AcmSymBB|Product Description: AutoCAD Mechanical 2000|Company: Autodesk"
 90
        0
280
     0
281
     0
  0
CLASS
  1
AMGOBJPROPCFG
  2
AmgObjPropCfg
  3
"AmgLay|Product Description: AutoCAD Mechanical 2000|Company: Autodesk"
 90
        1
280
     0
281
     0
  0
CLASS
  1
ACAMGFILTERDAT
  2
AcAmgFilterDat
  3
"AcadM|Product Description: AutoCAD Mechanical 2000|Company: Autodesk"
 90
        0
280
     0
281
     0
  0
CLASS
  1
LAYER_INDEX
  2
AcDbLayerIndex
  3
AutoCAD 2000
 90
        0
280
     0
281
     0
  0
CLASS
  1
IDBUFFER
  2
AcDbIdBuffer
  3
AutoCAD 2000
 90
        0
280
     0
281
     0
  0
CLASS
  1
ACIMSTRSYSVAR
  2
AcImStrSysVar
  3
AcMeServices
 90
        0
280
     0
281
     0
  0
CLASS
  1
ACMSTANDARDJIS
  2
AcmStandardJIS
  3
"AcmSymBB|Product Description: AutoCAD Mechanical 2000|Company: Autodesk"
 90
        0
280
     0
281
     0
  0
CLASS
  1
ACMSURFSTANDARDJIS
  2
AcmSurfTextStdJIS
  3
"AcmSymBB|Product Description: AutoCAD Mechanical 2000|Company: Autodesk"
 90
        0
280
     0
281
     0
  0
CLASS
  1
ACMFCFSTANDARDJIS
  2
AcmFCFStdJIS
  3
"AcmSymBB|Product Description: AutoCAD Mechanical 2000|Company: Autodesk"
 90
        0
280
     0
281
     0
  0
CLASS
  1
ACMWELDSTANDARDJIS
  2
AcmWeldingStdJIS
  3
"AcmSymBB|Product Description: AutoCAD Mechanical 2000|Company: Autodesk"
 90
        0
280
     0
281
     0
  0
CLASS
  1
ACMIDSTANDARDJIS
  2
AcmIdStdJIS
  3
"AcmSymBB|Product Description: AutoCAD Mechanical 2000|Company: Autodesk"
 90
        0
280
     0
281
     0
  0
CLASS
  1
ACMDATUMSTANDARDJIS
  2
AcmDatumStdJIS
  3
"AcmSymBB|Product Description: AutoCAD Mechanical 2000|Company: Autodesk"
 90
        0
280
     0
281
     0
  0
CLASS
  1
ACMBOMSTANDARDJIS
  2
AcmBOMStdJIS
  3
"AcmSymBB|Product Description: AutoCAD Mechanical 2000|Company: Autodesk"
 90
        0
280
     0
281
     0
  0
CLASS
  1
ACMSTANDARDANSI
  2
AcmStandardANSI
  3
"AcmSymBB|Product Description: AutoCAD Mechanical 2000|Company: Autodesk"
 90
        0
280
     0
281
     0
  0
CLASS
  1
ACMSURFSTANDARDANSI
  2
AcmSurfTextStdANSI
  3
"AcmSymBB|Product Description: AutoCAD Mechanical 2000|Company: Autodesk"
 90
        0
280
     0
281
     0
  0
CLASS
  1
ACMFCFSTANDARDANSI
  2
AcmFCFStdANSI
  3
"AcmSymBB|Product Description: AutoCAD Mechanical 2000|Company: Autodesk"
 90
        0
280
     0
281
     0
  0
CLASS
  1
ACMWELDSTANDARDANSI
  2
AcmWeldingStdANSI
  3
"AcmSymBB|Product Description: AutoCAD Mechanical 2000|Company: Autodesk"
 90
        0
280
     0
281
     0
  0
CLASS
  1
ACMIDSTANDARDANSI
  2
AcmIdStdANSI
  3
"AcmSymBB|Product Description: AutoCAD Mechanical 2000|Company: Autodesk"
 90
        0
280
     0
281
     0
  0
CLASS
  1
ACMDATUMSTANDARDANSI
  2
AcmDatumStdANSI
  3
"AcmSymBB|Product Description: AutoCAD Mechanical 2000|Company: Autodesk"
 90
        0
280
     0
281
     0
  0
CLASS
  1
ACMBOMSTANDARDANSI
  2
AcmBOMStdANSI
  3
"AcmSymBB|Product Description: AutoCAD Mechanical 2000|Company: Autodesk"
 90
        0
280
     0
281
     0
  0
CLASS
  1
ACMSTANDARDBSI
  2
AcmStandardBSI
  3
"AcmSymBB|Product Description: AutoCAD Mechanical 2000|Company: Autodesk"
 90
        0
280
     0
281
     0
  0
CLASS
  1
ACMSURFSTANDARDBSI
  2
AcmSurfTextStdBSI
  3
"AcmSymBB|Product Description: AutoCAD Mechanical 2000|Company: Autodesk"
 90
        0
280
     0
281
     0
  0
CLASS
  1
ACMFCFSTANDARDBSI
  2
AcmFCFStdBSI
  3
"AcmSymBB|Product Description: AutoCAD Mechanical 2000|Company: Autodesk"
 90
        0
280
     0
281
     0
  0
CLASS
  1
ACMWELDSTANDARDBSI
  2
AcmWeldingStdBSI
  3
"AcmSymBB|Product Description: AutoCAD Mechanical 2000|Company: Autodesk"
 90
        0
280
     0
281
     0
  0
CLASS
  1
ACMIDSTANDARDBSI
  2
AcmIdStdBSI
  3
"AcmSymBB|Product Description: AutoCAD Mechanical 2000|Company: Autodesk"
 90
        0
280
     0
281
     0
  0
CLASS
  1
ACMDATUMSTANDARDBSI
  2
AcmDatumStdBSI
  3
"AcmSymBB|Product Description: AutoCAD Mechanical 2000|Company: Autodesk"
 90
        0
280
     0
281
     0
  0
CLASS
  1
ACMBOMSTANDARDBSI
  2
AcmBOMStdBSI
  3
"AcmSymBB|Product Description: AutoCAD Mechanical 2000|Company: Autodesk"
 90
        0
280
     0
281
     0
  0
CLASS
  1
LONG_TRANSACTION
  2
AcDbLongTransaction
  3
AutoCAD 2000
 90
        0
280
     0
281
     0
  0
CLASS
  1
LWPOLYLINE
  2
AcDbPolyline
  3
AutoCAD 2000
 90
        0
280
     0
281
     1
  0
CLASS
  1
HATCH
  2
AcDbHatch
  3
AutoCAD 2000
 90
        0
280
     0
281
     1
  0
CLASS
  1
XRECORD
  2
AcDbXrecord
  3
AutoCAD 2000
 90
        0
280
     0
281
     0
  0
ENDSEC
  0
SECTION
  2
TABLES
  0
TABLE
  2
VPORT
  5
8
330
0
100
AcDbSymbolTable
 70
     3
  0
VPORT
  5
5533
330
8
100
AcDbSymbolTableRecord
100
AcDbViewportTableRecord
  2
*ACTIVE
 70
     0
 10
0.0
 20
0.0
 11
1.0
 21
1.0
 12
-84.34587141107892
 22
14.61307945335266
 13
0.0
 23
0.0
 14
2.5
 24
2.5
 15
10.0
 25
10.0
 16
0.0
 26
0.0
 36
1.0
 17
0.0
 27
0.0
 37
0.0
 40
282.6846941196325
 41
1.56570841889117
 42
50.0
 43
0.0
 44
0.0
 50
0.0
 51
0.0
 71
     0
 72
   100
 73
     1
 74
     1
 75
     0
 76
     0
 77
     0
 78
     0
  0
ENDTAB
  0
TABLE
  2
LTYPE
  5
5
330
0
100
AcDbSymbolTable
 70
    10
  0
LTYPE
  5
14
330
5
100
AcDbSymbolTableRecord
100
AcDbLinetypeTableRecord
  2
BYBLOCK
 70
     0
  3

 72
    65
 73
     0
 40
0.0
  0
LTYPE
  5
15
330
5
100
AcDbSymbolTableRecord
100
AcDbLinetypeTableRecord
  2
BYLAYER
 70
     0
  3

 72
    65
 73
     0
 40
0.0
  0
LTYPE
  5
16
330
5
100
AcDbSymbolTableRecord
100
AcDbLinetypeTableRecord
  2
CONTINUOUS
 70
     0
  3
Solid line
 72
    65
 73
     0
 40
0.0
  0
LTYPE
  5
4B
330
5
100
AcDbSymbolTableRecord
100
AcDbLinetypeTableRecord
  2
AM_ISO02W050
 70
     0
  3
__ __ __ __ __ __ __ __ __ __ __ __ __ __ __
 72
    65
 73
     2
 40
7.5
 49
6.0
 74
     0
 49
-1.5
 74
     0
  0
LTYPE
  5
4C
330
5
100
AcDbSymbolTableRecord
100
AcDbLinetypeTableRecord
  2
AM_ISO08W050
 70
     0
  3
____ . ____ . ____ . ____ . ____ . ____ . ____
 72
    65
 73
     4
 40
18.0
 49
12.0
 74
     0
 49
-1.5
 74
     0
 49
3.0
 74
     0
 49
-1.5
 74
     0
  0
LTYPE
  5
4D
330
5
100
AcDbSymbolTableRecord
100
AcDbLinetypeTableRecord
  2
AM_ISO09W050
 70
     0
  3
_____ . . _____ . . _____ . . ____ .. ____
 72
    65
 73
     6
 40
22.5
 49
12.0
 74
     0
 49
-1.5
 74
     0
 49
3.0
 74
     0
 49
-1.5
 74
     0
 49
3.0
 74
     0
 49
-1.5
 74
     0
  0
LTYPE
  5
4E
330
5
100
AcDbSymbolTableRecord
100
AcDbLinetypeTableRecord
  2
AMCONSTR
 70
     0
  3
_______________________
 72
    65
 73
     2
 40
9999.0
 49
9999.0
 74
     0
 49
0.0
 74
     0
  0
LTYPE
  5
4F
330
5
100
AcDbSymbolTableRecord
100
AcDbLinetypeTableRecord
  2
AM_ISO02W050X2
 70
     0
  3
 _ _ _ _ _ _ _ _ _ _ _ _
 72
    65
 73
     2
 40
3.75
 49
3.0
 74
     0
 49
-0.75
 74
     0
  0
LTYPE
  5
50
330
5
100
AcDbSymbolTableRecord
100
AcDbLinetypeTableRecord
  2
AM_ISO08W050X2
 70
     0
  3
__ . __ . __ . __ . __ . __
 72
    65
 73
     4
 40
9.0
 49
6.0
 74
     0
 49
-0.75
 74
     0
 49
1.5
 74
     0
 49
-0.75
 74
     0
  0
LTYPE
  5
53
330
5
100
AcDbSymbolTableRecord
100
AcDbLinetypeTableRecord
  2
AMZIGZAG
 70
     0
  3
/\/-/\/-/\/-/\/-/\/-/\/
 72
    65
 73
     2
 40
11.00009999999999
 49
0.0001
 74
     4
 75
   135
340
52
 46
0.04
 50
0.0
 44
0.0
 45
0.0
 49
-11.0
 74
     0
  0
LTYPE
  5
166
330
5
100
AcDbSymbolTableRecord
100
AcDbLinetypeTableRecord
  2
ACJISTGL
 70
     0
  3
_ _ _ _ _
 72
    65
 73
     2
 40
3.0
 49
2.0
 74
     0
 49
-1.0
 74
     0
  0
LTYPE
  5
26A
330
5
100
AcDbSymbolTableRecord
100
AcDbLinetypeTableRecord
  2
ACJISTGB
 70
     0
  3
__ . . __ . .
 72
    65
 73
     6
 40
9.0
 49
4.0
 74
     0
 49
-1.0
 74
     0
 49
1.0
 74
     0
 49
-1.0
 74
     0
 49
1.0
 74
     0
 49
-1.0
 74
     0
  0
ENDTAB
  0
TABLE
  2
LAYER
  5
2
330
0
100
AcDbSymbolTable
 70
    11
  0
LAYER
  5
10
330
2
100
AcDbSymbolTableRecord
100
AcDbLayerTableRecord
  2
0
 70
     0
 62
     7
  6
CONTINUOUS
  0
LAYER
  5
3F9
330
2
100
AcDbSymbolTableRecord
100
AcDbLayerTableRecord
  2
AM_0
 70
     0
 62
     7
  6
CONTINUOUS
  0
LAYER
  5
BA4
330
2
100
AcDbSymbolTableRecord
100
AcDbLayerTableRecord
  2
PV0001_1
 70
     0
 62
     7
  6
CONTINUOUS
  0
LAYER
  5
C6C
330
2
100
AcDbSymbolTableRecord
100
AcDbLayerTableRecord
  2
AM_CL
 70
     0
 62
     1
  6
AMCONSTR
  0
LAYER
  5
C7C
330
2
100
AcDbSymbolTableRecord
100
AcDbLayerTableRecord
  2
AM_7
 70
     0
 62
     4
  6
AM_ISO08W050
  0
LAYER
  5
C97
330
2
100
AcDbSymbolTableRecord
100
AcDbLayerTableRecord
  2
AM_11
 70
     0
 62
     3
  6
AM_ISO09W050
  0
LAYER
  5
CC5
330
2
100
AcDbSymbolTableRecord
100
AcDbLayerTableRecord
  2
AM_5
 70
     0
 62
     3
  6
CONTINUOUS
  0
LAYER
  5
CC7
330
2
100
AcDbSymbolTableRecord
100
AcDbLayerTableRecord
  2
DEFPOINTS
 70
     0
 62
     7
  6
CONTINUOUS
  0
LAYER
  5
19BC
330
2
100
AcDbSymbolTableRecord
100
AcDbLayerTableRecord
  2
AM_6
 70
     0
 62
     2
  6
CONTINUOUS
  0
LAYER
  5
1F8E
330
2
100
AcDbSymbolTableRecord
100
AcDbLayerTableRecord
  2
AM_4
 70
     0
 62
     3
  6
CONTINUOUS
  0
LAYER
  5
3588
330
2
100
AcDbSymbolTableRecord
100
AcDbLayerTableRecord
  2
AM_3
 70
     0
 62
     6
  6
ACJISTGL
  0
ENDTAB
  0
TABLE
  2
STYLE
  5
3
330
0
100
AcDbSymbolTable
 70
     5
  0
STYLE
  5
11
330
3
100
AcDbSymbolTableRecord
100
AcDbTextStyleTableRecord
  2
STANDARD
 70
     0
 40
0.0
 41
1.0
 50
0.0
 71
     0
 42
2.5
  3
simplex.shx
  4
EXTFONT.SHX
  0
STYLE
  5
52
330
3
100
AcDbSymbolTableRecord
100
AcDbTextStyleTableRecord
  2

 70
     1
 40
0.0
 41
1.0
 50
0.0
 71
     0
 42
2.5
  3
ltypeshp.shx
  4

  0
STYLE
  5
6B
330
3
100
AcDbSymbolTableRecord
100
AcDbTextStyleTableRecord
  2
ASAMI
 70
     0
 40
0.0
 41
1.0
 50
0.0
 71
     0
 42
2.5
  3
simplex.shx
  4
EXTFONT.SHX
  0
STYLE
  5
262
330
3
100
AcDbSymbolTableRecord
100
AcDbTextStyleTableRecord
  2
ACJISTS
 70
     0
 40
1.0
 41
1.0
 50
0.0
 71
     0
 42
2.5
  3
simplex.shx
  4
bigfont.shx
  0
STYLE
  5
269
330
3
100
AcDbSymbolTableRecord
100
AcDbTextStyleTableRecord
  2
ACJISGDT
 70
     0
 40
0.0
 41
1.0
 50
0.0
 71
     0
 42
2.5
  3
amgdtans.shx
  4

  0
ENDTAB
  0
TABLE
  2
VIEW
  5
6
330
0
100
AcDbSymbolTable
 70
     0
  0
ENDTAB
  0
TABLE
  2
UCS
  5
7
330
0
100
AcDbSymbolTable
 70
     0
  0
ENDTAB
  0
TABLE
  2
APPID
  5
9
330
0
100
AcDbSymbolTable
 70
    14
  0
APPID
  5
12
330
9
100
AcDbSymbolTableRecord
100
AcDbRegAppTableRecord
  2
ACAD
 70
     0
  0
APPID
  5
30
330
9
100
AcDbSymbolTableRecord
100
AcDbRegAppTableRecord
  2
MCAD_NO_VIS
 70
     0
  0
APPID
  5
31
330
9
100
AcDbSymbolTableRecord
100
AcDbRegAppTableRecord
  2
ACAD_TEMP_GRAPHIC
 70
     0
  0
APPID
  5
2C2
330
9
100
AcDbSymbolTableRecord
100
AcDbRegAppTableRecord
  2
GENIUS_GENDTOL_13
 70
     0
  0
APPID
  5
339
330
9
100
AcDbSymbolTableRecord
100
AcDbRegAppTableRecord
  2
GENIUS_GENODEF_13
 70
     0
  0
APPID
  5
33A
330
9
100
AcDbSymbolTableRecord
100
AcDbRegAppTableRecord
  2
GENIUS_GENOBJ-N-RSBK_13
 70
     0
  0
APPID
  5
33B
330
9
100
AcDbSymbolTableRecord
100
AcDbRegAppTableRecord
  2
GENIUS_GENOBJ-N-LIB_13
 70
     0
  0
APPID
  5
33C
330
9
100
AcDbSymbolTableRecord
100
AcDbRegAppTableRecord
  2
GENIUS_GENSCALE_13
 70
     0
  0
APPID
  5
378
330
9
100
AcDbSymbolTableRecord
100
AcDbRegAppTableRecord
  2
GENIUS_GENDIMSH_14
 70
     0
  0
APPID
  5
C82
330
9
100
AcDbSymbolTableRecord
100
AcDbRegAppTableRecord
  2
GENIUS_GENOBJ-N-CRS_13
 70
     0
  0
APPID
  5
C83
330
9
100
AcDbSymbolTableRecord
100
AcDbRegAppTableRecord
  2
GENIUS_GENOENT_13
 70
     0
  0
APPID
  5
C84
330
9
100
AcDbSymbolTableRecord
100
AcDbRegAppTableRecord
  2
GENIUS_GENOREF_13
 70
     0
  0
APPID
  5
C85
330
9
100
AcDbSymbolTableRecord
100
AcDbRegAppTableRecord
  2
GENIUS_GENOLIS_13
 70
     0
  0
APPID
  5
CA0
330
9
100
AcDbSymbolTableRecord
100
AcDbRegAppTableRecord
  2
GENIUS_GENOBJ-N-CEN_13
 70
     0
  0
ENDTAB
  0
TABLE
  2
DIMSTYLE
  5
A
330
0
100
AcDbSymbolTable
 70
    10
  0
DIMSTYLE
105
58
330
A
100
AcDbSymbolTableRecord
100
AcDbDimStyleTableRecord
  2
AM_JIS
 70
     0
  3

  4
"
  5
OPEN30
  6

  7

 40
1.0
 41
2.5
 42
1.0
 43
12.0
 44
1.0
 45
0.0
 46
0.0
 47
0.1
 48
0.1
140
3.2
141
0.0
142
0.0
143
0.0393701
144
1.0
145
0.0
146
0.71
147
1.5
 71
     0
 72
     0
 73
     0
 74
     0
 75
     0
 76
     0
 77
     3
 78
     8
170
     0
171
     2
172
     1
173
     0
174
     0
175
     0
176
   256
177
   256
178
     2
270
     2
271
     3
272
     3
273
     2
274
     2
340
6B
275
     0
280
     0
281
     0
282
     0
283
     0
284
     0
285
     0
286
     0
287
     3
288
     0
  0
DIMSTYLE
105
5F
330
A
100
AcDbSymbolTableRecord
100
AcDbDimStyleTableRecord
  2
AM_JIS$3
 70
     0
  3

  4
"
  5
OPEN30
  6

  7

 40
1.0
 41
2.5
 42
1.0
 43
10.0
 44
1.0
 45
0.0
 46
0.0
 47
0.1
 48
0.1
140
3.2
141
0.0
142
0.0
143
0.0393701
144
1.0
145
0.0
146
0.71
147
1.5
 71
     0
 72
     0
 73
     0
 74
     1
 75
     0
 76
     0
 77
     3
 78
     8
170
     0
171
     2
172
     0
173
     0
174
     0
175
     0
176
   256
177
   256
178
     2
270
     2
271
     2
272
     3
273
     2
274
     2
340
6B
275
     0
280
     0
281
     0
282
     0
283
     0
284
     0
285
     0
286
     0
287
     0
288
     1
  0
DIMSTYLE
105
60
330
A
100
AcDbSymbolTableRecord
100
AcDbDimStyleTableRecord
  2
AM_JIS$4
 70
     0
  3

  4
"
  5
OPEN30
  6

  7

 40
1.0
 41
2.5
 42
1.0
 43
10.0
 44
1.0
 45
0.0
 46
0.0
 47
0.1
 48
0.1
140
3.2
141
0.0
142
0.0
143
0.0393701
144
1.0
145
0.0
146
0.71
147
1.5
 71
     0
 72
     0
 73
     0
 74
     1
 75
     0
 76
     0
 77
     3
 78
     8
170
     0
171
     2
172
     0
173
     0
174
     0
175
     0
176
   256
177
   256
178
     2
270
     2
271
     2
272
     3
273
     2
274
     2
340
6B
275
     0
280
     0
281
     0
282
     0
283
     0
284
     0
285
     0
286
     0
287
     0
288
     1
  0
DIMSTYLE
105
61
330
A
100
AcDbSymbolTableRecord
100
AcDbDimStyleTableRecord
  2
AM_JIS$6
 70
     0
  3

  4
"
  5
OPEN30
  6

  7

 40
1.0
 41
2.5
 42
1.0
 43
10.0
 44
1.0
 45
0.0
 46
0.0
 47
0.1
 48
0.1
140
3.2
141
0.0
142
0.0
143
0.0393701
144
1.0
145
0.0
146
0.71
147
1.5
 71
     0
 72
     0
 73
     0
 74
     0
 75
     0
 76
     0
 77
     0
 78
     8
170
     0
171
     2
172
     1
173
     0
174
     0
175
     0
176
   256
177
   256
178
     2
270
     2
271
     2
272
     2
273
     2
274
     2
340
6B
275
     0
280
     0
281
     0
282
     0
283
     0
284
     0
285
     0
286
     0
287
     3
288
     0
  0
DIMSTYLE
105
62
330
A
100
AcDbSymbolTableRecord
100
AcDbDimStyleTableRecord
  2
AM_JIS$7
 70
     0
  3

  4
"
  5
OPEN30
  6

  7

 40
1.0
 41
2.5
 42
1.0
 43
10.0
 44
1.0
 45
0.0
 46
0.0
 47
0.1
 48
0.1
140
3.2
141
0.0
142
0.0
143
0.0393701
144
1.0
145
0.0
146
0.71
147
1.5
 71
     0
 72
     0
 73
     0
 74
     0
 75
     0
 76
     0
 77
     3
 78
     8
170
     0
171
     2
172
     1
173
     0
174
     0
175
     0
176
   256
177
   256
178
     2
270
     2
271
     2
272
     3
273
     2
274
     2
340
6B
275
     0
280
     0
281
     0
282
     0
283
     0
284
     0
285
     0
286
     0
287
     3
288
     0
  0
DIMSTYLE
105
63
330
A
100
AcDbSymbolTableRecord
100
AcDbDimStyleTableRecord
  2
AM_JIS$SF
 70
     0
  3

  4
"
  5
OPEN30
  6

  7

 40
1.0
 41
2.5
 42
1.0
 43
10.0
 44
1.0
 45
0.0
 46
0.0
 47
0.1
 48
0.1
140
3.2
141
0.0
142
0.0
143
0.0393701
144
1.0
145
0.0
146
0.71
147
1.5
 71
     0
 72
     0
 73
     0
 74
     0
 75
     1
 76
     1
 77
     3
 78
     8
170
     0
171
     2
172
     1
173
     0
174
     0
175
     0
176
   256
177
   256
178
     2
270
     2
271
     2
272
     2
273
     2
274
     2
340
6B
275
     0
280
     0
281
     0
282
     0
283
     0
284
     0
285
     0
286
     0
287
     3
288
     0
  0
DIMSTYLE
105
68
330
A
100
AcDbSymbolTableRecord
100
AcDbDimStyleTableRecord
  2
AM_JIS$SH
 70
     0
  3

  4
"
  5

  6
GENAXEH
  7
OPEN30
 40
1.0
 41
2.5
 42
1.0
 43
10.0
 44
1.0
 45
0.0
 46
0.0
 47
0.1
 48
0.1
140
3.2
141
0.0
142
0.0
143
0.0393701
144
2.0
145
0.0
146
0.71
147
1.5
 71
     0
 72
     0
 73
     0
 74
     0
 75
     1
 76
     1
 77
     3
 78
     8
170
     0
171
     2
172
     1
173
     1
174
     0
175
     0
176
   256
177
   256
178
     2
270
     2
271
     2
272
     2
273
     2
274
     2
340
6B
275
     0
280
     0
281
     0
282
     0
283
     0
284
     0
285
     0
286
     0
287
     3
288
     0
  0
DIMSTYLE
105
B34
102
{ACAD_REACTORS
330
36BA
102
}
330
A
100
AcDbSymbolTableRecord
100
AcDbDimStyleTableRecord
  2
AM_JIS$2
 70
     0
  3

  4
"
  5
OPEN30
  6

  7

 40
1.0
 41
2.5
 42
1.0
 43
12.0
 44
1.0
 45
0.0
 46
0.0
 47
0.1
 48
0.1
140
3.2
141
0.0
142
0.0
143
0.0393701
144
1.0
145
0.0
146
0.71
147
1.5
 71
     0
 72
     0
 73
     0
 74
     0
 75
     0
 76
     0
 77
     3
 78
     8
170
     0
171
     2
172
     1
173
     0
174
     0
175
     0
176
   256
177
   256
178
     2
270
     2
271
     3
272
     3
273
     2
274
     2
340
6B
275
     0
280
     0
281
     0
282
     0
283
     0
284
     0
285
     0
286
     0
287
     3
288
     0
  0
DIMSTYLE
105
BA5
102
{ACAD_REACTORS
330
3B0D
330
471A
330
4A5A
330
4A5C
330
5242
330
535A
330
5368
330
5369
330
536A
102
}
330
A
100
AcDbSymbolTableRecord
100
AcDbDimStyleTableRecord
  2
AM_JIS$0
 70
     0
  3

  4
"
  5
OPEN30
  6

  7

 40
1.0
 41
2.5
 42
0.8
 43
10.0
 44
1.0
 45
0.0
 46
0.0
 47
0.1
 48
0.1000000001
140
3.799999999999999
141
0.0
142
0.0
143
0.0393701
144
1.0
145
0.0
146
0.71
147
1.5
 71
     0
 72
     0
 73
     0
 74
     0
 75
     0
 76
     0
 77
     3
 78
     9
170
     0
171
     2
172
     1
173
     0
174
     0
175
     0
176
     3
177
     3
178
     2
270
     2
271
     2
272
     2
273
     2
274
     2
340
11
275
     1
280
     0
281
     0
282
     0
283
     0
284
     8
285
     0
286
     0
287
     0
288
     0
  0
DIMSTYLE
105
BA6
330
A
100
AcDbSymbolTableRecord
100
AcDbDimStyleTableRecord
  2
AM_JISORG-1P0$2
 70
     0
  3

  4
"
  5
OPEN30
  6

  7

 40
1.0
 41
2.5
 42
0.0
 43
10.0
 44
1.0
 45
0.0
 46
0.0
 47
0.1
 48
0.1000000001
140
3.799999999999999
141
0.0
142
0.0
143
0.0393701
144
-0.999999980146674
145
0.0
146
0.71
147
1.5
 71
     0
 72
     0
 73
     0
 74
     0
 75
     0
 76
     0
 77
     3
 78
     1
170
     0
171
     2
172
     1
173
     0
174
     0
175
     0
176
     3
177
     3
178
     2
270
     2
271
     2
272
     2
273
     2
274
     2
340
11
275
     1
280
     0
281
     0
282
     0
283
     0
284
     8
285
     0
286
     0
287
     0
288
     0
  0
ENDTAB
  0
TABLE
  2
BLOCK_RECORD
  5
1
330
0
100
AcDbSymbolTable
 70
    19
  0
BLOCK_RECORD
  5
1F
102
{ACAD_XDICTIONARY
360
74
102
}
330
1
100
AcDbSymbolTableRecord
100
AcDbBlockTableRecord
  2
*MODEL_SPACE
  0
BLOCK_RECORD
  5
101
102
{ACAD_XDICTIONARY
360
555C
102
}
330
1
100
AcDbSymbolTableRecord
100
AcDbBlockTableRecord
  2
*PAPER_SPACE
  0
BLOCK_RECORD
  5
59
330
1
100
AcDbSymbolTableRecord
100
AcDbBlockTableRecord
  2
_OPEN30
  0
BLOCK_RECORD
  5
64
330
1
100
AcDbSymbolTableRecord
100
AcDbBlockTableRecord
  2
GENAXEH
  0
BLOCK_RECORD
  5
C31
330
1
100
AcDbSymbolTableRecord
100
AcDbBlockTableRecord
  2
A$C36D02A34
  0
BLOCK_RECORD
  5
2453
330
1
100
AcDbSymbolTableRecord
100
AcDbBlockTableRecord
  2
*D6
  0
BLOCK_RECORD
  5
245F
330
1
100
AcDbSymbolTableRecord
100
AcDbBlockTableRecord
  2
A$C4FFC6CC0
  0
BLOCK_RECORD
  5
36BB
330
1
100
AcDbSymbolTableRecord
100
AcDbBlockTableRecord
  2
*D8
  0
BLOCK_RECORD
  5
3B0E
330
1
100
AcDbSymbolTableRecord
100
AcDbBlockTableRecord
  2
*D9
  0
BLOCK_RECORD
  5
471B
330
1
100
AcDbSymbolTableRecord
100
AcDbBlockTableRecord
  2
*D10
  0
BLOCK_RECORD
  5
4A78
330
1
100
AcDbSymbolTableRecord
100
AcDbBlockTableRecord
  2
*D11
  0
BLOCK_RECORD
  5
4A90
330
1
100
AcDbSymbolTableRecord
100
AcDbBlockTableRecord
  2
*D12
  0
BLOCK_RECORD
  5
5243
330
1
100
AcDbSymbolTableRecord
100
AcDbBlockTableRecord
  2
*D13
  0
BLOCK_RECORD
  5
536B
330
1
100
AcDbSymbolTableRecord
100
AcDbBlockTableRecord
  2
*D14
  0
BLOCK_RECORD
  5
5377
330
1
100
AcDbSymbolTableRecord
100
AcDbBlockTableRecord
  2
*D15
  0
BLOCK_RECORD
  5
5383
330
1
100
AcDbSymbolTableRecord
100
AcDbBlockTableRecord
  2
*D16
  0
BLOCK_RECORD
  5
5391
330
1
100
AcDbSymbolTableRecord
100
AcDbBlockTableRecord
  2
*D17
  0
ENDTAB
  0
ENDSEC
  0
SECTION
  2
BLOCKS
  0
BLOCK
  5
20
330
1F
100
AcDbEntity
  8
0
100
AcDbBlockBegin
  2
*MODEL_SPACE
 70
     0
 10
0.0
 20
0.0
 30
0.0
  3
*MODEL_SPACE
  1

  0
ENDBLK
  5
21
330
1F
100
AcDbEntity
  8
0
100
AcDbBlockEnd
  0
BLOCK
  5
103
330
101
100
AcDbEntity
 67
     1
  8
0
100
AcDbBlockBegin
  2
*PAPER_SPACE
 70
     0
 10
0.0
 20
0.0
 30
0.0
  3
*PAPER_SPACE
  1

  0
ENDBLK
  5
104
330
101
100
AcDbEntity
 67
     1
  8
0
100
AcDbBlockEnd
  0
BLOCK
  5
5D
330
59
100
AcDbEntity
  8
0
100
AcDbBlockBegin
  2
_OPEN30
 70
     0
 10
0.0
 20
0.0
 30
0.0
  3
_OPEN30
  1

  0
LINE
  5
5A
330
59
100
AcDbEntity
  8
0
 62
     0
100
AcDbLine
 10
-1.0
 20
0.26794919
 30
0.0
 11
0.0
 21
0.0
 31
0.0
  0
LINE
  5
5B
330
59
100
AcDbEntity
  8
0
 62
     0
100
AcDbLine
 10
0.0
 20
0.0
 30
0.0
 11
-1.0
 21
-0.26794919
 31
0.0
  0
LINE
  5
5C
330
59
100
AcDbEntity
  8
0
 62
     0
100
AcDbLine
 10
0.0
 20
0.0
 30
0.0
 11
-1.0
 21
0.0
 31
0.0
  0
ENDBLK
  5
5E
330
59
100
AcDbEntity
  8
0
100
AcDbBlockEnd
  0
BLOCK
  5
66
330
64
100
AcDbEntity
  8
0
100
AcDbBlockBegin
  2
GENAXEH
 70
     0
 10
0.0
 20
0.0
 30
0.0
  3
GENAXEH
  1

  0
LINE
  5
65
330
64
100
AcDbEntity
  8
0
100
AcDbLine
 10
-1.0
 20
0.0
 30
0.0
 11
1.0
 21
0.0
 31
0.0
  0
ENDBLK
  5
67
330
64
100
AcDbEntity
  8
0
100
AcDbBlockEnd
  0
BLOCK
  5
C4B
330
C31
100
AcDbEntity
  8
0
100
AcDbBlockBegin
  2
A$C36D02A34
 70
     0
 10
0.0
 20
0.0
 30
0.0
  3
A$C36D02A34
  1

  0
ARC
  5
C32
330
C31
100
AcDbEntity
  8
PV0001_1
  6
CONTINUOUS
 48
0.5
100
AcDbCircle
 10
18.06811523436999
 20
-11.83651161193799
 30
0.0
 40
21.600000381469
100
AcDbArc
 50
123.2290435713209
 51
126.6341524197568
  0
ARC
  5
C33
330
C31
100
AcDbEntity
  8
PV0001_1
  6
CONTINUOUS
 48
0.5
100
AcDbCircle
 10
18.06811523436999
 20
-11.83651161193799
 30
0.0
 40
21.600000381469
100
AcDbArc
 50
135.0736707620117
 51
146.7709980930592
  0
ARC
  5
C34
330
C31
100
AcDbEntity
  8
PV0001_1
  6
CONTINUOUS
 48
0.5
100
AcDbCircle
 10
-18.0680770874
 20
11.8365631103514
 30
0.0
 40
21.600000381469
100
AcDbArc
 50
315.0734847530392
 51
326.770781348241
  0
ARC
  5
C35
330
C31
100
AcDbEntity
  8
PV0001_1
  6
CONTINUOUS
 48
0.5
100
AcDbCircle
 10
-18.0680770874
 20
11.8365631103514
 30
0.0
 40
21.600000381469
100
AcDbArc
 50
303.2288882981993
 51
306.633986901359
  0
ARC
  5
C36
330
C31
100
AcDbEntity
  8
PV0001_1
  6
CONTINUOUS
 48
0.5
100
AcDbCircle
 10
-0.6269836425800009
 20
-2.044216156005997
 30
0.0
 40
2.0
100
AcDbArc
 50
337.4067997351092
 51
43.42231293132884
  0
ARC
  5
C37
330
C31
100
AcDbEntity
  8
PV0001_1
  6
CONTINUOUS
 48
0.5
100
AcDbCircle
 10
0.626953125
 20
2.044223785401001
 30
0.0
 40
2.0
100
AcDbArc
 50
157.4068184044407
 51
223.4222769591536
  0
CIRCLE
  5
C38
330
C31
100
AcDbEntity
  8
PV0001_1
  6
CONTINUOUS
 48
0.5
100
AcDbCircle
 10
3.856727600100001
 20
4.596265792847002
 30
0.0
 40
1.6000000238419
  0
CIRCLE
  5
C39
330
C31
100
AcDbEntity
  8
PV0001_1
  6
CONTINUOUS
 48
0.5
100
AcDbCircle
 10
-3.856727600100001
 20
-4.596265792845997
 30
0.0
 40
1.6000000238419
  0
ARC
  5
C3A
330
C31
100
AcDbEntity
  8
PV0001_1
  6
CONTINUOUS
 48
0.5
100
AcDbCircle
 10
-5.58123779297
 20
5.092639923096001
 30
0.0
 40
5.019082546234099
100
AcDbArc
 50
240.2658959250867
 51
321.5156269706421
  0
ARC
  5
C3B
330
C31
100
AcDbEntity
  8
PV0001_1
  6
CONTINUOUS
 48
0.5
100
AcDbCircle
 10
5.486755371089998
 20
-4.601703643798998
 30
0.0
 40
4.651036739349399
100
AcDbArc
 50
56.25271400417071
 51
145.528859890601
  0
ARC
  5
C3C
330
C31
100
AcDbEntity
  8
PV0001_1
  6
CONTINUOUS
 48
0.5
100
AcDbCircle
 10
-2.11590576172
 20
-3.453323364257997
 30
0.0
 40
4.050000190734899
100
AcDbArc
 50
43.42230610113921
 51
58.50391703385149
  0
ARC
  5
C3D
330
C31
100
AcDbEntity
  8
PV0001_1
  6
CONTINUOUS
 48
0.5
100
AcDbCircle
 10
2.115875244139999
 20
3.453330993653001
 30
0.0
 40
4.050000190734899
100
AcDbArc
 50
223.4222942619974
 51
238.5038164022482
  0
ARC
  5
C3E
330
C31
100
AcDbEntity
  8
PV0001_1
  6
CONTINUOUS
 48
0.5
100
AcDbCircle
 10
-6.70369720459
 20
5.094657897949002
 30
0.0
 40
5.940000057220499
100
AcDbArc
 50
328.2536768887549
 51
31.74641873389623
  0
ARC
  5
C3F
330
C31
100
AcDbEntity
  8
PV0001_1
  6
CONTINUOUS
 48
0.5
100
AcDbCircle
 10
6.703674316410001
 20
-5.094650268553998
 30
0.0
 40
5.940000057220499
100
AcDbArc
 50
148.2533403882529
 51
211.7466423089037
  0
ARC
  5
C40
330
C31
100
AcDbEntity
  8
PV0001_1
  6
CONTINUOUS
 48
0.5
100
AcDbCircle
 10
0.0
 20
0.0
 30
0.0
 40
8.812800407409699
100
AcDbArc
 50
175.2198288164333
 51
272.8622597568298
  0
ARC
  5
C41
330
C31
100
AcDbEntity
  8
PV0001_1
  6
CONTINUOUS
 48
0.5
100
AcDbCircle
 10
0.0
 20
0.0
 30
0.0
 40
9.1800003051758
100
AcDbArc
 50
272.7511362215027
 51
280.3697477877874
  0
ARC
  5
C42
330
C31
100
AcDbEntity
  8
PV0001_1
  6
CONTINUOUS
 48
0.5
100
AcDbCircle
 10
0.0
 20
0.0
 30
0.0
 40
8.812800407409699
100
AcDbArc
 50
355.2198199654955
 51
92.86229572901076
  0
ARC
  5
C43
330
C31
100
AcDbEntity
  8
PV0001_1
  6
CONTINUOUS
 48
0.5
100
AcDbCircle
 10
0.0
 20
0.0
 30
0.0
 40
9.1800003051758
100
AcDbArc
 50
92.75115489083434
 51
100.3697664571193
  0
CIRCLE
  5
C44
330
C31
100
AcDbEntity
  8
PV0001_1
  6
CONTINUOUS
100
AcDbCircle
 10
0.0
 20
0.0
 30
0.0
 40
9.1800003051758
  0
LINE
  5
C45
330
C31
100
AcDbEntity
  8
PV0001_1
  6
CONTINUOUS
 48
0.5
100
AcDbLine
 10
-1.652404785160001
 20
9.030059814453
 30
0.0
 11
-1.652404785160001
 21
8.220062255860002
 31
0.0
  0
LINE
  5
C46
330
C31
100
AcDbEntity
  8
PV0001_1
  6
CONTINUOUS
 48
0.5
100
AcDbLine
 10
1.652404785160001
 20
-8.220058441161999
 30
0.0
 11
1.652404785160001
 21
-9.030055999755997
 31
0.0
  0
LINE
  5
C47
330
C31
100
AcDbEntity
  8
PV0001_1
  6
CONTINUOUS
 48
0.5
100
AcDbLine
 10
-8.78217315674
 20
0.7343807220460015
 30
0.0
 11
-8.070594787600001
 21
0.7343997955320028
 31
0.0
  0
LINE
  5
C48
330
C31
100
AcDbEntity
  8
PV0001_1
  6
CONTINUOUS
 48
0.5
100
AcDbLine
 10
8.07057952881
 20
-0.7343864440919994
 30
0.0
 11
8.78215789795
 21
-0.7343654632569994
 31
0.0
  0
LINE
  5
C49
330
C31
100
AcDbEntity
  8
PV0001_1
  6
CONTINUOUS
 48
0.5
100
AcDbLine
 10
0.4406127929700006
 20
-9.169414520263
 30
0.0
 11
0.4406127929700006
 21
-8.812801361083998
 31
0.0
  0
LINE
  5
C4A
330
C31
100
AcDbEntity
  8
PV0001_1
  6
CONTINUOUS
 48
0.5
100
AcDbLine
 10
-0.4406127929700006
 20
9.169418334961001
 30
0.0
 11
-0.4406127929700006
 21
8.812805175781001
 31
0.0
  0
ENDBLK
  5
C4C
330
C31
100
AcDbEntity
  8
0
100
AcDbBlockEnd
  0
BLOCK
  5
245D
330
2453
100
AcDbEntity
  8
0
100
AcDbBlockBegin
  2
*D6
 70
     1
 10
0.0
 20
0.0
 30
0.0
  3
*D6
  1

  0
LINE
  5
2454
330
2453
100
AcDbEntity
  8
AM_5
 62
     3
100
AcDbLine
 10
-137.574381722344
 20
-5.00000294019065
 30
0.0
 11
-152.8199008769066
 21
-5.000002940190694
 31
0.0
  0
LINE
  5
2455
330
2453
100
AcDbEntity
  8
AM_5
 62
     3
100
AcDbLine
 10
-137.5743817223442
 20
5.00002461040103
 30
0.0
 11
-152.8199008769066
 21
5.000024610400987
 31
0.0
  0
LINE
  5
2456
330
2453
100
AcDbEntity
  8
AM_5
 62
     3
100
AcDbLine
 10
-151.8199008769066
 20
-2.500002940190691
 30
0.0
 11
-151.8199008769066
 21
2.50002461040099
 31
0.0
  0
INSERT
  5
2457
330
2453
100
AcDbEntity
  8
AM_5
 62
     3
100
AcDbBlockReference
  2
_OPEN30
 10
-151.8199008769066
 20
-5.00000294019069
 30
0.0
 41
2.5
 42
2.5
 43
2.5
 50
270.0000000000001
  0
INSERT
  5
2458
330
2453
100
AcDbEntity
  8
AM_5
 62
     3
100
AcDbBlockReference
  2
_OPEN30
 10
-151.8199008769066
 20
5.00002461040099
 30
0.0
 41
2.5
 42
2.5
 43
2.5
 50
90.00000000000015
  0
MTEXT
  5
2459
330
2453
100
AcDbEntity
  8
AM_5
 62
     2
100
AcDbMText
 10
-155.2199008769066
 20
0.000010835105146
 30
0.0
 40
3.799999999999999
 41
0.0
 71
     5
 72
     1
  1
%%c10
 11
-0.0000000000000028
 21
1.0
 31
0.0
1001
ACAD
1000
MTEXTBEGIN
1070
    73
1070
     1
1070
    44
1040
1.0
1070
    74
1070
     0
1000
MTEXTEND
  0
POINT
  5
245A
330
2453
100
AcDbEntity
  8
DEFPOINTS
 62
     0
100
AcDbPoint
 10
-137.5743817223441
 20
-5.000002940190223
 30
0.0
  0
POINT
  5
245B
330
2453
100
AcDbEntity
  8
DEFPOINTS
 62
     0
100
AcDbPoint
 10
-137.5743817223441
 20
5.000024610401458
 30
0.0
  0
POINT
  5
245C
330
2453
100
AcDbEntity
  8
DEFPOINTS
 62
     0
100
AcDbPoint
 10
-151.8199008769066
 20
5.000024610401462
 30
0.0
  0
ENDBLK
  5
245E
330
2453
100
AcDbEntity
  8
0
100
AcDbBlockEnd
  0
BLOCK
  5
246B
330
245F
100
AcDbEntity
  8
0
100
AcDbBlockBegin
  2
A$C4FFC6CC0
 70
     0
 10
0.0
 20
0.0
 30
0.0
  3
A$C4FFC6CC0
  1

  0
DIMENSION
  5
2460
330
245F
100
AcDbEntity
  8
AM_5
100
AcDbDimension
  2
*D6
 10
-70.00000100000002
 20
5.000008477104842
 30
0.0
 11
-70.00000100000002
 21
-0.0000052981910228
 31
0.0
 12
81.81989987690661
 22
-0.0000161332966199
 32
0.0
 70
   128
  1
%%c<>
 51
359.9999999999998
  3
AM_JIS$0
100
AcDbAlignedDimension
 13
-55.75448184543748
 23
-5.000019073486843
 33
0.0
 14
-55.75448184543756
 24
5.000008477104838
 34
0.0
 50
270.0
100
AcDbRotatedDimension
1001
ACAD
1000
DSTYLE
1002
{
1070
   271
1070
     0
1002
}
1001
GENIUS_GENDTOL_13
1000

1000
h7
1000

1040
0.0
  0
LINE
  5
2461
330
245F
100
AcDbEntity
  8
AM_0
 48
0.5
100
AcDbLine
 10
-56.0
 20
-4.754495620727796
 30
0.0
 11
-56.00000000000003
 21
4.754485024345811
 31
0.0
  0
LINE
  5
2462
330
245F
100
AcDbEntity
  8
AM_0
 48
0.5
100
AcDbLine
 10
-55.75448184543751
 20
-5.000019073486843
 30
0.0
 11
-55.75448184543754
 21
5.000008477104838
 31
0.0
  0
LINE
  5
2463
330
245F
100
AcDbEntity
  8
AM_0
100
AcDbLine
 10
-0.0000000000000142
 20
4.999995231627903
 30
0.0
 11
-55.75448184543754
 21
4.999995231627746
 31
0.0
  0
LINE
  5
2464
330
245F
100
AcDbEntity
  8
AM_0
 48
0.5
100
AcDbLine
 10
-55.99996821086117
 20
4.754439989725671
 30
0.0
 11
-55.75443945990975
 21
4.999963442484006
 31
0.0
  0
LINE
  5
2465
330
245F
100
AcDbEntity
  8
AM_0
100
AcDbLine
 10
-55.75448184543751
 20
-5.000008477105588
 30
0.0
 11
0.0000000000000142
 21
-5.00000847710543
 31
0.0
  0
LINE
  5
2466
330
245F
100
AcDbEntity
  8
AM_0
 48
0.5
100
AcDbLine
 10
-55.99996821086114
 20
-4.754474427965309
 30
0.0
 11
-55.75443945990972
 21
-4.999997880724334
 31
0.0
  0
LINE
  5
2467
330
245F
100
AcDbEntity
  8
AM_0
100
AcDbLine
 10
0.7794201296714505
 20
4.549985867772141
 30
0.0
 11
0.7794201296714789
 21
-4.550003370497427
 31
0.0
  0
LINE
  5
2468
330
245F
100
AcDbEntity
  8
AM_0
 48
0.5
100
AcDbLine
 10
0.0000000000000142
 20
-5.00000847710543
 30
0.0
 11
-0.0000000000000142
 21
5.000008477104995
 31
0.0
  0
LINE
  5
2469
330
245F
100
AcDbEntity
  8
AM_0
 48
0.5
100
AcDbLine
 10
0.7794201296714647
 20
-4.550003370497435
 30
0.0
 11
-0.0000105963812445
 21
-5.00000847710543
 31
0.0
  0
LINE
  5
246A
330
245F
100
AcDbEntity
  8
AM_0
 48
0.5
100
AcDbLine
 10
0.7794201296714647
 20
4.549985867772141
 30
0.0
 11
-0.0000000000000142
 21
4.999984635246652
 31
0.0
  0
ENDBLK
  5
246C
330
245F
100
AcDbEntity
  8
0
100
AcDbBlockEnd
  0
BLOCK
  5
36C9
330
36BB
100
AcDbEntity
  8
0
100
AcDbBlockBegin
  2
*D8
 70
     1
 10
0.0
 20
0.0
 30
0.0
  3
*D8
  1

  0
LINE
  5
4DBC
330
36BB
100
AcDbEntity
  8
AM_5
100
AcDbLine
 10
0.3420201408161528
 20
-0.93969262169946
 30
0.0
 11
12.73376567701368
 21
-34.98573395293323
 31
0.0
  0
LINE
  5
4DBD
330
36BB
100
AcDbEntity
  8
AM_5
100
AcDbLine
 10
0.3420201408161419
 20
0.9396926216991598
 30
0.0
 11
12.73376567701327
 21
34.98573395293309
 31
0.0
  0
ARC
  5
4DBE
330
36BB
100
AcDbEntity
  8
AM_5
100
AcDbCircle
 10
0.0000000000000289
 20
-0.0000000000001521
 30
0.0
 40
36.23104039027792
100
AcDbArc
 50
293.9542854242186
 51
66.04571457578202
  0
INSERT
  5
4DBF
330
36BB
100
AcDbEntity
  8
AM_5
100
AcDbBlockReference
  2
_OPEN30
 10
12.39174553619755
 20
-34.04604133123393
 30
0.0
 41
2.5
 42
2.5
 43
2.5
 50
201.9771426356022
  0
INSERT
  5
4DC0
330
36BB
100
AcDbEntity
  8
AM_5
100
AcDbBlockReference
  2
_OPEN30
 10
12.39174553619716
 20
34.04604133123378
 30
0.0
 41
2.5
 42
2.5
 43
2.5
 50
158.0228573643984
  0
MTEXT
  5
4DC1
330
36BB
100
AcDbEntity
  8
AM_5
 62
     2
100
AcDbMText
 10
33.13104039027795
 20
0.0000000000000646
 30
0.0
 40
3.2
 41
0.0
 71
     5
 72
     1
  1
140°
  7
ASAMI
 11
-0.0000000000000028
 21
1.0
 31
0.0
1001
ACAD
1000
MTEXTBEGIN
1070
    73
1070
     1
1070
    44
1040
1.0
1070
    74
1070
     0
1000
MTEXTEND
  0
POINT
  5
4DC2
330
36BB
100
AcDbEntity
  8
DEFPOINTS
 62
     0
100
AcDbPoint
 10
33.26792484260828
 20
-14.35038203075178
 30
0.0
  0
POINT
  5
4DC3
330
36BB
100
AcDbEntity
  8
DEFPOINTS
 62
     0
100
AcDbPoint
 10
0.0
 20
-0.0000000000002316
 30
0.0
  0
POINT
  5
4DC4
330
36BB
100
AcDbEntity
  8
DEFPOINTS
 62
     0
100
AcDbPoint
 10
0.0
 20
-0.0000000000000725
 30
0.0
  0
POINT
  5
4DC5
330
36BB
100
AcDbEntity
  8
DEFPOINTS
 62
     0
100
AcDbPoint
 10
-2.800374408476802
 20
7.693965517241139
 30
0.0
  0
POINT
  5
4DC6
330
36BB
100
AcDbEntity
  8
DEFPOINTS
 62
     0
100
AcDbPoint
 10
-2.800374408476762
 20
-7.693965517241461
 30
0.0
  0
ENDBLK
  5
36CA
330
36BB
100
AcDbEntity
  8
0
100
AcDbBlockEnd
  0
BLOCK
  5
3B18
330
3B0E
100
AcDbEntity
  8
0
100
AcDbBlockBegin
  2
*D9
 70
     1
 10
0.0
 20
0.0
 30
0.0
  3
*D9
  1

  0
LINE
  5
54AD
330
3B0E
100
AcDbEntity
  8
AM_5
 62
     3
100
AcDbLine
 10
-4.456778341736952
 20
11.70051062483369
 30
0.0
 11
-4.456778341737011
 21
32.24991162500016
 31
0.0
  0
LINE
  5
54AE
330
3B0E
100
AcDbEntity
  8
AM_5
 62
     3
100
AcDbLine
 10
-137.4567783417367
 20
13.04489795918645
 30
0.0
 11
-137.4567783417368
 21
32.24991162499978
 31
0.0
  0
LINE
  5
54AF
330
3B0E
100
AcDbEntity
  8
AM_5
 62
     3
100
AcDbLine
 10
-6.956778341737008
 20
31.24991162500016
 30
0.0
 11
-134.9567783417368
 21
31.24991162499978
 31
0.0
  0
INSERT
  5
54B0
330
3B0E
100
AcDbEntity
  8
AM_5
 62
     3
100
AcDbBlockReference
  2
_OPEN30
 10
-4.456778341737008
 20
31.24991162500016
 30
0.0
 41
2.5
 42
2.5
 43
2.5
 50
0.0000000000001527
  0
INSERT
  5
54B1
330
3B0E
100
AcDbEntity
  8
AM_5
 62
     3
100
AcDbBlockReference
  2
_OPEN30
 10
-137.4567783417368
 20
31.24991162499977
 30
0.0
 41
2.5
 42
2.5
 43
2.5
 50
180.0000000000001
  0
MTEXT
  5
54B2
330
3B0E
100
AcDbEntity
  8
AM_5
 62
     2
100
AcDbMText
 10
-70.95677834173692
 20
34.64991162499997
 30
0.0
 40
3.799999999999999
 41
0.0
 71
     5
 72
     1
  1
133
1001
ACAD
1000
MTEXTBEGIN
1070
    73
1070
     1
1070
    44
1040
1.0
1070
    74
1070
     0
1000
MTEXTEND
  0
POINT
  5
54B3
330
3B0E
100
AcDbEntity
  8
DEFPOINTS
 62
     0
100
AcDbPoint
 10
-4.456778341736918
 20
10.9005106248337
 30
0.0
  0
POINT
  5
54B4
330
3B0E
100
AcDbEntity
  8
DEFPOINTS
 62
     0
100
AcDbPoint
 10
-137.4567783417367
 20
12.24489795918685
 30
0.0
  0
POINT
  5
54B5
330
3B0E
100
AcDbEntity
  8
DEFPOINTS
 62
     0
100
AcDbPoint
 10
-137.4567783417367
 20
31.24991162500018
 30
0.0
  0
ENDBLK
  5
3B19
330
3B0E
100
AcDbEntity
  8
0
100
AcDbBlockEnd
  0
BLOCK
  5
4725
330
471B
100
AcDbEntity
  8
0
100
AcDbBlockBegin
  2
*D10
 70
     1
 10
0.0
 20
0.0
 30
0.0
  3
*D10
  1

  0
LINE
  5
54A4
330
471B
100
AcDbEntity
  8
AM_5
 62
     3
100
AcDbLine
 10
-4.456778341736952
 20
11.70051062483369
 30
0.0
 11
-4.45677834173705
 21
45.67667567203015
 31
0.0
  0
LINE
  5
54A5
330
471B
100
AcDbEntity
  8
AM_5
 62
     3
100
AcDbLine
 10
-144.4567783417368
 20
13.30000000000294
 30
0.0
 11
-144.4567783417369
 21
45.67667567202974
 31
0.0
  0
LINE
  5
54A6
330
471B
100
AcDbEntity
  8
AM_5
 62
     3
100
AcDbLine
 10
-6.956778341737046
 20
44.67667567203014
 30
0.0
 11
-141.9567783417369
 21
44.67667567202975
 31
0.0
  0
INSERT
  5
54A7
330
471B
100
AcDbEntity
  8
AM_5
 62
     3
100
AcDbBlockReference
  2
_OPEN30
 10
-4.456778341737046
 20
44.67667567203014
 30
0.0
 41
2.5
 42
2.5
 43
2.5
 50
0.0000000000001527
  0
INSERT
  5
54A8
330
471B
100
AcDbEntity
  8
AM_5
 62
     3
100
AcDbBlockReference
  2
_OPEN30
 10
-144.4567783417369
 20
44.67667567202974
 30
0.0
 41
2.5
 42
2.5
 43
2.5
 50
180.0000000000001
  0
MTEXT
  5
54A9
330
471B
100
AcDbEntity
  8
AM_5
 62
     2
100
AcDbMText
 10
-74.45677834173697
 20
48.07667567202995
 30
0.0
 40
3.799999999999999
 41
0.0
 71
     5
 72
     1
  1
140
1001
ACAD
1000
MTEXTBEGIN
1070
    73
1070
     1
1070
    44
1040
1.0
1070
    74
1070
     0
1000
MTEXTEND
  0
POINT
  5
54AA
330
471B
100
AcDbEntity
  8
DEFPOINTS
 62
     0
100
AcDbPoint
 10
-4.456778341736918
 20
10.9005106248337
 30
0.0
  0
POINT
  5
54AB
330
471B
100
AcDbEntity
  8
DEFPOINTS
 62
     0
100
AcDbPoint
 10
-144.4567783417367
 20
12.50000000000336
 30
0.0
  0
POINT
  5
54AC
330
471B
100
AcDbEntity
  8
DEFPOINTS
 62
     0
100
AcDbPoint
 10
-144.4567783417367
 20
44.67667567203016
 30
0.0
  0
ENDBLK
  5
4726
330
471B
100
AcDbEntity
  8
0
100
AcDbBlockEnd
  0
BLOCK
  5
4A82
330
4A78
100
AcDbEntity
  8
0
100
AcDbBlockBegin
  2
*D11
 70
     1
 10
0.0
 20
0.0
 30
0.0
  3
*D11
  1

  0
LINE
  5
5471
330
4A78
100
AcDbEntity
  8
AM_5
 62
     3
100
AcDbLine
 10
-4.456778341736601
 20
-12.35454126232513
 30
0.0
 11
-4.456778341736604
 21
-57.53267133519265
 31
0.0
  0
LINE
  5
5472
330
4A78
100
AcDbEntity
  8
AM_5
 62
     3
100
AcDbLine
 10
-229.4567783417366
 20
-15.91955414979422
 30
0.0
 11
-229.4567783417366
 21
-57.53267133519265
 31
0.0
  0
LINE
  5
5473
330
4A78
100
AcDbEntity
  8
AM_5
 62
     3
100
AcDbLine
 10
-6.956778341736604
 20
-56.53267133519265
 30
0.0
 11
-226.9567783417366
 21
-56.53267133519265
 31
0.0
  0
INSERT
  5
5474
330
4A78
100
AcDbEntity
  8
AM_5
 62
     3
100
AcDbBlockReference
  2
_OPEN30
 10
-4.456778341736604
 20
-56.53267133519265
 30
0.0
 41
2.5
 42
2.5
 43
2.5
  0
INSERT
  5
5475
330
4A78
100
AcDbEntity
  8
AM_5
 62
     3
100
AcDbBlockReference
  2
_OPEN30
 10
-229.4567783417366
 20
-56.53267133519265
 30
0.0
 41
2.5
 42
2.5
 43
2.5
 50
180.0
  0
MTEXT
  5
5476
330
4A78
100
AcDbEntity
  8
AM_5
 62
     2
100
AcDbMText
 10
-116.9567783417366
 20
-53.13267133519265
 30
0.0
 40
3.799999999999999
 41
0.0
 71
     5
 72
     1
  1
225
1001
ACAD
1000
MTEXTBEGIN
1070
    73
1070
     1
1070
    44
1040
1.0
1070
    74
1070
     0
1000
MTEXTEND
  0
POINT
  5
5477
330
4A78
100
AcDbEntity
  8
DEFPOINTS
 62
     0
100
AcDbPoint
 10
-4.456778341736601
 20
-11.55454126232513
 30
0.0
  0
POINT
  5
5478
330
4A78
100
AcDbEntity
  8
DEFPOINTS
 62
     0
100
AcDbPoint
 10
-229.4567783417366
 20
-15.11955414979422
 30
0.0
  0
POINT
  5
5479
330
4A78
100
AcDbEntity
  8
DEFPOINTS
 62
     0
100
AcDbPoint
 10
-229.4567783417366
 20
-56.53267133519265
 30
0.0
  0
ENDBLK
  5
4A83
330
4A78
100
AcDbEntity
  8
0
100
AcDbBlockEnd
  0
BLOCK
  5
4A9A
330
4A90
100
AcDbEntity
  8
0
100
AcDbBlockBegin
  2
*D12
 70
     1
 10
0.0
 20
0.0
 30
0.0
  3
*D12
  1

  0
LINE
  5
547A
330
4A90
100
AcDbEntity
  8
AM_5
 62
     3
100
AcDbLine
 10
-4.456778341736609
 20
-12.35454126232389
 30
0.0
 11
-4.456778341736611
 21
-45.05323952270305
 31
0.0
  0
LINE
  5
547B
330
4A90
100
AcDbEntity
  8
AM_5
 62
     3
100
AcDbLine
 10
-169.4567783417366
 20
-16.7680465814357
 30
0.0
 11
-169.4567783417366
 21
-45.05323952270305
 31
0.0
  0
LINE
  5
547C
330
4A90
100
AcDbEntity
  8
AM_5
 62
     3
100
AcDbLine
 10
-6.956778341736611
 20
-44.05323952270306
 30
0.0
 11
-166.9567783417366
 21
-44.05323952270306
 31
0.0
  0
INSERT
  5
547D
330
4A90
100
AcDbEntity
  8
AM_5
 62
     3
100
AcDbBlockReference
  2
_OPEN30
 10
-4.456778341736611
 20
-44.05323952270306
 30
0.0
 41
2.5
 42
2.5
 43
2.5
  0
INSERT
  5
547E
330
4A90
100
AcDbEntity
  8
AM_5
 62
     3
100
AcDbBlockReference
  2
_OPEN30
 10
-169.4567783417366
 20
-44.05323952270306
 30
0.0
 41
2.5
 42
2.5
 43
2.5
 50
180.0
  0
MTEXT
  5
547F
330
4A90
100
AcDbEntity
  8
AM_5
 62
     2
100
AcDbMText
 10
-86.95677834173663
 20
-40.65323952270306
 30
0.0
 40
3.799999999999999
 41
0.0
 71
     5
 72
     1
  1
165
1001
ACAD
1000
MTEXTBEGIN
1070
    73
1070
     1
1070
    44
1040
1.0
1070
    74
1070
     0
1000
MTEXTEND
  0
POINT
  5
5480
330
4A90
100
AcDbEntity
  8
DEFPOINTS
 62
     0
100
AcDbPoint
 10
-4.456778341736609
 20
-11.55454126232389
 30
0.0
  0
POINT
  5
5481
330
4A90
100
AcDbEntity
  8
DEFPOINTS
 62
     0
100
AcDbPoint
 10
-169.4567783417366
 20
-15.96804658143571
 30
0.0
  0
POINT
  5
5482
330
4A90
100
AcDbEntity
  8
DEFPOINTS
 62
     0
100
AcDbPoint
 10
-169.4567783417366
 20
-44.05323952270306
 30
0.0
  0
ENDBLK
  5
4A9B
330
4A90
100
AcDbEntity
  8
0
100
AcDbBlockEnd
  0
BLOCK
  5
524D
330
5243
100
AcDbEntity
  8
0
100
AcDbBlockBegin
  2
*D13
 70
     1
 10
0.0
 20
0.0
 30
0.0
  3
*D13
  1

  0
LINE
  5
540C
330
5243
100
AcDbEntity
  8
AM_5
 62
     3
100
AcDbLine
 10
-3.315441282847702
 20
12.49999999999997
 30
0.0
 11
21.65079495011821
 21
12.50000000000003
 31
0.0
  0
LINE
  5
540D
330
5243
100
AcDbEntity
  8
AM_5
 62
     3
100
AcDbLine
 10
-3.45262265894259
 20
-12.50000000000001
 30
0.0
 11
21.65079495011828
 21
-12.49999999999994
 31
0.0
  0
LINE
  5
540E
330
5243
100
AcDbEntity
  8
AM_5
 62
     3
100
AcDbLine
 10
20.65079495011822
 20
10.00000000000003
 30
0.0
 11
20.65079495011828
 21
-9.99999999999995
 31
0.0
  0
INSERT
  5
540F
330
5243
100
AcDbEntity
  8
AM_5
 62
     3
100
AcDbBlockReference
  2
_OPEN30
 10
20.65079495011822
 20
12.50000000000003
 30
0.0
 41
2.5
 42
2.5
 43
2.5
 50
90.00000000000017
  0
INSERT
  5
5410
330
5243
100
AcDbEntity
  8
AM_5
 62
     3
100
AcDbBlockReference
  2
_OPEN30
 10
20.65079495011829
 20
-12.49999999999995
 30
0.0
 41
2.5
 42
2.5
 43
2.5
 50
270.0000000000001
  0
MTEXT
  5
5411
330
5243
100
AcDbEntity
  8
AM_5
 62
     2
100
AcDbMText
 10
17.25079495011825
 20
-0.0000000000001869
 30
0.0
 40
3.799999999999999
 41
0.0
 71
     5
 72
     1
  1
%%C25
 11
-0.0000000000000028
 21
1.0
 31
0.0
1001
ACAD
1000
MTEXTBEGIN
1070
    73
1070
     1
1070
    44
1040
1.0
1070
    74
1070
     0
1000
MTEXTEND
  0
POINT
  5
5412
330
5243
100
AcDbEntity
  8
DEFPOINTS
 62
     0
100
AcDbPoint
 10
-4.115441282847663
 20
12.49999999999998
 30
0.0
  0
POINT
  5
5413
330
5243
100
AcDbEntity
  8
DEFPOINTS
 62
     0
100
AcDbPoint
 10
-4.252622658942629
 20
-12.5
 30
0.0
  0
POINT
  5
5414
330
5243
100
AcDbEntity
  8
DEFPOINTS
 62
     0
100
AcDbPoint
 10
20.65079495011825
 20
-12.50000000000001
 30
0.0
  0
ENDBLK
  5
524E
330
5243
100
AcDbEntity
  8
0
100
AcDbBlockEnd
  0
BLOCK
  5
5375
330
536B
100
AcDbEntity
  8
0
100
AcDbBlockBegin
  2
*D14
 70
     1
 10
0.0
 20
0.0
 30
0.0
  3
*D14
  1

  0
LINE
  5
544B
330
536B
100
AcDbEntity
  8
AM_5
 62
     3
100
AcDbLine
 10
-229.3791499810694
 20
16.03201201231516
 30
0.0
 11
-252.1487349419956
 21
16.03201201231516
 31
0.0
  0
LINE
  5
544C
330
536B
100
AcDbEntity
  8
AM_5
 62
     3
100
AcDbLine
 10
-229.3791499810692
 20
-15.96786347911919
 30
0.0
 11
-252.1487349419956
 21
-15.96786347911918
 31
0.0
  0
LINE
  5
544D
330
536B
100
AcDbEntity
  8
AM_5
 62
     3
100
AcDbLine
 10
-251.1487349419955
 20
13.53201201231516
 30
0.0
 11
-251.1487349419955
 21
-13.46786347911918
 31
0.0
  0
INSERT
  5
544E
330
536B
100
AcDbEntity
  8
AM_5
 62
     3
100
AcDbBlockReference
  2
_OPEN30
 10
-251.1487349419955
 20
16.03201201231516
 30
0.0
 41
2.5
 42
2.5
 43
2.5
 50
90.0
  0
INSERT
  5
544F
330
536B
100
AcDbEntity
  8
AM_5
 62
     3
100
AcDbBlockReference
  2
_OPEN30
 10
-251.1487349419955
 20
-15.96786347911918
 30
0.0
 41
2.5
 42
2.5
 43
2.5
 50
270.0
  0
MTEXT
  5
5450
330
536B
100
AcDbEntity
  8
AM_5
 62
     2
100
AcDbMText
 10
-254.5487349419956
 20
0.0320742665979504
 30
0.0
 40
3.799999999999999
 41
0.0
 71
     5
 72
     1
  1
%%C32
 11
0.0000000000000001
 21
1.0
 31
0.0
1001
ACAD
1000
MTEXTBEGIN
1070
    73
1070
     1
1070
    44
1040
1.0
1070
    74
1070
     0
1000
MTEXTEND
  0
POINT
  5
5451
330
536B
100
AcDbEntity
  8
DEFPOINTS
 62
     0
100
AcDbPoint
 10
-228.5791499810694
 20
16.03201201231516
 30
0.0
  0
POINT
  5
5452
330
536B
100
AcDbEntity
  8
DEFPOINTS
 62
     0
100
AcDbPoint
 10
-228.5791499810692
 20
-15.96786347911919
 30
0.0
  0
POINT
  5
5453
330
536B
100
AcDbEntity
  8
DEFPOINTS
 62
     0
100
AcDbPoint
 10
-251.1487349419955
 20
-15.96786347911918
 30
0.0
  0
ENDBLK
  5
5376
330
536B
100
AcDbEntity
  8
0
100
AcDbBlockEnd
  0
BLOCK
  5
5381
330
5377
100
AcDbEntity
  8
0
100
AcDbBlockBegin
  2
*D15
 70
     1
 10
0.0
 20
0.0
 30
0.0
  3
*D15
  1

  0
LINE
  5
5468
330
5377
100
AcDbEntity
  8
AM_5
 62
     3
100
AcDbLine
 10
-223.4567897071392
 20
-0.8000000000013287
 30
0.0
 11
-223.4567897071392
 21
-32.47941722561928
 31
0.0
  0
LINE
  5
5469
330
5377
100
AcDbEntity
  8
AM_5
 62
     3
100
AcDbLine
 10
-173.4567783417367
 20
-0.8000000000010857
 30
0.0
 11
-173.4567783417367
 21
-32.47941722561928
 31
0.0
  0
LINE
  5
546A
330
5377
100
AcDbEntity
  8
AM_5
 62
     3
100
AcDbLine
 10
-220.9567897071393
 20
-31.47941722561927
 30
0.0
 11
-175.9567783417367
 21
-31.47941722561927
 31
0.0
  0
INSERT
  5
546B
330
5377
100
AcDbEntity
  8
AM_5
 62
     3
100
AcDbBlockReference
  2
_OPEN30
 10
-223.4567897071392
 20
-31.47941722561927
 30
0.0
 41
2.5
 42
2.5
 43
2.5
 50
180.0
  0
INSERT
  5
546C
330
5377
100
AcDbEntity
  8
AM_5
 62
     3
100
AcDbBlockReference
  2
_OPEN30
 10
-173.4567783417367
 20
-31.47941722561927
 30
0.0
 41
2.5
 42
2.5
 43
2.5
  0
MTEXT
  5
546D
330
5377
100
AcDbEntity
  8
AM_5
 62
     2
100
AcDbMText
 10
-198.456784024438
 20
-28.07941722561928
 30
0.0
 40
3.799999999999999
 41
0.0
 71
     5
 72
     1
  1
50
1001
ACAD
1000
MTEXTBEGIN
1070
    73
1070
     1
1070
    44
1040
1.0
1070
    74
1070
     0
1000
MTEXTEND
  0
POINT
  5
546E
330
5377
100
AcDbEntity
  8
DEFPOINTS
 62
     0
100
AcDbPoint
 10
-223.4567897071392
 20
-0.0000000000013286
 30
0.0
  0
POINT
  5
546F
330
5377
100
AcDbEntity
  8
DEFPOINTS
 62
     0
100
AcDbPoint
 10
-173.4567783417367
 20
-0.0000000000010855
 30
0.0
  0
POINT
  5
5470
330
5377
100
AcDbEntity
  8
DEFPOINTS
 62
     0
100
AcDbPoint
 10
-173.4567783417367
 20
-31.47941722561927
 30
0.0
  0
ENDBLK
  5
5382
330
5377
100
AcDbEntity
  8
0
100
AcDbBlockEnd
  0
BLOCK
  5
538F
330
5383
100
AcDbEntity
  8
0
100
AcDbBlockBegin
  2
*D16
 70
     1
 10
0.0
 20
0.0
 30
0.0
  3
*D16
  1

  0
LINE
  5
545D
330
5383
100
AcDbEntity
  8
AM_5
 62
     3
100
AcDbLine
 10
-229.4566925110615
 20
-12.61209445906851
 30
0.0
 11
-229.4566925110615
 21
-32.47941722561963
 31
0.0
  0
LINE
  5
545E
330
5383
100
AcDbEntity
  8
AM_5
 62
     3
100
AcDbLine
 10
-223.4567897071392
 20
-0.8000000000013287
 30
0.0
 11
-223.4567897071392
 21
-32.47941722561963
 31
0.0
  0
LINE
  5
545F
330
5383
100
AcDbEntity
  8
AM_5
 62
     3
100
AcDbLine
 10
-231.9566925110616
 20
-31.47941722561963
 30
0.0
 11
-234.4566925110616
 21
-31.47941722561963
 31
0.0
  0
LINE
  5
5460
330
5383
100
AcDbEntity
  8
AM_5
 62
     3
100
AcDbLine
 10
-220.9567897071393
 20
-31.47941722561963
 30
0.0
 11
-218.4567897071392
 21
-31.47941722561963
 31
0.0
  0
LINE
  5
5461
330
5383
100
AcDbEntity
  8
AM_5
 62
     3
100
AcDbLine
 10
-229.4566925110615
 20
-31.47941722561963
 30
0.0
 11
-223.4567897071392
 21
-31.47941722561963
 31
0.0
  0
INSERT
  5
5462
330
5383
100
AcDbEntity
  8
AM_5
 62
     3
100
AcDbBlockReference
  2
_OPEN30
 10
-229.4566925110615
 20
-31.47941722561963
 30
0.0
 41
2.5
 42
2.5
 43
2.5
  0
INSERT
  5
5463
330
5383
100
AcDbEntity
  8
AM_5
 62
     3
100
AcDbBlockReference
  2
_OPEN30
 10
-223.4567897071392
 20
-31.47941722561963
 30
0.0
 41
2.5
 42
2.5
 43
2.5
 50
180.0
  0
MTEXT
  5
5464
330
5383
100
AcDbEntity
  8
AM_5
 62
     2
100
AcDbMText
 10
-226.4567411091004
 20
-28.07941722561963
 30
0.0
 40
3.799999999999999
 41
0.0
 71
     5
 72
     1
  1
6
1001
ACAD
1000
MTEXTBEGIN
1070
    73
1070
     1
1070
    44
1040
1.0
1070
    74
1070
     0
1000
MTEXTEND
  0
POINT
  5
5465
330
5383
100
AcDbEntity
  8
DEFPOINTS
 62
     0
100
AcDbPoint
 10
-229.4566925110615
 20
-11.81209445906851
 30
0.0
  0
POINT
  5
5466
330
5383
100
AcDbEntity
  8
DEFPOINTS
 62
     0
100
AcDbPoint
 10
-223.4567897071392
 20
-0.0000000000013286
 30
0.0
  0
POINT
  5
5467
330
5383
100
AcDbEntity
  8
DEFPOINTS
 62
     0
100
AcDbPoint
 10
-223.4567897071392
 20
-31.47941722561963
 30
0.0
  0
ENDBLK
  5
5390
330
5383
100
AcDbEntity
  8
0
100
AcDbBlockEnd
  0
BLOCK
  5
539B
330
5391
100
AcDbEntity
  8
0
100
AcDbBlockBegin
  2
*D17
 70
     1
 10
0.0
 20
0.0
 30
0.0
  3
*D17
  1

  0
LINE
  5
5483
330
5391
100
AcDbEntity
  8
AM_5
 62
     3
100
AcDbLine
 10
-169.4567783417366
 20
-16.76804658143571
 30
0.0
 11
-169.4567783417366
 21
-45.0532395227035
 31
0.0
  0
LINE
  5
5484
330
5391
100
AcDbEntity
  8
AM_5
 62
     3
100
AcDbLine
 10
-229.4567783417366
 20
-15.91955414979422
 30
0.0
 11
-229.4567783417366
 21
-45.0532395227035
 31
0.0
  0
LINE
  5
5485
330
5391
100
AcDbEntity
  8
AM_5
 62
     3
100
AcDbLine
 10
-171.9567783417366
 20
-44.05323952270349
 30
0.0
 11
-226.9567783417366
 21
-44.05323952270349
 31
0.0
  0
INSERT
  5
5486
330
5391
100
AcDbEntity
  8
AM_5
 62
     3
100
AcDbBlockReference
  2
_OPEN30
 10
-169.4567783417366
 20
-44.05323952270349
 30
0.0
 41
2.5
 42
2.5
 43
2.5
  0
INSERT
  5
5487
330
5391
100
AcDbEntity
  8
AM_5
 62
     3
100
AcDbBlockReference
  2
_OPEN30
 10
-229.4567783417366
 20
-44.05323952270349
 30
0.0
 41
2.5
 42
2.5
 43
2.5
 50
180.0
  0
MTEXT
  5
5488
330
5391
100
AcDbEntity
  8
AM_5
 62
     2
100
AcDbMText
 10
-199.4567783417366
 20
-40.65323952270349
 30
0.0
 40
3.799999999999999
 41
0.0
 71
     5
 72
     1
  1
60
1001
ACAD
1000
MTEXTBEGIN
1070
    73
1070
     1
1070
    44
1040
1.0
1070
    74
1070
     0
1000
MTEXTEND
  0
POINT
  5
5489
330
5391
100
AcDbEntity
  8
DEFPOINTS
 62
     0
100
AcDbPoint
 10
-169.4567783417366
 20
-15.96804658143571
 30
0.0
  0
POINT
  5
548A
330
5391
100
AcDbEntity
  8
DEFPOINTS
 62
     0
100
AcDbPoint
 10
-229.4567783417366
 20
-15.11955414979422
 30
0.0
  0
POINT
  5
548B
330
5391
100
AcDbEntity
  8
DEFPOINTS
 62
     0
100
AcDbPoint
 10
-229.4567783417366
 20
-44.05323952270349
 30
0.0
  0
ENDBLK
  5
539C
330
5391
100
AcDbEntity
  8
0
100
AcDbBlockEnd
  0
ENDSEC
  0
SECTION
  2
ENTITIES
  0
TEXT
  5
19BD
330
1F
100
AcDbEntity
  8
AM_6
100
AcDbText
 10
-137.7901116750699
 20
-79.0326713351927
 30
0.0
 40
5.0
  1
KDS250LAK
 50
0.0000000000001527
 72
     4
 11
-116.9567783417365
 21
-76.53267133519264
 31
0.0
100
AcDbText
  0
LINE
  5
35D1
330
1F
100
AcDbEntity
  8
AM_7
100
AcDbLine
 10
4.909002595337891
 20
-0.0000000000001046
 30
0.0
 11
-232.9548225470237
 21
-0.0000000000006905
 31
0.0
  0
LINE
  5
35F4
330
1F
100
AcDbEntity
  8
PV0001_1
  6
CONTINUOUS
 48
0.5
100
AcDbLine
 10
-144.4567783417367
 20
12.50000000000336
 30
0.0
 11
-169.4567783417368
 21
16.0319662359465
 31
0.0
  0
LINE
  5
35F5
330
1F
100
AcDbEntity
  8
PV0001_1
  6
CONTINUOUS
 48
0.5
100
AcDbLine
 10
-144.4567783417367
 20
-12.49999999999692
 30
0.0
 11
-169.4567783417366
 21
-15.96804658143569
 31
0.0
  0
DIMENSION
  5
36BA
330
1F
100
AcDbEntity
  8
AM_5
100
AcDbDimension
  2
*D8
 10
-2.800374408476762
 20
-7.693965517241461
 30
0.0
 11
33.13104039027795
 21
-0.0000000000000372
 31
0.0
 70
    34
  1
<>
 51
359.9999999999998
  3
AM_JIS$2
100
AcDb2LineAngularDimension
 13
0.0
 23
-0.0000000000000725
 33
0.0
 14
-2.800374408476802
 24
7.693965517241139
 34
0.0
 15
0.0
 25
-0.0000000000002316
 35
0.0
 16
33.26792484260828
 26
-14.35038203075178
 36
0.0
1001
ACAD
1000
DSTYLE
1002
{
1070
   179
1070
     3
1002
}
1001
GENIUS_GENDTOL_13
1000

1000
h7
1000

1040
0.0
  0
DIMENSION
  5
3B0D
330
1F
100
AcDbEntity
  8
AM_5
100
AcDbDimension
  2
*D9
 10
-137.4567783417367
 20
31.24991162500018
 30
0.0
 11
-70.95677834173682
 21
34.64991162500018
 31
0.0
 70
    32
  1
<>
 51
359.9999999999998
  3
AM_JIS$0
100
AcDbAlignedDimension
 13
-4.456778341736918
 23
10.9005106248337
 33
0.0
 14
-137.4567783417367
 24
12.24489795918685
 34
0.0
 50
180.0000000000001
100
AcDbRotatedDimension
1001
ACAD
1000
DSTYLE
1002
{
1070
   271
1070
     3
1002
}
1001
GENIUS_GENDTOL_13
1000

1000
h7
1000

1040
0.0
  0
LINE
  5
4534
330
1F
100
AcDbEntity
  8
PV0001_1
  6
CONTINUOUS
100
AcDbLine
 10
-144.4567783417367
 20
5.87185244510267
 30
0.0
 11
-144.4567783417367
 21
12.50000000000332
 31
0.0
  0
LINE
  5
4536
330
1F
100
AcDbEntity
  8
PV0001_1
  6
CONTINUOUS
100
AcDbLine
 10
-144.4567783417367
 20
-12.49999999999692
 30
0.0
 11
-144.4567783417367
 21
-9.64110697035905
 31
0.0
  0
LINE
  5
46A5
330
1F
100
AcDbEntity
  8
AM_11
 48
0.5
100
AcDbLine
 10
-137.4567783417367
 20
-12.49999999999703
 30
0.0
 11
-137.4567783417367
 21
12.50000000000321
 31
0.0
  0
DIMENSION
  5
471A
330
1F
100
AcDbEntity
  8
AM_5
100
AcDbDimension
  2
*D10
 10
-144.4567783417367
 20
44.67667567203016
 30
0.0
 11
-74.45677834173683
 21
48.07667567203016
 31
0.0
 70
    32
  1
<>
 51
359.9999999999998
  3
AM_JIS$0
100
AcDbAlignedDimension
 13
-4.456778341736918
 23
10.9005106248337
 33
0.0
 14
-144.4567783417367
 24
12.50000000000336
 34
0.0
 50
180.0000000000002
100
AcDbRotatedDimension
1001
ACAD
1000
DSTYLE
1002
{
1070
   271
1070
     3
1002
}
1001
GENIUS_GENDTOL_13
1000

1000
h7
1000

1040
0.0
  0
DIMENSION
  5
4A5A
330
1F
100
AcDbEntity
  8
AM_5
100
AcDbDimension
  2
*D11
 10
-229.4567783417366
 20
-56.53267133519265
 30
0.0
 11
-116.9567783417366
 21
-53.13267133519265
 31
0.0
 70
    32
  1
<>
  3
AM_JIS$0
100
AcDbAlignedDimension
 13
-4.456778341736601
 23
-11.55454126232513
 33
0.0
 14
-229.4567783417366
 24
-15.11955414979422
 34
0.0
 50
0.0000000000004184
100
AcDbRotatedDimension
1001
ACAD
1000
DSTYLE
1002
{
1070
   271
1070
     3
1002
}
1001
GENIUS_GENDTOL_13
1000

1000
h7
1000

1040
0.0
  0
DIMENSION
  5
4A5C
330
1F
100
AcDbEntity
  8
AM_5
100
AcDbDimension
  2
*D12
 10
-169.4567783417366
 20
-44.05323952270306
 30
0.0
 11
-86.95677834173663
 21
-40.65323952270306
 31
0.0
 70
    32
  1
<>
  3
AM_JIS$0
100
AcDbAlignedDimension
 13
-4.456778341736609
 23
-11.55454126232389
 33
0.0
 14
-169.4567783417366
 24
-15.96804658143571
 34
0.0
 50
0.0000000000003167
100
AcDbRotatedDimension
1001
ACAD
1000
DSTYLE
1002
{
1070
   271
1070
     3
1002
}
1001
GENIUS_GENDTOL_13
1000

1000
h7
1000

1040
0.0
  0
SPLINE
  5
4BDC
330
1F
100
AcDbEntity
  8
AM_0
100
AcDbSpline
210
0.0
220
0.0
230
1.0
 70
     8
 71
     3
 72
    12
 73
     8
 74
     0
 42
0.0000000001
 43
0.0000000001
 40
0.0
 40
0.0
 40
0.0
 40
0.0
 40
3.550288329958888
 40
5.110699985623471
 40
6.310592039948465
 40
8.859663010396623
 40
10.65155104271494
 40
10.65155104271494
 40
10.65155104271494
 40
10.65155104271494
 10
-133.371491845646
 20
1.991628027484279
 30
0.0
 10
-152.0543993278152
 20
9.029358972436842
 30
0.0
 10
-161.1763716212905
 20
9.370406281311534
 30
0.0
 10
-167.0267259276802
 20
6.750490861060628
 30
0.0
 10
-167.8473174744127
 20
3.182947503712995
 30
0.0
 10
-166.0868006455449
 20
0.1213373692166295
 30
0.0
 10
-155.8877985502811
 20
-6.346838872517288
 30
0.0
 10
-143.8041030837203
 20
-9.793993747309144
 30
0.0
  0
LINE
  5
5202
330
1F
100
AcDbEntity
  8
PV0001_1
  6
CONTINUOUS
 48
0.5
100
AcDbLine
 10
-0.0000000000002984
 20
-0.0000000000000084
 30
0.0
 11
-4.549627890522931
 21
12.49999999999997
 31
0.0
  0
LINE
  5
5203
330
1F
100
AcDbEntity
  8
PV0001_1
  6
CONTINUOUS
 48
0.5
100
AcDbLine
 10
-0.0000000000002984
 20
-0.0000000000002389
 30
0.0
 11
-4.549627890522773
 21
-12.50000000000001
 31
0.0
  0
LINE
  5
522F
330
1F
100
AcDbEntity
  8
PV0001_1
  6
CONTINUOUS
 48
0.5
100
AcDbLine
 10
-144.4567783417367
 20
12.50000000000336
 30
0.0
 11
-118.1201826823959
 21
12.50000000000279
 31
0.0
  0
SPLINE
  5
5230
330
1F
100
AcDbEntity
  8
PV0001_1
  6
CONTINUOUS
100
AcDbSpline
210
0.0
220
0.0
230
1.0
 70
     8
 71
     3
 72
    30
 73
    26
 74
     0
 42
0.0000000001
 43
0.0000000001
 40
0.0
 40
0.0
 40
0.0
 40
0.0
 40
1.010743684496582
 40
2.022833576467832
 40
3.037578957496688
 40
4.056212745003489
 40
5.079857003664532
 40
6.109500240690281
 40
7.145961322679372
 40
8.189895241603872
 40
9.241717795325891
 40
10.30168407291828
 40
11.36983447792315
 40
12.44600489715814
 40
13.52984294512926
 40
14.62081576220742
 40
15.7182257034828
 40
16.82123173843959
 40
17.92886860250316
 40
19.0400688939571
 40
20.15368796660465
 40
21.26852814259644
 40
22.38336992938901
 40
23.49698739941135
 40
23.53853004329818
 40
23.53853004329818
 40
23.53853004329818
 40
23.53853004329818
 10
-86.09612132197053
 20
-12.49999999999796
 30
0.0
 10
-86.81136005836162
 20
-12.49256280282897
 30
0.0
 10
-88.24279015617412
 20
-12.47767850290309
 30
0.0
 10
-90.38941437819595
 20
-12.35769433577658
 30
0.0
 10
-92.53594696892355
 20
-12.16695085340673
 30
0.0
 10
-94.68234671035778
 20
-11.89961660834529
 30
0.0
 10
-96.82859218480801
 20
-11.55931449216016
 30
0.0
 10
-98.97464105164976
 20
-11.14755777413239
 30
0.0
 10
-101.1205004893214
 20
-10.66712019427694
 30
0.0
 10
-103.2661514683863
 20
-10.12094372246123
 30
0.0
 10
-105.4115793730507
 20
-9.512381849088582
 30
0.0
 10
-107.556794897087
 20
-8.84525445413057
 30
0.0
 10
-109.7018037858099
 20
-8.123644402979302
 30
0.0
 10
-111.8466328393874
 20
-7.352043901505497
 30
0.0
 10
-113.991291877646
 20
-6.53519460011001
 30
0.0
 10
-116.1358007874465
 20
-5.678134089223006
 30
0.0
 10
-118.2801833516832
 20
-4.786149747760745
 30
0.0
 10
-120.4244583906022
 20
-3.864726857393798
 30
0.0
 10
-122.568646714637
 20
-2.919532527341335
 30
0.0
 10
-124.712771267514
 20
-1.956384316409197
 30
0.0
 10
-126.8568508552467
 20
-0.9812032639797505
 30
0.0
 10
-129.0009157555595
 20
-0.000002550451101
 30
0.0
 10
-131.144971030815
 20
0.9812158253018978
 30
0.0
 10
-132.6023294778077
 20
1.644046373734647
 30
0.0
 10
-133.3447898812691
 20
1.979564259001526
 30
0.0
 10
-133.371491845646
 20
1.991628027484279
 30
0.0
  0
LINE
  5
5231
330
1F
100
AcDbEntity
  8
AM_0
100
AcDbLine
 10
-144.4567783417367
 20
-12.49999999999687
 30
0.0
 11
-122.2842146753096
 21
-12.49999999999738
 31
0.0
  0
SPLINE
  5
5232
330
1F
100
AcDbEntity
  8
PV0001_1
  6
CONTINUOUS
100
AcDbSpline
210
0.0
220
0.0
230
1.0
 70
     8
 71
     3
 72
    16
 73
    12
 74
     0
 42
0.0000000001
 43
0.0000000001
 40
0.0
 40
0.0
 40
0.0
 40
0.0
 40
1.010743684496582
 40
2.022833576467832
 40
3.037578957496688
 40
4.056212745003489
 40
5.079857003664532
 40
6.109500240690281
 40
7.145961322679372
 40
8.189895241603872
 40
8.753615341503387
 40
8.753615341503387
 40
8.753615341503387
 40
8.753615341503387
 10
-122.2842728450798
 20
-12.49999993805217
 30
0.0
 10
-123.1247259640437
 20
-12.49256274088318
 30
0.0
 10
-124.8067515997852
 20
-12.4776784409573
 30
0.0
 10
-127.3291779322077
 20
-12.35769427383076
 30
0.0
 10
-129.8514965917608
 20
-12.16695079146091
 30
0.0
 10
-132.3736591445521
 20
-11.89961654639947
 30
0.0
 10
-134.8956404233699
 20
-11.55931443021432
 30
0.0
 10
-137.4173906751623
 20
-11.14755771218654
 30
0.0
 10
-139.938918335072
 20
-10.66712013233106
 30
0.0
 10
-142.0673023196352
 20
-10.20605590813648
 30
0.0
 10
-143.3538891409596
 20
-9.90294529961219
 30
0.0
 10
-143.8041030837203
 20
-9.793993747309142
 30
0.0
  0
LINE
  5
5234
330
1F
100
AcDbEntity
  8
PV0001_1
  6
CONTINUOUS
 48
0.5
100
AcDbLine
 10
-18.02341531540781
 20
12.50000000000022
 30
0.0
 11
-4.549627890522931
 21
12.49999999999997
 31
0.0
  0
LINE
  5
5235
330
1F
100
AcDbEntity
  8
PV0001_1
  6
CONTINUOUS
 48
0.5
100
AcDbLine
 10
-3.76309429160729
 20
10.83333492278958
 30
0.0
 11
-18.04387582042198
 21
10.83333492278984
 31
0.0
  0
LINE
  5
5236
330
1F
100
AcDbEntity
  8
AM_0
100
AcDbLine
 10
-3.087764788982612
 20
-3.093318566785256
 30
0.0
 11
-6.928647779708403
 21
-5.135463979914644
 31
0.0
  0
LINE
  5
5237
330
1F
100
AcDbEntity
  8
AM_0
100
AcDbLine
 10
-4.015180222885739
 20
0.9361590694581193
 30
0.0
 11
-3.087764788982612
 21
-3.093318566785256
 31
0.0
  0
LINE
  5
5238
330
1F
100
AcDbEntity
  8
PV0001_1
  6
CONTINUOUS
 48
0.5
100
AcDbLine
 10
-3.087764788982612
 20
-3.093318566785256
 30
0.0
 11
-4.890223802117581
 21
-10.79545454545455
 31
0.0
  0
LINE
  5
523A
330
1F
100
AcDbEntity
  8
PV0001_1
  6
CONTINUOUS
 48
0.5
100
AcDbLine
 10
-14.17371037062812
 20
3.807214570092769
 30
0.0
 11
-9.285826843663988
 21
1.409597994407807
 31
0.0
  0
LINE
  5
523D
330
1F
100
AcDbEntity
  8
PV0001_1
  6
CONTINUOUS
 48
0.5
100
AcDbLine
 10
-19.45677834173696
 20
-12.49999999999973
 30
0.0
 11
-4.549627890522773
 21
-12.50000000000001
 31
0.0
  0
LINE
  5
523E
330
1F
100
AcDbEntity
  8
PV0001_1
  6
CONTINUOUS
 48
0.5
100
AcDbLine
 10
-19.45677834173693
 20
-10.7954545454543
 30
0.0
 11
-4.890223802117581
 21
-10.79545454545455
 31
0.0
  0
LINE
  5
523F
330
1F
100
AcDbEntity
  8
PV0001_1
  6
CONTINUOUS
 48
0.5
100
AcDbLine
 10
-9.285826843663926
 20
1.409597994407627
 30
0.0
 11
-4.890223802117581
 21
-10.79545454545455
 31
0.0
  0
ELLIPSE
  5
5240
330
1F
100
AcDbEntity
  8
AM_0
100
AcDbEllipse
 10
-6.22538508140974
 20
4.283278593252362
 30
0.0
 11
-4.893387036135073
 21
0.1098218156513585
 31
0.0
210
0.0
220
0.0
230
0.9999999999999998
 40
0.7598761904279053
 41
0.9122902037063926
 42
3.07618725687728
  0
DIMENSION
  5
5242
330
1F
100
AcDbEntity
  8
AM_5
100
AcDbDimension
  2
*D13
 10
20.65079495011825
 20
-12.50000000000001
 30
0.0
 11
20.65079495011825
 21
-0.0000000000002375
 31
0.0
 70
   160
  1
%%C<>
 51
359.9999999999998
  3
AM_JIS$0
100
AcDbAlignedDimension
 13
-4.115441282847663
 23
12.49999999999998
 33
0.0
 14
-4.252622658942629
 24
-12.5
 34
0.0
 50
89.99999999999905
100
AcDbRotatedDimension
1001
GENIUS_GENDTOL_13
1000

1000
h7
1000

1040
0.0
1001
ACAD
1000
DSTYLE
1002
{
1070
   271
1070
     3
1002
}
  0
SPLINE
  5
5251
330
1F
100
AcDbEntity
  8
PV0001_1
  6
CONTINUOUS
100
AcDbSpline
210
0.0
220
0.0
230
1.0
 70
     8
 71
     3
 72
    16
 73
    12
 74
     0
 42
0.0000000001
 43
0.0000000001
 40
2.625839846755727
 40
2.625839846755727
 40
2.625839846755727
 40
2.625839846755727
 40
3.082371838836284
 40
4.126290986361125
 40
5.162752068350215
 40
6.192395305374981
 40
7.216039564037012
 40
8.234688489606833
 40
9.249433870634691
 40
10.26152376260694
 40
11.27226744710342
 40
11.27226744710342
 40
11.27226744710342
 40
11.27226744710352
 10
-105.6850121394718
 20
-9.420839132035787
 30
0.0
 10
-106.8349017839489
 20
-9.94372276831868
 30
0.0
 10
-107.7232527029752
 20
-10.22423957561267
 30
0.0
 10
-109.2326924214164
 20
-10.66729991577693
 30
0.0
 10
-111.096837670712
 20
-11.14751538259773
 30
0.0
 10
-112.9610683344924
 20
-11.55930847819763
 30
0.0
 10
-114.8255021028625
 20
-11.89968379971301
 30
0.0
 10
-116.6900646796115
 20
-12.16669897526795
 30
0.0
 10
-118.5547433589522
 20
-12.35862365718081
 30
0.0
 10
-120.419492200031
 20
-12.47422240398553
 30
0.0
 10
-121.6629598211996
 20
-12.50000007152291
 30
0.0
 10
-122.2842798462839
 20
-12.49999999999682
 30
0.0
  0
LINE
  5
5252
330
1F
100
AcDbEntity
  8
AM_11
 48
0.5
100
AcDbLine
 10
-12.41299237448549
 20
-12.49999999999988
 30
0.0
 11
-122.2842746708545
 21
-12.49999999999793
 31
0.0
  0
DIMENSION
  5
535A
330
1F
100
AcDbEntity
  8
AM_5
100
AcDbDimension
  2
*D14
 10
-251.1487349419955
 20
-15.96786347911918
 30
0.0
 11
-254.5487349419956
 21
0.0320742665979504
 31
0.0
 70
    32
  1
%%C<>
  3
AM_JIS$0
100
AcDbAlignedDimension
 13
-228.5791499810694
 23
16.03201201231516
 33
0.0
 14
-228.5791499810692
 24
-15.96786347911919
 34
0.0
 50
270.0
100
AcDbRotatedDimension
1001
ACAD
1000
DSTYLE
1002
{
1070
   271
1070
     3
1002
}
1001
GENIUS_GENDTOL_13
1000

1000
h7
1000

1040
0.0
  0
LINE
  5
535B
330
1F
100
AcDbEntity
  8
PV0001_1
  6
CONTINUOUS
 48
0.5
100
AcDbLine
 10
-229.4566684784725
 20
-15.1194809076073
 30
0.0
 11
-228.6081211151846
 21
-15.96800996034226
 31
0.0
  0
LINE
  5
535C
330
1F
100
AcDbEntity
  8
PV0001_1
  6
CONTINUOUS
 48
0.5
100
AcDbLine
 10
-229.4566684784727
 20
15.18332731993292
 30
0.0
 11
-228.6081211151847
 21
16.03185637266555
 31
0.0
  0
LINE
  5
535D
330
1F
100
AcDbEntity
  8
PV0001_1
  6
CONTINUOUS
 48
0.5
100
AcDbLine
 10
-229.4567783417367
 20
0.0319644048926962
 30
0.0
 11
-229.4567783417368
 21
15.18348295958018
 31
0.0
  0
LINE
  5
535E
330
1F
100
AcDbEntity
  8
PV0001_1
  6
CONTINUOUS
 48
0.5
100
AcDbLine
 10
-229.4567783417367
 20
0.0319644048926962
 30
0.0
 11
-229.4567783417366
 21
-15.11955414979422
 31
0.0
  0
LINE
  5
535F
330
1F
100
AcDbEntity
  8
PV0001_1
  6
CONTINUOUS
100
AcDbLine
 10
-169.4567783417366
 20
-15.96804658143571
 30
0.0
 11
-169.4567783417368
 21
16.03196623594651
 31
0.0
  0
LINE
  5
5360
330
1F
100
AcDbEntity
  8
PV0001_1
  6
CONTINUOUS
 48
0.5
100
AcDbLine
 10
-228.6082675995686
 20
0.0319644048926984
 30
0.0
 11
-228.6082675995688
 21
16.03201201231515
 31
0.0
  0
LINE
  5
5361
330
1F
100
AcDbEntity
  8
AM_0
100
AcDbLine
 10
-218.6155605243798
 20
-4.841229182760614
 30
0.0
 11
-178.2980075244959
 21
-4.8412291827604
 31
0.0
  0
LINE
  5
5362
330
1F
100
AcDbEntity
  8
AM_0
100
AcDbLine
 10
-178.298007524496
 20
4.841229182758137
 30
0.0
 11
-218.61556052438
 21
4.841229182757923
 31
0.0
  0
LINE
  5
5363
330
1F
100
AcDbEntity
  8
PV0001_1
  6
CONTINUOUS
100
AcDbLine
 10
-228.5791499810692
 20
-15.968046581436
 30
0.0
 11
-169.4567783417366
 21
-15.96804658143571
 31
0.0
  0
LINE
  5
5364
330
1F
100
AcDbEntity
  8
PV0001_1
  6
CONTINUOUS
 48
0.5
100
AcDbLine
 10
-228.6082675995686
 20
0.0319644048926984
 30
0.0
 11
-228.6082675995686
 21
-15.96808320252976
 31
0.0
  0
ARC
  5
5365
330
1F
100
AcDbEntity
  8
AM_0
100
AcDbCircle
 10
-218.61556052438
 20
-0.0000000000013217
 30
0.0
 40
4.841229182759249
100
AcDbArc
 50
90.00000000000161
 51
270.0000000000016
  0
ARC
  5
5366
330
1F
100
AcDbEntity
  8
AM_0
100
AcDbCircle
 10
-178.298007524496
 20
-0.0000000000011079
 30
0.0
 40
4.841229182759249
100
AcDbArc
 50
270.0
 51
90.0
  0
LINE
  5
5367
330
1F
100
AcDbEntity
  8
PV0001_1
  6
CONTINUOUS
100
AcDbLine
 10
-169.4567783417368
 20
16.03196623594651
 30
0.0
 11
-228.5791499810694
 21
16.03196623594622
 31
0.0
  0
DIMENSION
  5
5368
330
1F
100
AcDbEntity
  8
AM_5
100
AcDbDimension
  2
*D15
 10
-173.4567783417367
 20
-31.47941722561927
 30
0.0
 11
-198.456784024438
 21
-28.07941722561928
 31
0.0
 70
    32
  1
<>
  3
AM_JIS$0
100
AcDbAlignedDimension
 13
-223.4567897071392
 23
-0.0000000000013286
 33
0.0
 14
-173.4567783417367
 24
-0.0000000000010855
 34
0.0
 50
0.0000000000004184
100
AcDbRotatedDimension
1001
ACAD
1000
DSTYLE
1002
{
1070
   271
1070
     3
1002
}
1001
GENIUS_GENDTOL_13
1000

1000
h7
1000

1040
0.0
  0
DIMENSION
  5
5369
330
1F
100
AcDbEntity
  8
AM_5
100
AcDbDimension
  2
*D16
 10
-223.4567897071392
 20
-31.47941722561963
 30
0.0
 11
-226.4567411091004
 21
-31.47941722561963
 31
0.0
 70
   160
  1
<>
  3
AM_JIS$0
100
AcDbAlignedDimension
 13
-229.4566925110615
 23
-11.81209445906851
 33
0.0
 14
-223.4567897071392
 24
-0.0000000000013286
 34
0.0
 50
0.0000000000004185
100
AcDbRotatedDimension
1001
ACAD
1000
DSTYLE
1002
{
1070
   271
1070
     3
1002
}
1001
GENIUS_GENDTOL_13
1000

1000
h7
1000

1040
0.0
  0
DIMENSION
  5
536A
330
1F
100
AcDbEntity
  8
AM_5
100
AcDbDimension
  2
*D17
 10
-229.4567783417366
 20
-44.05323952270349
 30
0.0
 11
-199.4567783417366
 21
-40.65323952270349
 31
0.0
 70
    32
  1
<>
  3
AM_JIS$0
100
AcDbAlignedDimension
 13
-169.4567783417366
 23
-15.96804658143571
 33
0.0
 14
-229.4567783417366
 24
-15.11955414979422
 34
0.0
 50
0.0000000000004184
100
AcDbRotatedDimension
1001
ACAD
1000
DSTYLE
1002
{
1070
   271
1070
     3
1002
}
1001
GENIUS_GENDTOL_13
1000

1000
h7
1000

1040
0.0
  0
SPLINE
  5
54FE
330
1F
100
AcDbEntity
  8
PV0001_1
  6
CONTINUOUS
100
AcDbSpline
210
0.0
220
0.0
230
1.0
 70
     8
 71
     3
 72
    25
 73
    21
 74
     0
 42
0.0000000001
 43
0.0000000001
 40
24.56499986022253
 40
24.56499986022253
 40
24.56499986022253
 40
24.56499986022253
 40
24.6081876908653
 40
25.71582455492886
 40
26.81883757994213
 40
27.91624752121713
 40
29.00722033829659
 40
30.09105838626677
 40
31.16722880550176
 40
32.23537921050758
 40
33.29534548809967
 40
34.347168041821
 40
35.39108718934584
 40
36.42754827133493
 40
37.45720575381954
 40
38.48085062012849
 40
39.49948440763516
 40
40.51422944315121
 40
41.52631975251916
 40
42.53706336680078
 40
42.53706336680078
 40
42.53706336680078
 40
42.53706336680078
 10
-14.17371037062812
 20
3.807214570092769
 30
0.0
 10
-14.19716185148092
 20
3.818909324459584
 30
0.0
 10
-14.82210777399654
 20
4.130438885241375
 30
0.0
 10
-16.04789057821679
 20
4.735258059875489
 30
0.0
 10
-17.8538905921022
 20
5.602904750364085
 30
0.0
 10
-19.6590927763649
 20
6.441135975092086
 30
0.0
 10
-21.46334973888239
 20
7.244450792604933
 30
0.0
 10
-23.26652505658973
 20
8.007569625952857
 30
0.0
 10
-25.06848451446982
 20
8.725455606837536
 30
0.0
 10
-26.86909403480675
 20
9.393368970885138
 30
0.0
 10
-28.66824089268176
 20
10.00681990078531
 30
0.0
 10
-30.46579997404709
 20
10.56172053604921
 30
0.0
 10
-32.26167025992171
 20
11.05427089898811
 30
0.0
 10
-34.05575246460058
 20
11.48110894483277
 30
0.0
 10
-35.8479438313651
 20
11.839235239441
 30
0.0
 10
-37.63815320661547
 20
12.12608667193697
 30
0.0
 10
-39.42628433944122
 20
12.33957734133015
 30
0.0
 10
-41.21227378570702
 20
12.47798290997582
 30
0.0
 10
-42.9960493822004
 20
12.54015380247048
 30
0.0
 10
-44.18398332074518
 20
12.53028438975866
 30
0.0
 10
-44.77716888399136
 20
12.51248786242465
 30
0.0
  0
LINE
  5
54FF
330
1F
100
AcDbEntity
  8
AM_0
100
AcDbLine
 10
-18.10772186473039
 20
5.717680124100027
 30
0.0
 11
-18.02448617038311
 21
12.49999999999993
 31
0.0
  0
SPLINE
  5
5500
330
1F
100
AcDbEntity
  8
PV0001_1
  6
CONTINUOUS
 48
0.5
100
AcDbSpline
210
0.0
220
0.0
230
1.0
 70
     8
 71
     3
 72
    15
 73
    11
 74
     0
 42
0.0000000001
 43
0.0000000001
 40
0.0
 40
0.0
 40
0.0
 40
0.0
 40
1.010743614677189
 40
2.022833924044153
 40
3.037578959561199
 40
4.056212747067873
 40
5.079857613375832
 40
6.109500119648989
 40
7.14596120163808
 40
7.360183141457864
 40
7.360183141457864
 40
7.360183141457864
 40
7.360183141457864
 10
-18.02460903032167
 20
12.48998672182827
 30
0.0
 10
-18.59126149977902
 20
12.48991160746237
 30
0.0
 10
-19.72543063294128
 20
12.46426270125342
 30
0.0
 10
-21.42618163491073
 20
12.34858333480904
 30
0.0
 10
-23.12688627932334
 20
12.15669366311646
 30
0.0
 10
-24.82747847370075
 20
11.88967229372278
 30
0.0
 10
-26.52794762871232
 20
11.54927039959113
 30
0.0
 10
-28.22826473513226
 20
11.13755157961237
 30
0.0
 10
-29.4748513795242
 20
10.78528408354289
 30
0.0
 10
-30.1556110000639
 20
10.57711577292864
 30
0.0
 10
-30.34000015045508
 20
10.51459165776347
 30
0.0
  0
LINE
  5
5501
330
1F
100
AcDbEntity
  8
AM_0
100
AcDbLine
 10
-19.45677834173696
 20
-12.47300357454748
 30
0.0
 11
-19.45677834173666
 21
6.343161282966899
 31
0.0
  0
SPLINE
  5
5502
330
1F
100
AcDbEntity
  8
PV0001_1
  6
CONTINUOUS
100
AcDbSpline
210
0.0
220
0.0
230
1.0
 70
     8
 71
     3
 72
    17
 73
    13
 74
     0
 42
0.0000000001
 43
0.0000000001
 40
1.580019955310467
 40
1.580019955310467
 40
1.580019955310467
 40
1.580019955310467
 40
2.030549285115227
 40
3.082371838836284
 40
4.126290986361125
 40
5.162752068350215
 40
6.192395305374981
 40
7.216039564037012
 40
8.234688489606833
 40
9.249433870634691
 40
10.26152376260694
 40
11.27226744710342
 40
11.27226744710342
 40
11.27226744710342
 40
11.27226744710352
 10
-35.97254203150871
 20
-9.225368082378977
 30
0.0
 10
-36.2245394341721
 20
-9.32038170976485
 30
0.0
 10
-37.06629542066835
 20
-9.631801564404984
 30
0.0
 10
-38.50338163636632
 20
-10.12027474920436
 30
0.0
 10
-40.2834255091177
 20
-10.66729991577924
 30
0.0
 10
-42.06395942628056
 20
-11.14751538260003
 30
0.0
 10
-43.84457492688598
 20
-11.55930847819992
 30
0.0
 10
-45.62538442235902
 20
-11.89968379971529
 30
0.0
 10
-47.40631694884989
 20
-12.16669897527022
 30
0.0
 10
-49.1873603704562
 20
-12.35862365718308
 30
0.0
 10
-50.96847080688023
 20
-12.47422240398781
 30
0.0
 10
-52.15616595843606
 20
-12.50000007152517
 30
0.0
 10
-52.7496183079743
 20
-12.49999999999907
 30
0.0
  0
LINE
  5
5503
330
1F
100
AcDbEntity
  8
PV0001_1
  6
CONTINUOUS
 48
0.5
100
AcDbLine
 10
-94.08422994854685
 20
-12.49999999999828
 30
0.0
 11
-52.74961830797453
 21
-12.49999999999934
 31
0.0
  0
LINE
  5
5504
330
1F
100
AcDbEntity
  8
PV0001_1
  6
CONTINUOUS
 48
0.5
100
AcDbLine
 10
-90.39654804958361
 20
12.5000000000016
 30
0.0
 11
-45.19340850010808
 21
12.50000000000043
 31
0.0
  0
SPLINE
  5
5505
330
1F
100
AcDbEntity
  8
PV0001_1
  6
CONTINUOUS
100
AcDbSpline
210
0.0
220
0.0
230
1.0
 70
     8
 71
     3
 72
    55
 73
    51
 74
     0
 42
0.0000000001
 43
0.0000000001
 40
0.0
 40
0.0
 40
0.0
 40
0.0
 40
1.010743684496582
 40
2.022833576467832
 40
3.037578957496688
 40
4.056212745003489
 40
5.079857003664532
 40
6.109500240690281
 40
7.145961322679372
 40
8.189895241603872
 40
9.241717795325891
 40
10.30168407291828
 40
11.36983447792315
 40
12.44600489715814
 40
13.52984294512926
 40
14.62081576220742
 40
15.7182257034828
 40
16.82123173843959
 40
17.92886860250316
 40
19.0400688939571
 40
20.15368796660465
 40
21.26852814259644
 40
22.38336992938901
 40
23.49698739941135
 40
24.6081876908653
 40
25.71582455492886
 40
26.81883757994213
 40
27.91624752121713
 40
29.00722033829659
 40
30.09105838626677
 40
31.16722880550176
 40
32.23537921050758
 40
33.29534548809967
 40
34.347168041821
 40
35.39108718934584
 40
36.42754827133493
 40
37.45720575381954
 40
38.48085062012849
 40
39.49948440763516
 40
40.51422944315121
 40
41.52631975251916
 40
42.53706336719636
 40
43.54780698187354
 40
44.55989729124051
 40
45.57464232675757
 40
46.59327611426424
 40
47.6169209805722
 40
48.64656348684535
 40
49.68302456883444
 40
50.58557219878025
 40
50.58557219878025
 40
50.58557219878025
 40
50.58557219878025
 10
-19.45677834173696
 20
-12.50000000000029
 30
0.0
 10
-19.79153578305746
 20
-12.492562802831
 30
0.0
 10
-20.97923091579053
 20
-12.47767850290511
 30
0.0
 10
-22.7603413899929
 20
-12.3576943357786
 30
0.0
 10
-24.54137583530467
 20
-12.16695085340876
 30
0.0
 10
-26.32230005206995
 20
-11.89961660834733
 30
0.0
 10
-28.10309626946852
 20
-11.5593144921622
 30
0.0
 10
-29.88372935637264
 20
-11.14755777413443
 30
0.0
 10
-31.66420526892105
 20
-10.66712019427898
 30
0.0
 10
-33.44450821789058
 20
-10.12094372246328
 30
0.0
 10
-35.22462607617353
 20
-9.512381849090637
 30
0.0
 10
-37.00456771667339
 20
-8.845254454132627
 30
0.0
 10
-38.78433790642887
 20
-8.123644402981359
 30
0.0
 10
-40.56395888224284
 20
-7.352043901507557
 30
0.0
 10
-42.34343879188313
 20
-6.535194600112077
 30
0.0
 10
-44.12279413600026
 20
-5.678134089225078
 30
0.0
 10
-45.90204464788603
 20
-4.786149747762817
 30
0.0
 10
-47.68120594319279
 20
-3.864726857395874
 30
0.0
 10
-49.46029528888352
 20
-2.919532527343415
 30
0.0
 10
-51.2393317219705
 20
-1.956384316411281
 30
0.0
 10
-53.01833084629645
 20
-0.9812032639818378
 30
0.0
 10
-54.79731778408477
 20
-0.0000025504531903
 30
0.0
 10
-56.57629673571031
 20
0.9812158252998026
 30
0.0
 10
-58.35530182285359
 20
1.956381691580972
 30
0.0
 10
-60.13433605969622
 20
2.919532817907674
 30
0.0
 10
-61.91342857748361
 20
3.864730748729236
 30
0.0
 10
-63.69259725360475
 20
4.78614577551095
 30
0.0
 10
-65.47185057361796
 20
5.678134640575057
 30
0.0
 10
-67.25120617461488
 20
6.535194456474266
 30
0.0
 10
-69.03068601950545
 20
7.35204392965006
 30
0.0
 10
-70.81030699987628
 20
8.123644432253481
 30
0.0
 10
-72.59007723496397
 20
8.845254310856551
 30
0.0
 10
-74.37001869175446
 20
9.512382387012671
 30
0.0
 10
-76.15012889974484
 20
10.12093888679192
 30
0.0
 10
-77.9304208395969
 20
10.66712251215655
 30
0.0
 10
-79.71089609168109
 20
11.14756975300786
 30
0.0
 10
-81.49154189290225
 20
11.55927944270271
 30
0.0
 10
-83.2723439935483
 20
11.8996868895859
 30
0.0
 10
-85.05326873825923
 20
12.16670424440598
 30
0.0
 10
-86.8343044210879
 20
12.35860604245971
 30
0.0
 10
-88.61541338512076
 20
12.47424106133483
 30
0.0
 10
-90.396561487943
 20
12.51287089488828
 30
0.0
 10
-92.17770958814453
 20
12.47424106127445
 30
0.0
 10
-93.95881856005484
 20
12.35860604270276
 30
0.0
 10
-95.73985421388112
 20
12.16670424349056
 30
0.0
 10
-97.52077906732891
 20
11.89968689302737
 30
0.0
 10
-99.30157207744255
 20
11.55928108930458
 30
0.0
 10
-101.082210863597
 20
11.14757396251731
 30
0.0
 10
-102.7817317699071
 20
10.68893177516201
 30
0.0
 10
-103.8844002886151
 20
10.35352240769563
 30
0.0
 10
-105.301065835961
 20
9.819169812021522
 30
0.0
  0
SPLINE
  5
5506
330
1F
100
AcDbEntity
  8
PV0001_1
  6
CONTINUOUS
100
AcDbSpline
210
0.0
220
0.0
230
1.0
 70
     8
 71
     3
 72
    47
 73
    43
 74
     0
 42
0.0000000001
 43
0.0000000001
 40
0.0
 40
0.0
 40
0.0
 40
0.0
 40
1.010743684496582
 40
2.022833576467832
 40
3.037578957496688
 40
4.056212745003489
 40
5.079857003664532
 40
6.109500240690281
 40
7.145961322679372
 40
8.189895241603872
 40
9.241717795325891
 40
10.30168407291828
 40
11.36983447792315
 40
12.44600489715814
 40
13.52984294512926
 40
14.62081576220742
 40
15.7182257034828
 40
16.82123173843959
 40
17.92886860250316
 40
19.0400688939571
 40
20.15368796660465
 40
21.26852814259644
 40
22.38336992938901
 40
23.49698739941135
 40
24.6081876908653
 40
25.71582455492886
 40
26.81883757994213
 40
27.91624752121713
 40
29.00722033829659
 40
30.09105838626677
 40
31.16722880550176
 40
32.23537921050758
 40
33.29534548809967
 40
34.347168041821
 40
35.39108718934584
 40
36.42754827133493
 40
37.45720575381954
 40
38.48085062012849
 40
39.49948440763516
 40
40.51422944315121
 40
41.52631975251916
 40
42.53706336679711
 40
42.53706336679711
 40
42.53706336679711
 40
42.53706336679711
 10
-49.22434368920495
 20
-12.4999999999992
 30
0.0
 10
-49.81779604657262
 20
-12.49256280283021
 30
0.0
 10
-51.00549117930571
 20
-12.47767850290434
 30
0.0
 10
-52.78660165350806
 20
-12.35769433577782
 30
0.0
 10
-54.56763609881981
 20
-12.16695085340798
 30
0.0
 10
-56.34856031558512
 20
-11.89961660834655
 30
0.0
 10
-58.12935653298374
 20
-11.55931449216142
 30
0.0
 10
-59.90998961988784
 20
-11.14755777413364
 30
0.0
 10
-61.69046553243619
 20
-10.6671201942782
 30
0.0
 10
-63.47076848140574
 20
-10.12094372246249
 30
0.0
 10
-65.2508863396887
 20
-9.512381849089852
 30
0.0
 10
-67.03082798018859
 20
-8.845254454131843
 30
0.0
 10
-68.8105981699441
 20
-8.12364440298058
 30
0.0
 10
-70.59021914575803
 20
-7.352043901506777
 30
0.0
 10
-72.36969905539829
 20
-6.535194600111297
 30
0.0
 10
-74.14905439951542
 20
-5.678134089224296
 30
0.0
 10
-75.92830491140116
 20
-4.786149747762034
 30
0.0
 10
-77.70746620670799
 20
-3.864726857395094
 30
0.0
 10
-79.4865555523987
 20
-2.919532527342635
 30
0.0
 10
-81.26559198548564
 20
-1.956384316410498
 30
0.0
 10
-83.04459110981166
 20
-0.9812032639810555
 30
0.0
 10
-84.82357804759995
 20
-0.0000025504524082
 30
0.0
 10
-86.60255699922551
 20
0.9812158253005854
 30
0.0
 10
-88.38156208636885
 20
1.956381691581754
 30
0.0
 10
-90.16059632321141
 20
2.919532817908454
 30
0.0
 10
-91.93968884099872
 20
3.864730748730018
 30
0.0
 10
-93.71885751711996
 20
4.786145775511734
 30
0.0
 10
-95.49811083713313
 20
5.678134640575837
 30
0.0
 10
-97.27746643813006
 20
6.535194456475048
 30
0.0
 10
-99.05694628302063
 20
7.352043929650847
 30
0.0
 10
-100.8365672633915
 20
8.123644432254263
 30
0.0
 10
-102.616337498479
 20
8.845254310857331
 30
0.0
 10
-104.3962789552696
 20
9.512382387013454
 30
0.0
 10
-106.17638916326
 20
10.12093888679271
 30
0.0
 10
-107.956681103112
 20
10.66712251215733
 30
0.0
 10
-109.7371563551962
 20
11.14756975300864
 30
0.0
 10
-111.5178021564174
 20
11.5592794427035
 30
0.0
 10
-113.2986042570635
 20
11.89968688958668
 30
0.0
 10
-115.0795290017744
 20
12.16670424440677
 30
0.0
 10
-116.8605646846031
 20
12.35860604246049
 30
0.0
 10
-118.641673648402
 20
12.47424106132041
 30
0.0
 10
-119.8293692848031
 20
12.50000000000253
 30
0.0
 10
-120.4228217503184
 20
12.50000000000264
 30
0.0
  0
LINE
  5
5507
330
1F
100
AcDbEntity
  8
AM_11
 48
0.5
100
AcDbLine
 10
-120.4228217503184
 20
12.5000000000018
 30
0.0
 11
-18.03993889186253
 21
12.49999999999967
 31
0.0
  0
VIEWPORT
  5
110
330
101
100
AcDbEntity
 67
     1
  8
0
100
AcDbViewport
 10
420.5
 20
297.0
 30
0.0
 40
948.9782706766916
 41
628.452
 68
     1
 69
     1
1001
ACAD
1000
MVIEW
1002
{
1070
    16
1010
0.0
1020
0.0
1030
0.0
1010
0.0
1020
0.0
1030
1.0
1040
0.0
1040
628.452
1040
420.5
1040
297.0
1040
50.0
1040
0.0
1040
0.0
1070
     0
1070
   100
1070
     1
1070
     1
1070
     0
1070
     0
1070
     0
1070
     0
1040
0.0
1040
0.0
1040
0.0
1040
10.0
1040
10.0
1040
10.0
1040
10.0
1070
     0
1002
{
1002
}
1002
}
  0
ENDSEC
  0
SECTION
  2
OBJECTS
  0
DICTIONARY
  5
C
330
0
100
AcDbDictionary
  3
ACAD_GROUP
350
D
  3
ACAD_LAYOUT
350
1A
  3
ACAD_MLINESTYLE
350
17
  3
ACAD_PLOTSETTINGS
350
19
  3
ACAD_PLOTSTYLENAME
350
E
  3
ACDBVARIABLEDICTIONARY
350
34
  3
ACMDICTIONARY
350
43
  3
AMG
350
2B
  3
AMGSNAPSETTINGS
350
6E
  3
DWGPROPS
350
5524
  3
ACDBHEADERROUNDTRIPXREC
350
5534
  0
DICTIONARY
  5
74
330
1F
100
AcDbDictionary
280
     1
  3
ACAD_INDEX
360
5526
  3
ACAD_LAYOUTSELFREF
360
5557
  0
DICTIONARY
  5
555C
330
101
100
AcDbDictionary
280
     1
  3
ACAD_LAYOUTSELFREF
360
555D
  0
DICTIONARY
  5
D
102
{ACAD_REACTORS
330
C
102
}
330
C
100
AcDbDictionary
  0
DICTIONARY
  5
1A
102
{ACAD_REACTORS
330
C
102
}
330
C
100
AcDbDictionary
  0
DICTIONARY
  5
17
102
{ACAD_REACTORS
330
C
102
}
330
C
100
AcDbDictionary
  3
STANDARD
350
18
  0
DICTIONARY
  5
19
102
{ACAD_REACTORS
330
C
102
}
330
C
100
AcDbDictionary
  0
ACDBDICTIONARYWDFLT
  5
E
102
{ACAD_REACTORS
330
C
102
}
330
C
100
AcDbDictionary
281
     1
  3
Normal
350
F
100
AcDbDictionaryWithDefault
340
F
  0
DICTIONARY
  5
34
102
{ACAD_REACTORS
330
C
102
}
330
C
100
AcDbDictionary
  3
INDEXCTL
350
35
  3
SORTENTS
350
B5E
  0
DICTIONARY
  5
43
102
{ACAD_REACTORS
330
C
102
}
330
C
100
AcDbDictionary
  3
ACMSTDDICTIONARY
350
260
  0
DICTIONARY
  5
2B
102
{ACAD_REACTORS
330
C
102
}
330
C
100
AcDbDictionary
  3
ACMGSETTINGS
350
2C
  0
DICTIONARY
  5
6E
102
{ACAD_REACTORS
330
C
102
}
330
C
100
AcDbDictionary
  0
XRECORD
  5
5524
102
{ACAD_REACTORS
330
C
102
}
330
C
100
AcDbXrecord
  1
DWGPROPS COOKIE
  2

  3

  4

  6

  7

  8

  9

300
AmdtFileType=82
301
=
302
=
303
=
304
=
305
=
306
=
307
=
308
=
309
=
 40
0.5113481597222222
 41
2452800.443498622
 42
2453002.142779872
  1

 90
        1
  0
DICTIONARY
  5
5534
102
{ACAD_REACTORS
330
C
102
}
330
C
100
AcDbDictionary
  3
TSTACKALIGN
350
5535
  3
TSTACKSIZE
350
5536
  3
HYPERLINKBASE
350
5537
  3
STYLESHEET
350
5538
  3
LAYOUTDICT
350
5539
  3
PLOTSETDICT
350
553A
  3
PLOTSTYLNAMDICT
350
553B
  3
LWETCUNION
350
553C
  3
INSUNITS
350
553D
  3
CEPSNTYPE
350
553E
  3
FINGERPRINTGUID
350
553F
  3
VERSIONGUID
350
5540
  3
PSVPSCALE
350
5541
  3
DIMSTYLEDATA
350
5542
  3
PUCSORTHOREF
350
5543
  3
PUCSORTHOVIEW
350
5544
  3
PUCSBASE
350
5545
  3
PUCSORGTOP
350
5546
  3
PUCSORGBOTTOM
350
5547
  3
PUCSORGLEFT
350
5548
  3
PUCSORGRIGHT
350
5549
  3
PUCSORGFRONT
350
554A
  3
PUCSORGBACK
350
554B
  3
UCSORTHOREF
350
554C
  3
UCSORTHOVIEW
350
554D
  3
UCSBASE
350
554E
  3
UCSORGTOP
350
554F
  3
UCSORGBOTTOM
350
5550
  3
UCSORGLEFT
350
5551
  3
UCSORGRIGHT
350
5552
  3
UCSORGFRONT
350
5553
  3
UCSORGBACK
350
5554
  0
DICTIONARY
  5
5526
102
{ACAD_REACTORS
330
74
102
}
330
74
100
AcDbDictionary
  3
*A1
350
5527
  0
XRECORD
  5
5557
102
{ACAD_REACTORS
330
74
102
}
330
74
100
AcDbXrecord
340
1F
  0
XRECORD
  5
555D
102
{ACAD_REACTORS
330
555C
102
}
330
555C
100
AcDbXrecord
340
101
  0
MLINESTYLE
  5
18
102
{ACAD_REACTORS
330
17
102
}
330
17
100
AcDbMlineStyle
  2
STANDARD
 70
     0
  3

 62
   256
 51
90.0
 52
90.0
 71
     2
 49
0.5
 62
   256
  6
BYLAYER
 49
-0.5
 62
   256
  6
BYLAYER
  0
ACDBPLACEHOLDER
  5
F
102
{ACAD_REACTORS
330
E
102
}
330
E
100
AcDbPlaceHolder
280
     0
  0
DICTIONARYVAR
  5
35
102
{ACAD_REACTORS
330
34
102
}
330
34
100
DictionaryVariables
280
     0
  1
1
  0
DICTIONARYVAR
  5
B5E
102
{ACAD_REACTORS
330
34
102
}
330
34
100
DictionaryVariables
280
     0
  1
96
  0
DICTIONARY
  5
260
102
{ACAD_REACTORS
330
43
102
}
330
43
100
AcDbDictionary
  0
DICTIONARY
  5
2C
102
{ACAD_REACTORS
330
2B
102
}
330
2B
100
AcDbDictionary
  3
DWGSETTINGS
350
2D
  0
XRECORD
  5
5535
102
{ACAD_REACTORS
330
5534
102
}
330
5534
100
AcDbXrecord
 90
        1
  0
XRECORD
  5
5536
102
{ACAD_REACTORS
330
5534
102
}
330
5534
100
AcDbXrecord
 90
       70
  0
XRECORD
  5
5537
102
{ACAD_REACTORS
330
5534
102
}
330
5534
100
AcDbXrecord
  1

  0
XRECORD
  5
5538
102
{ACAD_REACTORS
330
5534
102
}
330
5534
100
AcDbXrecord
  1
ASAMI.ctb
  0
XRECORD
  5
5539
102
{ACAD_REACTORS
330
5534
102
}
330
5534
100
AcDbXrecord
340
1A
  0
XRECORD
  5
553A
102
{ACAD_REACTORS
330
5534
102
}
330
5534
100
AcDbXrecord
340
19
  0
XRECORD
  5
553B
102
{ACAD_REACTORS
330
5534
102
}
330
5534
100
AcDbXrecord
340
E
  0
XRECORD
  5
553C
102
{ACAD_REACTORS
330
5534
102
}
330
5534
100
AcDbXrecord
 90
    10781
  0
XRECORD
  5
553D
102
{ACAD_REACTORS
330
5534
102
}
330
5534
100
AcDbXrecord
 90
        4
  0
XRECORD
  5
553E
102
{ACAD_REACTORS
330
5534
102
}
330
5534
100
AcDbXrecord
 90
        0
  0
XRECORD
  5
553F
102
{ACAD_REACTORS
330
5534
102
}
330
5534
100
AcDbXrecord
  1
{AFB28963-8C59-40AE-9337-C84526B81ACE}
  0
XRECORD
  5
5540
102
{ACAD_REACTORS
330
5534
102
}
330
5534
100
AcDbXrecord
  1
{D4F0B21D-A70A-49B3-9685-850B3B393ABC}
  0
XRECORD
  5
5541
102
{ACAD_REACTORS
330
5534
102
}
330
5534
100
AcDbXrecord
 40
0.0
  0
XRECORD
  5
5542
102
{ACAD_REACTORS
330
5534
102
}
330
5534
100
AcDbXrecord
1000
DSTYLE
1002
{
1070
    79
 70
     2
1070
   341
340
59
1070
   342
340
59
1070
   371
 70
    -1
1070
   372
 70
    -1
1002
}
  0
XRECORD
  5
5543
102
{ACAD_REACTORS
330
5534
102
}
330
5534
100
AcDbXrecord
340
0
  0
XRECORD
  5
5544
102
{ACAD_REACTORS
330
5534
102
}
330
5534
100
AcDbXrecord
 70
     0
  0
XRECORD
  5
5545
102
{ACAD_REACTORS
330
5534
102
}
330
5534
100
AcDbXrecord
340
0
  0
XRECORD
  5
5546
102
{ACAD_REACTORS
330
5534
102
}
330
5534
100
AcDbXrecord
 10
0.0
 20
0.0
 30
0.0
  0
XRECORD
  5
5547
102
{ACAD_REACTORS
330
5534
102
}
330
5534
100
AcDbXrecord
 10
0.0
 20
0.0
 30
0.0
  0
XRECORD
  5
5548
102
{ACAD_REACTORS
330
5534
102
}
330
5534
100
AcDbXrecord
 10
0.0
 20
0.0
 30
0.0
  0
XRECORD
  5
5549
102
{ACAD_REACTORS
330
5534
102
}
330
5534
100
AcDbXrecord
 10
0.0
 20
0.0
 30
0.0
  0
XRECORD
  5
554A
102
{ACAD_REACTORS
330
5534
102
}
330
5534
100
AcDbXrecord
 10
0.0
 20
0.0
 30
0.0
  0
XRECORD
  5
554B
102
{ACAD_REACTORS
330
5534
102
}
330
5534
100
AcDbXrecord
 10
0.0
 20
0.0
 30
0.0
  0
XRECORD
  5
554C
102
{ACAD_REACTORS
330
5534
102
}
330
5534
100
AcDbXrecord
340
0
  0
XRECORD
  5
554D
102
{ACAD_REACTORS
330
5534
102
}
330
5534
100
AcDbXrecord
 70
     0
  0
XRECORD
  5
554E
102
{ACAD_REACTORS
330
5534
102
}
330
5534
100
AcDbXrecord
340
0
  0
XRECORD
  5
554F
102
{ACAD_REACTORS
330
5534
102
}
330
5534
100
AcDbXrecord
 10
0.0
 20
0.0
 30
0.0
  0
XRECORD
  5
5550
102
{ACAD_REACTORS
330
5534
102
}
330
5534
100
AcDbXrecord
 10
0.0
 20
0.0
 30
0.0
  0
XRECORD
  5
5551
102
{ACAD_REACTORS
330
5534
102
}
330
5534
100
AcDbXrecord
 10
0.0
 20
0.0
 30
0.0
  0
XRECORD
  5
5552
102
{ACAD_REACTORS
330
5534
102
}
330
5534
100
AcDbXrecord
 10
0.0
 20
0.0
 30
0.0
  0
XRECORD
  5
5553
102
{ACAD_REACTORS
330
5534
102
}
330
5534
100
AcDbXrecord
 10
0.0
 20
0.0
 30
0.0
  0
XRECORD
  5
5554
102
{ACAD_REACTORS
330
5534
102
}
330
5534
100
AcDbXrecord
 10
0.0
 20
0.0
 30
0.0
  0
LAYER_INDEX
  5
5527
102
{ACAD_REACTORS
330
5526
102
}
330
5526
100
AcDbIndex
 40
2453151.709455463
100
AcDbLayerIndex
  8
0
360
5528
 90
        0
  8
AM_0
360
5529
 90
       11
  8
PV0001_1
360
552A
 90
       33
  8
AM_CL
360
552B
 90
        0
  8
AM_7
360
552C
 90
        1
  8
AM_11
360
552D
 90
        3
  8
AM_5
360
552E
 90
       10
  8
Defpoints
360
552F
 90
        0
  8
AM_6
360
5530
 90
        1
  8
AM_4
360
5531
 90
        0
  8
AM_3
360
5532
 90
        0
  0
XRECORD
  5
2D
102
{ACAD_REACTORS
330
2C
102
}
330
2C
100
AcDbXrecord
  1
VERSION
140
15.0
  1
PRODUCT
  2
AutoCAD Mechanical 2000
  0
IDBUFFER
  5
5528
330
0
100
AcDbIdBuffer
  0
IDBUFFER
  5
5529
330
0
100
AcDbIdBuffer
330
4BDC
330
5231
330
5236
330
5237
330
5240
330
5361
330
5362
330
5365
330
5366
330
54FF
330
5501
  0
IDBUFFER
  5
552A
330
0
100
AcDbIdBuffer
330
5251
330
535B
330
535C
330
535D
330
535E
330
535F
330
5360
330
5363
330
5364
330
5367
330
54FE
330
5500
330
5502
330
5503
330
5504
330
5505
330
5506
330
35F4
330
35F5
330
4534
330
4536
330
5202
330
5203
330
522F
330
5230
330
5232
330
5234
330
5235
330
5238
330
523A
330
523D
330
523E
330
523F
  0
IDBUFFER
  5
552B
330
0
100
AcDbIdBuffer
  0
IDBUFFER
  5
552C
330
0
100
AcDbIdBuffer
330
35D1
  0
IDBUFFER
  5
552D
330
0
100
AcDbIdBuffer
330
46A5
330
5252
330
5507
  0
IDBUFFER
  5
552E
330
0
100
AcDbIdBuffer
330
36BA
330
3B0D
330
471A
330
4A5A
330
4A5C
330
5242
330
535A
330
5368
330
5369
330
536A
  0
IDBUFFER
  5
552F
330
0
100
AcDbIdBuffer
  0
IDBUFFER
  5
5530
330
0
100
AcDbIdBuffer
330
19BD
  0
IDBUFFER
  5
5531
330
0
100
AcDbIdBuffer
  0
IDBUFFER
  5
5532
330
0
100
AcDbIdBuffer
  0
ENDSEC
  0
EOF
