  0
SECTION
  2
HEADER
  9
$ACADVER
  1
AC1014
  9
$ACADMAINTVER
 70
     9
  9
$DWGCODEPAGE
  3
ANSI_932
  9
$INSBASE
 10
0.0
 20
0.0
 30
0.0
  9
$EXTMIN
 10
-256.6325770485922
 20
-80.14115508686316
 30
-0.00000001
  9
$EXTMAX
 10
36.08870150610942
 20
50.85268892050113
 30
0.00000001
  9
$LIMMIN
 10
-295.8553283438837
 20
-117.8129116789036
  9
$LIMMAX
 10
64.13911374381405
 20
79.3143963818128
  9
$ORTHOMODE
 70
     0
  9
$REGENMODE
 70
     1
  9
$FILLMODE
 70
     1
  9
$QTEXTMODE
 70
     0
  9
$MIRRTEXT
 70
     0
  9
$DRAGMODE
 70
     2
  9
$LTSCALE
 40
1.0
  9
$OSMODE
 70
    55
  9
$ATTMODE
 70
     1
  9
$TEXTSIZE
 40
2.5
  9
$TRACEWID
 40
1.0
  9
$TEXTSTYLE
  7
STANDARD
  9
$CLAYER
  8
AM_0
  9
$CELTYPE
  6
BYLAYER
  9
$CECOLOR
 62
   256
  9
$CELTSCALE
 40
1.0
  9
$DELOBJ
 70
     1
  9
$DISPSILH
 70
     0
  9
$DIMSCALE
 40
1.0
  9
$DIMASZ
 40
2.5
  9
$DIMEXO
 40
1.0
  9
$DIMDLI
 40
12.0
  9
$DIMRND
 40
0.0
  9
$DIMDLE
 40
0.0
  9
$DIMEXE
 40
1.0
  9
$DIMTP
 40
0.1
  9
$DIMTM
 40
0.1
  9
$DIMTXT
 40
3.2
  9
$DIMCEN
 40
0.0
  9
$DIMTSZ
 40
0.0
  9
$DIMTOL
 70
     0
  9
$DIMLIM
 70
     0
  9
$DIMTIH
 70
     0
  9
$DIMTOH
 70
     0
  9
$DIMSE1
 70
     0
  9
$DIMSE2
 70
     0
  9
$DIMTAD
 70
     3
  9
$DIMZIN
 70
     8
  9
$DIMBLK
  1
OPEN30
  9
$DIMASO
 70
     1
  9
$DIMSHO
 70
     1
  9
$DIMPOST
  1

  9
$DIMAPOST
  1
"
  9
$DIMALT
 70
     0
  9
$DIMALTD
 70
     2
  9
$DIMALTF
 40
0.0393701
  9
$DIMLFAC
 40
1.0
  9
$DIMTOFL
 70
     1
  9
$DIMTVP
 40
0.0
  9
$DIMTIX
 70
     0
  9
$DIMSOXD
 70
     0
  9
$DIMSAH
 70
     0
  9
$DIMBLK1
  1

  9
$DIMBLK2
  1

  9
$DIMSTYLE
  2
AM_JIS
  9
$DIMCLRD
 70
   256
  9
$DIMCLRE
 70
   256
  9
$DIMCLRT
 70
     2
  9
$DIMTFAC
 40
0.71
  9
$DIMGAP
 40
1.5
  9
$DIMJUST
 70
     0
  9
$DIMSD1
 70
     0
  9
$DIMSD2
 70
     0
  9
$DIMTOLJ
 70
     0
  9
$DIMTZIN
 70
     0
  9
$DIMALTZ
 70
     0
  9
$DIMALTTZ
 70
     0
  9
$DIMFIT
 70
     3
  9
$DIMUPT
 70
     0
  9
$DIMUNIT
 70
     2
  9
$DIMDEC
 70
     3
  9
$DIMTDEC
 70
     3
  9
$DIMALTU
 70
     2
  9
$DIMALTTD
 70
     2
  9
$DIMTXSTY
  7
ASAMI
  9
$DIMAUNIT
 70
     0
  9
$LUNITS
 70
     2
  9
$LUPREC
 70
     2
  9
$SKETCHINC
 40
1.0
  9
$FILLETRAD
 40
2.5
  9
$AUNITS
 70
     0
  9
$AUPREC
 70
     0
  9
$MENU
  1
.
  9
$ELEVATION
 40
0.0
  9
$PELEVATION
 40
0.0
  9
$THICKNESS
 40
0.0
  9
$LIMCHECK
 70
     0
  9
$BLIPMODE
 70
     0
  9
$CHAMFERA
 40
2.5
  9
$CHAMFERB
 40
2.5
  9
$CHAMFERC
 40
20.0
  9
$CHAMFERD
 40
0.0
  9
$SKPOLY
 70
     0
  9
$TDCREATE
 40
2452800.443498622
  9
$TDUPDATE
 40
2453151.709868692
  9
$TDINDWG
 40
0.5289142824
  9
$TDUSRTIMER
 40
0.5289142824
  9
$USRTIMER
 70
     1
  9
$ANGBASE
 50
0.0
  9
$ANGDIR
 70
     0
  9
$PDMODE
 70
     0
  9
$PDSIZE
 40
0.0
  9
$PLINEWID
 40
0.0
  9
$COORDS
 70
     1
  9
$SPLFRAME
 70
     0
  9
$SPLINETYPE
 70
     6
  9
$SPLINESEGS
 70
     8
  9
$ATTDIA
 70
     1
  9
$ATTREQ
 70
     1
  9
$HANDLING
 70
 12289
  9
$HANDSEED
  5
5692
  9
$SURFTAB1
 70
     6
  9
$SURFTAB2
 70
     6
  9
$SURFTYPE
 70
     6
  9
$SURFU
 70
     6
  9
$SURFV
 70
     6
  9
$UCSNAME
  2

  9
$UCSORG
 10
-0.0000000000002549
 20
-0.0000000000001167
 30
0.0
  9
$UCSXDIR
 10
1.0
 20
0.0000000000000027
 30
0.0
  9
$UCSYDIR
 10
-0.0000000000000027
 20
1.0
 30
0.0
  9
$PUCSNAME
  2

  9
$PUCSORG
 10
0.0
 20
0.0
 30
0.0
  9
$PUCSXDIR
 10
1.0
 20
0.0
 30
0.0
  9
$PUCSYDIR
 10
0.0
 20
1.0
 30
0.0
  9
$USERI1
 70
     0
  9
$USERI2
 70
     0
  9
$USERI3
 70
     0
  9
$USERI4
 70
     0
  9
$USERI5
 70
     0
  9
$USERR1
 40
0.0
  9
$USERR2
 40
0.0
  9
$USERR3
 40
0.0
  9
$USERR4
 40
0.0
  9
$USERR5
 40
0.0
  9
$WORLDVIEW
 70
     1
  9
$SHADEDGE
 70
     3
  9
$SHADEDIF
 70
    70
  9
$TILEMODE
 70
     1
  9
$MAXACTVP
 70
    64
  9
$PINSBASE
 10
0.0
 20
0.0
 30
0.0
  9
$PLIMCHECK
 70
     0
  9
$PEXTMIN
 10
1.000000000000000E+20
 20
1.000000000000000E+20
 30
1.000000000000000E+20
  9
$PEXTMAX
 10
-1.000000000000000E+20
 20
-1.000000000000000E+20
 30
-1.000000000000000E+20
  9
$PLIMMIN
 10
0.0
 20
0.0
  9
$PLIMMAX
 10
841.0
 20
594.0
  9
$UNITMODE
 70
     0
  9
$VISRETAIN
 70
     1
  9
$PLINEGEN
 70
     0
  9
$PSLTSCALE
 70
     0
  9
$TREEDEPTH
 70
  3020
  9
$PICKSTYLE
 70
     0
  9
$CMLSTYLE
  2
STANDARD
  9
$CMLJUST
 70
     0
  9
$CMLSCALE
 40
20.0
  9
$PROXYGRAPHICS
 70
     1
  9
$MEASUREMENT
 70
     1
  0
ENDSEC
  0
SECTION
  2
CLASSES
  0
CLASS
  1
ACDBDICTIONARYWDFLT
  2
AcDbDictionaryWithDefault
  3
AutoCAD 2000
 90
        0
280
     0
281
     0
  0
CLASS
  1
ACDBPLACEHOLDER
  2
AcDbPlaceHolder
  3
AutoCAD 2000
 90
        0
280
     0
281
     0
  0
CLASS
  1
LAYOUT
  2
AcDbLayout
  3
AutoCAD 2000
 90
        0
280
     0
281
     0
  0
CLASS
  1
AMGSETTINGSOBJ
  2
AmgSettingsObj
  3
"AcadM|Product Description: AutoCAD Mechanical 2000|Company: Autodesk"
 90
        0
280
     0
281
     0
  0
CLASS
  1
ACME_DOCUMENT
  2
AcMeDbDoc
  3
AcMeServices
 90
        0
280
     0
281
     0
  0
CLASS
  1
ACMESCOPE
  2
AcMeScope
  3
AcMeServices
 90
        0
280
     0
281
     0
  0
CLASS
  1
ACMECOMMANDHISTORY
  2
AcMeCommandHistory
  3
AcMeServices
 90
        0
280
     0
281
     0
  0
CLASS
  1
DICTIONARYVAR
  2
AcDbDictionaryVar
  3
AutoCAD 2000
 90
        0
280
     0
281
     0
  0
CLASS
  1
ACIMSYSVARMAN
  2
AcImSysVarManager
  3
AcMeServices
 90
        0
280
     0
281
     0
  0
CLASS
  1
ACIMREALSYSVAR
  2
AcImRealSysVar
  3
AcMeServices
 90
        0
280
     0
281
     0
  0
CLASS
  1
ACIMINTSYSVAR
  2
AcImIntSysVar
  3
AcMeServices
 90
        0
280
     0
281
     0
  0
CLASS
  1
ACMEDRAWINGMAN
  2
AcMeDrawingMan
  3
AcMeServices
 90
        0
280
     0
281
     0
  0
CLASS
  1
ACMEVIEW
  2
AcMeView
  3
AcMeServices
 90
        0
280
     0
281
     0
  0
CLASS
  1
ACDBENTITYCACHE
  2
AcMeEntityCache
  3
AcMeServices
 90
        0
280
     0
281
     0
  0
CLASS
  1
GSMANAGER
  2
AcMeGSManager
  3
AcMeServices
 90
        0
280
     0
281
     0
  0
CLASS
  1
AmdtInternalReactor
  2
AmdtInternalReactor
  3
AcMeServices
 90
        0
280
     0
281
     0
  0
CLASS
  1
ACMESTATEMGR
  2
AcMeStateMgr
  3
AcMeServices
 90
        0
280
     0
281
     0
  0
CLASS
  1
ACME_DATABASE
  2
AcMeDbDatabase
  3
AcMeServices
 90
        0
280
     0
281
     0
  0
CLASS
  1
ACRFINSADJUSTERMGR
  2
AcRfInsAdjusterMgr
  3
AcMeServices
 90
        0
280
     0
281
     0
  0
CLASS
  1
ACMDATADICTIONARY
  2
AcmDataDictionary
  3
"AcmSymBB|Product Description: AutoCAD Mechanical 2000|Company: Autodesk"
 90
        0
280
     0
281
     0
  0
CLASS
  1
ACMDATAENTRYBLOCK
  2
AcmDataEntryBlock
  3
"AcmSymBB|Product Description: AutoCAD Mechanical 2000|Company: Autodesk"
 90
        0
280
     0
281
     0
  0
CLASS
  1
AMGOBJPROPCFG
  2
AmgObjPropCfg
  3
"AmgLay|Product Description: AutoCAD Mechanical 2000|Company: Autodesk"
 90
        1
280
     0
281
     0
  0
CLASS
  1
ACAMGFILTERDAT
  2
AcAmgFilterDat
  3
"AcadM|Product Description: AutoCAD Mechanical 2000|Company: Autodesk"
 90
        0
280
     0
281
     0
  0
CLASS
  1
LAYER_INDEX
  2
AcDbLayerIndex
  3
AutoCAD 2000
 90
        0
280
     0
281
     0
  0
CLASS
  1
IDBUFFER
  2
AcDbIdBuffer
  3
AutoCAD 2000
 90
        0
280
     0
281
     0
  0
CLASS
  1
ACIMSTRSYSVAR
  2
AcImStrSysVar
  3
AcMeServices
 90
        0
280
     0
281
     0
  0
CLASS
  1
ACMSTANDARDJIS
  2
AcmStandardJIS
  3
"AcmSymBB|Product Description: AutoCAD Mechanical 2000|Company: Autodesk"
 90
        0
280
     0
281
     0
  0
CLASS
  1
ACMSURFSTANDARDJIS
  2
AcmSurfTextStdJIS
  3
"AcmSymBB|Product Description: AutoCAD Mechanical 2000|Company: Autodesk"
 90
        0
280
     0
281
     0
  0
CLASS
  1
ACMFCFSTANDARDJIS
  2
AcmFCFStdJIS
  3
"AcmSymBB|Product Description: AutoCAD Mechanical 2000|Company: Autodesk"
 90
        0
280
     0
281
     0
  0
CLASS
  1
ACMWELDSTANDARDJIS
  2
AcmWeldingStdJIS
  3
"AcmSymBB|Product Description: AutoCAD Mechanical 2000|Company: Autodesk"
 90
        0
280
     0
281
     0
  0
CLASS
  1
ACMIDSTANDARDJIS
  2
AcmIdStdJIS
  3
"AcmSymBB|Product Description: AutoCAD Mechanical 2000|Company: Autodesk"
 90
        0
280
     0
281
     0
  0
CLASS
  1
ACMDATUMSTANDARDJIS
  2
AcmDatumStdJIS
  3
"AcmSymBB|Product Description: AutoCAD Mechanical 2000|Company: Autodesk"
 90
        0
280
     0
281
     0
  0
CLASS
  1
ACMBOMSTANDARDJIS
  2
AcmBOMStdJIS
  3
"AcmSymBB|Product Description: AutoCAD Mechanical 2000|Company: Autodesk"
 90
        0
280
     0
281
     0
  0
CLASS
  1
ACMSTANDARDANSI
  2
AcmStandardANSI
  3
"AcmSymBB|Product Description: AutoCAD Mechanical 2000|Company: Autodesk"
 90
        0
280
     0
281
     0
  0
CLASS
  1
ACMSURFSTANDARDANSI
  2
AcmSurfTextStdANSI
  3
"AcmSymBB|Product Description: AutoCAD Mechanical 2000|Company: Autodesk"
 90
        0
280
     0
281
     0
  0
CLASS
  1
ACMFCFSTANDARDANSI
  2
AcmFCFStdANSI
  3
"AcmSymBB|Product Description: AutoCAD Mechanical 2000|Company: Autodesk"
 90
        0
280
     0
281
     0
  0
CLASS
  1
ACMWELDSTANDARDANSI
  2
AcmWeldingStdANSI
  3
"AcmSymBB|Product Description: AutoCAD Mechanical 2000|Company: Autodesk"
 90
        0
280
     0
281
     0
  0
CLASS
  1
ACMIDSTANDARDANSI
  2
AcmIdStdANSI
  3
"AcmSymBB|Product Description: AutoCAD Mechanical 2000|Company: Autodesk"
 90
        0
280
     0
281
     0
  0
CLASS
  1
ACMDATUMSTANDARDANSI
  2
AcmDatumStdANSI
  3
"AcmSymBB|Product Description: AutoCAD Mechanical 2000|Company: Autodesk"
 90
        0
280
     0
281
     0
  0
CLASS
  1
ACMBOMSTANDARDANSI
  2
AcmBOMStdANSI
  3
"AcmSymBB|Product Description: AutoCAD Mechanical 2000|Company: Autodesk"
 90
        0
280
     0
281
     0
  0
CLASS
  1
ACMSTANDARDBSI
  2
AcmStandardBSI
  3
"AcmSymBB|Product Description: AutoCAD Mechanical 2000|Company: Autodesk"
 90
        0
280
     0
281
     0
  0
CLASS
  1
ACMSURFSTANDARDBSI
  2
AcmSurfTextStdBSI
  3
"AcmSymBB|Product Description: AutoCAD Mechanical 2000|Company: Autodesk"
 90
        0
280
     0
281
     0
  0
CLASS
  1
ACMFCFSTANDARDBSI
  2
AcmFCFStdBSI
  3
"AcmSymBB|Product Description: AutoCAD Mechanical 2000|Company: Autodesk"
 90
        0
280
     0
281
     0
  0
CLASS
  1
ACMWELDSTANDARDBSI
  2
AcmWeldingStdBSI
  3
"AcmSymBB|Product Description: AutoCAD Mechanical 2000|Company: Autodesk"
 90
        0
280
     0
281
     0
  0
CLASS
  1
ACMIDSTANDARDBSI
  2
AcmIdStdBSI
  3
"AcmSymBB|Product Description: AutoCAD Mechanical 2000|Company: Autodesk"
 90
        0
280
     0
281
     0
  0
CLASS
  1
ACMDATUMSTANDARDBSI
  2
AcmDatumStdBSI
  3
"AcmSymBB|Product Description: AutoCAD Mechanical 2000|Company: Autodesk"
 90
        0
280
     0
281
     0
  0
CLASS
  1
ACMBOMSTANDARDBSI
  2
AcmBOMStdBSI
  3
"AcmSymBB|Product Description: AutoCAD Mechanical 2000|Company: Autodesk"
 90
        0
280
     0
281
     0
  0
CLASS
  1
LONG_TRANSACTION
  2
AcDbLongTransaction
  3
AutoCAD 2000
 90
        0
280
     0
281
     0
  0
CLASS
  1
LWPOLYLINE
  2
AcDbPolyline
  3
AutoCAD 2000
 90
        0
280
     0
281
     1
  0
CLASS
  1
HATCH
  2
AcDbHatch
  3
AutoCAD 2000
 90
        0
280
     0
281
     1
  0
CLASS
  1
XRECORD
  2
AcDbXrecord
  3
AutoCAD 2000
 90
        0
280
     0
281
     0
  0
ENDSEC
  0
SECTION
  2
TABLES
  0
TABLE
  2
VPORT
  5
8
330
0
100
AcDbSymbolTable
 70
     3
  0
VPORT
  5
5667
330
8
100
AcDbSymbolTableRecord
100
AcDbViewportTableRecord
  2
*ACTIVE
 70
     0
 10
0.0
 20
0.0
 11
1.0
 21
1.0
 12
-114.7105212481856
 22
0.6902811537294724
 13
0.0
 23
0.0
 14
2.5
 24
2.5
 15
10.0
 25
10.0
 16
0.0
 26
0.0
 36
1.0
 17
0.0
 27
0.0
 37
0.0
 40
261.7909904597232
 41
1.56570841889117
 42
50.0
 43
0.0
 44
0.0
 50
0.0
 51
0.0
 71
     0
 72
   100
 73
     1
 74
     1
 75
     0
 76
     0
 77
     0
 78
     0
  0
ENDTAB
  0
TABLE
  2
LTYPE
  5
5
330
0
100
AcDbSymbolTable
 70
    10
  0
LTYPE
  5
14
330
5
100
AcDbSymbolTableRecord
100
AcDbLinetypeTableRecord
  2
BYBLOCK
 70
     0
  3

 72
    65
 73
     0
 40
0.0
  0
LTYPE
  5
15
330
5
100
AcDbSymbolTableRecord
100
AcDbLinetypeTableRecord
  2
BYLAYER
 70
     0
  3

 72
    65
 73
     0
 40
0.0
  0
LTYPE
  5
16
330
5
100
AcDbSymbolTableRecord
100
AcDbLinetypeTableRecord
  2
CONTINUOUS
 70
     0
  3
Solid line
 72
    65
 73
     0
 40
0.0
  0
LTYPE
  5
4B
330
5
100
AcDbSymbolTableRecord
100
AcDbLinetypeTableRecord
  2
AM_ISO02W050
 70
     0
  3
__ __ __ __ __ __ __ __ __ __ __ __ __ __ __
 72
    65
 73
     2
 40
7.5
 49
6.0
 74
     0
 49
-1.5
 74
     0
  0
LTYPE
  5
4C
330
5
100
AcDbSymbolTableRecord
100
AcDbLinetypeTableRecord
  2
AM_ISO08W050
 70
     0
  3
____ . ____ . ____ . ____ . ____ . ____ . ____
 72
    65
 73
     4
 40
18.0
 49
12.0
 74
     0
 49
-1.5
 74
     0
 49
3.0
 74
     0
 49
-1.5
 74
     0
  0
LTYPE
  5
4D
330
5
100
AcDbSymbolTableRecord
100
AcDbLinetypeTableRecord
  2
AM_ISO09W050
 70
     0
  3
_____ . . _____ . . _____ . . ____ .. ____
 72
    65
 73
     6
 40
22.5
 49
12.0
 74
     0
 49
-1.5
 74
     0
 49
3.0
 74
     0
 49
-1.5
 74
     0
 49
3.0
 74
     0
 49
-1.5
 74
     0
  0
LTYPE
  5
4E
330
5
100
AcDbSymbolTableRecord
100
AcDbLinetypeTableRecord
  2
AMCONSTR
 70
     0
  3
_______________________
 72
    65
 73
     2
 40
9999.0
 49
9999.0
 74
     0
 49
0.0
 74
     0
  0
LTYPE
  5
4F
330
5
100
AcDbSymbolTableRecord
100
AcDbLinetypeTableRecord
  2
AM_ISO02W050X2
 70
     0
  3
 _ _ _ _ _ _ _ _ _ _ _ _
 72
    65
 73
     2
 40
3.75
 49
3.0
 74
     0
 49
-0.75
 74
     0
  0
LTYPE
  5
50
330
5
100
AcDbSymbolTableRecord
100
AcDbLinetypeTableRecord
  2
AM_ISO08W050X2
 70
     0
  3
__ . __ . __ . __ . __ . __
 72
    65
 73
     4
 40
9.0
 49
6.0
 74
     0
 49
-0.75
 74
     0
 49
1.5
 74
     0
 49
-0.75
 74
     0
  0
LTYPE
  5
53
330
5
100
AcDbSymbolTableRecord
100
AcDbLinetypeTableRecord
  2
AMZIGZAG
 70
     0
  3
/\/-/\/-/\/-/\/-/\/-/\/
 72
    65
 73
     2
 40
11.00009999999999
 49
0.0001
 74
     4
 75
   135
340
52
 46
0.04
 50
0.0
 44
0.0
 45
0.0
 49
-11.0
 74
     0
  0
LTYPE
  5
166
330
5
100
AcDbSymbolTableRecord
100
AcDbLinetypeTableRecord
  2
ACJISTGL
 70
     0
  3
_ _ _ _ _
 72
    65
 73
     2
 40
3.0
 49
2.0
 74
     0
 49
-1.0
 74
     0
  0
LTYPE
  5
26A
330
5
100
AcDbSymbolTableRecord
100
AcDbLinetypeTableRecord
  2
ACJISTGB
 70
     0
  3
__ . . __ . .
 72
    65
 73
     6
 40
9.0
 49
4.0
 74
     0
 49
-1.0
 74
     0
 49
1.0
 74
     0
 49
-1.0
 74
     0
 49
1.0
 74
     0
 49
-1.0
 74
     0
  0
ENDTAB
  0
TABLE
  2
LAYER
  5
2
330
0
100
AcDbSymbolTable
 70
    11
  0
LAYER
  5
10
330
2
100
AcDbSymbolTableRecord
100
AcDbLayerTableRecord
  2
0
 70
     0
 62
     7
  6
CONTINUOUS
  0
LAYER
  5
3F9
330
2
100
AcDbSymbolTableRecord
100
AcDbLayerTableRecord
  2
AM_0
 70
     0
 62
     7
  6
CONTINUOUS
  0
LAYER
  5
BA4
330
2
100
AcDbSymbolTableRecord
100
AcDbLayerTableRecord
  2
PV0001_1
 70
     0
 62
     7
  6
CONTINUOUS
  0
LAYER
  5
C6C
330
2
100
AcDbSymbolTableRecord
100
AcDbLayerTableRecord
  2
AM_CL
 70
     0
 62
     1
  6
AMCONSTR
  0
LAYER
  5
C7C
330
2
100
AcDbSymbolTableRecord
100
AcDbLayerTableRecord
  2
AM_7
 70
     0
 62
     4
  6
AM_ISO08W050
  0
LAYER
  5
C97
330
2
100
AcDbSymbolTableRecord
100
AcDbLayerTableRecord
  2
AM_11
 70
     0
 62
     3
  6
AM_ISO09W050
  0
LAYER
  5
CC5
330
2
100
AcDbSymbolTableRecord
100
AcDbLayerTableRecord
  2
AM_5
 70
     0
 62
     3
  6
CONTINUOUS
  0
LAYER
  5
CC7
330
2
100
AcDbSymbolTableRecord
100
AcDbLayerTableRecord
  2
DEFPOINTS
 70
     0
 62
     7
  6
CONTINUOUS
  0
LAYER
  5
19BC
330
2
100
AcDbSymbolTableRecord
100
AcDbLayerTableRecord
  2
AM_6
 70
     0
 62
     2
  6
CONTINUOUS
  0
LAYER
  5
1F8E
330
2
100
AcDbSymbolTableRecord
100
AcDbLayerTableRecord
  2
AM_4
 70
     0
 62
     3
  6
CONTINUOUS
  0
LAYER
  5
3588
330
2
100
AcDbSymbolTableRecord
100
AcDbLayerTableRecord
  2
AM_3
 70
     0
 62
     6
  6
ACJISTGL
  0
ENDTAB
  0
TABLE
  2
STYLE
  5
3
330
0
100
AcDbSymbolTable
 70
     5
  0
STYLE
  5
11
330
3
100
AcDbSymbolTableRecord
100
AcDbTextStyleTableRecord
  2
STANDARD
 70
     0
 40
0.0
 41
1.0
 50
0.0
 71
     0
 42
2.5
  3
simplex.shx
  4
EXTFONT.SHX
  0
STYLE
  5
52
330
3
100
AcDbSymbolTableRecord
100
AcDbTextStyleTableRecord
  2

 70
     1
 40
0.0
 41
1.0
 50
0.0
 71
     0
 42
2.5
  3
ltypeshp.shx
  4

  0
STYLE
  5
6B
330
3
100
AcDbSymbolTableRecord
100
AcDbTextStyleTableRecord
  2
ASAMI
 70
     0
 40
0.0
 41
1.0
 50
0.0
 71
     0
 42
2.5
  3
simplex.shx
  4
EXTFONT.SHX
  0
STYLE
  5
262
330
3
100
AcDbSymbolTableRecord
100
AcDbTextStyleTableRecord
  2
ACJISTS
 70
     0
 40
1.0
 41
1.0
 50
0.0
 71
     0
 42
2.5
  3
simplex.shx
  4
bigfont.shx
  0
STYLE
  5
269
330
3
100
AcDbSymbolTableRecord
100
AcDbTextStyleTableRecord
  2
ACJISGDT
 70
     0
 40
0.0
 41
1.0
 50
0.0
 71
     0
 42
2.5
  3
amgdtans.shx
  4

  0
ENDTAB
  0
TABLE
  2
VIEW
  5
6
330
0
100
AcDbSymbolTable
 70
     0
  0
ENDTAB
  0
TABLE
  2
UCS
  5
7
330
0
100
AcDbSymbolTable
 70
     0
  0
ENDTAB
  0
TABLE
  2
APPID
  5
9
330
0
100
AcDbSymbolTable
 70
    14
  0
APPID
  5
12
330
9
100
AcDbSymbolTableRecord
100
AcDbRegAppTableRecord
  2
ACAD
 70
     0
  0
APPID
  5
30
330
9
100
AcDbSymbolTableRecord
100
AcDbRegAppTableRecord
  2
MCAD_NO_VIS
 70
     0
  0
APPID
  5
31
330
9
100
AcDbSymbolTableRecord
100
AcDbRegAppTableRecord
  2
ACAD_TEMP_GRAPHIC
 70
     0
  0
APPID
  5
2C2
330
9
100
AcDbSymbolTableRecord
100
AcDbRegAppTableRecord
  2
GENIUS_GENDTOL_13
 70
     0
  0
APPID
  5
339
330
9
100
AcDbSymbolTableRecord
100
AcDbRegAppTableRecord
  2
GENIUS_GENODEF_13
 70
     0
  0
APPID
  5
33A
330
9
100
AcDbSymbolTableRecord
100
AcDbRegAppTableRecord
  2
GENIUS_GENOBJ-N-RSBK_13
 70
     0
  0
APPID
  5
33B
330
9
100
AcDbSymbolTableRecord
100
AcDbRegAppTableRecord
  2
GENIUS_GENOBJ-N-LIB_13
 70
     0
  0
APPID
  5
33C
330
9
100
AcDbSymbolTableRecord
100
AcDbRegAppTableRecord
  2
GENIUS_GENSCALE_13
 70
     0
  0
APPID
  5
378
330
9
100
AcDbSymbolTableRecord
100
AcDbRegAppTableRecord
  2
GENIUS_GENDIMSH_14
 70
     0
  0
APPID
  5
C82
330
9
100
AcDbSymbolTableRecord
100
AcDbRegAppTableRecord
  2
GENIUS_GENOBJ-N-CRS_13
 70
     0
  0
APPID
  5
C83
330
9
100
AcDbSymbolTableRecord
100
AcDbRegAppTableRecord
  2
GENIUS_GENOENT_13
 70
     0
  0
APPID
  5
C84
330
9
100
AcDbSymbolTableRecord
100
AcDbRegAppTableRecord
  2
GENIUS_GENOREF_13
 70
     0
  0
APPID
  5
C85
330
9
100
AcDbSymbolTableRecord
100
AcDbRegAppTableRecord
  2
GENIUS_GENOLIS_13
 70
     0
  0
APPID
  5
CA0
330
9
100
AcDbSymbolTableRecord
100
AcDbRegAppTableRecord
  2
GENIUS_GENOBJ-N-CEN_13
 70
     0
  0
ENDTAB
  0
TABLE
  2
DIMSTYLE
  5
A
330
0
100
AcDbSymbolTable
 70
    10
  0
DIMSTYLE
105
58
330
A
100
AcDbSymbolTableRecord
100
AcDbDimStyleTableRecord
  2
AM_JIS
 70
     0
  3

  4
"
  5
OPEN30
  6

  7

 40
1.0
 41
2.5
 42
1.0
 43
12.0
 44
1.0
 45
0.0
 46
0.0
 47
0.1
 48
0.1
140
3.2
141
0.0
142
0.0
143
0.0393701
144
1.0
145
0.0
146
0.71
147
1.5
 71
     0
 72
     0
 73
     0
 74
     0
 75
     0
 76
     0
 77
     3
 78
     8
170
     0
171
     2
172
     1
173
     0
174
     0
175
     0
176
   256
177
   256
178
     2
270
     2
271
     3
272
     3
273
     2
274
     2
340
6B
275
     0
280
     0
281
     0
282
     0
283
     0
284
     0
285
     0
286
     0
287
     3
288
     0
  0
DIMSTYLE
105
5F
330
A
100
AcDbSymbolTableRecord
100
AcDbDimStyleTableRecord
  2
AM_JIS$3
 70
     0
  3

  4
"
  5
OPEN30
  6

  7

 40
1.0
 41
2.5
 42
1.0
 43
10.0
 44
1.0
 45
0.0
 46
0.0
 47
0.1
 48
0.1
140
3.2
141
0.0
142
0.0
143
0.0393701
144
1.0
145
0.0
146
0.71
147
1.5
 71
     0
 72
     0
 73
     0
 74
     1
 75
     0
 76
     0
 77
     3
 78
     8
170
     0
171
     2
172
     0
173
     0
174
     0
175
     0
176
   256
177
   256
178
     2
270
     2
271
     2
272
     3
273
     2
274
     2
340
6B
275
     0
280
     0
281
     0
282
     0
283
     0
284
     0
285
     0
286
     0
287
     0
288
     1
  0
DIMSTYLE
105
60
330
A
100
AcDbSymbolTableRecord
100
AcDbDimStyleTableRecord
  2
AM_JIS$4
 70
     0
  3

  4
"
  5
OPEN30
  6

  7

 40
1.0
 41
2.5
 42
1.0
 43
10.0
 44
1.0
 45
0.0
 46
0.0
 47
0.1
 48
0.1
140
3.2
141
0.0
142
0.0
143
0.0393701
144
1.0
145
0.0
146
0.71
147
1.5
 71
     0
 72
     0
 73
     0
 74
     1
 75
     0
 76
     0
 77
     3
 78
     8
170
     0
171
     2
172
     0
173
     0
174
     0
175
     0
176
   256
177
   256
178
     2
270
     2
271
     2
272
     3
273
     2
274
     2
340
6B
275
     0
280
     0
281
     0
282
     0
283
     0
284
     0
285
     0
286
     0
287
     0
288
     1
  0
DIMSTYLE
105
61
330
A
100
AcDbSymbolTableRecord
100
AcDbDimStyleTableRecord
  2
AM_JIS$6
 70
     0
  3

  4
"
  5
OPEN30
  6

  7

 40
1.0
 41
2.5
 42
1.0
 43
10.0
 44
1.0
 45
0.0
 46
0.0
 47
0.1
 48
0.1
140
3.2
141
0.0
142
0.0
143
0.0393701
144
1.0
145
0.0
146
0.71
147
1.5
 71
     0
 72
     0
 73
     0
 74
     0
 75
     0
 76
     0
 77
     0
 78
     8
170
     0
171
     2
172
     1
173
     0
174
     0
175
     0
176
   256
177
   256
178
     2
270
     2
271
     2
272
     2
273
     2
274
     2
340
6B
275
     0
280
     0
281
     0
282
     0
283
     0
284
     0
285
     0
286
     0
287
     3
288
     0
  0
DIMSTYLE
105
62
330
A
100
AcDbSymbolTableRecord
100
AcDbDimStyleTableRecord
  2
AM_JIS$7
 70
     0
  3

  4
"
  5
OPEN30
  6

  7

 40
1.0
 41
2.5
 42
1.0
 43
10.0
 44
1.0
 45
0.0
 46
0.0
 47
0.1
 48
0.1
140
3.2
141
0.0
142
0.0
143
0.0393701
144
1.0
145
0.0
146
0.71
147
1.5
 71
     0
 72
     0
 73
     0
 74
     0
 75
     0
 76
     0
 77
     3
 78
     8
170
     0
171
     2
172
     1
173
     0
174
     0
175
     0
176
   256
177
   256
178
     2
270
     2
271
     2
272
     3
273
     2
274
     2
340
6B
275
     0
280
     0
281
     0
282
     0
283
     0
284
     0
285
     0
286
     0
287
     3
288
     0
  0
DIMSTYLE
105
63
330
A
100
AcDbSymbolTableRecord
100
AcDbDimStyleTableRecord
  2
AM_JIS$SF
 70
     0
  3

  4
"
  5
OPEN30
  6

  7

 40
1.0
 41
2.5
 42
1.0
 43
10.0
 44
1.0
 45
0.0
 46
0.0
 47
0.1
 48
0.1
140
3.2
141
0.0
142
0.0
143
0.0393701
144
1.0
145
0.0
146
0.71
147
1.5
 71
     0
 72
     0
 73
     0
 74
     0
 75
     1
 76
     1
 77
     3
 78
     8
170
     0
171
     2
172
     1
173
     0
174
     0
175
     0
176
   256
177
   256
178
     2
270
     2
271
     2
272
     2
273
     2
274
     2
340
6B
275
     0
280
     0
281
     0
282
     0
283
     0
284
     0
285
     0
286
     0
287
     3
288
     0
  0
DIMSTYLE
105
68
330
A
100
AcDbSymbolTableRecord
100
AcDbDimStyleTableRecord
  2
AM_JIS$SH
 70
     0
  3

  4
"
  5

  6
GENAXEH
  7
OPEN30
 40
1.0
 41
2.5
 42
1.0
 43
10.0
 44
1.0
 45
0.0
 46
0.0
 47
0.1
 48
0.1
140
3.2
141
0.0
142
0.0
143
0.0393701
144
2.0
145
0.0
146
0.71
147
1.5
 71
     0
 72
     0
 73
     0
 74
     0
 75
     1
 76
     1
 77
     3
 78
     8
170
     0
171
     2
172
     1
173
     1
174
     0
175
     0
176
   256
177
   256
178
     2
270
     2
271
     2
272
     2
273
     2
274
     2
340
6B
275
     0
280
     0
281
     0
282
     0
283
     0
284
     0
285
     0
286
     0
287
     3
288
     0
  0
DIMSTYLE
105
B34
102
{ACAD_REACTORS
330
36BA
102
}
330
A
100
AcDbSymbolTableRecord
100
AcDbDimStyleTableRecord
  2
AM_JIS$2
 70
     0
  3

  4
"
  5
OPEN30
  6

  7

 40
1.0
 41
2.5
 42
1.0
 43
12.0
 44
1.0
 45
0.0
 46
0.0
 47
0.1
 48
0.1
140
3.2
141
0.0
142
0.0
143
0.0393701
144
1.0
145
0.0
146
0.71
147
1.5
 71
     0
 72
     0
 73
     0
 74
     0
 75
     0
 76
     0
 77
     3
 78
     8
170
     0
171
     2
172
     1
173
     0
174
     0
175
     0
176
   256
177
   256
178
     2
270
     2
271
     3
272
     3
273
     2
274
     2
340
6B
275
     0
280
     0
281
     0
282
     0
283
     0
284
     0
285
     0
286
     0
287
     3
288
     0
  0
DIMSTYLE
105
BA5
102
{ACAD_REACTORS
330
3B0D
330
471A
330
4A5A
330
4A5C
330
5242
330
535A
330
5368
330
5369
330
536A
102
}
330
A
100
AcDbSymbolTableRecord
100
AcDbDimStyleTableRecord
  2
AM_JIS$0
 70
     0
  3

  4
"
  5
OPEN30
  6

  7

 40
1.0
 41
2.5
 42
0.8
 43
10.0
 44
1.0
 45
0.0
 46
0.0
 47
0.1
 48
0.1000000001
140
3.799999999999999
141
0.0
142
0.0
143
0.0393701
144
1.0
145
0.0
146
0.71
147
1.5
 71
     0
 72
     0
 73
     0
 74
     0
 75
     0
 76
     0
 77
     3
 78
     9
170
     0
171
     2
172
     1
173
     0
174
     0
175
     0
176
     3
177
     3
178
     2
270
     2
271
     2
272
     2
273
     2
274
     2
340
11
275
     1
280
     0
281
     0
282
     0
283
     0
284
     8
285
     0
286
     0
287
     0
288
     0
  0
DIMSTYLE
105
BA6
330
A
100
AcDbSymbolTableRecord
100
AcDbDimStyleTableRecord
  2
AM_JISORG-1P0$2
 70
     0
  3

  4
"
  5
OPEN30
  6

  7

 40
1.0
 41
2.5
 42
0.0
 43
10.0
 44
1.0
 45
0.0
 46
0.0
 47
0.1
 48
0.1000000001
140
3.799999999999999
141
0.0
142
0.0
143
0.0393701
144
-0.999999980146674
145
0.0
146
0.71
147
1.5
 71
     0
 72
     0
 73
     0
 74
     0
 75
     0
 76
     0
 77
     3
 78
     1
170
     0
171
     2
172
     1
173
     0
174
     0
175
     0
176
     3
177
     3
178
     2
270
     2
271
     2
272
     2
273
     2
274
     2
340
11
275
     1
280
     0
281
     0
282
     0
283
     0
284
     8
285
     0
286
     0
287
     0
288
     0
  0
ENDTAB
  0
TABLE
  2
BLOCK_RECORD
  5
1
330
0
100
AcDbSymbolTable
 70
    19
  0
BLOCK_RECORD
  5
1F
102
{ACAD_XDICTIONARY
360
74
102
}
330
1
100
AcDbSymbolTableRecord
100
AcDbBlockTableRecord
  2
*MODEL_SPACE
  0
BLOCK_RECORD
  5
101
102
{ACAD_XDICTIONARY
360
5690
102
}
330
1
100
AcDbSymbolTableRecord
100
AcDbBlockTableRecord
  2
*PAPER_SPACE
  0
BLOCK_RECORD
  5
59
330
1
100
AcDbSymbolTableRecord
100
AcDbBlockTableRecord
  2
_OPEN30
  0
BLOCK_RECORD
  5
64
330
1
100
AcDbSymbolTableRecord
100
AcDbBlockTableRecord
  2
GENAXEH
  0
BLOCK_RECORD
  5
C31
330
1
100
AcDbSymbolTableRecord
100
AcDbBlockTableRecord
  2
A$C36D02A34
  0
BLOCK_RECORD
  5
2453
330
1
100
AcDbSymbolTableRecord
100
AcDbBlockTableRecord
  2
*D6
  0
BLOCK_RECORD
  5
245F
330
1
100
AcDbSymbolTableRecord
100
AcDbBlockTableRecord
  2
A$C4FFC6CC0
  0
BLOCK_RECORD
  5
36BB
330
1
100
AcDbSymbolTableRecord
100
AcDbBlockTableRecord
  2
*D8
  0
BLOCK_RECORD
  5
3B0E
330
1
100
AcDbSymbolTableRecord
100
AcDbBlockTableRecord
  2
*D9
  0
BLOCK_RECORD
  5
471B
330
1
100
AcDbSymbolTableRecord
100
AcDbBlockTableRecord
  2
*D10
  0
BLOCK_RECORD
  5
4A78
330
1
100
AcDbSymbolTableRecord
100
AcDbBlockTableRecord
  2
*D11
  0
BLOCK_RECORD
  5
4A90
330
1
100
AcDbSymbolTableRecord
100
AcDbBlockTableRecord
  2
*D12
  0
BLOCK_RECORD
  5
5243
330
1
100
AcDbSymbolTableRecord
100
AcDbBlockTableRecord
  2
*D13
  0
BLOCK_RECORD
  5
536B
330
1
100
AcDbSymbolTableRecord
100
AcDbBlockTableRecord
  2
*D14
  0
BLOCK_RECORD
  5
5377
330
1
100
AcDbSymbolTableRecord
100
AcDbBlockTableRecord
  2
*D15
  0
BLOCK_RECORD
  5
5383
330
1
100
AcDbSymbolTableRecord
100
AcDbBlockTableRecord
  2
*D16
  0
BLOCK_RECORD
  5
5391
330
1
100
AcDbSymbolTableRecord
100
AcDbBlockTableRecord
  2
*D17
  0
ENDTAB
  0
ENDSEC
  0
SECTION
  2
BLOCKS
  0
BLOCK
  5
20
330
1F
100
AcDbEntity
  8
0
100
AcDbBlockBegin
  2
*MODEL_SPACE
 70
     0
 10
0.0
 20
0.0
 30
0.0
  3
*MODEL_SPACE
  1

  0
ENDBLK
  5
21
330
1F
100
AcDbEntity
  8
0
100
AcDbBlockEnd
  0
BLOCK
  5
103
330
101
100
AcDbEntity
 67
     1
  8
0
100
AcDbBlockBegin
  2
*PAPER_SPACE
 70
     0
 10
0.0
 20
0.0
 30
0.0
  3
*PAPER_SPACE
  1

  0
ENDBLK
  5
104
330
101
100
AcDbEntity
 67
     1
  8
0
100
AcDbBlockEnd
  0
BLOCK
  5
5D
330
59
100
AcDbEntity
  8
0
100
AcDbBlockBegin
  2
_OPEN30
 70
     0
 10
0.0
 20
0.0
 30
0.0
  3
_OPEN30
  1

  0
LINE
  5
5A
330
59
100
AcDbEntity
  8
0
 62
     0
100
AcDbLine
 10
-1.0
 20
0.26794919
 30
0.0
 11
0.0
 21
0.0
 31
0.0
  0
LINE
  5
5B
330
59
100
AcDbEntity
  8
0
 62
     0
100
AcDbLine
 10
0.0
 20
0.0
 30
0.0
 11
-1.0
 21
-0.26794919
 31
0.0
  0
LINE
  5
5C
330
59
100
AcDbEntity
  8
0
 62
     0
100
AcDbLine
 10
0.0
 20
0.0
 30
0.0
 11
-1.0
 21
0.0
 31
0.0
  0
ENDBLK
  5
5E
330
59
100
AcDbEntity
  8
0
100
AcDbBlockEnd
  0
BLOCK
  5
66
330
64
100
AcDbEntity
  8
0
100
AcDbBlockBegin
  2
GENAXEH
 70
     0
 10
0.0
 20
0.0
 30
0.0
  3
GENAXEH
  1

  0
LINE
  5
65
330
64
100
AcDbEntity
  8
0
100
AcDbLine
 10
-1.0
 20
0.0
 30
0.0
 11
1.0
 21
0.0
 31
0.0
  0
ENDBLK
  5
67
330
64
100
AcDbEntity
  8
0
100
AcDbBlockEnd
  0
BLOCK
  5
C4B
330
C31
100
AcDbEntity
  8
0
100
AcDbBlockBegin
  2
A$C36D02A34
 70
     0
 10
0.0
 20
0.0
 30
0.0
  3
A$C36D02A34
  1

  0
ARC
  5
C32
330
C31
100
AcDbEntity
  8
PV0001_1
  6
CONTINUOUS
 48
0.5
100
AcDbCircle
 10
18.06811523436999
 20
-11.83651161193799
 30
0.0
 40
21.600000381469
100
AcDbArc
 50
123.2290435713209
 51
126.6341524197568
  0
ARC
  5
C33
330
C31
100
AcDbEntity
  8
PV0001_1
  6
CONTINUOUS
 48
0.5
100
AcDbCircle
 10
18.06811523436999
 20
-11.83651161193799
 30
0.0
 40
21.600000381469
100
AcDbArc
 50
135.0736707620117
 51
146.7709980930592
  0
ARC
  5
C34
330
C31
100
AcDbEntity
  8
PV0001_1
  6
CONTINUOUS
 48
0.5
100
AcDbCircle
 10
-18.0680770874
 20
11.8365631103514
 30
0.0
 40
21.600000381469
100
AcDbArc
 50
315.0734847530392
 51
326.770781348241
  0
ARC
  5
C35
330
C31
100
AcDbEntity
  8
PV0001_1
  6
CONTINUOUS
 48
0.5
100
AcDbCircle
 10
-18.0680770874
 20
11.8365631103514
 30
0.0
 40
21.600000381469
100
AcDbArc
 50
303.2288882981993
 51
306.633986901359
  0
ARC
  5
C36
330
C31
100
AcDbEntity
  8
PV0001_1
  6
CONTINUOUS
 48
0.5
100
AcDbCircle
 10
-0.6269836425800009
 20
-2.044216156005997
 30
0.0
 40
2.0
100
AcDbArc
 50
337.4067997351092
 51
43.42231293132884
  0
ARC
  5
C37
330
C31
100
AcDbEntity
  8
PV0001_1
  6
CONTINUOUS
 48
0.5
100
AcDbCircle
 10
0.626953125
 20
2.044223785401001
 30
0.0
 40
2.0
100
AcDbArc
 50
157.4068184044407
 51
223.4222769591536
  0
CIRCLE
  5
C38
330
C31
100
AcDbEntity
  8
PV0001_1
  6
CONTINUOUS
 48
0.5
100
AcDbCircle
 10
3.856727600100001
 20
4.596265792847002
 30
0.0
 40
1.6000000238419
  0
CIRCLE
  5
C39
330
C31
100
AcDbEntity
  8
PV0001_1
  6
CONTINUOUS
 48
0.5
100
AcDbCircle
 10
-3.856727600100001
 20
-4.596265792845997
 30
0.0
 40
1.6000000238419
  0
ARC
  5
C3A
330
C31
100
AcDbEntity
  8
PV0001_1
  6
CONTINUOUS
 48
0.5
100
AcDbCircle
 10
-5.58123779297
 20
5.092639923096001
 30
0.0
 40
5.019082546234099
100
AcDbArc
 50
240.2658959250867
 51
321.5156269706421
  0
ARC
  5
C3B
330
C31
100
AcDbEntity
  8
PV0001_1
  6
CONTINUOUS
 48
0.5
100
AcDbCircle
 10
5.486755371089998
 20
-4.601703643798998
 30
0.0
 40
4.651036739349399
100
AcDbArc
 50
56.25271400417071
 51
145.528859890601
  0
ARC
  5
C3C
330
C31
100
AcDbEntity
  8
PV0001_1
  6
CONTINUOUS
 48
0.5
100
AcDbCircle
 10
-2.11590576172
 20
-3.453323364257997
 30
0.0
 40
4.050000190734899
100
AcDbArc
 50
43.42230610113921
 51
58.50391703385149
  0
ARC
  5
C3D
330
C31
100
AcDbEntity
  8
PV0001_1
  6
CONTINUOUS
 48
0.5
100
AcDbCircle
 10
2.115875244139999
 20
3.453330993653001
 30
0.0
 40
4.050000190734899
100
AcDbArc
 50
223.4222942619974
 51
238.5038164022482
  0
ARC
  5
C3E
330
C31
100
AcDbEntity
  8
PV0001_1
  6
CONTINUOUS
 48
0.5
100
AcDbCircle
 10
-6.70369720459
 20
5.094657897949002
 30
0.0
 40
5.940000057220499
100
AcDbArc
 50
328.2536768887549
 51
31.74641873389623
  0
ARC
  5
C3F
330
C31
100
AcDbEntity
  8
PV0001_1
  6
CONTINUOUS
 48
0.5
100
AcDbCircle
 10
6.703674316410001
 20
-5.094650268553998
 30
0.0
 40
5.940000057220499
100
AcDbArc
 50
148.2533403882529
 51
211.7466423089037
  0
ARC
  5
C40
330
C31
100
AcDbEntity
  8
PV0001_1
  6
CONTINUOUS
 48
0.5
100
AcDbCircle
 10
0.0
 20
0.0
 30
0.0
 40
8.812800407409699
100
AcDbArc
 50
175.2198288164333
 51
272.8622597568298
  0
ARC
  5
C41
330
C31
100
AcDbEntity
  8
PV0001_1
  6
CONTINUOUS
 48
0.5
100
AcDbCircle
 10
0.0
 20
0.0
 30
0.0
 40
9.1800003051758
100
AcDbArc
 50
272.7511362215027
 51
280.3697477877874
  0
ARC
  5
C42
330
C31
100
AcDbEntity
  8
PV0001_1
  6
CONTINUOUS
 48
0.5
100
AcDbCircle
 10
0.0
 20
0.0
 30
0.0
 40
8.812800407409699
100
AcDbArc
 50
355.2198199654955
 51
92.86229572901076
  0
ARC
  5
C43
330
C31
100
AcDbEntity
  8
PV0001_1
  6
CONTINUOUS
 48
0.5
100
AcDbCircle
 10
0.0
 20
0.0
 30
0.0
 40
9.1800003051758
100
AcDbArc
 50
92.75115489083434
 51
100.3697664571193
  0
CIRCLE
  5
C44
330
C31
100
AcDbEntity
  8
PV0001_1
  6
CONTINUOUS
100
AcDbCircle
 10
0.0
 20
0.0
 30
0.0
 40
9.1800003051758
  0
LINE
  5
C45
330
C31
100
AcDbEntity
  8
PV0001_1
  6
CONTINUOUS
 48
0.5
100
AcDbLine
 10
-1.652404785160001
 20
9.030059814453
 30
0.0
 11
-1.652404785160001
 21
8.220062255860002
 31
0.0
  0
LINE
  5
C46
330
C31
100
AcDbEntity
  8
PV0001_1
  6
CONTINUOUS
 48
0.5
100
AcDbLine
 10
1.652404785160001
 20
-8.220058441161999
 30
0.0
 11
1.652404785160001
 21
-9.030055999755997
 31
0.0
  0
LINE
  5
C47
330
C31
100
AcDbEntity
  8
PV0001_1
  6
CONTINUOUS
 48
0.5
100
AcDbLine
 10
-8.78217315674
 20
0.7343807220460015
 30
0.0
 11
-8.070594787600001
 21
0.7343997955320028
 31
0.0
  0
LINE
  5
C48
330
C31
100
AcDbEntity
  8
PV0001_1
  6
CONTINUOUS
 48
0.5
100
AcDbLine
 10
8.07057952881
 20
-0.7343864440919994
 30
0.0
 11
8.78215789795
 21
-0.7343654632569994
 31
0.0
  0
LINE
  5
C49
330
C31
100
AcDbEntity
  8
PV0001_1
  6
CONTINUOUS
 48
0.5
100
AcDbLine
 10
0.4406127929700006
 20
-9.169414520263
 30
0.0
 11
0.4406127929700006
 21
-8.812801361083998
 31
0.0
  0
LINE
  5
C4A
330
C31
100
AcDbEntity
  8
PV0001_1
  6
CONTINUOUS
 48
0.5
100
AcDbLine
 10
-0.4406127929700006
 20
9.169418334961001
 30
0.0
 11
-0.4406127929700006
 21
8.812805175781001
 31
0.0
  0
ENDBLK
  5
C4C
330
C31
100
AcDbEntity
  8
0
100
AcDbBlockEnd
  0
BLOCK
  5
245D
330
2453
100
AcDbEntity
  8
0
100
AcDbBlockBegin
  2
*D6
 70
     1
 10
0.0
 20
0.0
 30
0.0
  3
*D6
  1

  0
LINE
  5
2454
330
2453
100
AcDbEntity
  8
AM_5
 62
     3
100
AcDbLine
 10
-137.574381722344
 20
-5.00000294019065
 30
0.0
 11
-152.8199008769066
 21
-5.000002940190694
 31
0.0
  0
LINE
  5
2455
330
2453
100
AcDbEntity
  8
AM_5
 62
     3
100
AcDbLine
 10
-137.5743817223442
 20
5.00002461040103
 30
0.0
 11
-152.8199008769066
 21
5.000024610400987
 31
0.0
  0
LINE
  5
2456
330
2453
100
AcDbEntity
  8
AM_5
 62
     3
100
AcDbLine
 10
-151.8199008769066
 20
-2.500002940190691
 30
0.0
 11
-151.8199008769066
 21
2.50002461040099
 31
0.0
  0
INSERT
  5
2457
330
2453
100
AcDbEntity
  8
AM_5
 62
     3
100
AcDbBlockReference
  2
_OPEN30
 10
-151.8199008769066
 20
-5.00000294019069
 30
0.0
 41
2.5
 42
2.5
 43
2.5
 50
270.0000000000001
  0
INSERT
  5
2458
330
2453
100
AcDbEntity
  8
AM_5
 62
     3
100
AcDbBlockReference
  2
_OPEN30
 10
-151.8199008769066
 20
5.00002461040099
 30
0.0
 41
2.5
 42
2.5
 43
2.5
 50
90.00000000000015
  0
MTEXT
  5
2459
330
2453
100
AcDbEntity
  8
AM_5
 62
     2
100
AcDbMText
 10
-155.2199008769066
 20
0.000010835105146
 30
0.0
 40
3.799999999999999
 41
0.0
 71
     5
 72
     1
  1
%%c10
 11
-0.0000000000000028
 21
1.0
 31
0.0
1001
ACAD
1000
MTEXTBEGIN
1070
    73
1070
     1
1070
    44
1040
1.0
1070
    74
1070
     0
1000
MTEXTEND
  0
POINT
  5
245A
330
2453
100
AcDbEntity
  8
DEFPOINTS
 62
     0
100
AcDbPoint
 10
-137.5743817223441
 20
-5.000002940190223
 30
0.0
  0
POINT
  5
245B
330
2453
100
AcDbEntity
  8
DEFPOINTS
 62
     0
100
AcDbPoint
 10
-137.5743817223441
 20
5.000024610401458
 30
0.0
  0
POINT
  5
245C
330
2453
100
AcDbEntity
  8
DEFPOINTS
 62
     0
100
AcDbPoint
 10
-151.8199008769066
 20
5.000024610401462
 30
0.0
  0
ENDBLK
  5
245E
330
2453
100
AcDbEntity
  8
0
100
AcDbBlockEnd
  0
BLOCK
  5
246B
330
245F
100
AcDbEntity
  8
0
100
AcDbBlockBegin
  2
A$C4FFC6CC0
 70
     0
 10
0.0
 20
0.0
 30
0.0
  3
A$C4FFC6CC0
  1

  0
DIMENSION
  5
2460
330
245F
100
AcDbEntity
  8
AM_5
100
AcDbDimension
  2
*D6
 10
-70.00000100000002
 20
5.000008477104842
 30
0.0
 11
-70.00000100000002
 21
-0.0000052981910228
 31
0.0
 12
81.81989987690661
 22
-0.0000161332966199
 32
0.0
 70
   128
  1
%%c<>
 51
359.9999999999998
  3
AM_JIS$0
100
AcDbAlignedDimension
 13
-55.75448184543748
 23
-5.000019073486843
 33
0.0
 14
-55.75448184543756
 24
5.000008477104838
 34
0.0
 50
270.0
100
AcDbRotatedDimension
1001
ACAD
1000
DSTYLE
1002
{
1070
   271
1070
     0
1002
}
1001
GENIUS_GENDTOL_13
1000

1000
h7
1000

1040
0.0
  0
LINE
  5
2461
330
245F
100
AcDbEntity
  8
AM_0
 48
0.5
100
AcDbLine
 10
-56.0
 20
-4.754495620727796
 30
0.0
 11
-56.00000000000003
 21
4.754485024345811
 31
0.0
  0
LINE
  5
2462
330
245F
100
AcDbEntity
  8
AM_0
 48
0.5
100
AcDbLine
 10
-55.75448184543751
 20
-5.000019073486843
 30
0.0
 11
-55.75448184543754
 21
5.000008477104838
 31
0.0
  0
LINE
  5
2463
330
245F
100
AcDbEntity
  8
AM_0
100
AcDbLine
 10
-0.0000000000000142
 20
4.999995231627903
 30
0.0
 11
-55.75448184543754
 21
4.999995231627746
 31
0.0
  0
LINE
  5
2464
330
245F
100
AcDbEntity
  8
AM_0
 48
0.5
100
AcDbLine
 10
-55.99996821086117
 20
4.754439989725671
 30
0.0
 11
-55.75443945990975
 21
4.999963442484006
 31
0.0
  0
LINE
  5
2465
330
245F
100
AcDbEntity
  8
AM_0
100
AcDbLine
 10
-55.75448184543751
 20
-5.000008477105588
 30
0.0
 11
0.0000000000000142
 21
-5.00000847710543
 31
0.0
  0
LINE
  5
2466
330
245F
100
AcDbEntity
  8
AM_0
 48
0.5
100
AcDbLine
 10
-55.99996821086114
 20
-4.754474427965309
 30
0.0
 11
-55.75443945990972
 21
-4.999997880724334
 31
0.0
  0
LINE
  5
2467
330
245F
100
AcDbEntity
  8
AM_0
100
AcDbLine
 10
0.7794201296714505
 20
4.549985867772141
 30
0.0
 11
0.7794201296714789
 21
-4.550003370497427
 31
0.0
  0
LINE
  5
2468
330
245F
100
AcDbEntity
  8
AM_0
 48
0.5
100
AcDbLine
 10
0.0000000000000142
 20
-5.00000847710543
 30
0.0
 11
-0.0000000000000142
 21
5.000008477104995
 31
0.0
  0
LINE
  5
2469
330
245F
100
AcDbEntity
  8
AM_0
 48
0.5
100
AcDbLine
 10
0.7794201296714647
 20
-4.550003370497435
 30
0.0
 11
-0.0000105963812445
 21
-5.00000847710543
 31
0.0
  0
LINE
  5
246A
330
245F
100
AcDbEntity
  8
AM_0
 48
0.5
100
AcDbLine
 10
0.7794201296714647
 20
4.549985867772141
 30
0.0
 11
-0.0000000000000142
 21
4.999984635246652
 31
0.0
  0
ENDBLK
  5
246C
330
245F
100
AcDbEntity
  8
0
100
AcDbBlockEnd
  0
BLOCK
  5
36C9
330
36BB
100
AcDbEntity
  8
0
100
AcDbBlockBegin
  2
*D8
 70
     1
 10
0.0
 20
0.0
 30
0.0
  3
*D8
  1

  0
LINE
  5
4DBC
330
36BB
100
AcDbEntity
  8
AM_5
100
AcDbLine
 10
0.3420201408161528
 20
-0.93969262169946
 30
0.0
 11
12.73376567701368
 21
-34.98573395293323
 31
0.0
  0
LINE
  5
4DBD
330
36BB
100
AcDbEntity
  8
AM_5
100
AcDbLine
 10
0.3420201408161419
 20
0.9396926216991598
 30
0.0
 11
12.73376567701327
 21
34.98573395293309
 31
0.0
  0
ARC
  5
4DBE
330
36BB
100
AcDbEntity
  8
AM_5
100
AcDbCircle
 10
0.0000000000000289
 20
-0.0000000000001521
 30
0.0
 40
36.23104039027792
100
AcDbArc
 50
293.9542854242186
 51
66.04571457578202
  0
INSERT
  5
4DBF
330
36BB
100
AcDbEntity
  8
AM_5
100
AcDbBlockReference
  2
_OPEN30
 10
12.39174553619755
 20
-34.04604133123393
 30
0.0
 41
2.5
 42
2.5
 43
2.5
 50
201.9771426356022
  0
INSERT
  5
4DC0
330
36BB
100
AcDbEntity
  8
AM_5
100
AcDbBlockReference
  2
_OPEN30
 10
12.39174553619716
 20
34.04604133123378
 30
0.0
 41
2.5
 42
2.5
 43
2.5
 50
158.0228573643984
  0
MTEXT
  5
4DC1
330
36BB
100
AcDbEntity
  8
AM_5
 62
     2
100
AcDbMText
 10
33.13104039027795
 20
0.0000000000000646
 30
0.0
 40
3.2
 41
0.0
 71
     5
 72
     1
  1
140°
  7
ASAMI
 11
-0.0000000000000028
 21
1.0
 31
0.0
1001
ACAD
1000
MTEXTBEGIN
1070
    73
1070
     1
1070
    44
1040
1.0
1070
    74
1070
     0
1000
MTEXTEND
  0
POINT
  5
4DC2
330
36BB
100
AcDbEntity
  8
DEFPOINTS
 62
     0
100
AcDbPoint
 10
33.26792484260828
 20
-14.35038203075178
 30
0.0
  0
POINT
  5
4DC3
330
36BB
100
AcDbEntity
  8
DEFPOINTS
 62
     0
100
AcDbPoint
 10
0.0
 20
-0.0000000000002316
 30
0.0
  0
POINT
  5
4DC4
330
36BB
100
AcDbEntity
  8
DEFPOINTS
 62
     0
100
AcDbPoint
 10
0.0
 20
-0.0000000000000725
 30
0.0
  0
POINT
  5
4DC5
330
36BB
100
AcDbEntity
  8
DEFPOINTS
 62
     0
100
AcDbPoint
 10
-2.800374408476802
 20
7.693965517241139
 30
0.0
  0
POINT
  5
4DC6
330
36BB
100
AcDbEntity
  8
DEFPOINTS
 62
     0
100
AcDbPoint
 10
-2.800374408476762
 20
-7.693965517241461
 30
0.0
  0
ENDBLK
  5
36CA
330
36BB
100
AcDbEntity
  8
0
100
AcDbBlockEnd
  0
BLOCK
  5
3B18
330
3B0E
100
AcDbEntity
  8
0
100
AcDbBlockBegin
  2
*D9
 70
     1
 10
0.0
 20
0.0
 30
0.0
  3
*D9
  1

  0
LINE
  5
55DE
330
3B0E
100
AcDbEntity
  8
AM_5
 62
     3
100
AcDbLine
 10
-4.731613006144073
 20
13.79999999999996
 30
0.0
 11
-4.731613006144128
 21
32.86265499019624
 31
0.0
  0
LINE
  5
55DF
330
3B0E
100
AcDbEntity
  8
AM_5
 62
     3
100
AcDbLine
 10
-141.7316130061438
 20
13.80000000000291
 30
0.0
 11
-141.7316130061439
 21
32.86265499019584
 31
0.0
  0
LINE
  5
55E0
330
3B0E
100
AcDbEntity
  8
AM_5
 62
     3
100
AcDbLine
 10
-7.231613006144124
 20
31.86265499019624
 30
0.0
 11
-139.2316130061439
 21
31.86265499019585
 31
0.0
  0
INSERT
  5
55E1
330
3B0E
100
AcDbEntity
  8
AM_5
 62
     3
100
AcDbBlockReference
  2
_OPEN30
 10
-4.731613006144124
 20
31.86265499019624
 30
0.0
 41
2.5
 42
2.5
 43
2.5
 50
0.0000000000001527
  0
INSERT
  5
55E2
330
3B0E
100
AcDbEntity
  8
AM_5
 62
     3
100
AcDbBlockReference
  2
_OPEN30
 10
-141.7316130061439
 20
31.86265499019585
 30
0.0
 41
2.5
 42
2.5
 43
2.5
 50
180.0000000000001
  0
MTEXT
  5
55E3
330
3B0E
100
AcDbEntity
  8
AM_5
 62
     2
100
AcDbMText
 10
-73.23161300614405
 20
35.26265499019604
 30
0.0
 40
3.799999999999999
 41
0.0
 71
     5
 72
     1
  1
137
1001
ACAD
1000
MTEXTBEGIN
1070
    73
1070
     1
1070
    44
1040
1.0
1070
    74
1070
     0
1000
MTEXTEND
  0
POINT
  5
55E4
330
3B0E
100
AcDbEntity
  8
DEFPOINTS
 62
     0
100
AcDbPoint
 10
-4.731613006144033
 20
12.99999999999998
 30
0.0
  0
POINT
  5
55E5
330
3B0E
100
AcDbEntity
  8
DEFPOINTS
 62
     0
100
AcDbPoint
 10
-141.7316130061438
 20
13.00000000000332
 30
0.0
  0
POINT
  5
55E6
330
3B0E
100
AcDbEntity
  8
DEFPOINTS
 62
     0
100
AcDbPoint
 10
-141.7316130061438
 20
31.86265499019626
 30
0.0
  0
ENDBLK
  5
3B19
330
3B0E
100
AcDbEntity
  8
0
100
AcDbBlockEnd
  0
BLOCK
  5
4725
330
471B
100
AcDbEntity
  8
0
100
AcDbBlockBegin
  2
*D10
 70
     1
 10
0.0
 20
0.0
 30
0.0
  3
*D10
  1

  0
LINE
  5
55D5
330
471B
100
AcDbEntity
  8
AM_5
 62
     3
100
AcDbLine
 10
-4.731613006144073
 20
13.79999999999996
 30
0.0
 11
-4.731613006144166
 21
46.55268892050132
 31
0.0
  0
LINE
  5
55D6
330
471B
100
AcDbEntity
  8
AM_5
 62
     3
100
AcDbLine
 10
-150.7316130061444
 20
13.80000000000308
 30
0.0
 11
-150.7316130061445
 21
46.5526889205009
 31
0.0
  0
LINE
  5
55D7
330
471B
100
AcDbEntity
  8
AM_5
 62
     3
100
AcDbLine
 10
-7.231613006144163
 20
45.55268892050132
 30
0.0
 11
-148.2316130061445
 21
45.5526889205009
 31
0.0
  0
INSERT
  5
55D8
330
471B
100
AcDbEntity
  8
AM_5
 62
     3
100
AcDbBlockReference
  2
_OPEN30
 10
-4.731613006144163
 20
45.55268892050132
 30
0.0
 41
2.5
 42
2.5
 43
2.5
 50
0.0000000000001527
  0
INSERT
  5
55D9
330
471B
100
AcDbEntity
  8
AM_5
 62
     3
100
AcDbBlockReference
  2
_OPEN30
 10
-150.7316130061445
 20
45.55268892050089
 30
0.0
 41
2.5
 42
2.5
 43
2.5
 50
180.0000000000001
  0
MTEXT
  5
55DA
330
471B
100
AcDbEntity
  8
AM_5
 62
     2
100
AcDbMText
 10
-77.73161300614437
 20
48.95268892050111
 30
0.0
 40
3.799999999999999
 41
0.0
 71
     5
 72
     1
  1
146
1001
ACAD
1000
MTEXTBEGIN
1070
    73
1070
     1
1070
    44
1040
1.0
1070
    74
1070
     0
1000
MTEXTEND
  0
POINT
  5
55DB
330
471B
100
AcDbEntity
  8
DEFPOINTS
 62
     0
100
AcDbPoint
 10
-4.731613006144033
 20
12.99999999999998
 30
0.0
  0
POINT
  5
55DC
330
471B
100
AcDbEntity
  8
DEFPOINTS
 62
     0
100
AcDbPoint
 10
-150.7316130061444
 20
13.00000000000351
 30
0.0
  0
POINT
  5
55DD
330
471B
100
AcDbEntity
  8
DEFPOINTS
 62
     0
100
AcDbPoint
 10
-150.7316130061444
 20
45.55268892050134
 30
0.0
  0
ENDBLK
  5
4726
330
471B
100
AcDbEntity
  8
0
100
AcDbBlockEnd
  0
BLOCK
  5
4A82
330
4A78
100
AcDbEntity
  8
0
100
AcDbBlockBegin
  2
*D11
 70
     1
 10
0.0
 20
0.0
 30
0.0
  3
*D11
  1

  0
LINE
  5
5597
330
4A78
100
AcDbEntity
  8
AM_5
 62
     3
100
AcDbLine
 10
-4.731613006143696
 20
-13.8
 30
0.0
 11
-4.731613006143699
 21
-58.64115508686309
 31
0.0
  0
LINE
  5
5598
330
4A78
100
AcDbEntity
  8
AM_5
 62
     3
100
AcDbLine
 10
-234.7315031428796
 20
-15.91948090760732
 30
0.0
 11
-234.7315031428796
 21
-58.64115508686309
 31
0.0
  0
LINE
  5
5599
330
4A78
100
AcDbEntity
  8
AM_5
 62
     3
100
AcDbLine
 10
-7.231613006143699
 20
-57.64115508686309
 30
0.0
 11
-232.2315031428796
 21
-57.64115508686309
 31
0.0
  0
INSERT
  5
559A
330
4A78
100
AcDbEntity
  8
AM_5
 62
     3
100
AcDbBlockReference
  2
_OPEN30
 10
-4.731613006143699
 20
-57.64115508686309
 30
0.0
 41
2.5
 42
2.5
 43
2.5
  0
INSERT
  5
559B
330
4A78
100
AcDbEntity
  8
AM_5
 62
     3
100
AcDbBlockReference
  2
_OPEN30
 10
-234.7315031428796
 20
-57.64115508686309
 30
0.0
 41
2.5
 42
2.5
 43
2.5
 50
180.0
  0
MTEXT
  5
559C
330
4A78
100
AcDbEntity
  8
AM_5
 62
     2
100
AcDbMText
 10
-119.7315580745116
 20
-54.24115508686309
 30
0.0
 40
3.799999999999999
 41
0.0
 71
     5
 72
     1
  1
230
1001
ACAD
1000
MTEXTBEGIN
1070
    73
1070
     1
1070
    44
1040
1.0
1070
    74
1070
     0
1000
MTEXTEND
  0
POINT
  5
559D
330
4A78
100
AcDbEntity
  8
DEFPOINTS
 62
     0
100
AcDbPoint
 10
-4.731613006143696
 20
-13.0
 30
0.0
  0
POINT
  5
559E
330
4A78
100
AcDbEntity
  8
DEFPOINTS
 62
     0
100
AcDbPoint
 10
-234.7315031428796
 20
-15.11948090760732
 30
0.0
  0
POINT
  5
559F
330
4A78
100
AcDbEntity
  8
DEFPOINTS
 62
     0
100
AcDbPoint
 10
-234.7315031428796
 20
-57.64115508686309
 30
0.0
  0
ENDBLK
  5
4A83
330
4A78
100
AcDbEntity
  8
0
100
AcDbBlockEnd
  0
BLOCK
  5
4A9A
330
4A90
100
AcDbEntity
  8
0
100
AcDbBlockBegin
  2
*D12
 70
     1
 10
0.0
 20
0.0
 30
0.0
  3
*D12
  1

  0
LINE
  5
55AB
330
4A90
100
AcDbEntity
  8
AM_5
 62
     3
100
AcDbLine
 10
-4.731613006143704
 20
-13.79999999999874
 30
0.0
 11
-4.731613006143706
 21
-45.91702853295213
 31
0.0
  0
LINE
  5
55AC
330
4A90
100
AcDbEntity
  8
AM_5
 62
     3
100
AcDbLine
 10
-174.7316130061437
 20
-16.76804658143572
 30
0.0
 11
-174.7316130061437
 21
-45.91702853295213
 31
0.0
  0
LINE
  5
55AD
330
4A90
100
AcDbEntity
  8
AM_5
 62
     3
100
AcDbLine
 10
-7.231613006143706
 20
-44.91702853295214
 30
0.0
 11
-172.2316130061437
 21
-44.91702853295214
 31
0.0
  0
INSERT
  5
55AE
330
4A90
100
AcDbEntity
  8
AM_5
 62
     3
100
AcDbBlockReference
  2
_OPEN30
 10
-4.731613006143706
 20
-44.91702853295214
 30
0.0
 41
2.5
 42
2.5
 43
2.5
  0
INSERT
  5
55AF
330
4A90
100
AcDbEntity
  8
AM_5
 62
     3
100
AcDbBlockReference
  2
_OPEN30
 10
-174.7316130061437
 20
-44.91702853295214
 30
0.0
 41
2.5
 42
2.5
 43
2.5
 50
180.0
  0
MTEXT
  5
55B0
330
4A90
100
AcDbEntity
  8
AM_5
 62
     2
100
AcDbMText
 10
-89.73161300614373
 20
-41.51702853295214
 30
0.0
 40
3.799999999999999
 41
0.0
 71
     5
 72
     1
  1
170
1001
ACAD
1000
MTEXTBEGIN
1070
    73
1070
     1
1070
    44
1040
1.0
1070
    74
1070
     0
1000
MTEXTEND
  0
POINT
  5
55B1
330
4A90
100
AcDbEntity
  8
DEFPOINTS
 62
     0
100
AcDbPoint
 10
-4.731613006143704
 20
-12.99999999999874
 30
0.0
  0
POINT
  5
55B2
330
4A90
100
AcDbEntity
  8
DEFPOINTS
 62
     0
100
AcDbPoint
 10
-174.7316130061437
 20
-15.96804658143572
 30
0.0
  0
POINT
  5
55B3
330
4A90
100
AcDbEntity
  8
DEFPOINTS
 62
     0
100
AcDbPoint
 10
-174.7316130061437
 20
-44.91702853295214
 30
0.0
  0
ENDBLK
  5
4A9B
330
4A90
100
AcDbEntity
  8
0
100
AcDbBlockEnd
  0
BLOCK
  5
524D
330
5243
100
AcDbEntity
  8
0
100
AcDbBlockBegin
  2
*D13
 70
     1
 10
0.0
 20
0.0
 30
0.0
  3
*D13
  1

  0
LINE
  5
553B
330
5243
100
AcDbEntity
  8
AM_5
 62
     3
100
AcDbLine
 10
-3.480058934161597
 20
12.99999999999997
 30
0.0
 11
22.47682674812295
 21
13.00000000000004
 31
0.0
  0
LINE
  5
553C
330
5243
100
AcDbEntity
  8
AM_5
 62
     3
100
AcDbLine
 10
-3.622727565300281
 20
-13.00000000000001
 30
0.0
 11
22.47682674812303
 21
-12.99999999999994
 31
0.0
  0
LINE
  5
553D
330
5243
100
AcDbEntity
  8
AM_5
 62
     3
100
AcDbLine
 10
21.47682674812296
 20
10.50000000000004
 30
0.0
 11
21.47682674812303
 21
-10.49999999999994
 31
0.0
  0
INSERT
  5
553E
330
5243
100
AcDbEntity
  8
AM_5
 62
     3
100
AcDbBlockReference
  2
_OPEN30
 10
21.47682674812295
 20
13.00000000000004
 30
0.0
 41
2.5
 42
2.5
 43
2.5
 50
90.00000000000017
  0
INSERT
  5
553F
330
5243
100
AcDbEntity
  8
AM_5
 62
     3
100
AcDbBlockReference
  2
_OPEN30
 10
21.47682674812303
 20
-12.99999999999994
 30
0.0
 41
2.5
 42
2.5
 43
2.5
 50
270.0000000000001
  0
MTEXT
  5
5540
330
5243
100
AcDbEntity
  8
AM_5
 62
     2
100
AcDbMText
 10
18.07682674812299
 20
-0.000000000000189
 30
0.0
 40
3.799999999999999
 41
0.0
 71
     5
 72
     1
  1
%%C26
 11
-0.0000000000000028
 21
1.0
 31
0.0
1001
ACAD
1000
MTEXTBEGIN
1070
    73
1070
     1
1070
    44
1040
1.0
1070
    74
1070
     0
1000
MTEXTEND
  0
POINT
  5
5541
330
5243
100
AcDbEntity
  8
DEFPOINTS
 62
     0
100
AcDbPoint
 10
-4.280058934161557
 20
12.99999999999998
 30
0.0
  0
POINT
  5
5542
330
5243
100
AcDbEntity
  8
DEFPOINTS
 62
     0
100
AcDbPoint
 10
-4.422727565300321
 20
-13.0
 30
0.0
  0
POINT
  5
5543
330
5243
100
AcDbEntity
  8
DEFPOINTS
 62
     0
100
AcDbPoint
 10
21.47682674812299
 20
-13.00000000000001
 30
0.0
  0
ENDBLK
  5
524E
330
5243
100
AcDbEntity
  8
0
100
AcDbBlockEnd
  0
BLOCK
  5
5375
330
536B
100
AcDbEntity
  8
0
100
AcDbBlockBegin
  2
*D14
 70
     1
 10
0.0
 20
0.0
 30
0.0
  3
*D14
  1

  0
LINE
  5
54FA
330
536B
100
AcDbEntity
  8
AM_5
 62
     3
100
AcDbLine
 10
-229.562992087666
 20
16.03201201231516
 30
0.0
 11
-252.3325770485921
 21
16.03201201231516
 31
0.0
  0
LINE
  5
54FB
330
536B
100
AcDbEntity
  8
AM_5
 62
     3
100
AcDbLine
 10
-229.5629920876658
 20
-15.96786347911919
 30
0.0
 11
-252.3325770485921
 21
-15.96786347911918
 31
0.0
  0
LINE
  5
54FC
330
536B
100
AcDbEntity
  8
AM_5
 62
     3
100
AcDbLine
 10
-251.3325770485922
 20
13.53201201231516
 30
0.0
 11
-251.3325770485922
 21
-13.46786347911918
 31
0.0
  0
INSERT
  5
54FD
330
536B
100
AcDbEntity
  8
AM_5
 62
     3
100
AcDbBlockReference
  2
_OPEN30
 10
-251.3325770485922
 20
16.03201201231516
 30
0.0
 41
2.5
 42
2.5
 43
2.5
 50
90.0
  0
INSERT
  5
54FE
330
536B
100
AcDbEntity
  8
AM_5
 62
     3
100
AcDbBlockReference
  2
_OPEN30
 10
-251.3325770485922
 20
-15.96786347911918
 30
0.0
 41
2.5
 42
2.5
 43
2.5
 50
270.0
  0
MTEXT
  5
54FF
330
536B
100
AcDbEntity
  8
AM_5
 62
     2
100
AcDbMText
 10
-254.7325770485922
 20
0.0320742665979504
 30
0.0
 40
3.799999999999999
 41
0.0
 71
     5
 72
     1
  1
%%C32
 11
0.0000000000000001
 21
1.0
 31
0.0
1001
ACAD
1000
MTEXTBEGIN
1070
    73
1070
     1
1070
    44
1040
1.0
1070
    74
1070
     0
1000
MTEXTEND
  0
POINT
  5
5500
330
536B
100
AcDbEntity
  8
DEFPOINTS
 62
     0
100
AcDbPoint
 10
-228.762992087666
 20
16.03201201231516
 30
0.0
  0
POINT
  5
5501
330
536B
100
AcDbEntity
  8
DEFPOINTS
 62
     0
100
AcDbPoint
 10
-228.7629920876658
 20
-15.96786347911919
 30
0.0
  0
POINT
  5
5502
330
536B
100
AcDbEntity
  8
DEFPOINTS
 62
     0
100
AcDbPoint
 10
-251.3325770485922
 20
-15.96786347911918
 30
0.0
  0
ENDBLK
  5
5376
330
536B
100
AcDbEntity
  8
0
100
AcDbBlockEnd
  0
BLOCK
  5
5381
330
5377
100
AcDbEntity
  8
0
100
AcDbBlockBegin
  2
*D15
 70
     1
 10
0.0
 20
0.0
 30
0.0
  3
*D15
  1

  0
LINE
  5
5585
330
5377
100
AcDbEntity
  8
AM_5
 62
     3
100
AcDbLine
 10
-228.7316243715463
 20
-0.8000000000013425
 30
0.0
 11
-228.7316243715463
 21
-32.47941722561929
 31
0.0
  0
LINE
  5
5586
330
5377
100
AcDbEntity
  8
AM_5
 62
     3
100
AcDbLine
 10
-178.7316130061438
 20
-0.8000000000010995
 30
0.0
 11
-178.7316130061438
 21
-32.47941722561929
 31
0.0
  0
LINE
  5
5587
330
5377
100
AcDbEntity
  8
AM_5
 62
     3
100
AcDbLine
 10
-226.2316243715464
 20
-31.47941722561929
 30
0.0
 11
-181.2316130061438
 21
-31.47941722561929
 31
0.0
  0
INSERT
  5
5588
330
5377
100
AcDbEntity
  8
AM_5
 62
     3
100
AcDbBlockReference
  2
_OPEN30
 10
-228.7316243715463
 20
-31.47941722561929
 30
0.0
 41
2.5
 42
2.5
 43
2.5
 50
180.0
  0
INSERT
  5
5589
330
5377
100
AcDbEntity
  8
AM_5
 62
     3
100
AcDbBlockReference
  2
_OPEN30
 10
-178.7316130061438
 20
-31.47941722561929
 30
0.0
 41
2.5
 42
2.5
 43
2.5
  0
MTEXT
  5
558A
330
5377
100
AcDbEntity
  8
AM_5
 62
     2
100
AcDbMText
 10
-203.7316186888451
 20
-28.07941722561929
 30
0.0
 40
3.799999999999999
 41
0.0
 71
     5
 72
     1
  1
50
1001
ACAD
1000
MTEXTBEGIN
1070
    73
1070
     1
1070
    44
1040
1.0
1070
    74
1070
     0
1000
MTEXTEND
  0
POINT
  5
558B
330
5377
100
AcDbEntity
  8
DEFPOINTS
 62
     0
100
AcDbPoint
 10
-228.7316243715463
 20
-0.0000000000013426
 30
0.0
  0
POINT
  5
558C
330
5377
100
AcDbEntity
  8
DEFPOINTS
 62
     0
100
AcDbPoint
 10
-178.7316130061438
 20
-0.0000000000010996
 30
0.0
  0
POINT
  5
558D
330
5377
100
AcDbEntity
  8
DEFPOINTS
 62
     0
100
AcDbPoint
 10
-178.7316130061438
 20
-31.47941722561929
 30
0.0
  0
ENDBLK
  5
5382
330
5377
100
AcDbEntity
  8
0
100
AcDbBlockEnd
  0
BLOCK
  5
538F
330
5383
100
AcDbEntity
  8
0
100
AcDbBlockBegin
  2
*D16
 70
     1
 10
0.0
 20
0.0
 30
0.0
  3
*D16
  1

  0
LINE
  5
55A0
330
5383
100
AcDbEntity
  8
AM_5
 62
     3
100
AcDbLine
 10
-234.7315031428796
 20
-15.91948090760732
 30
0.0
 11
-234.7315031428796
 21
-32.47941722561964
 31
0.0
  0
LINE
  5
55A1
330
5383
100
AcDbEntity
  8
AM_5
 62
     3
100
AcDbLine
 10
-228.7316243715463
 20
-0.8000000000013425
 30
0.0
 11
-228.7316243715463
 21
-32.47941722561964
 31
0.0
  0
LINE
  5
55A2
330
5383
100
AcDbEntity
  8
AM_5
 62
     3
100
AcDbLine
 10
-237.2315031428796
 20
-31.47941722561964
 30
0.0
 11
-239.7315031428796
 21
-31.47941722561964
 31
0.0
  0
LINE
  5
55A3
330
5383
100
AcDbEntity
  8
AM_5
 62
     3
100
AcDbLine
 10
-226.2316243715464
 20
-31.47941722561964
 30
0.0
 11
-223.7316243715464
 21
-31.47941722561964
 31
0.0
  0
LINE
  5
55A4
330
5383
100
AcDbEntity
  8
AM_5
 62
     3
100
AcDbLine
 10
-234.7315031428796
 20
-31.47941722561964
 30
0.0
 11
-228.7316243715463
 21
-31.47941722561964
 31
0.0
  0
INSERT
  5
55A5
330
5383
100
AcDbEntity
  8
AM_5
 62
     3
100
AcDbBlockReference
  2
_OPEN30
 10
-234.7315031428796
 20
-31.47941722561964
 30
0.0
 41
2.5
 42
2.5
 43
2.5
  0
INSERT
  5
55A6
330
5383
100
AcDbEntity
  8
AM_5
 62
     3
100
AcDbBlockReference
  2
_OPEN30
 10
-228.7316243715463
 20
-31.47941722561964
 30
0.0
 41
2.5
 42
2.5
 43
2.5
 50
180.0
  0
MTEXT
  5
55A7
330
5383
100
AcDbEntity
  8
AM_5
 62
     2
100
AcDbMText
 10
-231.731563757213
 20
-28.07941722561965
 30
0.0
 40
3.799999999999999
 41
0.0
 71
     5
 72
     1
  1
6
1001
ACAD
1000
MTEXTBEGIN
1070
    73
1070
     1
1070
    44
1040
1.0
1070
    74
1070
     0
1000
MTEXTEND
  0
POINT
  5
55A8
330
5383
100
AcDbEntity
  8
DEFPOINTS
 62
     0
100
AcDbPoint
 10
-234.7315031428796
 20
-15.11948090760732
 30
0.0
  0
POINT
  5
55A9
330
5383
100
AcDbEntity
  8
DEFPOINTS
 62
     0
100
AcDbPoint
 10
-228.7316243715463
 20
-0.0000000000013426
 30
0.0
  0
POINT
  5
55AA
330
5383
100
AcDbEntity
  8
DEFPOINTS
 62
     0
100
AcDbPoint
 10
-228.7316243715463
 20
-31.47941722561964
 30
0.0
  0
ENDBLK
  5
5390
330
5383
100
AcDbEntity
  8
0
100
AcDbBlockEnd
  0
BLOCK
  5
539B
330
5391
100
AcDbEntity
  8
0
100
AcDbBlockBegin
  2
*D17
 70
     1
 10
0.0
 20
0.0
 30
0.0
  3
*D17
  1

  0
LINE
  5
55B4
330
5391
100
AcDbEntity
  8
AM_5
 62
     3
100
AcDbLine
 10
-174.7316130061437
 20
-16.76804658143572
 30
0.0
 11
-174.7316130061437
 21
-45.91702853295258
 31
0.0
  0
LINE
  5
55B5
330
5391
100
AcDbEntity
  8
AM_5
 62
     3
100
AcDbLine
 10
-234.7316130061437
 20
-15.91955414979424
 30
0.0
 11
-234.7316130061437
 21
-45.91702853295258
 31
0.0
  0
LINE
  5
55B6
330
5391
100
AcDbEntity
  8
AM_5
 62
     3
100
AcDbLine
 10
-177.2316130061437
 20
-44.91702853295257
 30
0.0
 11
-232.2316130061437
 21
-44.91702853295257
 31
0.0
  0
INSERT
  5
55B7
330
5391
100
AcDbEntity
  8
AM_5
 62
     3
100
AcDbBlockReference
  2
_OPEN30
 10
-174.7316130061437
 20
-44.91702853295257
 30
0.0
 41
2.5
 42
2.5
 43
2.5
  0
INSERT
  5
55B8
330
5391
100
AcDbEntity
  8
AM_5
 62
     3
100
AcDbBlockReference
  2
_OPEN30
 10
-234.7316130061437
 20
-44.91702853295257
 30
0.0
 41
2.5
 42
2.5
 43
2.5
 50
180.0
  0
MTEXT
  5
55B9
330
5391
100
AcDbEntity
  8
AM_5
 62
     2
100
AcDbMText
 10
-204.7316130061437
 20
-41.51702853295257
 30
0.0
 40
3.799999999999999
 41
0.0
 71
     5
 72
     1
  1
60
1001
ACAD
1000
MTEXTBEGIN
1070
    73
1070
     1
1070
    44
1040
1.0
1070
    74
1070
     0
1000
MTEXTEND
  0
POINT
  5
55BA
330
5391
100
AcDbEntity
  8
DEFPOINTS
 62
     0
100
AcDbPoint
 10
-174.7316130061437
 20
-15.96804658143572
 30
0.0
  0
POINT
  5
55BB
330
5391
100
AcDbEntity
  8
DEFPOINTS
 62
     0
100
AcDbPoint
 10
-234.7316130061437
 20
-15.11955414979424
 30
0.0
  0
POINT
  5
55BC
330
5391
100
AcDbEntity
  8
DEFPOINTS
 62
     0
100
AcDbPoint
 10
-234.7316130061437
 20
-44.91702853295257
 30
0.0
  0
ENDBLK
  5
539C
330
5391
100
AcDbEntity
  8
0
100
AcDbBlockEnd
  0
ENDSEC
  0
SECTION
  2
ENTITIES
  0
TEXT
  5
19BD
330
1F
100
AcDbEntity
  8
AM_6
100
AcDbText
 10
-140.5648914078449
 20
-80.14115508686314
 30
0.0
 40
5.0
  1
KDS260LAK
 50
0.0000000000001527
 72
     4
 11
-119.7315580745116
 21
-77.64115508686309
 31
0.0
100
AcDbText
  0
LINE
  5
35D1
330
1F
100
AcDbEntity
  8
AM_7
100
AcDbLine
 10
4.909002595337891
 20
-0.0000000000001046
 30
0.0
 11
-232.9548225470237
 21
-0.0000000000006905
 31
0.0
  0
LINE
  5
35F4
330
1F
100
AcDbEntity
  8
PV0001_1
  6
CONTINUOUS
 48
0.5
100
AcDbLine
 10
-150.7316130061437
 20
13.00000000000344
 30
0.0
 11
-174.7316130061439
 21
16.0319662359465
 31
0.0
  0
LINE
  5
35F5
330
1F
100
AcDbEntity
  8
PV0001_1
  6
CONTINUOUS
 48
0.5
100
AcDbLine
 10
-150.7316130061437
 20
-12.99999999999673
 30
0.0
 11
-174.7316130061437
 21
-15.96804658143572
 31
0.0
  0
DIMENSION
  5
36BA
330
1F
100
AcDbEntity
  8
AM_5
100
AcDbDimension
  2
*D8
 10
-2.800374408476762
 20
-7.693965517241461
 30
0.0
 11
33.13104039027795
 21
-0.0000000000000372
 31
0.0
 70
    34
  1
<>
 51
359.9999999999998
  3
AM_JIS$2
100
AcDb2LineAngularDimension
 13
0.0
 23
-0.0000000000000725
 33
0.0
 14
-2.800374408476802
 24
7.693965517241139
 34
0.0
 15
0.0
 25
-0.0000000000002316
 35
0.0
 16
33.26792484260828
 26
-14.35038203075178
 36
0.0
1001
ACAD
1000
DSTYLE
1002
{
1070
   179
1070
     3
1002
}
1001
GENIUS_GENDTOL_13
1000

1000
h7
1000

1040
0.0
  0
DIMENSION
  5
3B0D
330
1F
100
AcDbEntity
  8
AM_5
100
AcDbDimension
  2
*D9
 10
-141.7316130061438
 20
31.86265499019626
 30
0.0
 11
-73.23161300614394
 21
35.26265499019626
 31
0.0
 70
    32
  1
<>
 51
359.9999999999998
  3
AM_JIS$0
100
AcDbAlignedDimension
 13
-4.731613006144033
 23
12.99999999999998
 33
0.0
 14
-141.7316130061438
 24
13.00000000000332
 34
0.0
 50
180.0000000000001
100
AcDbRotatedDimension
1001
ACAD
1000
DSTYLE
1002
{
1070
   271
1070
     3
1002
}
1001
GENIUS_GENDTOL_13
1000

1000
h7
1000

1040
0.0
  0
LINE
  5
4534
330
1F
100
AcDbEntity
  8
PV0001_1
  6
CONTINUOUS
100
AcDbLine
 10
-150.7316130061437
 20
7.000195075467097
 30
0.0
 11
-150.7316130061437
 21
13.00000000000344
 31
0.0
  0
LINE
  5
4536
330
1F
100
AcDbEntity
  8
PV0001_1
  6
CONTINUOUS
100
AcDbLine
 10
-150.7316130061437
 20
-12.99999999999681
 30
0.0
 11
-150.7316130061437
 21
-9.894174040171277
 31
0.0
  0
LINE
  5
46A5
330
1F
100
AcDbEntity
  8
AM_11
 48
0.5
100
AcDbLine
 10
-141.7316130061438
 20
-12.99999999999693
 30
0.0
 11
-141.7316130061438
 21
13.00000000000332
 31
0.0
  0
DIMENSION
  5
471A
330
1F
100
AcDbEntity
  8
AM_5
100
AcDbDimension
  2
*D10
 10
-150.7316130061444
 20
45.55268892050134
 30
0.0
 11
-77.73161300614423
 21
48.95268892050133
 31
0.0
 70
    32
  1
<>
 51
359.9999999999998
  3
AM_JIS$0
100
AcDbAlignedDimension
 13
-4.731613006144033
 23
12.99999999999998
 33
0.0
 14
-150.7316130061444
 24
13.00000000000351
 34
0.0
 50
180.0000000000002
100
AcDbRotatedDimension
1001
ACAD
1000
DSTYLE
1002
{
1070
   271
1070
     3
1002
}
1001
GENIUS_GENDTOL_13
1000

1000
h7
1000

1040
0.0
  0
DIMENSION
  5
4A5A
330
1F
100
AcDbEntity
  8
AM_5
100
AcDbDimension
  2
*D11
 10
-234.7315031428796
 20
-57.64115508686309
 30
0.0
 11
-119.7315580745116
 21
-54.24115508686309
 31
0.0
 70
    32
  1
<>
  3
AM_JIS$0
100
AcDbAlignedDimension
 13
-4.731613006143696
 23
-13.0
 33
0.0
 14
-234.7315031428796
 24
-15.11948090760732
 34
0.0
 50
0.0000000000004184
100
AcDbRotatedDimension
1001
ACAD
1000
DSTYLE
1002
{
1070
   271
1070
     3
1002
}
1001
GENIUS_GENDTOL_13
1000

1000
h7
1000

1040
0.0
  0
DIMENSION
  5
4A5C
330
1F
100
AcDbEntity
  8
AM_5
100
AcDbDimension
  2
*D12
 10
-174.7316130061437
 20
-44.91702853295214
 30
0.0
 11
-89.73161300614373
 21
-41.51702853295214
 31
0.0
 70
    32
  1
<>
  3
AM_JIS$0
100
AcDbAlignedDimension
 13
-4.731613006143704
 23
-12.99999999999874
 33
0.0
 14
-174.7316130061437
 24
-15.96804658143572
 34
0.0
 50
0.0000000000003167
100
AcDbRotatedDimension
1001
ACAD
1000
DSTYLE
1002
{
1070
   271
1070
     3
1002
}
1001
GENIUS_GENDTOL_13
1000

1000
h7
1000

1040
0.0
  0
SPLINE
  5
4BDC
330
1F
100
AcDbEntity
  8
AM_0
100
AcDbSpline
210
0.0
220
0.0
230
1.0
 70
     8
 71
     3
 72
    12
 73
     8
 74
     0
 42
0.0000000001
 43
0.0000000001
 40
0.0
 40
0.0
 40
0.0
 40
0.0
 40
3.550288329958888
 40
5.110699985623471
 40
6.310592039948465
 40
8.859663010396623
 40
10.65155104271494
 40
10.65155104271494
 40
10.65155104271494
 40
10.65155104271494
 10
-138.7063515194718
 20
2.071293148583655
 30
0.0
 10
-157.02558391361
 20
10.68159139186104
 30
0.0
 10
-166.3264184089182
 20
10.10921459876203
 30
0.0
 10
-172.2914855448448
 20
6.809119695842683
 30
0.0
 10
-173.1281671219054
 20
3.171624507958823
 30
0.0
 10
-171.3331303552167
 20
0.0499828021978235
 30
0.0
 10
-160.9341478267125
 20
-6.545020424668132
 30
0.0
 10
-149.5562672070692
 20
-10.1857534972015
 30
0.0
  0
LINE
  5
5202
330
1F
100
AcDbEntity
  8
PV0001_1
  6
CONTINUOUS
 48
0.5
100
AcDbLine
 10
-0.0000000000002984
 20
-0.0000000000000037
 30
0.0
 11
-4.731613006143835
 21
12.99999999999997
 31
0.0
  0
LINE
  5
5203
330
1F
100
AcDbEntity
  8
PV0001_1
  6
CONTINUOUS
 48
0.5
100
AcDbLine
 10
-0.0000000000002984
 20
-0.0000000000002435
 30
0.0
 11
-4.731613006143672
 21
-13.0
 31
0.0
  0
LINE
  5
522F
330
1F
100
AcDbEntity
  8
PV0001_1
  6
CONTINUOUS
 48
0.5
100
AcDbLine
 10
-150.7316130061437
 20
13.00000000000351
 30
0.0
 11
-122.8449899896917
 21
13.0000000000029
 31
0.0
  0
SPLINE
  5
5230
330
1F
100
AcDbEntity
  8
PV0001_1
  6
CONTINUOUS
100
AcDbSpline
210
0.0
220
0.0
230
1.0
 70
     8
 71
     3
 72
    30
 73
    26
 74
     0
 42
0.0000000001
 43
0.0000000001
 40
0.0
 40
0.0
 40
0.0
 40
0.0
 40
1.010743684496582
 40
2.022833576467832
 40
3.037578957496688
 40
4.056212745003489
 40
5.079857003664532
 40
6.109500240690281
 40
7.145961322679372
 40
8.189895241603872
 40
9.241717795325891
 40
10.30168407291828
 40
11.36983447792315
 40
12.44600489715814
 40
13.52984294512926
 40
14.62081576220742
 40
15.7182257034828
 40
16.82123173843959
 40
17.92886860250316
 40
19.0400688939571
 40
20.15368796660465
 40
21.26852814259644
 40
22.38336992938901
 40
23.49698739941135
 40
23.53853004329818
 40
23.53853004329818
 40
23.53853004329818
 40
23.53853004329818
 10
-89.53996617484934
 20
-12.99999999999787
 30
0.0
 10
-90.28381446069607
 20
-12.99226531494213
 30
0.0
 10
-91.77250176242107
 20
-12.97678564301921
 30
0.0
 10
-94.00499095332378
 20
-12.85200210920764
 30
0.0
 10
-96.23738484768049
 20
-12.653628887543
 30
0.0
 10
-98.46964057877208
 20
-12.3756012726791
 30
0.0
 10
-100.7017358722003
 20
-12.02168707184656
 30
0.0
 10
-102.9336266937157
 20
-11.59346008509767
 30
0.0
 10
-105.1653205088942
 20
-11.09380500204801
 30
0.0
 10
-107.3967975271217
 20
-10.52578147135967
 30
0.0
 10
-109.6280425479727
 20
-9.892877123052119
 30
0.0
 10
-111.8590666929704
 20
-9.199064632295787
 30
0.0
 10
-114.0898759372422
 20
-8.448590179098468
 30
0.0
 10
-116.3204981529629
 20
-7.646125657565712
 30
0.0
 10
-118.5509435527519
 20
-6.796602384114406
 30
0.0
 10
-120.7812328189443
 20
-5.905259452791922
 30
0.0
 10
-123.0113906857505
 20
-4.977595737671171
 30
0.0
 10
-125.2414367262262
 20
-4.019315931689545
 30
0.0
 10
-127.4713925832225
 20
-3.036313828434983
 30
0.0
 10
-129.7012821182146
 20
-2.03463968906556
 30
0.0
 10
-131.9311248894565
 20
-1.020451394538935
 30
0.0
 10
-134.1609523857819
 20
-0.0000026524691401
 30
0.0
 10
-136.3907698720476
 20
1.020464458313978
 30
0.0
 10
-137.90642265692
 20
1.709808228684038
 30
0.0
 10
-138.6785814765199
 20
2.058746829361592
 30
0.0
 10
-138.7063515194718
 20
2.071293148583655
 30
0.0
  0
LINE
  5
5231
330
1F
100
AcDbEntity
  8
AM_0
100
AcDbLine
 10
-150.7316130061437
 20
-12.99999999999673
 30
0.0
 11
-127.1755832623219
 21
-12.99999999999727
 31
0.0
  0
SPLINE
  5
5232
330
1F
100
AcDbEntity
  8
PV0001_1
  6
CONTINUOUS
100
AcDbSpline
210
0.0
220
0.0
230
1.0
 70
     8
 71
     3
 72
    16
 73
    12
 74
     0
 42
0.0000000001
 43
0.0000000001
 40
0.0
 40
0.0
 40
0.0
 40
0.0
 40
1.010743684496582
 40
2.022833576467832
 40
3.037578957496688
 40
4.056212745003489
 40
5.079857003664532
 40
6.109500240690281
 40
7.145961322679372
 40
8.189895241603872
 40
8.753615341503387
 40
8.753615341503387
 40
8.753615341503387
 40
8.753615341503387
 10
-127.175643758883
 20
-12.99999993557425
 30
0.0
 10
-128.0497150026054
 20
-12.9922652505185
 30
0.0
 10
-129.7990216637766
 20
-12.97678557859558
 30
0.0
 10
-132.422345049496
 20
-12.85200204478398
 30
0.0
 10
-135.0455564554312
 20
-12.65362882311935
 30
0.0
 10
-137.6686055103342
 20
-12.37560120825544
 30
0.0
 10
-140.2914660403047
 20
-12.02168700742289
 30
0.0
 10
-142.9140863021688
 20
-11.59346002067399
 30
0.0
 10
-145.5364750684749
 20
-11.0938049376243
 30
0.0
 10
-147.7499944124206
 20
-10.61429814446193
 30
0.0
 10
-149.088044706598
 20
-10.29906311159667
 30
0.0
 10
-149.5562672070692
 20
-10.1857534972015
 30
0.0
  0
LINE
  5
5234
330
1F
100
AcDbEntity
  8
PV0001_1
  6
CONTINUOUS
 48
0.5
100
AcDbLine
 10
-18.84373727198163
 20
13.00000000000024
 30
0.0
 11
-4.731613006143835
 21
12.99999999999998
 31
0.0
  0
LINE
  5
5235
330
1F
100
AcDbEntity
  8
PV0001_1
  6
CONTINUOUS
 48
0.5
100
AcDbLine
 10
-4.100731873646724
 20
11.26666831970117
 30
0.0
 11
-18.89288906526424
 21
11.26666831970145
 31
0.0
  0
LINE
  5
5236
330
1F
100
AcDbEntity
  8
AM_0
100
AcDbLine
 10
-3.211275380541904
 20
-3.217051309456661
 30
0.0
 11
-7.650614942212178
 21
-5.577387967740455
 31
0.0
  0
LINE
  5
5237
330
1F
100
AcDbEntity
  8
AM_0
100
AcDbLine
 10
-4.175787431801156
 20
0.9736054322364491
 30
0.0
 11
-3.211275380541904
 21
-3.217051309456661
 31
0.0
  0
LINE
  5
5238
330
1F
100
AcDbEntity
  8
PV0001_1
  6
CONTINUOUS
 48
0.5
100
AcDbLine
 10
-3.211275380541904
 20
-3.217051309456661
 30
0.0
 11
-5.085832754202272
 21
-11.22727272727272
 31
0.0
  0
LINE
  5
523A
330
1F
100
AcDbEntity
  8
PV0001_1
  6
CONTINUOUS
 48
0.5
100
AcDbLine
 10
-14.89819690561049
 20
3.763080494678173
 30
0.0
 11
-10.84797389475495
 21
1.465981914184119
 31
0.0
  0
LINE
  5
523D
330
1F
100
AcDbEntity
  8
PV0001_1
  6
CONTINUOUS
 48
0.5
100
AcDbLine
 10
-20.04490464137663
 20
-12.99999999999971
 30
0.0
 11
-4.731613006143672
 21
-13.0
 31
0.0
  0
LINE
  5
523E
330
1F
100
AcDbEntity
  8
PV0001_1
  6
CONTINUOUS
 48
0.5
100
AcDbLine
 10
-20.33161300614406
 20
-11.22727272727247
 30
0.0
 11
-5.085832754202272
 21
-11.22727272727272
 31
0.0
  0
LINE
  5
523F
330
1F
100
AcDbEntity
  8
PV0001_1
  6
CONTINUOUS
 48
0.5
100
AcDbLine
 10
-10.84797389475488
 20
1.465981914183934
 30
0.0
 11
-5.085832754202272
 21
-11.22727272727272
 31
0.0
  0
ELLIPSE
  5
5240
330
1F
100
AcDbEntity
  8
AM_0
100
AcDbEllipse
 10
-6.868923437381909
 20
4.296492468459064
 30
0.0
 11
5.47275338151003
 21
0.3440148647408217
 31
0.0
210
0.0
220
0.0
230
1.0
 40
0.7182241134466555
 41
3.854311217574881
 42
6.107593289525333
  0
DIMENSION
  5
5242
330
1F
100
AcDbEntity
  8
AM_5
100
AcDbDimension
  2
*D13
 10
21.47682674812299
 20
-13.00000000000001
 30
0.0
 11
21.47682674812299
 21
-0.000000000000242
 31
0.0
 70
   160
  1
%%C<>
 51
359.9999999999998
  3
AM_JIS$0
100
AcDbAlignedDimension
 13
-4.280058934161557
 23
12.99999999999998
 33
0.0
 14
-4.422727565300321
 24
-13.0
 34
0.0
 50
89.99999999999905
100
AcDbRotatedDimension
1001
GENIUS_GENDTOL_13
1000

1000
h7
1000

1040
0.0
1001
ACAD
1000
DSTYLE
1002
{
1070
   271
1070
     3
1002
}
  0
DIMENSION
  5
535A
330
1F
100
AcDbEntity
  8
AM_5
100
AcDbDimension
  2
*D14
 10
-251.3325770485922
 20
-15.96786347911918
 30
0.0
 11
-254.7325770485922
 21
0.0320742665979504
 31
0.0
 70
    32
  1
%%C<>
  3
AM_JIS$0
100
AcDbAlignedDimension
 13
-228.762992087666
 23
16.03201201231516
 33
0.0
 14
-228.7629920876658
 24
-15.96786347911919
 34
0.0
 50
270.0
100
AcDbRotatedDimension
1001
ACAD
1000
DSTYLE
1002
{
1070
   271
1070
     3
1002
}
1001
GENIUS_GENDTOL_13
1000

1000
h7
1000

1040
0.0
  0
LINE
  5
535B
330
1F
100
AcDbEntity
  8
PV0001_1
  6
CONTINUOUS
 48
0.5
100
AcDbLine
 10
-234.7315031428796
 20
-15.11948090760732
 30
0.0
 11
-233.8829557795917
 21
-15.96800996034227
 31
0.0
  0
LINE
  5
535C
330
1F
100
AcDbEntity
  8
PV0001_1
  6
CONTINUOUS
 48
0.5
100
AcDbLine
 10
-234.7315031428798
 20
15.1833273199329
 30
0.0
 11
-233.8829557795918
 21
16.03185637266553
 31
0.0
  0
LINE
  5
535D
330
1F
100
AcDbEntity
  8
PV0001_1
  6
CONTINUOUS
 48
0.5
100
AcDbLine
 10
-234.7316130061438
 20
0.0319644048926817
 30
0.0
 11
-234.7316130061439
 21
15.18348295958017
 31
0.0
  0
LINE
  5
535E
330
1F
100
AcDbEntity
  8
PV0001_1
  6
CONTINUOUS
 48
0.5
100
AcDbLine
 10
-234.7316130061438
 20
0.0319644048926817
 30
0.0
 11
-234.7316130061437
 21
-15.11955414979424
 31
0.0
  0
LINE
  5
535F
330
1F
100
AcDbEntity
  8
PV0001_1
  6
CONTINUOUS
100
AcDbLine
 10
-174.7316130061437
 20
-15.96804658143572
 30
0.0
 11
-174.7316130061439
 21
16.0319662359465
 31
0.0
  0
LINE
  5
5360
330
1F
100
AcDbEntity
  8
PV0001_1
  6
CONTINUOUS
 48
0.5
100
AcDbLine
 10
-233.8831022639758
 20
0.0319644048926852
 30
0.0
 11
-233.8831022639759
 21
16.03201201231513
 31
0.0
  0
LINE
  5
5361
330
1F
100
AcDbEntity
  8
AM_0
100
AcDbLine
 10
-223.8903951887869
 20
-4.841229182760629
 30
0.0
 11
-183.572842188903
 21
-4.841229182760415
 31
0.0
  0
LINE
  5
5362
330
1F
100
AcDbEntity
  8
AM_0
100
AcDbLine
 10
-183.5728421889031
 20
4.841229182758125
 30
0.0
 11
-223.8903951887871
 21
4.841229182757908
 31
0.0
  0
LINE
  5
5363
330
1F
100
AcDbEntity
  8
PV0001_1
  6
CONTINUOUS
100
AcDbLine
 10
-233.8539846454763
 20
-15.96804658143601
 30
0.0
 11
-174.7316130061437
 21
-15.96804658143572
 31
0.0
  0
LINE
  5
5364
330
1F
100
AcDbEntity
  8
PV0001_1
  6
CONTINUOUS
 48
0.5
100
AcDbLine
 10
-233.8831022639758
 20
0.0319644048926852
 30
0.0
 11
-233.8831022639757
 21
-15.96808320252977
 31
0.0
  0
ARC
  5
5365
330
1F
100
AcDbEntity
  8
AM_0
100
AcDbCircle
 10
-223.8903951887871
 20
-0.0000000000013356
 30
0.0
 40
4.841229182759249
100
AcDbArc
 50
90.00000000000161
 51
270.0000000000016
  0
ARC
  5
5366
330
1F
100
AcDbEntity
  8
AM_0
100
AcDbCircle
 10
-183.5728421889031
 20
-0.0000000000011225
 30
0.0
 40
4.841229182759249
100
AcDbArc
 50
270.0
 51
90.0
  0
LINE
  5
5367
330
1F
100
AcDbEntity
  8
PV0001_1
  6
CONTINUOUS
100
AcDbLine
 10
-174.7316130061439
 20
16.0319662359465
 30
0.0
 11
-233.8539846454765
 21
16.03196623594621
 31
0.0
  0
DIMENSION
  5
5368
330
1F
100
AcDbEntity
  8
AM_5
100
AcDbDimension
  2
*D15
 10
-178.7316130061438
 20
-31.47941722561929
 30
0.0
 11
-203.7316186888451
 21
-28.07941722561929
 31
0.0
 70
    32
  1
<>
  3
AM_JIS$0
100
AcDbAlignedDimension
 13
-228.7316243715463
 23
-0.0000000000013426
 33
0.0
 14
-178.7316130061438
 24
-0.0000000000010996
 34
0.0
 50
0.0000000000004184
100
AcDbRotatedDimension
1001
ACAD
1000
DSTYLE
1002
{
1070
   271
1070
     3
1002
}
1001
GENIUS_GENDTOL_13
1000

1000
h7
1000

1040
0.0
  0
DIMENSION
  5
5369
330
1F
100
AcDbEntity
  8
AM_5
100
AcDbDimension
  2
*D16
 10
-228.7316243715463
 20
-31.47941722561964
 30
0.0
 11
-231.731563757213
 21
-31.47941722561964
 31
0.0
 70
   160
  1
<>
  3
AM_JIS$0
100
AcDbAlignedDimension
 13
-234.7315031428796
 23
-15.11948090760732
 33
0.0
 14
-228.7316243715463
 24
-0.0000000000013426
 34
0.0
 50
0.0000000000004185
100
AcDbRotatedDimension
1001
ACAD
1000
DSTYLE
1002
{
1070
   271
1070
     3
1002
}
1001
GENIUS_GENDTOL_13
1000

1000
h7
1000

1040
0.0
  0
DIMENSION
  5
536A
330
1F
100
AcDbEntity
  8
AM_5
100
AcDbDimension
  2
*D17
 10
-234.7316130061437
 20
-44.91702853295257
 30
0.0
 11
-204.7316130061437
 21
-41.51702853295257
 31
0.0
 70
    32
  1
<>
  3
AM_JIS$0
100
AcDbAlignedDimension
 13
-174.7316130061437
 23
-15.96804658143572
 33
0.0
 14
-234.7316130061437
 24
-15.11955414979424
 34
0.0
 50
0.0000000000004184
100
AcDbRotatedDimension
1001
ACAD
1000
DSTYLE
1002
{
1070
   271
1070
     3
1002
}
1001
GENIUS_GENDTOL_13
1000

1000
h7
1000

1040
0.0
  0
LINE
  5
5630
330
1F
100
AcDbEntity
  8
AM_0
100
AcDbLine
 10
-20.33161300614409
 20
-12.97192371752937
 30
0.0
 11
-20.33161300614377
 21
6.415704500642696
 31
0.0
  0
SPLINE
  5
5631
330
1F
100
AcDbEntity
  8
PV0001_1
  6
CONTINUOUS
100
AcDbSpline
210
0.0
220
0.0
230
1.0
 70
     8
 71
     3
 72
    17
 73
    13
 74
     0
 42
0.0000000001
 43
0.0000000001
 40
1.580019955310467
 40
1.580019955310467
 40
1.580019955310467
 40
1.580019955310467
 40
2.030549285115227
 40
3.082371838836284
 40
4.126290986361125
 40
5.162752068350215
 40
6.192395305374981
 40
7.216039564037012
 40
8.234688489606833
 40
9.249433870634691
 40
10.26152376260694
 40
11.27226744710342
 40
11.27226744710342
 40
11.27226744710342
 40
11.27226744710352
 10
-37.48978266479176
 20
-9.594382805674127
 30
0.0
 10
-37.75158189307177
 20
-9.693196978155434
 30
0.0
 10
-38.62607927017032
 20
-10.01707362698117
 30
0.0
 10
-40.11906315915152
 20
-10.52508573917253
 30
0.0
 10
-41.96834456945768
 20
-11.09399191241039
 30
0.0
 10
-43.81813508520457
 20
-11.59341599790402
 30
0.0
 10
-45.66801035770723
 20
-12.0216808173279
 30
0.0
 10
-47.5180871708055
 20
-12.37567115170389
 30
0.0
 10
-49.36829180040179
 20
-12.65336693428102
 30
0.0
 10
-51.21861163854922
 20
-12.85296860347039
 30
0.0
 10
-53.06900109815853
 20
-12.97319130014731
 30
0.0
 10
-54.30289347491667
 20
-13.00000007438617
 30
0.0
 10
-54.91942906412505
 20
-12.99999999999902
 30
0.0
  0
SPLINE
  5
5632
330
1F
100
AcDbEntity
  8
PV0001_1
  6
CONTINUOUS
 48
0.5
100
AcDbSpline
210
0.0
220
0.0
230
1.0
 70
     8
 71
     3
 72
    15
 73
    11
 74
     0
 42
0.0000000001
 43
0.0000000001
 40
0.0
 40
0.0
 40
0.0
 40
0.0
 40
1.010743614677189
 40
2.022833924044153
 40
3.037578959561199
 40
4.056212747067873
 40
5.079857613375832
 40
6.109500119648989
 40
7.14596120163808
 40
7.411901016977558
 40
7.411901016977558
 40
7.411901016977558
 40
7.411901016977558
 10
-18.84373727198163
 20
12.98958619070142
 30
0.0
 10
-19.43243055865437
 20
12.98950807176087
 30
0.0
 10
-20.61071494040845
 20
12.96283320930357
 30
0.0
 10
-22.37761926206442
 20
12.84252666820141
 30
0.0
 10
-24.1444754230153
 20
12.64296140964113
 30
0.0
 10
-25.9112147600143
 20
12.3652591854717
 30
0.0
 10
-27.67782627184255
 20
12.01124121557478
 30
0.0
 10
-29.44427982091585
 20
11.58305364279687
 30
0.0
 10
-30.76872670871027
 20
11.20838642813335
 30
0.0
 10
-31.50507899352363
 20
10.98226891895345
 30
0.0
 10
-31.79020152901486
 20
10.88280718826638
 30
0.0
  0
SPLINE
  5
5633
330
1F
100
AcDbEntity
  8
PV0001_1
  6
CONTINUOUS
100
AcDbSpline
210
0.0
220
0.0
230
1.0
 70
     8
 71
     3
 72
    25
 73
    21
 74
     0
 42
0.0000000001
 43
0.0000000001
 40
24.56499986022253
 40
24.56499986022253
 40
24.56499986022253
 40
24.56499986022253
 40
24.6081876908653
 40
25.71582455492886
 40
26.81883757994213
 40
27.91624752121713
 40
29.00722033829659
 40
30.09105838626677
 40
31.16722880550176
 40
32.23537921050758
 40
33.29534548809967
 40
34.347168041821
 40
35.39108718934584
 40
36.42754827133493
 40
37.45720575381954
 40
38.48085062012849
 40
39.49948440763516
 40
40.51422944315121
 40
41.52631975251916
 40
42.53706336680078
 40
42.53706336680078
 40
42.53706336680078
 40
42.53706336680078
 10
-14.89819690561049
 20
3.763080494678173
 30
0.0
 10
-14.92248671437966
 20
3.775391436316616
 30
0.0
 10
-15.56977352622039
 20
4.103336736441061
 30
0.0
 10
-16.83941530920091
 20
4.740105357844214
 30
0.0
 10
-18.7101819862482
 20
5.653886643161268
 30
0.0
 10
-20.58030449501286
 20
6.53707137423929
 30
0.0
 10
-22.44966424966765
 20
7.383937747529715
 30
0.0
 10
-24.31815267010442
 20
8.188994243673857
 30
0.0
 10
-26.18566194630662
 20
8.947001769464417
 30
0.0
 10
-28.05208254558543
 20
9.653030214720724
 30
0.0
 10
-29.91732554896128
 20
10.30240954455287
 30
0.0
 10
-31.78128664304786
 20
10.89088767262967
 30
0.0
 10
-33.64388473887963
 20
11.41451205770019
 30
0.0
 10
-35.50503779867359
 20
11.86978561100134
 30
0.0
 10
-37.36465790210331
 20
12.25358832959227
 30
0.0
 10
-39.2226664436951
 20
12.56325405156572
 30
0.0
 10
-41.07897652641725
 20
12.79661287147273
 30
0.0
 10
-42.93353306547315
 20
12.95187111045558
 30
0.0
 10
-44.78626830946975
 20
13.0278327756656
 30
0.0
 10
-46.02044893884479
 20
13.02509764693353
 30
0.0
 10
-46.63680821839441
 20
13.01034909286892
 30
0.0
  0
LINE
  5
5634
330
1F
100
AcDbEntity
  8
AM_0
100
AcDbLine
 10
-18.93242457417226
 20
5.755377920806109
 30
0.0
 11
-18.84360963321728
 21
12.99999999999993
 31
0.0
  0
LINE
  5
5635
330
1F
100
AcDbEntity
  8
PV0001_1
  6
CONTINUOUS
 48
0.5
100
AcDbLine
 10
-97.86181384421745
 20
-12.99999999999821
 30
0.0
 11
-54.91942906412531
 21
-12.99999999999931
 31
0.0
  0
LINE
  5
5636
330
1F
100
AcDbEntity
  8
PV0001_1
  6
CONTINUOUS
 48
0.5
100
AcDbLine
 10
-94.0306938997779
 20
13.00000000000167
 30
0.0
 11
-47.06930888227726
 21
13.00000000000046
 31
0.0
  0
SPLINE
  5
5637
330
1F
100
AcDbEntity
  8
PV0001_1
  6
CONTINUOUS
100
AcDbSpline
210
0.0
220
0.0
230
1.0
 70
     8
 71
     3
 72
    55
 73
    51
 74
     0
 42
0.0000000001
 43
0.0000000001
 40
0.0
 40
0.0
 40
0.0
 40
0.0
 40
1.010743684496582
 40
2.022833576467832
 40
3.037578957496688
 40
4.056212745003489
 40
5.079857003664532
 40
6.109500240690281
 40
7.145961322679372
 40
8.189895241603872
 40
9.241717795325891
 40
10.30168407291828
 40
11.36983447792315
 40
12.44600489715814
 40
13.52984294512926
 40
14.62081576220742
 40
15.7182257034828
 40
16.82123173843959
 40
17.92886860250316
 40
19.0400688939571
 40
20.15368796660465
 40
21.26852814259644
 40
22.38336992938901
 40
23.49698739941135
 40
24.6081876908653
 40
25.71582455492886
 40
26.81883757994213
 40
27.91624752121713
 40
29.00722033829659
 40
30.09105838626677
 40
31.16722880550176
 40
32.23537921050758
 40
33.29534548809967
 40
34.347168041821
 40
35.39108718934584
 40
36.42754827133493
 40
37.45720575381954
 40
38.48085062012849
 40
39.49948440763516
 40
40.51422944315121
 40
41.52631975251916
 40
42.53706336719636
 40
43.54780698187354
 40
44.55989729124051
 40
45.57464232675757
 40
46.59327611426424
 40
47.6169209805722
 40
48.64656348684535
 40
49.68302456883444
 40
50.58557219878025
 40
50.58557219878025
 40
50.58557219878025
 40
50.58557219878025
 10
-20.33161300614409
 20
-13.0000000000003
 30
0.0
 10
-20.67939135176365
 20
-12.99226531494423
 30
0.0
 10
-21.91328370896687
 20
-12.97678564302131
 30
0.0
 10
-23.76367320782392
 20
-12.85200210920973
 30
0.0
 10
-25.61398372053005
 20
-12.6536288875451
 30
0.0
 10
-27.46417971718125
 20
-12.37560127268121
 30
0.0
 10
-29.31424273573401
 20
-12.02168707184868
 30
0.0
 10
-31.16413627858139
 20
-11.5934600850998
 30
0.0
 10
-33.01386653353537
 20
-11.09380500205012
 30
0.0
 10
-34.86341709722668
 20
-10.5257814713618
 30
0.0
 10
-36.7127753708452
 20
-9.892877123054253
 30
0.0
 10
-38.56195057241956
 20
-9.199064632297922
 30
0.0
 10
-40.4109476544098
 20
-8.448590179100603
 30
0.0
 10
-42.25978971855332
 20
-7.646125657567851
 30
0.0
 10
-44.10848522953791
 20
-6.796602384116551
 30
0.0
 10
-45.95705132983215
 20
-5.905259452794073
 30
0.0
 10
-47.80550852028459
 20
-4.977595737673321
 30
0.0
 10
-49.6538730239423
 20
-4.0193159316917
 30
0.0
 10
-51.50216277939323
 20
-3.036313828437143
 30
0.0
 10
-53.35039756412355
 20
-2.034639689067723
 30
0.0
 10
-55.19859358891132
 20
-1.020451394541102
 30
0.0
 10
-57.04677695314737
 20
-0.0000026524713089
 30
0.0
 10
-58.89495202058661
 20
1.020464458311803
 30
0.0
 10
-60.74315424012464
 20
2.03463695924422
 30
0.0
 10
-62.59138674318428
 20
3.03631413062399
 30
0.0
 10
-64.43967979411548
 20
4.019319978678415
 30
0.0
 10
-66.28805196567563
 20
4.977591606531396
 30
0.0
 10
-68.13651207348192
 20
5.905260026198067
 30
0.0
 10
-69.98507844064774
 20
6.796602234733245
 30
0.0
 10
-71.83377388436408
 20
7.64612568683607
 30
0.0
 10
-73.68261595324172
 20
8.448590209543629
 30
0.0
 10
-75.5316130823274
 20
9.199064483290822
 30
0.0
 10
-77.38078809304674
 20
9.892877682493187
 30
0.0
 10
-79.2301384188028
 20
10.52577644226361
 30
0.0
 10
-81.07967754516016
 20
11.09380741264282
 30
0.0
 10
-82.92940711396013
 20
11.59347254312819
 30
0.0
 10
-84.77931386566744
 20
12.02165062041083
 30
0.0
 10
-86.62938299630559
 20
12.37567436516934
 30
0.0
 10
-88.47957954143771
 20
12.65337241418223
 30
0.0
 10
-90.32989133979583
 20
12.85295028415811
 30
0.0
 10
-92.18027926974306
 20
12.97321070378823
 30
0.0
 10
-94.0307078608429
 20
13.01338573068382
 30
0.0
 10
-95.88113644922009
 20
12.97321070372543
 30
0.0
 10
-97.73152438735117
 20
12.85295028441088
 30
0.0
 10
-99.58183615557885
 20
12.65337241323019
 30
0.0
 10
-101.4320328136772
 20
12.37567436874848
 30
0.0
 10
-103.2820925001928
 20
12.02165233287677
 30
0.0
 10
-105.1319919639716
 20
11.59347692101801
 30
0.0
 10
-106.8976183435102
 20
11.1164890461685
 30
0.0
 10
-108.0431768460795
 20
10.76766330400347
 30
0.0
 10
-109.5149457734816
 20
10.21193660450239
 30
0.0
  0
SPLINE
  5
5638
330
1F
100
AcDbEntity
  8
PV0001_1
  6
CONTINUOUS
100
AcDbSpline
210
0.0
220
0.0
230
1.0
 70
     8
 71
     3
 72
    16
 73
    12
 74
     0
 42
0.0000000001
 43
0.0000000001
 40
2.625839846755727
 40
2.625839846755727
 40
2.625839846755727
 40
2.625839846755727
 40
3.082371838836284
 40
4.126290986361125
 40
5.162752068350215
 40
6.192395305374981
 40
7.216039564037012
 40
8.234688489606833
 40
9.249433870634691
 40
10.26152376260694
 40
11.27226744710342
 40
11.27226744710342
 40
11.27226744710342
 40
11.27226744710352
 10
-112.8853974341625
 20
-9.797672697317384
 30
0.0
 10
-114.0264324255683
 20
-10.34147167905159
 30
0.0
 10
-114.9079426540716
 20
-10.63320915863734
 30
0.0
 10
-116.4057590266526
 20
-11.09399191240817
 30
0.0
 10
-118.2555495423994
 20
-11.5934159979018
 30
0.0
 10
-120.1054248149021
 20
-12.02168081732568
 30
0.0
 10
-121.9555016280004
 20
-12.37567115170167
 30
0.0
 10
-123.8057062575966
 20
-12.6533669342788
 30
0.0
 10
-125.656026095744
 20
-12.85296860346817
 30
0.0
 10
-127.5064155553534
 20
-12.97319130014508
 30
0.0
 10
-128.7403079321116
 20
-13.00000007438395
 30
0.0
 10
-129.3568435213199
 20
-12.99999999999681
 30
0.0
  0
LINE
  5
5639
330
1F
100
AcDbEntity
  8
AM_11
 48
0.5
100
AcDbLine
 10
-20.33161300614409
 20
-13.0000000000003
 30
0.0
 11
-129.3568383857436
 21
-12.99999999999797
 31
0.0
  0
SPLINE
  5
563A
330
1F
100
AcDbEntity
  8
PV0001_1
  6
CONTINUOUS
100
AcDbSpline
210
0.0
220
0.0
230
1.0
 70
     8
 71
     3
 72
    47
 73
    43
 74
     0
 42
0.0000000001
 43
0.0000000001
 40
0.0
 40
0.0
 40
0.0
 40
0.0
 40
1.010743684496582
 40
2.022833576467832
 40
3.037578957496688
 40
4.056212745003489
 40
5.079857003664532
 40
6.109500240690281
 40
7.145961322679372
 40
8.189895241603872
 40
9.241717795325891
 40
10.30168407291828
 40
11.36983447792315
 40
12.44600489715814
 40
13.52984294512926
 40
14.62081576220742
 40
15.7182257034828
 40
16.82123173843959
 40
17.92886860250316
 40
19.0400688939571
 40
20.15368796660465
 40
21.26852814259644
 40
22.38336992938901
 40
23.49698739941135
 40
24.6081876908653
 40
25.71582455492886
 40
26.81883757994213
 40
27.91624752121713
 40
29.00722033829659
 40
30.09105838626677
 40
31.16722880550176
 40
32.23537921050758
 40
33.29534548809967
 40
34.347168041821
 40
35.39108718934584
 40
36.42754827133493
 40
37.45720575381954
 40
38.48085062012849
 40
39.49948440763516
 40
40.51422944315121
 40
41.52631975251916
 40
42.53706336679711
 40
42.53706336679711
 40
42.53706336679711
 40
42.53706336679711
 10
-51.25703348022428
 20
-12.99999999999915
 30
0.0
 10
-51.87356907756665
 20
-12.9922653149434
 30
0.0
 10
-53.10746143476989
 20
-12.9767856430205
 30
0.0
 10
-54.95785093362695
 20
-12.85200210920892
 30
0.0
 10
-56.80816144633308
 20
-12.65362888754429
 30
0.0
 10
-58.65835744298431
 20
-12.3756012726804
 30
0.0
 10
-60.5084204615371
 20
-12.02168707184786
 30
0.0
 10
-62.35831400438446
 20
-11.59346008509898
 30
0.0
 10
-64.20804425933837
 20
-11.09380500204932
 30
0.0
 10
-66.05759482302971
 20
-10.52578147136098
 30
0.0
 10
-67.90695309664823
 20
-9.892877123053438
 30
0.0
 10
-69.75612829822264
 20
-9.199064632297107
 30
0.0
 10
-71.6051253802129
 20
-8.448590179099793
 30
0.0
 10
-73.45396744435638
 20
-7.646125657567039
 30
0.0
 10
-75.30266295534094
 20
-6.79660238411574
 30
0.0
 10
-77.15122905563521
 20
-5.905259452793259
 30
0.0
 10
-78.99968624608759
 20
-4.977595737672507
 30
0.0
 10
-80.84805074974536
 20
-4.019315931690888
 30
0.0
 10
-82.69634050519631
 20
-3.03631382843633
 30
0.0
 10
-84.54457528992655
 20
-2.034639689066908
 30
0.0
 10
-86.39277131471439
 20
-1.020451394540288
 30
0.0
 10
-88.24095467895043
 20
-0.0000026524704956
 30
0.0
 10
-90.08912974638967
 20
1.020464458312617
 30
0.0
 10
-91.93733196592775
 20
2.034636959245033
 30
0.0
 10
-93.78556446898734
 20
3.036314130624802
 30
0.0
 10
-95.63385751991846
 20
4.019319978679227
 30
0.0
 10
-97.48222969147873
 20
4.977591606532211
 30
0.0
 10
-99.33068979928499
 20
5.905260026198879
 30
0.0
 10
-101.1792561664507
 20
6.796602234734058
 30
0.0
 10
-103.0279516101671
 20
7.64612568683689
 30
0.0
 10
-104.8767936790447
 20
8.448590209544443
 30
0.0
 10
-106.7257908081303
 20
9.199064483291634
 30
0.0
 10
-108.5749658188498
 20
9.892877682494001
 30
0.0
 10
-110.4243161446058
 20
10.52577644226442
 30
0.0
 10
-112.2738552709632
 20
11.09380741264364
 30
0.0
 10
-114.1235848397631
 20
11.593472543129
 30
0.0
 10
-115.9734915914705
 20
12.02165062041165
 30
0.0
 10
-117.8235607221086
 20
12.37567436517016
 30
0.0
 10
-119.6737572672408
 20
12.65337241418305
 30
0.0
 10
-121.5240690655988
 20
12.85295028415892
 30
0.0
 10
-123.374456995303
 20
12.97321070377323
 30
0.0
 10
-124.6083498757653
 20
13.00000000000264
 30
0.0
 10
-125.2248855854619
 20
13.00000000000275
 30
0.0
  0
LINE
  5
563B
330
1F
100
AcDbEntity
  8
AM_11
 48
0.5
100
AcDbLine
 10
-125.2248855854618
 20
13.00000000000188
 30
0.0
 11
-18.85966341200782
 21
12.99999999999966
 31
0.0
  0
VIEWPORT
  5
110
330
101
100
AcDbEntity
 67
     1
  8
0
100
AcDbViewport
 10
420.5
 20
297.0
 30
0.0
 40
948.9782706766916
 41
628.452
 68
     1
 69
     1
1001
ACAD
1000
MVIEW
1002
{
1070
    16
1010
0.0
1020
0.0
1030
0.0
1010
0.0
1020
0.0
1030
1.0
1040
0.0
1040
628.452
1040
420.5
1040
297.0
1040
50.0
1040
0.0
1040
0.0
1070
     0
1070
   100
1070
     1
1070
     1
1070
     0
1070
     0
1070
     0
1070
     0
1040
0.0
1040
0.0
1040
0.0
1040
10.0
1040
10.0
1040
10.0
1040
10.0
1070
     0
1002
{
1002
}
1002
}
  0
ENDSEC
  0
SECTION
  2
OBJECTS
  0
DICTIONARY
  5
C
330
0
100
AcDbDictionary
  3
ACAD_GROUP
350
D
  3
ACAD_LAYOUT
350
1A
  3
ACAD_MLINESTYLE
350
17
  3
ACAD_PLOTSETTINGS
350
19
  3
ACAD_PLOTSTYLENAME
350
E
  3
ACDBVARIABLEDICTIONARY
350
34
  3
ACMDICTIONARY
350
43
  3
AMG
350
2B
  3
AMGSNAPSETTINGS
350
6E
  3
DWGPROPS
350
5658
  3
ACDBHEADERROUNDTRIPXREC
350
5668
  0
DICTIONARY
  5
74
330
1F
100
AcDbDictionary
280
     1
  3
ACAD_INDEX
360
565A
  3
ACAD_LAYOUTSELFREF
360
568B
  0
DICTIONARY
  5
5690
330
101
100
AcDbDictionary
280
     1
  3
ACAD_LAYOUTSELFREF
360
5691
  0
DICTIONARY
  5
D
102
{ACAD_REACTORS
330
C
102
}
330
C
100
AcDbDictionary
  0
DICTIONARY
  5
1A
102
{ACAD_REACTORS
330
C
102
}
330
C
100
AcDbDictionary
  0
DICTIONARY
  5
17
102
{ACAD_REACTORS
330
C
102
}
330
C
100
AcDbDictionary
  3
STANDARD
350
18
  0
DICTIONARY
  5
19
102
{ACAD_REACTORS
330
C
102
}
330
C
100
AcDbDictionary
  0
ACDBDICTIONARYWDFLT
  5
E
102
{ACAD_REACTORS
330
C
102
}
330
C
100
AcDbDictionary
281
     1
  3
Normal
350
F
100
AcDbDictionaryWithDefault
340
F
  0
DICTIONARY
  5
34
102
{ACAD_REACTORS
330
C
102
}
330
C
100
AcDbDictionary
  3
INDEXCTL
350
35
  3
SORTENTS
350
B5E
  0
DICTIONARY
  5
43
102
{ACAD_REACTORS
330
C
102
}
330
C
100
AcDbDictionary
  3
ACMSTDDICTIONARY
350
260
  0
DICTIONARY
  5
2B
102
{ACAD_REACTORS
330
C
102
}
330
C
100
AcDbDictionary
  3
ACMGSETTINGS
350
2C
  0
DICTIONARY
  5
6E
102
{ACAD_REACTORS
330
C
102
}
330
C
100
AcDbDictionary
  0
XRECORD
  5
5658
102
{ACAD_REACTORS
330
C
102
}
330
C
100
AcDbXrecord
  1
DWGPROPS COOKIE
  2

  3

  4

  6

  7

  8

  9

300
AmdtFileType=82
301
=
302
=
303
=
304
=
305
=
306
=
307
=
308
=
309
=
 40
0.5287432060185186
 41
2452800.443498622
 42
2453002.135049895
  1

 90
        1
  0
DICTIONARY
  5
5668
102
{ACAD_REACTORS
330
C
102
}
330
C
100
AcDbDictionary
  3
TSTACKALIGN
350
5669
  3
TSTACKSIZE
350
566A
  3
HYPERLINKBASE
350
566B
  3
STYLESHEET
350
566C
  3
LAYOUTDICT
350
566D
  3
PLOTSETDICT
350
566E
  3
PLOTSTYLNAMDICT
350
566F
  3
LWETCUNION
350
5670
  3
INSUNITS
350
5671
  3
CEPSNTYPE
350
5672
  3
FINGERPRINTGUID
350
5673
  3
VERSIONGUID
350
5674
  3
PSVPSCALE
350
5675
  3
DIMSTYLEDATA
350
5676
  3
PUCSORTHOREF
350
5677
  3
PUCSORTHOVIEW
350
5678
  3
PUCSBASE
350
5679
  3
PUCSORGTOP
350
567A
  3
PUCSORGBOTTOM
350
567B
  3
PUCSORGLEFT
350
567C
  3
PUCSORGRIGHT
350
567D
  3
PUCSORGFRONT
350
567E
  3
PUCSORGBACK
350
567F
  3
UCSORTHOREF
350
5680
  3
UCSORTHOVIEW
350
5681
  3
UCSBASE
350
5682
  3
UCSORGTOP
350
5683
  3
UCSORGBOTTOM
350
5684
  3
UCSORGLEFT
350
5685
  3
UCSORGRIGHT
350
5686
  3
UCSORGFRONT
350
5687
  3
UCSORGBACK
350
5688
  0
DICTIONARY
  5
565A
102
{ACAD_REACTORS
330
74
102
}
330
74
100
AcDbDictionary
  3
*A1
350
565B
  0
XRECORD
  5
568B
102
{ACAD_REACTORS
330
74
102
}
330
74
100
AcDbXrecord
340
1F
  0
XRECORD
  5
5691
102
{ACAD_REACTORS
330
5690
102
}
330
5690
100
AcDbXrecord
340
101
  0
MLINESTYLE
  5
18
102
{ACAD_REACTORS
330
17
102
}
330
17
100
AcDbMlineStyle
  2
STANDARD
 70
     0
  3

 62
   256
 51
90.0
 52
90.0
 71
     2
 49
0.5
 62
   256
  6
BYLAYER
 49
-0.5
 62
   256
  6
BYLAYER
  0
ACDBPLACEHOLDER
  5
F
102
{ACAD_REACTORS
330
E
102
}
330
E
100
AcDbPlaceHolder
280
     0
  0
DICTIONARYVAR
  5
35
102
{ACAD_REACTORS
330
34
102
}
330
34
100
DictionaryVariables
280
     0
  1
1
  0
DICTIONARYVAR
  5
B5E
102
{ACAD_REACTORS
330
34
102
}
330
34
100
DictionaryVariables
280
     0
  1
96
  0
DICTIONARY
  5
260
102
{ACAD_REACTORS
330
43
102
}
330
43
100
AcDbDictionary
  0
DICTIONARY
  5
2C
102
{ACAD_REACTORS
330
2B
102
}
330
2B
100
AcDbDictionary
  3
DWGSETTINGS
350
2D
  0
XRECORD
  5
5669
102
{ACAD_REACTORS
330
5668
102
}
330
5668
100
AcDbXrecord
 90
        1
  0
XRECORD
  5
566A
102
{ACAD_REACTORS
330
5668
102
}
330
5668
100
AcDbXrecord
 90
       70
  0
XRECORD
  5
566B
102
{ACAD_REACTORS
330
5668
102
}
330
5668
100
AcDbXrecord
  1

  0
XRECORD
  5
566C
102
{ACAD_REACTORS
330
5668
102
}
330
5668
100
AcDbXrecord
  1
ASAMI.ctb
  0
XRECORD
  5
566D
102
{ACAD_REACTORS
330
5668
102
}
330
5668
100
AcDbXrecord
340
1A
  0
XRECORD
  5
566E
102
{ACAD_REACTORS
330
5668
102
}
330
5668
100
AcDbXrecord
340
19
  0
XRECORD
  5
566F
102
{ACAD_REACTORS
330
5668
102
}
330
5668
100
AcDbXrecord
340
E
  0
XRECORD
  5
5670
102
{ACAD_REACTORS
330
5668
102
}
330
5668
100
AcDbXrecord
 90
    10781
  0
XRECORD
  5
5671
102
{ACAD_REACTORS
330
5668
102
}
330
5668
100
AcDbXrecord
 90
        4
  0
XRECORD
  5
5672
102
{ACAD_REACTORS
330
5668
102
}
330
5668
100
AcDbXrecord
 90
        0
  0
XRECORD
  5
5673
102
{ACAD_REACTORS
330
5668
102
}
330
5668
100
AcDbXrecord
  1
{AFB28963-8C59-40AE-9337-C84526B81ACE}
  0
XRECORD
  5
5674
102
{ACAD_REACTORS
330
5668
102
}
330
5668
100
AcDbXrecord
  1
{49929CB2-C4B7-4A78-8D9A-B5470C0F9C98}
  0
XRECORD
  5
5675
102
{ACAD_REACTORS
330
5668
102
}
330
5668
100
AcDbXrecord
 40
0.0
  0
XRECORD
  5
5676
102
{ACAD_REACTORS
330
5668
102
}
330
5668
100
AcDbXrecord
1000
DSTYLE
1002
{
1070
    79
 70
     2
1070
   341
340
59
1070
   342
340
59
1070
   371
 70
    -1
1070
   372
 70
    -1
1002
}
  0
XRECORD
  5
5677
102
{ACAD_REACTORS
330
5668
102
}
330
5668
100
AcDbXrecord
340
0
  0
XRECORD
  5
5678
102
{ACAD_REACTORS
330
5668
102
}
330
5668
100
AcDbXrecord
 70
     0
  0
XRECORD
  5
5679
102
{ACAD_REACTORS
330
5668
102
}
330
5668
100
AcDbXrecord
340
0
  0
XRECORD
  5
567A
102
{ACAD_REACTORS
330
5668
102
}
330
5668
100
AcDbXrecord
 10
0.0
 20
0.0
 30
0.0
  0
XRECORD
  5
567B
102
{ACAD_REACTORS
330
5668
102
}
330
5668
100
AcDbXrecord
 10
0.0
 20
0.0
 30
0.0
  0
XRECORD
  5
567C
102
{ACAD_REACTORS
330
5668
102
}
330
5668
100
AcDbXrecord
 10
0.0
 20
0.0
 30
0.0
  0
XRECORD
  5
567D
102
{ACAD_REACTORS
330
5668
102
}
330
5668
100
AcDbXrecord
 10
0.0
 20
0.0
 30
0.0
  0
XRECORD
  5
567E
102
{ACAD_REACTORS
330
5668
102
}
330
5668
100
AcDbXrecord
 10
0.0
 20
0.0
 30
0.0
  0
XRECORD
  5
567F
102
{ACAD_REACTORS
330
5668
102
}
330
5668
100
AcDbXrecord
 10
0.0
 20
0.0
 30
0.0
  0
XRECORD
  5
5680
102
{ACAD_REACTORS
330
5668
102
}
330
5668
100
AcDbXrecord
340
0
  0
XRECORD
  5
5681
102
{ACAD_REACTORS
330
5668
102
}
330
5668
100
AcDbXrecord
 70
     0
  0
XRECORD
  5
5682
102
{ACAD_REACTORS
330
5668
102
}
330
5668
100
AcDbXrecord
340
0
  0
XRECORD
  5
5683
102
{ACAD_REACTORS
330
5668
102
}
330
5668
100
AcDbXrecord
 10
0.0
 20
0.0
 30
0.0
  0
XRECORD
  5
5684
102
{ACAD_REACTORS
330
5668
102
}
330
5668
100
AcDbXrecord
 10
0.0
 20
0.0
 30
0.0
  0
XRECORD
  5
5685
102
{ACAD_REACTORS
330
5668
102
}
330
5668
100
AcDbXrecord
 10
0.0
 20
0.0
 30
0.0
  0
XRECORD
  5
5686
102
{ACAD_REACTORS
330
5668
102
}
330
5668
100
AcDbXrecord
 10
0.0
 20
0.0
 30
0.0
  0
XRECORD
  5
5687
102
{ACAD_REACTORS
330
5668
102
}
330
5668
100
AcDbXrecord
 10
0.0
 20
0.0
 30
0.0
  0
XRECORD
  5
5688
102
{ACAD_REACTORS
330
5668
102
}
330
5668
100
AcDbXrecord
 10
0.0
 20
0.0
 30
0.0
  0
LAYER_INDEX
  5
565B
102
{ACAD_REACTORS
330
565A
102
}
330
565A
100
AcDbIndex
 40
2453151.709868692
100
AcDbLayerIndex
  8
0
360
565C
 90
        0
  8
AM_0
360
565D
 90
       11
  8
PV0001_1
360
565E
 90
       33
  8
AM_CL
360
565F
 90
        0
  8
AM_7
360
5660
 90
        1
  8
AM_11
360
5661
 90
        3
  8
AM_5
360
5662
 90
       10
  8
Defpoints
360
5663
 90
        0
  8
AM_6
360
5664
 90
        1
  8
AM_4
360
5665
 90
        0
  8
AM_3
360
5666
 90
        0
  0
XRECORD
  5
2D
102
{ACAD_REACTORS
330
2C
102
}
330
2C
100
AcDbXrecord
  1
VERSION
140
15.0
  1
PRODUCT
  2
AutoCAD Mechanical 2000
  0
IDBUFFER
  5
565C
330
0
100
AcDbIdBuffer
  0
IDBUFFER
  5
565D
330
0
100
AcDbIdBuffer
330
4BDC
330
5231
330
5236
330
5237
330
5240
330
5361
330
5362
330
5365
330
5366
330
5630
330
5634
  0
IDBUFFER
  5
565E
330
0
100
AcDbIdBuffer
330
535B
330
535C
330
535D
330
535E
330
535F
330
5360
330
5363
330
5364
330
5367
330
5631
330
5632
330
5633
330
5635
330
5636
330
5637
330
5638
330
563A
330
35F4
330
35F5
330
4534
330
4536
330
5202
330
5203
330
522F
330
5230
330
5232
330
5234
330
5235
330
5238
330
523A
330
523D
330
523E
330
523F
  0
IDBUFFER
  5
565F
330
0
100
AcDbIdBuffer
  0
IDBUFFER
  5
5660
330
0
100
AcDbIdBuffer
330
35D1
  0
IDBUFFER
  5
5661
330
0
100
AcDbIdBuffer
330
46A5
330
5639
330
563B
  0
IDBUFFER
  5
5662
330
0
100
AcDbIdBuffer
330
36BA
330
3B0D
330
471A
330
4A5A
330
4A5C
330
5242
330
535A
330
5368
330
5369
330
536A
  0
IDBUFFER
  5
5663
330
0
100
AcDbIdBuffer
  0
IDBUFFER
  5
5664
330
0
100
AcDbIdBuffer
330
19BD
  0
IDBUFFER
  5
5665
330
0
100
AcDbIdBuffer
  0
IDBUFFER
  5
5666
330
0
100
AcDbIdBuffer
  0
ENDSEC
  0
EOF
