  0
SECTION
  2
HEADER
  9
$ACADVER
  1
AC1014
  9
$ACADMAINTVER
 70
     9
  9
$DWGCODEPAGE
  3
ANSI_932
  9
$INSBASE
 10
0.0
 20
0.0
 30
0.0
  9
$EXTMIN
 10
-589.2017441852486
 20
-82.71939011712374
 30
-0.00000001
  9
$EXTMAX
 10
32.93324691715113
 20
38.91879886984751
 30
0.00000001
  9
$LIMMIN
 10
-253.6273199157174
 20
-108.8039480159877
  9
$LIMMAX
 10
47.95842281921522
 20
66.17204540139778
  9
$ORTHOMODE
 70
     0
  9
$REGENMODE
 70
     1
  9
$FILLMODE
 70
     1
  9
$QTEXTMODE
 70
     0
  9
$MIRRTEXT
 70
     0
  9
$DRAGMODE
 70
     2
  9
$LTSCALE
 40
1.0
  9
$OSMODE
 70
    55
  9
$ATTMODE
 70
     1
  9
$TEXTSIZE
 40
2.5
  9
$TRACEWID
 40
1.0
  9
$TEXTSTYLE
  7
STANDARD
  9
$CLAYER
  8
AM_0
  9
$CELTYPE
  6
BYLAYER
  9
$CECOLOR
 62
   256
  9
$CELTSCALE
 40
1.0
  9
$DELOBJ
 70
     1
  9
$DISPSILH
 70
     0
  9
$DIMSCALE
 40
1.0
  9
$DIMASZ
 40
2.5
  9
$DIMEXO
 40
1.0
  9
$DIMDLI
 40
12.0
  9
$DIMRND
 40
0.0
  9
$DIMDLE
 40
0.0
  9
$DIMEXE
 40
1.0
  9
$DIMTP
 40
0.1
  9
$DIMTM
 40
0.1
  9
$DIMTXT
 40
3.2
  9
$DIMCEN
 40
0.0
  9
$DIMTSZ
 40
0.0
  9
$DIMTOL
 70
     0
  9
$DIMLIM
 70
     0
  9
$DIMTIH
 70
     0
  9
$DIMTOH
 70
     0
  9
$DIMSE1
 70
     0
  9
$DIMSE2
 70
     0
  9
$DIMTAD
 70
     3
  9
$DIMZIN
 70
     8
  9
$DIMBLK
  1
OPEN30
  9
$DIMASO
 70
     1
  9
$DIMSHO
 70
     1
  9
$DIMPOST
  1

  9
$DIMAPOST
  1
"
  9
$DIMALT
 70
     0
  9
$DIMALTD
 70
     2
  9
$DIMALTF
 40
0.0393701
  9
$DIMLFAC
 40
1.0
  9
$DIMTOFL
 70
     1
  9
$DIMTVP
 40
0.0
  9
$DIMTIX
 70
     0
  9
$DIMSOXD
 70
     0
  9
$DIMSAH
 70
     0
  9
$DIMBLK1
  1

  9
$DIMBLK2
  1

  9
$DIMSTYLE
  2
AM_JIS
  9
$DIMCLRD
 70
   256
  9
$DIMCLRE
 70
   256
  9
$DIMCLRT
 70
     2
  9
$DIMTFAC
 40
0.71
  9
$DIMGAP
 40
1.5
  9
$DIMJUST
 70
     0
  9
$DIMSD1
 70
     0
  9
$DIMSD2
 70
     0
  9
$DIMTOLJ
 70
     0
  9
$DIMTZIN
 70
     0
  9
$DIMALTZ
 70
     0
  9
$DIMALTTZ
 70
     0
  9
$DIMFIT
 70
     3
  9
$DIMUPT
 70
     0
  9
$DIMUNIT
 70
     2
  9
$DIMDEC
 70
     3
  9
$DIMTDEC
 70
     3
  9
$DIMALTU
 70
     2
  9
$DIMALTTD
 70
     2
  9
$DIMTXSTY
  7
ASAMI
  9
$DIMAUNIT
 70
     0
  9
$LUNITS
 70
     2
  9
$LUPREC
 70
     2
  9
$SKETCHINC
 40
1.0
  9
$FILLETRAD
 40
2.5
  9
$AUNITS
 70
     0
  9
$AUPREC
 70
     0
  9
$MENU
  1
.
  9
$ELEVATION
 40
0.0
  9
$PELEVATION
 40
0.0
  9
$THICKNESS
 40
0.0
  9
$LIMCHECK
 70
     0
  9
$BLIPMODE
 70
     0
  9
$CHAMFERA
 40
2.5
  9
$CHAMFERB
 40
2.5
  9
$CHAMFERC
 40
20.0
  9
$CHAMFERD
 40
0.0
  9
$SKPOLY
 70
     0
  9
$TDCREATE
 40
2452800.443498622
  9
$TDUPDATE
 40
2453151.720065266
  9
$TDINDWG
 40
0.8670022917
  9
$TDUSRTIMER
 40
0.8670022917
  9
$USRTIMER
 70
     1
  9
$ANGBASE
 50
0.0
  9
$ANGDIR
 70
     0
  9
$PDMODE
 70
     0
  9
$PDSIZE
 40
0.0
  9
$PLINEWID
 40
0.0
  9
$COORDS
 70
     1
  9
$SPLFRAME
 70
     0
  9
$SPLINETYPE
 70
     6
  9
$SPLINESEGS
 70
     8
  9
$ATTDIA
 70
     1
  9
$ATTREQ
 70
     1
  9
$HANDLING
 70
 12289
  9
$HANDSEED
  5
66AB
  9
$SURFTAB1
 70
     6
  9
$SURFTAB2
 70
     6
  9
$SURFTYPE
 70
     6
  9
$SURFU
 70
     6
  9
$SURFV
 70
     6
  9
$UCSNAME
  2

  9
$UCSORG
 10
0.0
 20
-0.0000000000002274
 30
0.0
  9
$UCSXDIR
 10
1.0
 20
0.0000000000000027
 30
0.0
  9
$UCSYDIR
 10
-0.0000000000000027
 20
1.0
 30
0.0
  9
$PUCSNAME
  2

  9
$PUCSORG
 10
0.0
 20
0.0
 30
0.0
  9
$PUCSXDIR
 10
1.0
 20
0.0
 30
0.0
  9
$PUCSYDIR
 10
0.0
 20
1.0
 30
0.0
  9
$USERI1
 70
     0
  9
$USERI2
 70
     0
  9
$USERI3
 70
     0
  9
$USERI4
 70
     0
  9
$USERI5
 70
     0
  9
$USERR1
 40
0.0
  9
$USERR2
 40
0.0
  9
$USERR3
 40
0.0
  9
$USERR4
 40
0.0
  9
$USERR5
 40
0.0
  9
$WORLDVIEW
 70
     1
  9
$SHADEDGE
 70
     3
  9
$SHADEDIF
 70
    70
  9
$TILEMODE
 70
     1
  9
$MAXACTVP
 70
    64
  9
$PINSBASE
 10
0.0
 20
0.0
 30
0.0
  9
$PLIMCHECK
 70
     0
  9
$PEXTMIN
 10
1.000000000000000E+20
 20
1.000000000000000E+20
 30
1.000000000000000E+20
  9
$PEXTMAX
 10
-1.000000000000000E+20
 20
-1.000000000000000E+20
 30
-1.000000000000000E+20
  9
$PLIMMIN
 10
0.0
 20
0.0
  9
$PLIMMAX
 10
841.0
 20
594.0
  9
$UNITMODE
 70
     0
  9
$VISRETAIN
 70
     1
  9
$PLINEGEN
 70
     0
  9
$PSLTSCALE
 70
     0
  9
$TREEDEPTH
 70
  3020
  9
$PICKSTYLE
 70
     0
  9
$CMLSTYLE
  2
STANDARD
  9
$CMLJUST
 70
     0
  9
$CMLSCALE
 40
20.0
  9
$PROXYGRAPHICS
 70
     1
  9
$MEASUREMENT
 70
     1
  0
ENDSEC
  0
SECTION
  2
CLASSES
  0
CLASS
  1
ACDBDICTIONARYWDFLT
  2
AcDbDictionaryWithDefault
  3
AutoCAD 2000
 90
        0
280
     0
281
     0
  0
CLASS
  1
ACDBPLACEHOLDER
  2
AcDbPlaceHolder
  3
AutoCAD 2000
 90
        0
280
     0
281
     0
  0
CLASS
  1
LAYOUT
  2
AcDbLayout
  3
AutoCAD 2000
 90
        0
280
     0
281
     0
  0
CLASS
  1
AMGSETTINGSOBJ
  2
AmgSettingsObj
  3
"AcadM|Product Description: AutoCAD Mechanical 2000|Company: Autodesk"
 90
        0
280
     0
281
     0
  0
CLASS
  1
ACME_DOCUMENT
  2
AcMeDbDoc
  3
AcMeServices
 90
        0
280
     0
281
     0
  0
CLASS
  1
ACMESCOPE
  2
AcMeScope
  3
AcMeServices
 90
        0
280
     0
281
     0
  0
CLASS
  1
ACMECOMMANDHISTORY
  2
AcMeCommandHistory
  3
AcMeServices
 90
        0
280
     0
281
     0
  0
CLASS
  1
DICTIONARYVAR
  2
AcDbDictionaryVar
  3
AutoCAD 2000
 90
        0
280
     0
281
     0
  0
CLASS
  1
ACIMSYSVARMAN
  2
AcImSysVarManager
  3
AcMeServices
 90
        0
280
     0
281
     0
  0
CLASS
  1
ACIMREALSYSVAR
  2
AcImRealSysVar
  3
AcMeServices
 90
        0
280
     0
281
     0
  0
CLASS
  1
ACIMINTSYSVAR
  2
AcImIntSysVar
  3
AcMeServices
 90
        0
280
     0
281
     0
  0
CLASS
  1
ACMEDRAWINGMAN
  2
AcMeDrawingMan
  3
AcMeServices
 90
        0
280
     0
281
     0
  0
CLASS
  1
ACMEVIEW
  2
AcMeView
  3
AcMeServices
 90
        0
280
     0
281
     0
  0
CLASS
  1
ACDBENTITYCACHE
  2
AcMeEntityCache
  3
AcMeServices
 90
        0
280
     0
281
     0
  0
CLASS
  1
GSMANAGER
  2
AcMeGSManager
  3
AcMeServices
 90
        0
280
     0
281
     0
  0
CLASS
  1
AmdtInternalReactor
  2
AmdtInternalReactor
  3
AcMeServices
 90
        0
280
     0
281
     0
  0
CLASS
  1
ACMESTATEMGR
  2
AcMeStateMgr
  3
AcMeServices
 90
        0
280
     0
281
     0
  0
CLASS
  1
ACME_DATABASE
  2
AcMeDbDatabase
  3
AcMeServices
 90
        0
280
     0
281
     0
  0
CLASS
  1
ACRFINSADJUSTERMGR
  2
AcRfInsAdjusterMgr
  3
AcMeServices
 90
        0
280
     0
281
     0
  0
CLASS
  1
ACMDATADICTIONARY
  2
AcmDataDictionary
  3
"AcmSymBB|Product Description: AutoCAD Mechanical 2000|Company: Autodesk"
 90
        0
280
     0
281
     0
  0
CLASS
  1
ACMDATAENTRYBLOCK
  2
AcmDataEntryBlock
  3
"AcmSymBB|Product Description: AutoCAD Mechanical 2000|Company: Autodesk"
 90
        0
280
     0
281
     0
  0
CLASS
  1
AMGOBJPROPCFG
  2
AmgObjPropCfg
  3
"AmgLay|Product Description: AutoCAD Mechanical 2000|Company: Autodesk"
 90
        1
280
     0
281
     0
  0
CLASS
  1
ACAMGFILTERDAT
  2
AcAmgFilterDat
  3
"AcadM|Product Description: AutoCAD Mechanical 2000|Company: Autodesk"
 90
        0
280
     0
281
     0
  0
CLASS
  1
LAYER_INDEX
  2
AcDbLayerIndex
  3
AutoCAD 2000
 90
        0
280
     0
281
     0
  0
CLASS
  1
IDBUFFER
  2
AcDbIdBuffer
  3
AutoCAD 2000
 90
        0
280
     0
281
     0
  0
CLASS
  1
ACIMSTRSYSVAR
  2
AcImStrSysVar
  3
AcMeServices
 90
        0
280
     0
281
     0
  0
CLASS
  1
ACMSTANDARDJIS
  2
AcmStandardJIS
  3
"AcmSymBB|Product Description: AutoCAD Mechanical 2000|Company: Autodesk"
 90
        0
280
     0
281
     0
  0
CLASS
  1
ACMSURFSTANDARDJIS
  2
AcmSurfTextStdJIS
  3
"AcmSymBB|Product Description: AutoCAD Mechanical 2000|Company: Autodesk"
 90
        0
280
     0
281
     0
  0
CLASS
  1
ACMFCFSTANDARDJIS
  2
AcmFCFStdJIS
  3
"AcmSymBB|Product Description: AutoCAD Mechanical 2000|Company: Autodesk"
 90
        0
280
     0
281
     0
  0
CLASS
  1
ACMWELDSTANDARDJIS
  2
AcmWeldingStdJIS
  3
"AcmSymBB|Product Description: AutoCAD Mechanical 2000|Company: Autodesk"
 90
        0
280
     0
281
     0
  0
CLASS
  1
ACMIDSTANDARDJIS
  2
AcmIdStdJIS
  3
"AcmSymBB|Product Description: AutoCAD Mechanical 2000|Company: Autodesk"
 90
        0
280
     0
281
     0
  0
CLASS
  1
ACMDATUMSTANDARDJIS
  2
AcmDatumStdJIS
  3
"AcmSymBB|Product Description: AutoCAD Mechanical 2000|Company: Autodesk"
 90
        0
280
     0
281
     0
  0
CLASS
  1
ACMBOMSTANDARDJIS
  2
AcmBOMStdJIS
  3
"AcmSymBB|Product Description: AutoCAD Mechanical 2000|Company: Autodesk"
 90
        0
280
     0
281
     0
  0
CLASS
  1
ACMSTANDARDANSI
  2
AcmStandardANSI
  3
"AcmSymBB|Product Description: AutoCAD Mechanical 2000|Company: Autodesk"
 90
        0
280
     0
281
     0
  0
CLASS
  1
ACMSURFSTANDARDANSI
  2
AcmSurfTextStdANSI
  3
"AcmSymBB|Product Description: AutoCAD Mechanical 2000|Company: Autodesk"
 90
        0
280
     0
281
     0
  0
CLASS
  1
ACMFCFSTANDARDANSI
  2
AcmFCFStdANSI
  3
"AcmSymBB|Product Description: AutoCAD Mechanical 2000|Company: Autodesk"
 90
        0
280
     0
281
     0
  0
CLASS
  1
ACMWELDSTANDARDANSI
  2
AcmWeldingStdANSI
  3
"AcmSymBB|Product Description: AutoCAD Mechanical 2000|Company: Autodesk"
 90
        0
280
     0
281
     0
  0
CLASS
  1
ACMIDSTANDARDANSI
  2
AcmIdStdANSI
  3
"AcmSymBB|Product Description: AutoCAD Mechanical 2000|Company: Autodesk"
 90
        0
280
     0
281
     0
  0
CLASS
  1
ACMDATUMSTANDARDANSI
  2
AcmDatumStdANSI
  3
"AcmSymBB|Product Description: AutoCAD Mechanical 2000|Company: Autodesk"
 90
        0
280
     0
281
     0
  0
CLASS
  1
ACMBOMSTANDARDANSI
  2
AcmBOMStdANSI
  3
"AcmSymBB|Product Description: AutoCAD Mechanical 2000|Company: Autodesk"
 90
        0
280
     0
281
     0
  0
CLASS
  1
ACMSTANDARDBSI
  2
AcmStandardBSI
  3
"AcmSymBB|Product Description: AutoCAD Mechanical 2000|Company: Autodesk"
 90
        0
280
     0
281
     0
  0
CLASS
  1
ACMSURFSTANDARDBSI
  2
AcmSurfTextStdBSI
  3
"AcmSymBB|Product Description: AutoCAD Mechanical 2000|Company: Autodesk"
 90
        0
280
     0
281
     0
  0
CLASS
  1
ACMFCFSTANDARDBSI
  2
AcmFCFStdBSI
  3
"AcmSymBB|Product Description: AutoCAD Mechanical 2000|Company: Autodesk"
 90
        0
280
     0
281
     0
  0
CLASS
  1
ACMWELDSTANDARDBSI
  2
AcmWeldingStdBSI
  3
"AcmSymBB|Product Description: AutoCAD Mechanical 2000|Company: Autodesk"
 90
        0
280
     0
281
     0
  0
CLASS
  1
ACMIDSTANDARDBSI
  2
AcmIdStdBSI
  3
"AcmSymBB|Product Description: AutoCAD Mechanical 2000|Company: Autodesk"
 90
        0
280
     0
281
     0
  0
CLASS
  1
ACMDATUMSTANDARDBSI
  2
AcmDatumStdBSI
  3
"AcmSymBB|Product Description: AutoCAD Mechanical 2000|Company: Autodesk"
 90
        0
280
     0
281
     0
  0
CLASS
  1
ACMBOMSTANDARDBSI
  2
AcmBOMStdBSI
  3
"AcmSymBB|Product Description: AutoCAD Mechanical 2000|Company: Autodesk"
 90
        0
280
     0
281
     0
  0
CLASS
  1
LONG_TRANSACTION
  2
AcDbLongTransaction
  3
AutoCAD 2000
 90
        0
280
     0
281
     0
  0
CLASS
  1
LWPOLYLINE
  2
AcDbPolyline
  3
AutoCAD 2000
 90
        0
280
     0
281
     1
  0
CLASS
  1
HATCH
  2
AcDbHatch
  3
AutoCAD 2000
 90
        0
280
     0
281
     1
  0
CLASS
  1
XRECORD
  2
AcDbXrecord
  3
AutoCAD 2000
 90
        0
280
     0
281
     0
  0
ENDSEC
  0
SECTION
  2
TABLES
  0
TABLE
  2
VPORT
  5
8
330
0
100
AcDbSymbolTable
 70
     3
  0
VPORT
  5
6680
330
8
100
AcDbSymbolTableRecord
100
AcDbViewportTableRecord
  2
*ACTIVE
 70
     0
 10
0.0
 20
0.0
 11
1.0
 21
1.0
 12
-91.03312181616706
 22
-17.76319432573534
 13
0.0
 23
0.0
 14
2.5
 24
2.5
 15
10.0
 25
10.0
 16
0.0
 26
0.0
 36
1.0
 17
0.0
 27
0.0
 37
0.0
 40
243.4892379554641
 41
1.56570841889117
 42
50.0
 43
0.0
 44
0.0
 50
0.0
 51
0.0
 71
     0
 72
   100
 73
     1
 74
     1
 75
     0
 76
     0
 77
     0
 78
     0
  0
ENDTAB
  0
TABLE
  2
LTYPE
  5
5
330
0
100
AcDbSymbolTable
 70
    10
  0
LTYPE
  5
14
330
5
100
AcDbSymbolTableRecord
100
AcDbLinetypeTableRecord
  2
BYBLOCK
 70
     0
  3

 72
    65
 73
     0
 40
0.0
  0
LTYPE
  5
15
330
5
100
AcDbSymbolTableRecord
100
AcDbLinetypeTableRecord
  2
BYLAYER
 70
     0
  3

 72
    65
 73
     0
 40
0.0
  0
LTYPE
  5
16
330
5
100
AcDbSymbolTableRecord
100
AcDbLinetypeTableRecord
  2
CONTINUOUS
 70
     0
  3
Solid line
 72
    65
 73
     0
 40
0.0
  0
LTYPE
  5
4B
330
5
100
AcDbSymbolTableRecord
100
AcDbLinetypeTableRecord
  2
AM_ISO02W050
 70
     0
  3
__ __ __ __ __ __ __ __ __ __ __ __ __ __ __
 72
    65
 73
     2
 40
7.5
 49
6.0
 74
     0
 49
-1.5
 74
     0
  0
LTYPE
  5
4C
330
5
100
AcDbSymbolTableRecord
100
AcDbLinetypeTableRecord
  2
AM_ISO08W050
 70
     0
  3
____ . ____ . ____ . ____ . ____ . ____ . ____
 72
    65
 73
     4
 40
18.0
 49
12.0
 74
     0
 49
-1.5
 74
     0
 49
3.0
 74
     0
 49
-1.5
 74
     0
  0
LTYPE
  5
4D
330
5
100
AcDbSymbolTableRecord
100
AcDbLinetypeTableRecord
  2
AM_ISO09W050
 70
     0
  3
_____ . . _____ . . _____ . . ____ .. ____
 72
    65
 73
     6
 40
22.5
 49
12.0
 74
     0
 49
-1.5
 74
     0
 49
3.0
 74
     0
 49
-1.5
 74
     0
 49
3.0
 74
     0
 49
-1.5
 74
     0
  0
LTYPE
  5
4E
330
5
100
AcDbSymbolTableRecord
100
AcDbLinetypeTableRecord
  2
AMCONSTR
 70
     0
  3
_______________________
 72
    65
 73
     2
 40
9999.0
 49
9999.0
 74
     0
 49
0.0
 74
     0
  0
LTYPE
  5
4F
330
5
100
AcDbSymbolTableRecord
100
AcDbLinetypeTableRecord
  2
AM_ISO02W050X2
 70
     0
  3
 _ _ _ _ _ _ _ _ _ _ _ _
 72
    65
 73
     2
 40
3.75
 49
3.0
 74
     0
 49
-0.75
 74
     0
  0
LTYPE
  5
50
330
5
100
AcDbSymbolTableRecord
100
AcDbLinetypeTableRecord
  2
AM_ISO08W050X2
 70
     0
  3
__ . __ . __ . __ . __ . __
 72
    65
 73
     4
 40
9.0
 49
6.0
 74
     0
 49
-0.75
 74
     0
 49
1.5
 74
     0
 49
-0.75
 74
     0
  0
LTYPE
  5
53
330
5
100
AcDbSymbolTableRecord
100
AcDbLinetypeTableRecord
  2
AMZIGZAG
 70
     0
  3
/\/-/\/-/\/-/\/-/\/-/\/
 72
    65
 73
     2
 40
11.00009999999999
 49
0.0001
 74
     4
 75
   135
340
52
 46
0.04
 50
0.0
 44
0.0
 45
0.0
 49
-11.0
 74
     0
  0
LTYPE
  5
166
330
5
100
AcDbSymbolTableRecord
100
AcDbLinetypeTableRecord
  2
ACJISTGL
 70
     0
  3
_ _ _ _ _
 72
    65
 73
     2
 40
3.0
 49
2.0
 74
     0
 49
-1.0
 74
     0
  0
LTYPE
  5
26A
330
5
100
AcDbSymbolTableRecord
100
AcDbLinetypeTableRecord
  2
ACJISTGB
 70
     0
  3
__ . . __ . .
 72
    65
 73
     6
 40
9.0
 49
4.0
 74
     0
 49
-1.0
 74
     0
 49
1.0
 74
     0
 49
-1.0
 74
     0
 49
1.0
 74
     0
 49
-1.0
 74
     0
  0
ENDTAB
  0
TABLE
  2
LAYER
  5
2
330
0
100
AcDbSymbolTable
 70
    11
  0
LAYER
  5
10
330
2
100
AcDbSymbolTableRecord
100
AcDbLayerTableRecord
  2
0
 70
     0
 62
     7
  6
CONTINUOUS
  0
LAYER
  5
3F9
330
2
100
AcDbSymbolTableRecord
100
AcDbLayerTableRecord
  2
AM_0
 70
     0
 62
     7
  6
CONTINUOUS
  0
LAYER
  5
BA4
330
2
100
AcDbSymbolTableRecord
100
AcDbLayerTableRecord
  2
PV0001_1
 70
     0
 62
     7
  6
CONTINUOUS
  0
LAYER
  5
C6C
330
2
100
AcDbSymbolTableRecord
100
AcDbLayerTableRecord
  2
AM_CL
 70
     0
 62
     1
  6
AMCONSTR
  0
LAYER
  5
C7C
330
2
100
AcDbSymbolTableRecord
100
AcDbLayerTableRecord
  2
AM_7
 70
     0
 62
     4
  6
AM_ISO08W050
  0
LAYER
  5
C97
330
2
100
AcDbSymbolTableRecord
100
AcDbLayerTableRecord
  2
AM_11
 70
     0
 62
     3
  6
AM_ISO09W050
  0
LAYER
  5
CC5
330
2
100
AcDbSymbolTableRecord
100
AcDbLayerTableRecord
  2
AM_5
 70
     0
 62
     3
  6
CONTINUOUS
  0
LAYER
  5
CC7
330
2
100
AcDbSymbolTableRecord
100
AcDbLayerTableRecord
  2
DEFPOINTS
 70
     0
 62
     7
  6
CONTINUOUS
  0
LAYER
  5
19BC
330
2
100
AcDbSymbolTableRecord
100
AcDbLayerTableRecord
  2
AM_6
 70
     0
 62
     2
  6
CONTINUOUS
  0
LAYER
  5
1F8E
330
2
100
AcDbSymbolTableRecord
100
AcDbLayerTableRecord
  2
AM_4
 70
     0
 62
     3
  6
CONTINUOUS
  0
LAYER
  5
3588
330
2
100
AcDbSymbolTableRecord
100
AcDbLayerTableRecord
  2
AM_3
 70
     0
 62
     6
  6
ACJISTGL
  0
ENDTAB
  0
TABLE
  2
STYLE
  5
3
330
0
100
AcDbSymbolTable
 70
     5
  0
STYLE
  5
11
330
3
100
AcDbSymbolTableRecord
100
AcDbTextStyleTableRecord
  2
STANDARD
 70
     0
 40
0.0
 41
1.0
 50
0.0
 71
     0
 42
2.5
  3
simplex.shx
  4
EXTFONT.SHX
  0
STYLE
  5
52
330
3
100
AcDbSymbolTableRecord
100
AcDbTextStyleTableRecord
  2

 70
     1
 40
0.0
 41
1.0
 50
0.0
 71
     0
 42
2.5
  3
ltypeshp.shx
  4

  0
STYLE
  5
6B
330
3
100
AcDbSymbolTableRecord
100
AcDbTextStyleTableRecord
  2
ASAMI
 70
     0
 40
0.0
 41
1.0
 50
0.0
 71
     0
 42
2.5
  3
simplex.shx
  4
EXTFONT.SHX
  0
STYLE
  5
262
330
3
100
AcDbSymbolTableRecord
100
AcDbTextStyleTableRecord
  2
ACJISTS
 70
     0
 40
1.0
 41
1.0
 50
0.0
 71
     0
 42
2.5
  3
simplex.shx
  4
bigfont.shx
  0
STYLE
  5
269
330
3
100
AcDbSymbolTableRecord
100
AcDbTextStyleTableRecord
  2
ACJISGDT
 70
     0
 40
0.0
 41
1.0
 50
0.0
 71
     0
 42
2.5
  3
amgdtans.shx
  4

  0
ENDTAB
  0
TABLE
  2
VIEW
  5
6
330
0
100
AcDbSymbolTable
 70
     0
  0
ENDTAB
  0
TABLE
  2
UCS
  5
7
330
0
100
AcDbSymbolTable
 70
     0
  0
ENDTAB
  0
TABLE
  2
APPID
  5
9
330
0
100
AcDbSymbolTable
 70
    14
  0
APPID
  5
12
330
9
100
AcDbSymbolTableRecord
100
AcDbRegAppTableRecord
  2
ACAD
 70
     0
  0
APPID
  5
30
330
9
100
AcDbSymbolTableRecord
100
AcDbRegAppTableRecord
  2
MCAD_NO_VIS
 70
     0
  0
APPID
  5
31
330
9
100
AcDbSymbolTableRecord
100
AcDbRegAppTableRecord
  2
ACAD_TEMP_GRAPHIC
 70
     0
  0
APPID
  5
2C2
330
9
100
AcDbSymbolTableRecord
100
AcDbRegAppTableRecord
  2
GENIUS_GENDTOL_13
 70
     0
  0
APPID
  5
339
330
9
100
AcDbSymbolTableRecord
100
AcDbRegAppTableRecord
  2
GENIUS_GENODEF_13
 70
     0
  0
APPID
  5
33A
330
9
100
AcDbSymbolTableRecord
100
AcDbRegAppTableRecord
  2
GENIUS_GENOBJ-N-RSBK_13
 70
     0
  0
APPID
  5
33B
330
9
100
AcDbSymbolTableRecord
100
AcDbRegAppTableRecord
  2
GENIUS_GENOBJ-N-LIB_13
 70
     0
  0
APPID
  5
33C
330
9
100
AcDbSymbolTableRecord
100
AcDbRegAppTableRecord
  2
GENIUS_GENSCALE_13
 70
     0
  0
APPID
  5
378
330
9
100
AcDbSymbolTableRecord
100
AcDbRegAppTableRecord
  2
GENIUS_GENDIMSH_14
 70
     0
  0
APPID
  5
C82
330
9
100
AcDbSymbolTableRecord
100
AcDbRegAppTableRecord
  2
GENIUS_GENOBJ-N-CRS_13
 70
     0
  0
APPID
  5
C83
330
9
100
AcDbSymbolTableRecord
100
AcDbRegAppTableRecord
  2
GENIUS_GENOENT_13
 70
     0
  0
APPID
  5
C84
330
9
100
AcDbSymbolTableRecord
100
AcDbRegAppTableRecord
  2
GENIUS_GENOREF_13
 70
     0
  0
APPID
  5
C85
330
9
100
AcDbSymbolTableRecord
100
AcDbRegAppTableRecord
  2
GENIUS_GENOLIS_13
 70
     0
  0
APPID
  5
CA0
330
9
100
AcDbSymbolTableRecord
100
AcDbRegAppTableRecord
  2
GENIUS_GENOBJ-N-CEN_13
 70
     0
  0
ENDTAB
  0
TABLE
  2
DIMSTYLE
  5
A
330
0
100
AcDbSymbolTable
 70
    10
  0
DIMSTYLE
105
58
330
A
100
AcDbSymbolTableRecord
100
AcDbDimStyleTableRecord
  2
AM_JIS
 70
     0
  3

  4
"
  5
OPEN30
  6

  7

 40
1.0
 41
2.5
 42
1.0
 43
12.0
 44
1.0
 45
0.0
 46
0.0
 47
0.1
 48
0.1
140
3.2
141
0.0
142
0.0
143
0.0393701
144
1.0
145
0.0
146
0.71
147
1.5
 71
     0
 72
     0
 73
     0
 74
     0
 75
     0
 76
     0
 77
     3
 78
     8
170
     0
171
     2
172
     1
173
     0
174
     0
175
     0
176
   256
177
   256
178
     2
270
     2
271
     3
272
     3
273
     2
274
     2
340
6B
275
     0
280
     0
281
     0
282
     0
283
     0
284
     0
285
     0
286
     0
287
     3
288
     0
  0
DIMSTYLE
105
5F
330
A
100
AcDbSymbolTableRecord
100
AcDbDimStyleTableRecord
  2
AM_JIS$3
 70
     0
  3

  4
"
  5
OPEN30
  6

  7

 40
1.0
 41
2.5
 42
1.0
 43
10.0
 44
1.0
 45
0.0
 46
0.0
 47
0.1
 48
0.1
140
3.2
141
0.0
142
0.0
143
0.0393701
144
1.0
145
0.0
146
0.71
147
1.5
 71
     0
 72
     0
 73
     0
 74
     1
 75
     0
 76
     0
 77
     3
 78
     8
170
     0
171
     2
172
     0
173
     0
174
     0
175
     0
176
   256
177
   256
178
     2
270
     2
271
     2
272
     3
273
     2
274
     2
340
6B
275
     0
280
     0
281
     0
282
     0
283
     0
284
     0
285
     0
286
     0
287
     0
288
     1
  0
DIMSTYLE
105
60
330
A
100
AcDbSymbolTableRecord
100
AcDbDimStyleTableRecord
  2
AM_JIS$4
 70
     0
  3

  4
"
  5
OPEN30
  6

  7

 40
1.0
 41
2.5
 42
1.0
 43
10.0
 44
1.0
 45
0.0
 46
0.0
 47
0.1
 48
0.1
140
3.2
141
0.0
142
0.0
143
0.0393701
144
1.0
145
0.0
146
0.71
147
1.5
 71
     0
 72
     0
 73
     0
 74
     1
 75
     0
 76
     0
 77
     3
 78
     8
170
     0
171
     2
172
     0
173
     0
174
     0
175
     0
176
   256
177
   256
178
     2
270
     2
271
     2
272
     3
273
     2
274
     2
340
6B
275
     0
280
     0
281
     0
282
     0
283
     0
284
     0
285
     0
286
     0
287
     0
288
     1
  0
DIMSTYLE
105
61
330
A
100
AcDbSymbolTableRecord
100
AcDbDimStyleTableRecord
  2
AM_JIS$6
 70
     0
  3

  4
"
  5
OPEN30
  6

  7

 40
1.0
 41
2.5
 42
1.0
 43
10.0
 44
1.0
 45
0.0
 46
0.0
 47
0.1
 48
0.1
140
3.2
141
0.0
142
0.0
143
0.0393701
144
1.0
145
0.0
146
0.71
147
1.5
 71
     0
 72
     0
 73
     0
 74
     0
 75
     0
 76
     0
 77
     0
 78
     8
170
     0
171
     2
172
     1
173
     0
174
     0
175
     0
176
   256
177
   256
178
     2
270
     2
271
     2
272
     2
273
     2
274
     2
340
6B
275
     0
280
     0
281
     0
282
     0
283
     0
284
     0
285
     0
286
     0
287
     3
288
     0
  0
DIMSTYLE
105
62
330
A
100
AcDbSymbolTableRecord
100
AcDbDimStyleTableRecord
  2
AM_JIS$7
 70
     0
  3

  4
"
  5
OPEN30
  6

  7

 40
1.0
 41
2.5
 42
1.0
 43
10.0
 44
1.0
 45
0.0
 46
0.0
 47
0.1
 48
0.1
140
3.2
141
0.0
142
0.0
143
0.0393701
144
1.0
145
0.0
146
0.71
147
1.5
 71
     0
 72
     0
 73
     0
 74
     0
 75
     0
 76
     0
 77
     3
 78
     8
170
     0
171
     2
172
     1
173
     0
174
     0
175
     0
176
   256
177
   256
178
     2
270
     2
271
     2
272
     3
273
     2
274
     2
340
6B
275
     0
280
     0
281
     0
282
     0
283
     0
284
     0
285
     0
286
     0
287
     3
288
     0
  0
DIMSTYLE
105
63
330
A
100
AcDbSymbolTableRecord
100
AcDbDimStyleTableRecord
  2
AM_JIS$SF
 70
     0
  3

  4
"
  5
OPEN30
  6

  7

 40
1.0
 41
2.5
 42
1.0
 43
10.0
 44
1.0
 45
0.0
 46
0.0
 47
0.1
 48
0.1
140
3.2
141
0.0
142
0.0
143
0.0393701
144
1.0
145
0.0
146
0.71
147
1.5
 71
     0
 72
     0
 73
     0
 74
     0
 75
     1
 76
     1
 77
     3
 78
     8
170
     0
171
     2
172
     1
173
     0
174
     0
175
     0
176
   256
177
   256
178
     2
270
     2
271
     2
272
     2
273
     2
274
     2
340
6B
275
     0
280
     0
281
     0
282
     0
283
     0
284
     0
285
     0
286
     0
287
     3
288
     0
  0
DIMSTYLE
105
68
330
A
100
AcDbSymbolTableRecord
100
AcDbDimStyleTableRecord
  2
AM_JIS$SH
 70
     0
  3

  4
"
  5

  6
GENAXEH
  7
OPEN30
 40
1.0
 41
2.5
 42
1.0
 43
10.0
 44
1.0
 45
0.0
 46
0.0
 47
0.1
 48
0.1
140
3.2
141
0.0
142
0.0
143
0.0393701
144
2.0
145
0.0
146
0.71
147
1.5
 71
     0
 72
     0
 73
     0
 74
     0
 75
     1
 76
     1
 77
     3
 78
     8
170
     0
171
     2
172
     1
173
     1
174
     0
175
     0
176
   256
177
   256
178
     2
270
     2
271
     2
272
     2
273
     2
274
     2
340
6B
275
     0
280
     0
281
     0
282
     0
283
     0
284
     0
285
     0
286
     0
287
     3
288
     0
  0
DIMSTYLE
105
B34
102
{ACAD_REACTORS
330
5EEB
102
}
330
A
100
AcDbSymbolTableRecord
100
AcDbDimStyleTableRecord
  2
AM_JIS$2
 70
     0
  3

  4
"
  5
OPEN30
  6

  7

 40
1.0
 41
2.5
 42
1.0
 43
12.0
 44
1.0
 45
0.0
 46
0.0
 47
0.1
 48
0.1
140
3.2
141
0.0
142
0.0
143
0.0393701
144
1.0
145
0.0
146
0.71
147
1.5
 71
     0
 72
     0
 73
     0
 74
     0
 75
     0
 76
     0
 77
     3
 78
     8
170
     0
171
     2
172
     1
173
     0
174
     0
175
     0
176
   256
177
   256
178
     2
270
     2
271
     3
272
     3
273
     2
274
     2
340
6B
275
     0
280
     0
281
     0
282
     0
283
     0
284
     0
285
     0
286
     0
287
     3
288
     0
  0
DIMSTYLE
105
BA5
102
{ACAD_REACTORS
330
5D73
330
5D72
330
5D71
330
5D62
330
5D70
330
6016
330
60C0
330
638D
102
}
330
A
100
AcDbSymbolTableRecord
100
AcDbDimStyleTableRecord
  2
AM_JIS$0
 70
     0
  3

  4
"
  5
OPEN30
  6

  7

 40
1.0
 41
2.5
 42
0.8
 43
10.0
 44
1.0
 45
0.0
 46
0.0
 47
0.1
 48
0.1000000001
140
3.799999999999999
141
0.0
142
0.0
143
0.0393701
144
1.0
145
0.0
146
0.71
147
1.5
 71
     0
 72
     0
 73
     0
 74
     0
 75
     0
 76
     0
 77
     3
 78
     9
170
     0
171
     2
172
     1
173
     0
174
     0
175
     0
176
     3
177
     3
178
     2
270
     2
271
     2
272
     2
273
     2
274
     2
340
11
275
     1
280
     0
281
     0
282
     0
283
     0
284
     8
285
     0
286
     0
287
     0
288
     0
  0
DIMSTYLE
105
BA6
330
A
100
AcDbSymbolTableRecord
100
AcDbDimStyleTableRecord
  2
AM_JISORG-1P0$2
 70
     0
  3

  4
"
  5
OPEN30
  6

  7

 40
1.0
 41
2.5
 42
0.0
 43
10.0
 44
1.0
 45
0.0
 46
0.0
 47
0.1
 48
0.1000000001
140
3.799999999999999
141
0.0
142
0.0
143
0.0393701
144
-0.999999980146674
145
0.0
146
0.71
147
1.5
 71
     0
 72
     0
 73
     0
 74
     0
 75
     0
 76
     0
 77
     3
 78
     1
170
     0
171
     2
172
     1
173
     0
174
     0
175
     0
176
     3
177
     3
178
     2
270
     2
271
     2
272
     2
273
     2
274
     2
340
11
275
     1
280
     0
281
     0
282
     0
283
     0
284
     8
285
     0
286
     0
287
     0
288
     0
  0
ENDTAB
  0
TABLE
  2
BLOCK_RECORD
  5
1
330
0
100
AcDbSymbolTable
 70
    18
  0
BLOCK_RECORD
  5
1F
102
{ACAD_XDICTIONARY
360
74
102
}
330
1
100
AcDbSymbolTableRecord
100
AcDbBlockTableRecord
  2
*MODEL_SPACE
  0
BLOCK_RECORD
  5
101
102
{ACAD_XDICTIONARY
360
66A9
102
}
330
1
100
AcDbSymbolTableRecord
100
AcDbBlockTableRecord
  2
*PAPER_SPACE
  0
BLOCK_RECORD
  5
59
330
1
100
AcDbSymbolTableRecord
100
AcDbBlockTableRecord
  2
_OPEN30
  0
BLOCK_RECORD
  5
64
330
1
100
AcDbSymbolTableRecord
100
AcDbBlockTableRecord
  2
GENAXEH
  0
BLOCK_RECORD
  5
C31
330
1
100
AcDbSymbolTableRecord
100
AcDbBlockTableRecord
  2
A$C36D02A34
  0
BLOCK_RECORD
  5
2453
330
1
100
AcDbSymbolTableRecord
100
AcDbBlockTableRecord
  2
*D6
  0
BLOCK_RECORD
  5
245F
330
1
100
AcDbSymbolTableRecord
100
AcDbBlockTableRecord
  2
A$C4FFC6CC0
  0
BLOCK_RECORD
  5
5D74
330
1
100
AcDbSymbolTableRecord
100
AcDbBlockTableRecord
  2
*D8
  0
BLOCK_RECORD
  5
5D80
330
1
100
AcDbSymbolTableRecord
100
AcDbBlockTableRecord
  2
*D9
  0
BLOCK_RECORD
  5
5D8C
330
1
100
AcDbSymbolTableRecord
100
AcDbBlockTableRecord
  2
*D10
  0
BLOCK_RECORD
  5
5D9A
330
1
100
AcDbSymbolTableRecord
100
AcDbBlockTableRecord
  2
*D11
  0
BLOCK_RECORD
  5
5DA6
330
1
100
AcDbSymbolTableRecord
100
AcDbBlockTableRecord
  2
*D12
  0
BLOCK_RECORD
  5
5EEC
330
1
100
AcDbSymbolTableRecord
100
AcDbBlockTableRecord
  2
*D13
  0
BLOCK_RECORD
  5
6017
330
1
100
AcDbSymbolTableRecord
100
AcDbBlockTableRecord
  2
*D14
  0
BLOCK_RECORD
  5
60C1
330
1
100
AcDbSymbolTableRecord
100
AcDbBlockTableRecord
  2
*D15
  0
BLOCK_RECORD
  5
638E
330
1
100
AcDbSymbolTableRecord
100
AcDbBlockTableRecord
  2
*D16
  0
ENDTAB
  0
ENDSEC
  0
SECTION
  2
BLOCKS
  0
BLOCK
  5
20
330
1F
100
AcDbEntity
  8
0
100
AcDbBlockBegin
  2
*MODEL_SPACE
 70
     0
 10
0.0
 20
0.0
 30
0.0
  3
*MODEL_SPACE
  1

  0
ENDBLK
  5
21
330
1F
100
AcDbEntity
  8
0
100
AcDbBlockEnd
  0
BLOCK
  5
103
330
101
100
AcDbEntity
 67
     1
  8
0
100
AcDbBlockBegin
  2
*PAPER_SPACE
 70
     0
 10
0.0
 20
0.0
 30
0.0
  3
*PAPER_SPACE
  1

  0
ENDBLK
  5
104
330
101
100
AcDbEntity
 67
     1
  8
0
100
AcDbBlockEnd
  0
BLOCK
  5
5D
330
59
100
AcDbEntity
  8
0
100
AcDbBlockBegin
  2
_OPEN30
 70
     0
 10
0.0
 20
0.0
 30
0.0
  3
_OPEN30
  1

  0
LINE
  5
5A
330
59
100
AcDbEntity
  8
0
 62
     0
100
AcDbLine
 10
-1.0
 20
0.26794919
 30
0.0
 11
0.0
 21
0.0
 31
0.0
  0
LINE
  5
5B
330
59
100
AcDbEntity
  8
0
 62
     0
100
AcDbLine
 10
0.0
 20
0.0
 30
0.0
 11
-1.0
 21
-0.26794919
 31
0.0
  0
LINE
  5
5C
330
59
100
AcDbEntity
  8
0
 62
     0
100
AcDbLine
 10
0.0
 20
0.0
 30
0.0
 11
-1.0
 21
0.0
 31
0.0
  0
ENDBLK
  5
5E
330
59
100
AcDbEntity
  8
0
100
AcDbBlockEnd
  0
BLOCK
  5
66
330
64
100
AcDbEntity
  8
0
100
AcDbBlockBegin
  2
GENAXEH
 70
     0
 10
0.0
 20
0.0
 30
0.0
  3
GENAXEH
  1

  0
LINE
  5
65
330
64
100
AcDbEntity
  8
0
100
AcDbLine
 10
-1.0
 20
0.0
 30
0.0
 11
1.0
 21
0.0
 31
0.0
  0
ENDBLK
  5
67
330
64
100
AcDbEntity
  8
0
100
AcDbBlockEnd
  0
BLOCK
  5
C4B
330
C31
100
AcDbEntity
  8
0
100
AcDbBlockBegin
  2
A$C36D02A34
 70
     0
 10
0.0
 20
0.0
 30
0.0
  3
A$C36D02A34
  1

  0
ARC
  5
C32
330
C31
100
AcDbEntity
  8
PV0001_1
  6
CONTINUOUS
 48
0.5
100
AcDbCircle
 10
18.06811523436999
 20
-11.83651161193799
 30
0.0
 40
21.600000381469
100
AcDbArc
 50
123.2290435713209
 51
126.6341524197568
  0
ARC
  5
C33
330
C31
100
AcDbEntity
  8
PV0001_1
  6
CONTINUOUS
 48
0.5
100
AcDbCircle
 10
18.06811523436999
 20
-11.83651161193799
 30
0.0
 40
21.600000381469
100
AcDbArc
 50
135.0736707620117
 51
146.7709980930592
  0
ARC
  5
C34
330
C31
100
AcDbEntity
  8
PV0001_1
  6
CONTINUOUS
 48
0.5
100
AcDbCircle
 10
-18.0680770874
 20
11.8365631103514
 30
0.0
 40
21.600000381469
100
AcDbArc
 50
315.0734847530392
 51
326.770781348241
  0
ARC
  5
C35
330
C31
100
AcDbEntity
  8
PV0001_1
  6
CONTINUOUS
 48
0.5
100
AcDbCircle
 10
-18.0680770874
 20
11.8365631103514
 30
0.0
 40
21.600000381469
100
AcDbArc
 50
303.2288882981993
 51
306.633986901359
  0
ARC
  5
C36
330
C31
100
AcDbEntity
  8
PV0001_1
  6
CONTINUOUS
 48
0.5
100
AcDbCircle
 10
-0.6269836425800009
 20
-2.044216156005997
 30
0.0
 40
2.0
100
AcDbArc
 50
337.4067997351092
 51
43.42231293132884
  0
ARC
  5
C37
330
C31
100
AcDbEntity
  8
PV0001_1
  6
CONTINUOUS
 48
0.5
100
AcDbCircle
 10
0.626953125
 20
2.044223785401001
 30
0.0
 40
2.0
100
AcDbArc
 50
157.4068184044407
 51
223.4222769591536
  0
CIRCLE
  5
C38
330
C31
100
AcDbEntity
  8
PV0001_1
  6
CONTINUOUS
 48
0.5
100
AcDbCircle
 10
3.856727600100001
 20
4.596265792847002
 30
0.0
 40
1.6000000238419
  0
CIRCLE
  5
C39
330
C31
100
AcDbEntity
  8
PV0001_1
  6
CONTINUOUS
 48
0.5
100
AcDbCircle
 10
-3.856727600100001
 20
-4.596265792845997
 30
0.0
 40
1.6000000238419
  0
ARC
  5
C3A
330
C31
100
AcDbEntity
  8
PV0001_1
  6
CONTINUOUS
 48
0.5
100
AcDbCircle
 10
-5.58123779297
 20
5.092639923096001
 30
0.0
 40
5.019082546234099
100
AcDbArc
 50
240.2658959250867
 51
321.5156269706421
  0
ARC
  5
C3B
330
C31
100
AcDbEntity
  8
PV0001_1
  6
CONTINUOUS
 48
0.5
100
AcDbCircle
 10
5.486755371089998
 20
-4.601703643798998
 30
0.0
 40
4.651036739349399
100
AcDbArc
 50
56.25271400417071
 51
145.528859890601
  0
ARC
  5
C3C
330
C31
100
AcDbEntity
  8
PV0001_1
  6
CONTINUOUS
 48
0.5
100
AcDbCircle
 10
-2.11590576172
 20
-3.453323364257997
 30
0.0
 40
4.050000190734899
100
AcDbArc
 50
43.42230610113921
 51
58.50391703385149
  0
ARC
  5
C3D
330
C31
100
AcDbEntity
  8
PV0001_1
  6
CONTINUOUS
 48
0.5
100
AcDbCircle
 10
2.115875244139999
 20
3.453330993653001
 30
0.0
 40
4.050000190734899
100
AcDbArc
 50
223.4222942619974
 51
238.5038164022482
  0
ARC
  5
C3E
330
C31
100
AcDbEntity
  8
PV0001_1
  6
CONTINUOUS
 48
0.5
100
AcDbCircle
 10
-6.70369720459
 20
5.094657897949002
 30
0.0
 40
5.940000057220499
100
AcDbArc
 50
328.2536768887549
 51
31.74641873389623
  0
ARC
  5
C3F
330
C31
100
AcDbEntity
  8
PV0001_1
  6
CONTINUOUS
 48
0.5
100
AcDbCircle
 10
6.703674316410001
 20
-5.094650268553998
 30
0.0
 40
5.940000057220499
100
AcDbArc
 50
148.2533403882529
 51
211.7466423089037
  0
ARC
  5
C40
330
C31
100
AcDbEntity
  8
PV0001_1
  6
CONTINUOUS
 48
0.5
100
AcDbCircle
 10
0.0
 20
0.0
 30
0.0
 40
8.812800407409699
100
AcDbArc
 50
175.2198288164333
 51
272.8622597568298
  0
ARC
  5
C41
330
C31
100
AcDbEntity
  8
PV0001_1
  6
CONTINUOUS
 48
0.5
100
AcDbCircle
 10
0.0
 20
0.0
 30
0.0
 40
9.1800003051758
100
AcDbArc
 50
272.7511362215027
 51
280.3697477877874
  0
ARC
  5
C42
330
C31
100
AcDbEntity
  8
PV0001_1
  6
CONTINUOUS
 48
0.5
100
AcDbCircle
 10
0.0
 20
0.0
 30
0.0
 40
8.812800407409699
100
AcDbArc
 50
355.2198199654955
 51
92.86229572901076
  0
ARC
  5
C43
330
C31
100
AcDbEntity
  8
PV0001_1
  6
CONTINUOUS
 48
0.5
100
AcDbCircle
 10
0.0
 20
0.0
 30
0.0
 40
9.1800003051758
100
AcDbArc
 50
92.75115489083434
 51
100.3697664571193
  0
CIRCLE
  5
C44
330
C31
100
AcDbEntity
  8
PV0001_1
  6
CONTINUOUS
100
AcDbCircle
 10
0.0
 20
0.0
 30
0.0
 40
9.1800003051758
  0
LINE
  5
C45
330
C31
100
AcDbEntity
  8
PV0001_1
  6
CONTINUOUS
 48
0.5
100
AcDbLine
 10
-1.652404785160001
 20
9.030059814453
 30
0.0
 11
-1.652404785160001
 21
8.220062255860002
 31
0.0
  0
LINE
  5
C46
330
C31
100
AcDbEntity
  8
PV0001_1
  6
CONTINUOUS
 48
0.5
100
AcDbLine
 10
1.652404785160001
 20
-8.220058441161999
 30
0.0
 11
1.652404785160001
 21
-9.030055999755997
 31
0.0
  0
LINE
  5
C47
330
C31
100
AcDbEntity
  8
PV0001_1
  6
CONTINUOUS
 48
0.5
100
AcDbLine
 10
-8.78217315674
 20
0.7343807220460015
 30
0.0
 11
-8.070594787600001
 21
0.7343997955320028
 31
0.0
  0
LINE
  5
C48
330
C31
100
AcDbEntity
  8
PV0001_1
  6
CONTINUOUS
 48
0.5
100
AcDbLine
 10
8.07057952881
 20
-0.7343864440919994
 30
0.0
 11
8.78215789795
 21
-0.7343654632569994
 31
0.0
  0
LINE
  5
C49
330
C31
100
AcDbEntity
  8
PV0001_1
  6
CONTINUOUS
 48
0.5
100
AcDbLine
 10
0.4406127929700006
 20
-9.169414520263
 30
0.0
 11
0.4406127929700006
 21
-8.812801361083998
 31
0.0
  0
LINE
  5
C4A
330
C31
100
AcDbEntity
  8
PV0001_1
  6
CONTINUOUS
 48
0.5
100
AcDbLine
 10
-0.4406127929700006
 20
9.169418334961001
 30
0.0
 11
-0.4406127929700006
 21
8.812805175781001
 31
0.0
  0
ENDBLK
  5
C4C
330
C31
100
AcDbEntity
  8
0
100
AcDbBlockEnd
  0
BLOCK
  5
245D
330
2453
100
AcDbEntity
  8
0
100
AcDbBlockBegin
  2
*D6
 70
     1
 10
0.0
 20
0.0
 30
0.0
  3
*D6
  1

  0
LINE
  5
2454
330
2453
100
AcDbEntity
  8
AM_5
 62
     3
100
AcDbLine
 10
-137.574381722344
 20
-5.00000294019065
 30
0.0
 11
-152.8199008769066
 21
-5.000002940190694
 31
0.0
  0
LINE
  5
2455
330
2453
100
AcDbEntity
  8
AM_5
 62
     3
100
AcDbLine
 10
-137.5743817223442
 20
5.00002461040103
 30
0.0
 11
-152.8199008769066
 21
5.000024610400987
 31
0.0
  0
LINE
  5
2456
330
2453
100
AcDbEntity
  8
AM_5
 62
     3
100
AcDbLine
 10
-151.8199008769066
 20
-2.500002940190691
 30
0.0
 11
-151.8199008769066
 21
2.50002461040099
 31
0.0
  0
INSERT
  5
2457
330
2453
100
AcDbEntity
  8
AM_5
 62
     3
100
AcDbBlockReference
  2
_OPEN30
 10
-151.8199008769066
 20
-5.00000294019069
 30
0.0
 41
2.5
 42
2.5
 43
2.5
 50
270.0000000000001
  0
INSERT
  5
2458
330
2453
100
AcDbEntity
  8
AM_5
 62
     3
100
AcDbBlockReference
  2
_OPEN30
 10
-151.8199008769066
 20
5.00002461040099
 30
0.0
 41
2.5
 42
2.5
 43
2.5
 50
90.00000000000015
  0
MTEXT
  5
2459
330
2453
100
AcDbEntity
  8
AM_5
 62
     2
100
AcDbMText
 10
-155.2199008769066
 20
0.000010835105146
 30
0.0
 40
3.799999999999999
 41
0.0
 71
     5
 72
     1
  1
%%c10
 11
-0.0000000000000028
 21
1.0
 31
0.0
1001
ACAD
1000
MTEXTBEGIN
1070
    73
1070
     1
1070
    44
1040
1.0
1070
    74
1070
     0
1000
MTEXTEND
  0
POINT
  5
245A
330
2453
100
AcDbEntity
  8
DEFPOINTS
 62
     0
100
AcDbPoint
 10
-137.5743817223441
 20
-5.000002940190223
 30
0.0
  0
POINT
  5
245B
330
2453
100
AcDbEntity
  8
DEFPOINTS
 62
     0
100
AcDbPoint
 10
-137.5743817223441
 20
5.000024610401458
 30
0.0
  0
POINT
  5
245C
330
2453
100
AcDbEntity
  8
DEFPOINTS
 62
     0
100
AcDbPoint
 10
-151.8199008769066
 20
5.000024610401462
 30
0.0
  0
ENDBLK
  5
245E
330
2453
100
AcDbEntity
  8
0
100
AcDbBlockEnd
  0
BLOCK
  5
246B
330
245F
100
AcDbEntity
  8
0
100
AcDbBlockBegin
  2
A$C4FFC6CC0
 70
     0
 10
0.0
 20
0.0
 30
0.0
  3
A$C4FFC6CC0
  1

  0
DIMENSION
  5
2460
330
245F
100
AcDbEntity
  8
AM_5
100
AcDbDimension
  2
*D6
 10
-70.00000100000002
 20
5.000008477104842
 30
0.0
 11
-70.00000100000002
 21
-0.0000052981910228
 31
0.0
 12
81.81989987690661
 22
-0.0000161332966199
 32
0.0
 70
   128
  1
%%c<>
 51
359.9999999999998
  3
AM_JIS$0
100
AcDbAlignedDimension
 13
-55.75448184543748
 23
-5.000019073486843
 33
0.0
 14
-55.75448184543756
 24
5.000008477104838
 34
0.0
 50
270.0
100
AcDbRotatedDimension
1001
ACAD
1000
DSTYLE
1002
{
1070
   271
1070
     0
1002
}
1001
GENIUS_GENDTOL_13
1000

1000
h7
1000

1040
0.0
  0
LINE
  5
2461
330
245F
100
AcDbEntity
  8
AM_0
 48
0.5
100
AcDbLine
 10
-56.0
 20
-4.754495620727796
 30
0.0
 11
-56.00000000000003
 21
4.754485024345811
 31
0.0
  0
LINE
  5
2462
330
245F
100
AcDbEntity
  8
AM_0
 48
0.5
100
AcDbLine
 10
-55.75448184543751
 20
-5.000019073486843
 30
0.0
 11
-55.75448184543754
 21
5.000008477104838
 31
0.0
  0
LINE
  5
2463
330
245F
100
AcDbEntity
  8
AM_0
100
AcDbLine
 10
-0.0000000000000142
 20
4.999995231627903
 30
0.0
 11
-55.75448184543754
 21
4.999995231627746
 31
0.0
  0
LINE
  5
2464
330
245F
100
AcDbEntity
  8
AM_0
 48
0.5
100
AcDbLine
 10
-55.99996821086117
 20
4.754439989725671
 30
0.0
 11
-55.75443945990975
 21
4.999963442484006
 31
0.0
  0
LINE
  5
2465
330
245F
100
AcDbEntity
  8
AM_0
100
AcDbLine
 10
-55.75448184543751
 20
-5.000008477105588
 30
0.0
 11
0.0000000000000142
 21
-5.00000847710543
 31
0.0
  0
LINE
  5
2466
330
245F
100
AcDbEntity
  8
AM_0
 48
0.5
100
AcDbLine
 10
-55.99996821086114
 20
-4.754474427965309
 30
0.0
 11
-55.75443945990972
 21
-4.999997880724334
 31
0.0
  0
LINE
  5
2467
330
245F
100
AcDbEntity
  8
AM_0
100
AcDbLine
 10
0.7794201296714505
 20
4.549985867772141
 30
0.0
 11
0.7794201296714789
 21
-4.550003370497427
 31
0.0
  0
LINE
  5
2468
330
245F
100
AcDbEntity
  8
AM_0
 48
0.5
100
AcDbLine
 10
0.0000000000000142
 20
-5.00000847710543
 30
0.0
 11
-0.0000000000000142
 21
5.000008477104995
 31
0.0
  0
LINE
  5
2469
330
245F
100
AcDbEntity
  8
AM_0
 48
0.5
100
AcDbLine
 10
0.7794201296714647
 20
-4.550003370497435
 30
0.0
 11
-0.0000105963812445
 21
-5.00000847710543
 31
0.0
  0
LINE
  5
246A
330
245F
100
AcDbEntity
  8
AM_0
 48
0.5
100
AcDbLine
 10
0.7794201296714647
 20
4.549985867772141
 30
0.0
 11
-0.0000000000000142
 21
4.999984635246652
 31
0.0
  0
ENDBLK
  5
246C
330
245F
100
AcDbEntity
  8
0
100
AcDbBlockEnd
  0
BLOCK
  5
5D7E
330
5D74
100
AcDbEntity
  8
0
100
AcDbBlockBegin
  2
*D8
 70
     1
 10
0.0
 20
0.0
 30
0.0
  3
*D8
  1

  0
LINE
  5
656F
330
5D74
100
AcDbEntity
  8
AM_5
 62
     3
100
AcDbLine
 10
-198.4983444297736
 20
16.03490960877377
 30
0.0
 11
-221.2679293906999
 21
16.0349096087737
 31
0.0
  0
LINE
  5
6570
330
5D74
100
AcDbEntity
  8
AM_5
 62
     3
100
AcDbLine
 10
-198.4983444297734
 20
-15.96496588266058
 30
0.0
 11
-221.2679293906998
 21
-15.96496588266065
 31
0.0
  0
LINE
  5
6571
330
5D74
100
AcDbEntity
  8
AM_5
 62
     3
100
AcDbLine
 10
-220.2679293906999
 20
13.5349096087737
 30
0.0
 11
-220.2679293906998
 21
-13.46496588266064
 31
0.0
  0
INSERT
  5
6572
330
5D74
100
AcDbEntity
  8
AM_5
 62
     3
100
AcDbBlockReference
  2
_OPEN30
 10
-220.2679293906999
 20
16.0349096087737
 30
0.0
 41
2.5
 42
2.5
 43
2.5
 50
90.00000000000017
  0
INSERT
  5
6573
330
5D74
100
AcDbEntity
  8
AM_5
 62
     3
100
AcDbBlockReference
  2
_OPEN30
 10
-220.2679293906998
 20
-15.96496588266064
 30
0.0
 41
2.5
 42
2.5
 43
2.5
 50
270.0000000000001
  0
MTEXT
  5
6574
330
5D74
100
AcDbEntity
  8
AM_5
 62
     2
100
AcDbMText
 10
-223.6679293906998
 20
0.034971863056529
 30
0.0
 40
3.799999999999999
 41
0.0
 71
     5
 72
     1
  1
%%C32
 11
-0.0000000000000028
 21
1.0
 31
0.0
1001
ACAD
1000
MTEXTBEGIN
1070
    73
1070
     1
1070
    44
1040
1.0
1070
    74
1070
     0
1000
MTEXTEND
  0
POINT
  5
6575
330
5D74
100
AcDbEntity
  8
DEFPOINTS
 62
     0
100
AcDbPoint
 10
-197.6983444297735
 20
16.03490960877438
 30
0.0
  0
POINT
  5
6576
330
5D74
100
AcDbEntity
  8
DEFPOINTS
 62
     0
100
AcDbPoint
 10
-197.6983444297734
 20
-15.96496588265996
 30
0.0
  0
POINT
  5
6577
330
5D74
100
AcDbEntity
  8
DEFPOINTS
 62
     0
100
AcDbPoint
 10
-220.2679293906999
 20
-15.96496588265996
 30
0.0
  0
ENDBLK
  5
5D7F
330
5D74
100
AcDbEntity
  8
0
100
AcDbBlockEnd
  0
BLOCK
  5
5D8A
330
5D80
100
AcDbEntity
  8
0
100
AcDbBlockBegin
  2
*D9
 70
     1
 10
0.0
 20
0.0
 30
0.0
  3
*D9
  1

  0
LINE
  5
6566
330
5D80
100
AcDbEntity
  8
AM_5
 62
     3
100
AcDbLine
 10
-138.5759727904408
 20
-16.76514898497703
 30
0.0
 11
-138.5759727904408
 21
-47.51286586274706
 31
0.0
  0
LINE
  5
6567
330
5D80
100
AcDbEntity
  8
AM_5
 62
     3
100
AcDbLine
 10
-198.5759727904408
 20
-15.91665655333558
 30
0.0
 11
-198.5759727904407
 21
-47.51286586274723
 31
0.0
  0
LINE
  5
6568
330
5D80
100
AcDbEntity
  8
AM_5
 62
     3
100
AcDbLine
 10
-141.0759727904407
 20
-46.51286586274706
 30
0.0
 11
-196.0759727904407
 21
-46.51286586274722
 31
0.0
  0
INSERT
  5
6569
330
5D80
100
AcDbEntity
  8
AM_5
 62
     3
100
AcDbBlockReference
  2
_OPEN30
 10
-138.5759727904408
 20
-46.51286586274706
 30
0.0
 41
2.5
 42
2.5
 43
2.5
 50
0.0000000000001527
  0
INSERT
  5
656A
330
5D80
100
AcDbEntity
  8
AM_5
 62
     3
100
AcDbBlockReference
  2
_OPEN30
 10
-198.5759727904407
 20
-46.51286586274723
 30
0.0
 41
2.5
 42
2.5
 43
2.5
 50
180.0000000000001
  0
MTEXT
  5
656B
330
5D80
100
AcDbEntity
  8
AM_5
 62
     2
100
AcDbMText
 10
-168.5759727904408
 20
-43.11286586274714
 30
0.0
 40
3.799999999999999
 41
0.0
 71
     5
 72
     1
  1
60
1001
ACAD
1000
MTEXTBEGIN
1070
    73
1070
     1
1070
    44
1040
1.0
1070
    74
1070
     0
1000
MTEXTEND
  0
POINT
  5
656C
330
5D80
100
AcDbEntity
  8
DEFPOINTS
 62
     0
100
AcDbPoint
 10
-138.5759727904409
 20
-15.96514898497663
 30
0.0
  0
POINT
  5
656D
330
5D80
100
AcDbEntity
  8
DEFPOINTS
 62
     0
100
AcDbPoint
 10
-198.5759727904408
 20
-15.116656553335
 30
0.0
  0
POINT
  5
656E
330
5D80
100
AcDbEntity
  8
DEFPOINTS
 62
     0
100
AcDbPoint
 10
-198.5759727904408
 20
-46.51286586274665
 30
0.0
  0
ENDBLK
  5
5D8B
330
5D80
100
AcDbEntity
  8
0
100
AcDbBlockEnd
  0
BLOCK
  5
5D98
330
5D8C
100
AcDbEntity
  8
0
100
AcDbBlockBegin
  2
*D10
 70
     1
 10
0.0
 20
0.0
 30
0.0
  3
*D10
  1

  0
LINE
  5
655B
330
5D8C
100
AcDbEntity
  8
AM_5
 62
     3
100
AcDbLine
 10
-198.5758869597658
 20
-12.60919686260986
 30
0.0
 11
-198.5758869597657
 21
-34.47651962916207
 31
0.0
  0
LINE
  5
655C
330
5D8C
100
AcDbEntity
  8
AM_5
 62
     3
100
AcDbLine
 10
-192.5759841558435
 20
-0.7971024035426764
 30
0.0
 11
-192.5759841558434
 21
-34.47651962916206
 31
0.0
  0
LINE
  5
655D
330
5D8C
100
AcDbEntity
  8
AM_5
 62
     3
100
AcDbLine
 10
-201.0758869597657
 20
-33.47651962916208
 30
0.0
 11
-203.5758869597657
 21
-33.47651962916209
 31
0.0
  0
LINE
  5
655E
330
5D8C
100
AcDbEntity
  8
AM_5
 62
     3
100
AcDbLine
 10
-190.0759841558434
 20
-33.47651962916205
 30
0.0
 11
-187.5759841558434
 21
-33.47651962916204
 31
0.0
  0
LINE
  5
655F
330
5D8C
100
AcDbEntity
  8
AM_5
 62
     3
100
AcDbLine
 10
-198.5758869597657
 20
-33.47651962916208
 30
0.0
 11
-192.5759841558434
 21
-33.47651962916206
 31
0.0
  0
INSERT
  5
6560
330
5D8C
100
AcDbEntity
  8
AM_5
 62
     3
100
AcDbBlockReference
  2
_OPEN30
 10
-198.5758869597657
 20
-33.47651962916208
 30
0.0
 41
2.5
 42
2.5
 43
2.5
 50
0.0000000000001527
  0
INSERT
  5
6561
330
5D8C
100
AcDbEntity
  8
AM_5
 62
     3
100
AcDbBlockReference
  2
_OPEN30
 10
-192.5759841558434
 20
-33.47651962916206
 30
0.0
 41
2.5
 42
2.5
 43
2.5
 50
180.0000000000001
  0
MTEXT
  5
6562
330
5D8C
100
AcDbEntity
  8
AM_5
 62
     2
100
AcDbMText
 10
-195.5759355578045
 20
-30.07651962916207
 30
0.0
 40
3.799999999999999
 41
0.0
 71
     5
 72
     1
  1
6
1001
ACAD
1000
MTEXTBEGIN
1070
    73
1070
     1
1070
    44
1040
1.0
1070
    74
1070
     0
1000
MTEXTEND
  0
POINT
  5
6563
330
5D8C
100
AcDbEntity
  8
DEFPOINTS
 62
     0
100
AcDbPoint
 10
-198.5758869597658
 20
-11.80919686260928
 30
0.0
  0
POINT
  5
6564
330
5D8C
100
AcDbEntity
  8
DEFPOINTS
 62
     0
100
AcDbPoint
 10
-192.5759841558435
 20
0.002897596457884
 30
0.0
  0
POINT
  5
6565
330
5D8C
100
AcDbEntity
  8
DEFPOINTS
 62
     0
100
AcDbPoint
 10
-192.5759841558435
 20
-33.4765196291615
 30
0.0
  0
ENDBLK
  5
5D99
330
5D8C
100
AcDbEntity
  8
0
100
AcDbBlockEnd
  0
BLOCK
  5
5DA4
330
5D9A
100
AcDbEntity
  8
0
100
AcDbBlockBegin
  2
*D11
 70
     1
 10
0.0
 20
0.0
 30
0.0
  3
*D11
  1

  0
LINE
  5
6552
330
5D9A
100
AcDbEntity
  8
AM_5
 62
     3
100
AcDbLine
 10
-192.5759841558435
 20
-0.7971024035426764
 30
0.0
 11
-192.5759841558434
 21
-34.47651962916185
 31
0.0
  0
LINE
  5
6553
330
5D9A
100
AcDbEntity
  8
AM_5
 62
     3
100
AcDbLine
 10
-142.575972790441
 20
-0.7971024035424171
 30
0.0
 11
-142.5759727904408
 21
-34.4765196291617
 31
0.0
  0
LINE
  5
6554
330
5D9A
100
AcDbEntity
  8
AM_5
 62
     3
100
AcDbLine
 10
-190.0759841558434
 20
-33.47651962916184
 30
0.0
 11
-145.0759727904409
 21
-33.4765196291617
 31
0.0
  0
INSERT
  5
6555
330
5D9A
100
AcDbEntity
  8
AM_5
 62
     3
100
AcDbBlockReference
  2
_OPEN30
 10
-192.5759841558434
 20
-33.47651962916184
 30
0.0
 41
2.5
 42
2.5
 43
2.5
 50
180.0000000000001
  0
INSERT
  5
6556
330
5D9A
100
AcDbEntity
  8
AM_5
 62
     3
100
AcDbBlockReference
  2
_OPEN30
 10
-142.5759727904409
 20
-33.4765196291617
 30
0.0
 41
2.5
 42
2.5
 43
2.5
 50
0.0000000000001527
  0
MTEXT
  5
6557
330
5D9A
100
AcDbEntity
  8
AM_5
 62
     2
100
AcDbMText
 10
-167.5759784731421
 20
-30.07651962916177
 30
0.0
 40
3.799999999999999
 41
0.0
 71
     5
 72
     1
  1
50
1001
ACAD
1000
MTEXTBEGIN
1070
    73
1070
     1
1070
    44
1040
1.0
1070
    74
1070
     0
1000
MTEXTEND
  0
POINT
  5
6558
330
5D9A
100
AcDbEntity
  8
DEFPOINTS
 62
     0
100
AcDbPoint
 10
-192.5759841558435
 20
0.002897596457884
 30
0.0
  0
POINT
  5
6559
330
5D9A
100
AcDbEntity
  8
DEFPOINTS
 62
     0
100
AcDbPoint
 10
-142.575972790441
 20
0.0028975964579977
 30
0.0
  0
POINT
  5
655A
330
5D9A
100
AcDbEntity
  8
DEFPOINTS
 62
     0
100
AcDbPoint
 10
-142.575972790441
 20
-33.47651962916128
 30
0.0
  0
ENDBLK
  5
5DA5
330
5D9A
100
AcDbEntity
  8
0
100
AcDbBlockEnd
  0
BLOCK
  5
5DB0
330
5DA6
100
AcDbEntity
  8
0
100
AcDbBlockBegin
  2
*D12
 70
     1
 10
0.0
 20
0.0
 30
0.0
  3
*D12
  1

  0
LINE
  5
6581
330
5DA6
100
AcDbEntity
  8
AM_5
 62
     3
100
AcDbLine
 10
-3.575972790440949
 20
-13.8248251079876
 30
0.0
 11
-3.575972790440814
 21
-61.2193901171234
 31
0.0
  0
LINE
  5
6582
330
5DA6
100
AcDbEntity
  8
AM_5
 62
     3
100
AcDbLine
 10
-198.5758869597658
 20
-13.40919686261043
 30
0.0
 11
-198.5758869597656
 21
-61.21939011712397
 31
0.0
  0
LINE
  5
6583
330
5DA6
100
AcDbEntity
  8
AM_5
 62
     3
100
AcDbLine
 10
-6.075972790440817
 20
-60.21939011712341
 30
0.0
 11
-196.0758869597656
 21
-60.21939011712396
 31
0.0
  0
INSERT
  5
6584
330
5DA6
100
AcDbEntity
  8
AM_5
 62
     3
100
AcDbBlockReference
  2
_OPEN30
 10
-3.575972790440817
 20
-60.21939011712341
 30
0.0
 41
2.5
 42
2.5
 43
2.5
 50
0.0000000000001527
  0
INSERT
  5
6585
330
5DA6
100
AcDbEntity
  8
AM_5
 62
     3
100
AcDbBlockReference
  2
_OPEN30
 10
-198.5758869597656
 20
-60.21939011712397
 30
0.0
 41
2.5
 42
2.5
 43
2.5
 50
180.0000000000001
  0
MTEXT
  5
6586
330
5DA6
100
AcDbEntity
  8
AM_5
 62
     2
100
AcDbMText
 10
-101.0759298751032
 20
-56.81939011712369
 30
0.0
 40
3.799999999999999
 41
0.0
 71
     5
 72
     1
  1
195
1001
ACAD
1000
MTEXTBEGIN
1070
    73
1070
     1
1070
    44
1040
1.0
1070
    74
1070
     0
1000
MTEXTEND
  0
POINT
  5
6587
330
5DA6
100
AcDbEntity
  8
DEFPOINTS
 62
     0
100
AcDbPoint
 10
-3.575972790440989
 20
-13.02482510798759
 30
0.0
  0
POINT
  5
6588
330
5DA6
100
AcDbEntity
  8
DEFPOINTS
 62
     0
100
AcDbPoint
 10
-198.5758869597658
 20
-12.60919686260986
 30
0.0
  0
POINT
  5
6589
330
5DA6
100
AcDbEntity
  8
DEFPOINTS
 62
     0
100
AcDbPoint
 10
-198.5758869597658
 20
-60.2193901171234
 30
0.0
  0
ENDBLK
  5
5DB1
330
5DA6
100
AcDbEntity
  8
0
100
AcDbBlockEnd
  0
BLOCK
  5
5EFA
330
5EEC
100
AcDbEntity
  8
0
100
AcDbBlockBegin
  2
*D13
 70
     1
 10
0.0
 20
0.0
 30
0.0
  3
*D13
  1

  0
LINE
  5
5FBB
330
5EEC
100
AcDbEntity
  8
AM_5
100
AcDbLine
 10
0.2588235327313181
 20
-0.9659336693633257
 30
0.0
 11
8.782571362077071
 21
-32.77699397920485
 31
0.0
  0
LINE
  5
5FBC
330
5EEC
100
AcDbEntity
  8
AM_5
100
AcDbLine
 10
0.2588209057385371
 20
0.9659301054235424
 30
0.0
 11
8.782594056286548
 21
32.77699681359182
 31
0.0
  0
ARC
  5
5FBD
330
5EEC
100
AcDbEntity
  8
AM_5
100
AcDbCircle
 10
0.000001194425791
 20
0.0000044576452124
 30
0.0
 40
32.93324572272729
100
AcDbArc
 50
289.3504323762698
 51
70.64952795315003
  0
INSERT
  5
5FBE
330
5EEC
100
AcDbEntity
  8
AM_5
100
AcDbBlockReference
  2
_OPEN30
 10
8.523752319554152
 20
-31.81106815222458
 30
0.0
 41
2.5
 42
2.5
 43
2.5
 50
197.1752161116279
  0
INSERT
  5
5FBF
330
5EEC
100
AcDbEntity
  8
AM_5
100
AcDbBlockReference
  2
_OPEN30
 10
8.523774344973801
 20
31.81107116581349
 30
0.0
 41
2.5
 42
2.5
 43
2.5
 50
162.8247442177919
  0
MTEXT
  5
5FC0
330
5EEC
100
AcDbEntity
  8
AM_5
 62
     2
100
AcDbMText
 10
29.83324691715111
 20
-0.0000069435519961
 30
0.0
 40
3.2
 41
0.0
 71
     5
 72
     1
  1
150°
  7
ASAMI
 11
-0.0000000000000028
 21
1.0
 31
0.0
1001
ACAD
1000
MTEXTBEGIN
1070
    73
1070
     1
1070
    44
1040
1.0
1070
    74
1070
     0
1000
MTEXTEND
  0
POINT
  5
5FC1
330
5EEC
100
AcDbEntity
  8
DEFPOINTS
 62
     0
100
AcDbPoint
 10
29.84766465740409
 20
13.91818176770725
 30
0.0
  0
POINT
  5
5FC2
330
5EEC
100
AcDbEntity
  8
DEFPOINTS
 62
     0
100
AcDbPoint
 10
0.0
 20
-0.0000000000002274
 30
0.0
  0
POINT
  5
5FC3
330
5EEC
100
AcDbEntity
  8
DEFPOINTS
 62
     0
100
AcDbPoint
 10
0.0000044902083971
 20
-0.0000078423830558
 30
0.0
  0
POINT
  5
5FC4
330
5EEC
100
AcDbEntity
  8
DEFPOINTS
 62
     0
100
AcDbPoint
 10
-3.215385784616955
 20
11.99999215761687
 30
0.0
  0
POINT
  5
5FC5
330
5EEC
100
AcDbEntity
  8
DEFPOINTS
 62
     0
100
AcDbPoint
 10
-3.215401281309596
 20
-12.00000784238305
 30
0.0
  0
ENDBLK
  5
5EFB
330
5EEC
100
AcDbEntity
  8
0
100
AcDbBlockEnd
  0
BLOCK
  5
6021
330
6017
100
AcDbEntity
  8
0
100
AcDbBlockBegin
  2
*D14
 70
     1
 10
0.0
 20
0.0
 30
0.0
  3
*D14
  1

  0
LINE
  5
65E0
330
6017
100
AcDbEntity
  8
AM_5
 62
     3
100
AcDbLine
 10
-111.5759727904409
 20
10.26439396128195
 30
0.0
 11
-111.5759727904409
 21
34.61879886984733
 31
0.0
  0
LINE
  5
65E1
330
6017
100
AcDbEntity
  8
AM_5
 62
     3
100
AcDbLine
 10
-3.575955970582052
 20
13.82438583144882
 30
0.0
 11
-3.575955970582112
 21
34.61879886984765
 31
0.0
  0
LINE
  5
65E2
330
6017
100
AcDbEntity
  8
AM_5
 62
     3
100
AcDbLine
 10
-109.0759727904409
 20
33.61879886984734
 30
0.0
 11
-6.075955970582109
 21
33.61879886984764
 31
0.0
  0
INSERT
  5
65E3
330
6017
100
AcDbEntity
  8
AM_5
 62
     3
100
AcDbBlockReference
  2
_OPEN30
 10
-111.5759727904409
 20
33.61879886984733
 30
0.0
 41
2.5
 42
2.5
 43
2.5
 50
180.0000000000001
  0
INSERT
  5
65E4
330
6017
100
AcDbEntity
  8
AM_5
 62
     3
100
AcDbBlockReference
  2
_OPEN30
 10
-3.575955970582108
 20
33.61879886984765
 30
0.0
 41
2.5
 42
2.5
 43
2.5
 50
0.0000000000001527
  0
MTEXT
  5
65E5
330
6017
100
AcDbEntity
  8
AM_5
 62
     2
100
AcDbMText
 10
-57.57596438051155
 20
37.01879886984748
 30
0.0
 40
3.799999999999999
 41
0.0
 71
     5
 72
     1
  1
108
1001
ACAD
1000
MTEXTBEGIN
1070
    73
1070
     1
1070
    44
1040
1.0
1070
    74
1070
     0
1000
MTEXTEND
  0
POINT
  5
65E6
330
6017
100
AcDbEntity
  8
DEFPOINTS
 62
     0
100
AcDbPoint
 10
-111.5759727904408
 20
9.464393961282276
 30
0.0
  0
POINT
  5
65E7
330
6017
100
AcDbEntity
  8
DEFPOINTS
 62
     0
100
AcDbPoint
 10
-3.575955970582012
 20
13.02438583144883
 30
0.0
  0
POINT
  5
65E8
330
6017
100
AcDbEntity
  8
DEFPOINTS
 62
     0
100
AcDbPoint
 10
-3.575955970582011
 20
33.61879886984766
 30
0.0
  0
ENDBLK
  5
6022
330
6017
100
AcDbEntity
  8
0
100
AcDbBlockEnd
  0
BLOCK
  5
60CB
330
60C1
100
AcDbEntity
  8
0
100
AcDbBlockBegin
  2
*D15
 70
     1
 10
0.0
 20
0.0
 30
0.0
  3
*D15
  1

  0
LINE
  5
6578
330
60C1
100
AcDbEntity
  8
AM_5
 62
     3
100
AcDbLine
 10
-138.5759727904408
 20
-17.56514898497744
 30
0.0
 11
-138.5759727904407
 21
-47.87904310132038
 31
0.0
  0
LINE
  5
6579
330
60C1
100
AcDbEntity
  8
AM_5
 62
     3
100
AcDbLine
 10
-3.575972790440949
 20
-13.8248251079876
 30
0.0
 11
-3.575972790440852
 21
-47.87904310131998
 31
0.0
  0
LINE
  5
657A
330
60C1
100
AcDbEntity
  8
AM_5
 62
     3
100
AcDbLine
 10
-136.0759727904407
 20
-46.87904310132037
 30
0.0
 11
-6.075972790440855
 21
-46.87904310131999
 31
0.0
  0
INSERT
  5
657B
330
60C1
100
AcDbEntity
  8
AM_5
 62
     3
100
AcDbBlockReference
  2
_OPEN30
 10
-138.5759727904407
 20
-46.87904310132038
 30
0.0
 41
2.5
 42
2.5
 43
2.5
 50
180.0000000000001
  0
INSERT
  5
657C
330
60C1
100
AcDbEntity
  8
AM_5
 62
     3
100
AcDbBlockReference
  2
_OPEN30
 10
-3.575972790440855
 20
-46.87904310131998
 30
0.0
 41
2.5
 42
2.5
 43
2.5
 50
0.0000000000001527
  0
MTEXT
  5
657D
330
60C1
100
AcDbEntity
  8
AM_5
 62
     2
100
AcDbMText
 10
-71.07597279044082
 20
-43.47904310132018
 30
0.0
 40
3.799999999999999
 41
0.0
 71
     5
 72
     1
  1
135
1001
ACAD
1000
MTEXTBEGIN
1070
    73
1070
     1
1070
    44
1040
1.0
1070
    74
1070
     0
1000
MTEXTEND
  0
POINT
  5
657E
330
60C1
100
AcDbEntity
  8
DEFPOINTS
 62
     0
100
AcDbPoint
 10
-138.5759727904408
 20
-16.76514898497703
 30
0.0
  0
POINT
  5
657F
330
60C1
100
AcDbEntity
  8
DEFPOINTS
 62
     0
100
AcDbPoint
 10
-3.575972790440989
 20
-13.02482510798759
 30
0.0
  0
POINT
  5
6580
330
60C1
100
AcDbEntity
  8
DEFPOINTS
 62
     0
100
AcDbPoint
 10
-3.575972790440991
 20
-46.87904310131997
 30
0.0
  0
ENDBLK
  5
60CC
330
60C1
100
AcDbEntity
  8
0
100
AcDbBlockEnd
  0
BLOCK
  5
6398
330
638E
100
AcDbEntity
  8
0
100
AcDbBlockBegin
  2
*D16
 70
     1
 10
0.0
 20
0.0
 30
0.0
  3
*D16
  1

  0
LINE
  5
651B
330
638E
100
AcDbEntity
  8
AM_5
 62
     3
100
AcDbLine
 10
-1.768928061286591
 20
13.34978029252733
 30
0.0
 11
17.93592119242747
 21
13.34978029252733
 31
0.0
  0
LINE
  5
651C
330
638E
100
AcDbEntity
  8
AM_5
 62
     3
100
AcDbLine
 10
-1.768944881145716
 20
-13.35021970747255
 30
0.0
 11
17.93592119242747
 21
-13.35021970747255
 31
0.0
  0
LINE
  5
651D
330
638E
100
AcDbEntity
  8
AM_5
 62
     3
100
AcDbLine
 10
16.93592119242747
 20
10.84978029252733
 30
0.0
 11
16.93592119242747
 21
-10.85021970747255
 31
0.0
  0
INSERT
  5
651E
330
638E
100
AcDbEntity
  8
AM_5
 62
     3
100
AcDbBlockReference
  2
_OPEN30
 10
16.93592119242747
 20
13.34978029252733
 30
0.0
 41
2.5
 42
2.5
 43
2.5
 50
90.0
  0
INSERT
  5
651F
330
638E
100
AcDbEntity
  8
AM_5
 62
     3
100
AcDbBlockReference
  2
_OPEN30
 10
16.93592119242747
 20
-13.35021970747255
 30
0.0
 41
2.5
 42
2.5
 43
2.5
 50
270.0
  0
MTEXT
  5
6520
330
638E
100
AcDbEntity
  8
AM_5
 62
     2
100
AcDbMText
 10
13.53592119242747
 20
-0.0002197074726104
 30
0.0
 40
3.799999999999999
 41
0.0
 71
     5
 72
     1
  1
%%c26.7
 11
0.0000000000000001
 21
1.0
 31
0.0
1001
ACAD
1000
MTEXTBEGIN
1070
    73
1070
     1
1070
    44
1040
1.0
1070
    74
1070
     0
1000
MTEXTEND
  0
POINT
  5
6521
330
638E
100
AcDbEntity
  8
DEFPOINTS
 62
     0
100
AcDbPoint
 10
-2.568928061286591
 20
13.34978029252733
 30
0.0
  0
POINT
  5
6522
330
638E
100
AcDbEntity
  8
DEFPOINTS
 62
     0
100
AcDbPoint
 10
-2.568944881145716
 20
-13.35021970747255
 30
0.0
  0
POINT
  5
6523
330
638E
100
AcDbEntity
  8
DEFPOINTS
 62
     0
100
AcDbPoint
 10
16.93592119242747
 20
-13.35021970747255
 30
0.0
  0
ENDBLK
  5
6399
330
638E
100
AcDbEntity
  8
0
100
AcDbBlockEnd
  0
ENDSEC
  0
SECTION
  2
ENTITIES
  0
TEXT
  5
19BD
330
1F
100
AcDbEntity
  8
AM_6
100
AcDbText
 10
-122.385453684627
 20
-82.71939011712374
 30
0.0
 40
5.0
  1
KDS267BAK
 50
0.0000000000001527
 72
     4
 11
-101.0759298751032
 21
-80.21939011712367
 31
0.0
100
AcDbText
  0
LINE
  5
35CA
330
1F
100
AcDbEntity
  8
PV0001_1
  6
CONTINUOUS
 48
0.5
100
AcDbLine
 10
-589.2017441852486
 20
-57.69694534177202
 30
0.0
 11
-567.9171279738763
 21
-62.69376548307545
 31
0.0
  0
LINE
  5
5CCE
330
1F
100
AcDbEntity
  8
AM_7
  6
AM_ISO08W050
100
AcDbLine
 10
5.575492385997222
 20
0.0028975964583985
 30
0.0
 11
-205.7231366347425
 21
0.0028975964578087
 31
0.0
  0
DIMENSION
  5
5D62
330
1F
100
AcDbEntity
  8
AM_5
100
AcDbDimension
  2
*D11
 10
-142.575972790441
 20
-33.47651962916128
 30
0.0
 11
-167.5759784731422
 21
-30.07651962916129
 31
0.0
 70
    32
  1
<>
 51
359.9999999999998
  3
AM_JIS$0
100
AcDbAlignedDimension
 13
-192.5759841558435
 23
0.002897596457884
 33
0.0
 14
-142.575972790441
 24
0.0028975964579977
 34
0.0
100
AcDbRotatedDimension
1001
ACAD
1000
DSTYLE
1002
{
1070
   271
1070
     3
1002
}
1001
GENIUS_GENDTOL_13
1000

1000
h7
1000

1040
0.0
  0
LINE
  5
5D63
330
1F
100
AcDbEntity
  8
PV0001_1
  6
CONTINUOUS
 48
0.5
100
AcDbLine
 10
-198.5759727904409
 20
0.0348620013519252
 30
0.0
 11
-198.575972790441
 21
15.18638055603941
 31
0.0
  0
LINE
  5
5D64
330
1F
100
AcDbEntity
  8
PV0001_1
  6
CONTINUOUS
 48
0.5
100
AcDbLine
 10
-197.7274620482729
 20
0.0348620013519252
 30
0.0
 11
-197.727462048273
 21
16.03490960877438
 31
0.0
  0
LINE
  5
5D65
330
1F
100
AcDbEntity
  8
PV0001_1
  6
CONTINUOUS
 48
0.5
100
AcDbLine
 10
-197.7274620482729
 20
0.0348620013519252
 30
0.0
 11
-197.7274620482729
 21
-15.96518560607053
 31
0.0
  0
LINE
  5
5D66
330
1F
100
AcDbEntity
  8
PV0001_1
  6
CONTINUOUS
 48
0.5
100
AcDbLine
 10
-198.5759727904409
 20
0.0348620013519252
 30
0.0
 11
-198.5759727904408
 21
-15.116656553335
 31
0.0
  0
LINE
  5
5D67
330
1F
100
AcDbEntity
  8
PV0001_1
  6
CONTINUOUS
 48
0.5
100
AcDbLine
 10
-198.5758629271768
 20
-15.11658331114807
 30
0.0
 11
-197.7273155638888
 21
-15.96511236388303
 31
0.0
  0
LINE
  5
5D68
330
1F
100
AcDbEntity
  8
PV0001_1
  6
CONTINUOUS
 48
0.5
100
AcDbLine
 10
-198.5758629271769
 20
15.18622491639215
 30
0.0
 11
-197.7273155638889
 21
16.03475396912477
 31
0.0
  0
ARC
  5
5D69
330
1F
100
AcDbEntity
  8
AM_0
100
AcDbCircle
 10
-147.4172019732002
 20
0.0028975964579843
 30
0.0
 40
4.841229182759249
100
AcDbArc
 50
270.0000000000001
 51
90.00000000000017
  0
ARC
  5
5D6A
330
1F
100
AcDbEntity
  8
AM_0
100
AcDbCircle
 10
-187.7347549730842
 20
0.0028975964578848
 30
0.0
 40
4.841229182759249
100
AcDbArc
 50
90.00000000000168
 51
270.0000000000017
  0
LINE
  5
5D6B
330
1F
100
AcDbEntity
  8
AM_0
100
AcDbLine
 10
-187.7347549730841
 20
-4.838331586301421
 30
0.0
 11
-147.4172019732002
 21
-4.838331586301308
 31
0.0
  0
LINE
  5
5D6C
330
1F
100
AcDbEntity
  8
AM_0
100
AcDbLine
 10
-147.4172019732002
 20
4.844126779217234
 30
0.0
 11
-187.7347549730842
 21
4.84412677921712
 31
0.0
  0
LINE
  5
5D6D
330
1F
100
AcDbEntity
  8
PV0001_1
  6
CONTINUOUS
100
AcDbLine
 10
-138.575972790441
 20
16.03486383240557
 30
0.0
 11
-197.6983444297736
 21
16.03486383240545
 31
0.0
  0
LINE
  5
5D6E
330
1F
100
AcDbEntity
  8
PV0001_1
  6
CONTINUOUS
100
AcDbLine
 10
-138.5759727904409
 20
-15.96514898497663
 30
0.0
 11
-138.575972790441
 21
16.03486383240557
 31
0.0
  0
LINE
  5
5D6F
330
1F
100
AcDbEntity
  8
PV0001_1
  6
CONTINUOUS
100
AcDbLine
 10
-197.6983444297734
 20
-15.96514898497678
 30
0.0
 11
-138.5759727904409
 21
-15.96514898497663
 31
0.0
  0
DIMENSION
  5
5D70
330
1F
100
AcDbEntity
  8
AM_5
100
AcDbDimension
  2
*D12
 10
-198.5758869597658
 20
-60.2193901171234
 30
0.0
 11
-101.0759298751034
 21
-56.8193901171234
 31
0.0
 70
    32
  1
<>
 51
359.9999999999998
  3
AM_JIS$0
100
AcDbAlignedDimension
 13
-3.575972790440989
 23
-13.02482510798759
 33
0.0
 14
-198.5758869597658
 24
-12.60919686260986
 34
0.0
100
AcDbRotatedDimension
1001
ACAD
1000
DSTYLE
1002
{
1070
   271
1070
     3
1002
}
1001
GENIUS_GENDTOL_13
1000

1000
h7
1000

1040
0.0
  0
DIMENSION
  5
5D71
330
1F
100
AcDbEntity
  8
AM_5
100
AcDbDimension
  2
*D10
 10
-192.5759841558435
 20
-33.4765196291615
 30
0.0
 11
-195.5759355578046
 21
-33.4765196291615
 31
0.0
 70
   160
  1
<>
 51
359.9999999999998
  3
AM_JIS$0
100
AcDbAlignedDimension
 13
-198.5758869597658
 23
-11.80919686260928
 33
0.0
 14
-192.5759841558435
 24
0.002897596457884
 34
0.0
100
AcDbRotatedDimension
1001
ACAD
1000
DSTYLE
1002
{
1070
   271
1070
     3
1002
}
1001
GENIUS_GENDTOL_13
1000

1000
h7
1000

1040
0.0
  0
DIMENSION
  5
5D72
330
1F
100
AcDbEntity
  8
AM_5
100
AcDbDimension
  2
*D9
 10
-198.5759727904408
 20
-46.51286586274665
 30
0.0
 11
-168.5759727904409
 21
-43.11286586274666
 31
0.0
 70
    32
  1
<>
 51
359.9999999999998
  3
AM_JIS$0
100
AcDbAlignedDimension
 13
-138.5759727904409
 23
-15.96514898497663
 33
0.0
 14
-198.5759727904408
 24
-15.116656553335
 34
0.0
100
AcDbRotatedDimension
1001
ACAD
1000
DSTYLE
1002
{
1070
   271
1070
     3
1002
}
1001
GENIUS_GENDTOL_13
1000

1000
h7
1000

1040
0.0
  0
DIMENSION
  5
5D73
330
1F
100
AcDbEntity
  8
AM_5
100
AcDbDimension
  2
*D8
 10
-220.2679293906999
 20
-15.96496588265996
 30
0.0
 11
-223.6679293906998
 21
0.0349718630571797
 31
0.0
 70
    32
  1
%%C<>
 51
359.9999999999998
  3
AM_JIS$0
100
AcDbAlignedDimension
 13
-197.6983444297735
 23
16.03490960877438
 33
0.0
 14
-197.6983444297734
 24
-15.96496588265996
 34
0.0
 50
270.0000000000002
100
AcDbRotatedDimension
1001
ACAD
1000
DSTYLE
1002
{
1070
   271
1070
     3
1002
}
1001
GENIUS_GENDTOL_13
1000

1000
h7
1000

1040
0.0
  0
DIMENSION
  5
5EEB
330
1F
100
AcDbEntity
  8
AM_5
100
AcDbDimension
  2
*D13
 10
-3.215401281309596
 20
-12.00000784238305
 30
0.0
 11
29.83324691715111
 21
-0.0000069435520877
 31
0.0
 70
    34
  1
<>
 51
359.9999999999998
  3
AM_JIS$2
100
AcDb2LineAngularDimension
 13
0.0000044902083971
 23
-0.0000078423830558
 33
0.0
 14
-3.215385784616955
 24
11.99999215761687
 34
0.0
 15
0.0
 25
-0.0000000000002274
 35
0.0
 16
29.84766465740409
 26
13.91818176770725
 36
0.0
1001
ACAD
1000
DSTYLE
1002
{
1070
   179
1070
     3
1002
}
1001
GENIUS_GENDTOL_13
1000

1000
h7
1000

1040
0.0
  0
DIMENSION
  5
6016
330
1F
100
AcDbEntity
  8
AM_5
100
AcDbDimension
  2
*D14
 10
-3.575955970582011
 20
33.61879886984766
 30
0.0
 11
-57.57596438051145
 21
37.01879886984765
 31
0.0
 70
    32
  1
<>
 51
359.9999999999998
  3
AM_JIS$0
100
AcDbAlignedDimension
 13
-111.5759727904408
 23
9.464393961282276
 33
0.0
 14
-3.575955970582012
 24
13.02438583144883
 34
0.0
 50
180.0000000000001
100
AcDbRotatedDimension
1001
ACAD
1000
DSTYLE
1002
{
1070
   271
1070
     3
1002
}
1001
GENIUS_GENDTOL_13
1000

1000
h7
1000

1040
0.0
  0
DIMENSION
  5
60C0
330
1F
100
AcDbEntity
  8
AM_5
100
AcDbDimension
  2
*D15
 10
-3.575972790440991
 20
-46.87904310131997
 30
0.0
 11
-71.07597279044094
 21
-43.47904310131998
 31
0.0
 70
    32
  1
<>
 51
359.9999999999998
  3
AM_JIS$0
100
AcDbAlignedDimension
 13
-138.5759727904408
 23
-16.76514898497703
 33
0.0
 14
-3.575972790440989
 24
-13.02482510798759
 34
0.0
 50
0.0000000000002659
100
AcDbRotatedDimension
1001
ACAD
1000
DSTYLE
1002
{
1070
   271
1070
     3
1002
}
1001
GENIUS_GENDTOL_13
1000

1000
h7
1000

1040
0.0
  0
LINE
  5
6350
330
1F
100
AcDbEntity
  8
AM_0
  6
CONTINUOUS
 48
0.5
100
AcDbLine
 10
0.000056580385466
 20
-0.0002111608757536
 30
0.0
 11
-3.577062810304055
 21
13.34978029252739
 31
0.0
  0
LINE
  5
6351
330
1F
100
AcDbEntity
  8
AM_0
  6
CONTINUOUS
 48
0.5
100
AcDbLine
 10
0.0000517067860665
 20
-0.0002026488805589
 30
0.0
 11
-3.577084451749802
 21
-13.35021970747253
 31
0.0
  0
LINE
  5
637B
330
1F
100
AcDbEntity
  8
AM_0
  6
CONTINUOUS
 48
0.5
100
AcDbLine
 10
-18.07600695924362
 20
13.34978029252757
 30
0.0
 11
-3.577062810304055
 21
13.34978029252739
 31
0.0
  0
LINE
  5
637C
330
1F
100
AcDbEntity
  8
AM_0
  6
CONTINUOUS
 48
0.5
100
AcDbLine
 10
-3.100113707725928
 20
11.56978199006678
 30
0.0
 11
-18.09872399800736
 21
11.56978199006684
 31
0.0
  0
ELLIPSE
  5
6380
330
1F
100
AcDbEntity
  8
AM_0
100
AcDbEllipse
 10
-5.928052646615014
 20
4.784526641570049
 30
0.0
 11
-5.178087041821712
 21
0.3202058011919763
 31
0.0
210
0.0
220
0.0
230
1.0
 40
0.8093286460936134
 41
0.9712915463900442
 42
2.914296487516901
  0
LINE
  5
6381
330
1F
100
AcDbEntity
  8
AM_0
  6
CONTINUOUS
 48
0.5
100
AcDbLine
 10
-13.29160209484266
 20
3.508051075552024
 30
0.0
 11
-9.063663351642624
 21
1.505230950554791
 31
0.0
  0
LINE
  5
6382
330
1F
100
AcDbEntity
  8
AM_0
100
AcDbLine
 10
-2.433120747039916
 20
-3.303883936799148
 30
0.0
 11
-6.710958875606178
 21
-5.339974953321895
 31
0.0
  0
LINE
  5
6383
330
1F
100
AcDbEntity
  8
AM_0
100
AcDbLine
 10
-3.53956189188527
 20
0.9995981787087647
 30
0.0
 11
-2.433120747039916
 21
-3.303883936799148
 31
0.0
  0
LINE
  5
6384
330
1F
100
AcDbEntity
  8
AM_0
  6
CONTINUOUS
 48
0.5
100
AcDbLine
 10
-19.30556239618501
 20
-13.35021970747247
 30
0.0
 11
-3.577084451749802
 21
-13.35021970747253
 31
0.0
  0
LINE
  5
6385
330
1F
100
AcDbEntity
  8
AM_0
  6
CONTINUOUS
 48
0.5
100
AcDbLine
 10
-19.77596849149097
 20
-11.52976516201791
 30
0.0
 11
-4.583521464048007
 21
-11.52976516201805
 31
0.0
  0
LINE
  5
6387
330
1F
100
AcDbEntity
  8
AM_0
  6
CONTINUOUS
 48
0.5
100
AcDbLine
 10
-9.063663351642617
 20
1.505230950554733
 30
0.0
 11
-4.583521464048007
 21
-11.52976516201805
 31
0.0
  0
LINE
  5
6388
330
1F
100
AcDbEntity
  8
AM_0
  6
CONTINUOUS
 48
0.5
100
AcDbLine
 10
-2.433120747039916
 20
-3.303883936799226
 30
0.0
 11
-4.583521464048007
 21
-11.52976516201805
 31
0.0
  0
DIMENSION
  5
638D
330
1F
100
AcDbEntity
  8
AM_5
100
AcDbDimension
  2
*D16
 10
16.93592119242747
 20
-13.35021970747255
 30
0.0
 11
13.53592119242747
 21
-0.0002197074726104
 31
0.0
 70
    32
  1
%%c<>
  3
AM_JIS$0
100
AcDbAlignedDimension
 13
-2.568928061286591
 23
13.34978029252733
 33
0.0
 14
-2.568944881145716
 24
-13.35021970747255
 34
0.0
 50
89.99999999999969
100
AcDbRotatedDimension
1001
GENIUS_GENDTOL_13
1000

1000
h7
1000

1040
0.0
  0
LINE
  5
65CC
330
1F
100
AcDbEntity
  8
AM_0
  6
CONTINUOUS
 48
0.5
100
AcDbLine
 10
-135.2577171253203
 20
15.70487147434929
 30
0.0
 11
-138.575972790441
 21
16.03486383240557
 31
0.0
  0
LINE
  5
65CD
330
1F
100
AcDbEntity
  8
AM_0
  6
CONTINUOUS
 48
0.5
100
AcDbLine
 10
-128.9236090452819
 20
-15.10953983412748
 30
0.0
 11
-138.5759727904409
 21
-15.96514898497627
 31
0.0
  0
ELLIPSE
  5
65CE
330
1F
100
AcDbEntity
  8
AM_0
100
AcDbEllipse
 10
-131.5087633884593
 20
6.67728076940337
 30
0.0
 11
-22.72169236254496
 21
0.0000000000004403
 31
0.0
210
0.0
220
0.0
230
1.0
 40
0.9651224921546962
 41
1.516386581598756
 42
1.954430761078698
  0
ELLIPSE
  5
65CF
330
1F
100
AcDbEntity
  8
AM_0
  6
CONTINUOUS
 48
0.5
100
AcDbEllipse
 10
-132.9918663317474
 20
-10.68649952998609
 30
0.0
 11
-3.914634495783055
 21
3.286765974228554
 31
0.0
210
0.0
220
0.0
230
1.0
 40
0.8148254607786011
 41
0.969807220159414
 42
2.230433234529685
  0
ELLIPSE
  5
65D0
330
1F
100
AcDbEntity
  8
AM_0
  6
CONTINUOUS
 48
0.5
100
AcDbEllipse
 10
-131.5097003648889
 20
-10.20068992737261
 30
0.0
 11
-5.911250148925377
 21
1.687326801259845
 31
0.0
210
0.0
220
0.0
230
1.0
 40
0.9254450807093682
 41
-1.554815677092851
 42
0.5207518540929224
  0
SPLINE
  5
65D1
330
1F
100
AcDbEntity
  8
AM_0
  6
CONTINUOUS
 48
0.5
100
AcDbSpline
210
0.0
220
0.0
230
1.0
 70
     8
 71
     3
 72
    23
 73
    19
 74
     0
 42
0.0000000001
 43
0.0000000001
 40
0.0
 40
0.0
 40
0.0
 40
0.0
 40
1.010743684496582
 40
2.022833576468826
 40
3.037578957496683
 40
4.056212745003485
 40
5.079857003665509
 40
6.109500240690275
 40
7.145961322679365
 40
8.189880470204213
 40
9.241703023925269
 40
10.30166930151765
 40
11.3698269246763
 40
12.44598301520777
 40
13.52983529054051
 40
14.62080810761866
 40
15.71821804889404
 40
16.41798914862032
 40
16.41798914862032
 40
16.41798914862032
 40
16.41798914862032
 10
-95.36995325562161
 20
-13.35021970747126
 30
0.0
 10
-96.10933469675128
 20
-13.34247038309477
 30
0.0
 10
-97.58908235966153
 20
-13.32696141303235
 30
0.0
 10
-99.80816534404134
 20
-13.20194169279946
 30
0.0
 10
-102.0271536105771
 20
-13.00319302387357
 30
0.0
 10
-104.2460045192354
 20
-12.72463910540041
 30
0.0
 10
-106.464696044997
 20
-12.37005531498329
 30
0.0
 10
-108.6831839829199
 20
-11.9410167795821
 30
0.0
 10
-110.9014668571428
 20
-11.4404222500093
 30
0.0
 10
-113.1195295390255
 20
-10.87131208531767
 30
0.0
 10
-115.337366784853
 20
-10.23721751899234
 30
0.0
 10
-117.5549968475085
 20
-9.542085208355786
 30
0.0
 10
-119.7724105378576
 20
-8.790207371360985
 30
0.0
 10
-121.9896329798215
 20
-7.986196213106095
 30
0.0
 10
-124.2066938191928
 20
-7.135089574870077
 30
0.0
 10
-126.4235978462065
 20
-6.242050488852964
 30
0.0
 10
-128.3687812176213
 20
-5.4264927960652
 30
0.0
 10
-129.5741657997715
 20
-4.907492392669119
 30
0.0
 10
-130.0428330625196
 20
-4.703887646593504
 30
0.0
  0
ELLIPSE
  5
65D2
330
1F
100
AcDbEntity
  8
AM_0
100
AcDbEllipse
 10
-135.995618993213
 20
17.88591561025144
 30
0.0
 11
35.17108189764759
 21
0.0000000000042896
 31
0.0
210
0.0
220
0.0
230
1.0
 40
0.9651224921546857
 41
-1.192456539363512
 42
-0.9623237583148734
  0
ELLIPSE
  5
65D3
330
1F
100
AcDbEntity
  8
AM_0
100
AcDbEllipse
 10
-164.5874730946352
 20
-95.89342575316255
 30
0.0
 11
73.28656666620847
 21
91.66731352956464
 31
0.0
210
0.0
220
0.0
230
0.9999999999999998
 40
0.9091141885840414
 41
0.0665303057682054
 42
0.4538570965741715
  0
LINE
  5
65D4
330
1F
100
AcDbEntity
  8
AM_0
  6
CONTINUOUS
100
AcDbLine
 10
-111.5759727904411
 20
-11.25235402562122
 30
0.0
 11
-111.5759727904408
 21
9.464393961282276
 31
0.0
  0
SPLINE
  5
6649
330
1F
100
AcDbEntity
  8
AM_0
  6
CONTINUOUS
100
AcDbSpline
210
0.0
220
0.0
230
1.0
 70
     8
 71
     3
 72
    25
 73
    21
 74
     0
 42
0.0000000001
 43
0.0000000001
 40
24.56499986022253
 40
24.56499986022253
 40
24.56499986022253
 40
24.56499986022253
 40
24.6081876908653
 40
25.71582455492886
 40
26.81883757994213
 40
27.91624752121713
 40
29.00722033829659
 40
30.09105838626677
 40
31.16722880550176
 40
32.23537921050758
 40
33.29534548809967
 40
34.347168041821
 40
35.39108718934584
 40
36.42754827133493
 40
37.45720575381954
 40
38.48085062012849
 40
39.49948440763516
 40
40.51422944315121
 40
41.52631975251916
 40
42.53706336680078
 40
42.53706336680078
 40
42.53706336680078
 40
42.53706336680078
 10
-13.29160209484266
 20
3.508051075552024
 30
0.0
 10
-13.3190872459437
 20
3.520976836847423
 30
0.0
 10
-14.05152703955174
 20
3.865302856162211
 30
0.0
 10
-15.48829655261046
 20
4.534027565400488
 30
0.0
 10
-17.60570253830136
 20
5.494237272620829
 30
0.0
 10
-19.72285366115825
 20
6.423020712785445
 30
0.0
 10
-21.83970440070551
 20
7.314500941294581
 30
0.0
 10
-23.95621703148568
 20
8.163037602852826
 30
0.0
 10
-26.07235075241569
 20
8.963249560436509
 30
0.0
 10
-28.18805796060024
 20
9.710072942801664
 30
0.0
 10
-30.30331046929463
 20
10.39871118367836
 30
0.0
 10
-32.41805600470155
 20
11.02479671634187
 30
0.0
 10
-34.53226406593023
 20
11.58426983997607
 30
0.0
 10
-36.64589593828152
 20
12.07353853393518
 30
0.0
 10
-38.75890029859225
 20
12.48939792754703
 30
0.0
 10
-40.87122933045697
 20
12.82910929555901
 30
0.0
 10
-42.98281799768388
 20
13.09044340747714
 30
0.0
 10
-45.09363162182361
 20
13.2715577412
 30
0.0
 10
-47.20361173089217
 20
13.37122337336428
 30
0.0
 10
-48.60998867064012
 20
13.38284516569899
 30
0.0
 10
-49.31255368851545
 20
13.37490695492476
 30
0.0
  0
SPLINE
  5
664A
330
1F
100
AcDbEntity
  8
AM_0
  6
CONTINUOUS
100
AcDbSpline
210
0.0
220
0.0
230
1.0
 70
     8
 71
     3
 72
    54
 73
    50
 74
     0
 42
0.0000000001
 43
0.0000000001
 40
0.0
 40
0.0
 40
0.0
 40
0.0
 40
1.010743684496582
 40
2.022833576467832
 40
3.037578957496688
 40
4.056212745003489
 40
5.079857003664532
 40
6.109500240690281
 40
7.145961322679372
 40
8.189895241603872
 40
9.241717795325891
 40
10.30168407291828
 40
11.36983447792315
 40
12.44600489715814
 40
13.52984294512926
 40
14.62081576220742
 40
15.7182257034828
 40
16.82123173843959
 40
17.92886860250316
 40
19.0400688939571
 40
20.15368796660465
 40
21.26852814259644
 40
22.38336992938901
 40
23.49698739941135
 40
24.6081876908653
 40
25.71582455492886
 40
26.81883757994213
 40
27.91624752121713
 40
29.00722033829659
 40
30.09105838626677
 40
31.16722880550176
 40
32.23537921050758
 40
33.29534548809967
 40
34.347168041821
 40
35.39108718934584
 40
36.42754827133493
 40
37.45720575381954
 40
38.48085062012849
 40
39.49948440763516
 40
40.51422944315121
 40
41.52631975251916
 40
42.53706336719636
 40
43.54780698187354
 40
44.55989729124051
 40
45.57464232675757
 40
46.59327611426424
 40
47.6169209805722
 40
48.64656348684535
 40
49.31777037190953
 40
49.31777037190953
 40
49.31777037190953
 40
49.31777037190953
 10
-19.30556239622051
 20
-13.35021970747243
 30
0.0
 10
-20.00817213114061
 20
-13.34227678089598
 30
0.0
 10
-21.41432740546969
 20
-13.32638034857515
 30
0.0
 10
-23.52304859025633
 20
-13.19823725808407
 30
0.0
 10
-25.63167976168647
 20
-12.99452321891309
 30
0.0
 10
-27.74018042954897
 20
-12.70901024518747
 30
0.0
 10
-29.84852955432639
 20
-12.34556758510177
 30
0.0
 10
-31.95668554300439
 20
-11.90581141024813
 30
0.0
 10
-34.06465544727136
 20
-11.39270407496252
 30
0.0
 10
-36.17242057369427
 20
-10.80938760306336
 30
0.0
 10
-38.27996656455117
 20
-10.15944352230139
 30
0.0
 10
-40.38730392479381
 20
-9.446951464486252
 30
0.0
 10
-42.49443829829184
 20
-8.676271929856705
 30
0.0
 10
-44.60139601200154
 20
-7.852202594282704
 30
0.0
 10
-46.70818671236005
 20
-6.979807540392344
 30
0.0
 10
-48.81482993508526
 20
-6.064466914765025
 30
0.0
 10
-50.92134904313562
 20
-5.111827638083362
 30
0.0
 10
-53.02776252444769
 20
-4.127747991171466
 30
0.0
 10
-55.134090822004
 20
-3.118280446675457
 30
0.0
 10
-57.24035647441278
 20
-2.089638157399963
 30
0.0
 10
-59.34657795562838
 20
-1.048144793405317
 30
0.0
 10
-61.45278500876085
 20
-0.0002224313567376
 30
0.0
 10
-63.55898260678594
 20
1.047718793947431
 30
0.0
 10
-65.66521114759689
 20
2.089195939135747
 30
0.0
 10
-67.7714741997924
 20
3.117841342052619
 30
0.0
 10
-69.87780625290887
 20
4.127312732170031
 30
0.0
 10
-71.98422847263431
 20
5.11138398077291
 30
0.0
 10
-74.09075090532851
 20
6.064028088661348
 30
0.0
 10
-76.19739443218292
 20
6.97936797204168
 30
0.0
 10
-78.30418505588204
 20
7.851763209393427
 30
0.0
 10
-80.41114277498675
 20
8.675832546173852
 30
0.0
 10
-82.51827720215521
 20
9.44651189652192
 30
0.0
 10
-84.6256143448976
 20
10.15900468185666
 30
0.0
 10
-86.73315127829608
 20
10.80894302362087
 30
0.0
 10
-88.84090337062621
 20
11.39226713551027
 30
0.0
 10
-90.94887249294572
 20
11.90538478873948
 30
0.0
 10
-93.05704353456405
 20
12.34509073733356
 30
0.0
 10
-95.16539962473125
 20
12.70864589060477
 30
0.0
 10
-97.27390091764773
 20
12.99382042555262
 30
0.0
 10
-99.38253355421888
 20
13.19877154587398
 30
0.0
 10
-101.4912529510612
 20
13.32226974603258
 30
0.0
 10
-103.6000186857335
 20
13.36352640826768
 30
0.0
 10
-105.708784417303
 20
13.32226974596809
 30
0.0
 10
-107.8175038234717
 20
13.19877154613349
 30
0.0
 10
-109.9261364257061
 20
12.99382042457486
 30
0.0
 10
-112.0346378473598
 20
12.70864589428017
 30
0.0
 10
-114.1429831749166
 20
12.34509249590421
 30
0.0
 10
-116.0019297375522
 20
11.95736874034102
 30
0.0
 10
-117.1561082429265
 20
11.68354984745284
 30
0.0
 10
-118.3251694906752
 20
11.047926778948
 30
0.0
  0
LINE
  5
664B
330
1F
100
AcDbEntity
  8
AM_11
  6
AM_ISO09W050
 48
0.5
100
AcDbLine
 10
-57.2100417977207
 20
13.34978029252751
 30
0.0
 11
-18.87259969869802
 21
13.34978029252719
 31
0.0
  0
SPLINE
  5
664C
330
1F
100
AcDbEntity
  8
AM_0
  6
CONTINUOUS
 48
0.5
100
AcDbSpline
210
0.0
220
0.0
230
1.0
 70
     8
 71
     3
 72
    15
 73
    11
 74
     0
 42
0.0000000001
 43
0.0000000001
 40
0.0
 40
0.0
 40
0.0
 40
0.0
 40
1.010743614677189
 40
2.022833924044153
 40
3.037578959561199
 40
4.056212747067873
 40
5.079857613375832
 40
6.109500119648989
 40
7.14596120163808
 40
7.489191183198549
 40
7.489191183198549
 40
7.489191183198549
 40
7.489191183198549
 10
-18.07600695924362
 20
13.34348077028256
 30
0.0
 10
-18.73293524666564
 20
13.34340054813975
 30
0.0
 10
-20.04779369422291
 20
13.3160075163086
 30
0.0
 10
-22.01949858086176
 20
13.19246195294597
 30
0.0
 10
-23.991149724524
 20
12.98752378357829
 30
0.0
 10
-25.96267050325707
 20
12.70234496106584
 30
0.0
 10
-27.93404864069896
 20
12.33879573813322
 30
0.0
 10
-29.90525050604064
 20
11.89908003839588
 30
0.0
 10
-31.43219668518365
 20
11.50157383757684
 30
0.0
 10
-32.30242912895042
 20
11.25449916321135
 30
0.0
 10
-32.6913815088422
 20
11.08978896133269
 30
0.0
  0
SPLINE
  5
664D
330
1F
100
AcDbEntity
  8
AM_0
  6
CONTINUOUS
100
AcDbSpline
210
0.0
220
0.0
230
1.0
 70
     8
 71
     3
 72
    11
 73
     7
 74
     0
 42
0.0000000001
 43
0.0000000001
 40
11.27226913003534
 40
11.27226913003534
 40
11.27226913003534
 40
11.2722691300354
 40
12.28301561507924
 40
13.29510212255852
 40
14.30984805882082
 40
15.18258238371378
 40
15.18258238371378
 40
15.18258238371378
 40
15.18258238371378
 10
-59.02843945137234
 20
-13.35021970747177
 30
0.0
 10
-59.72837750894353
 20
-13.2848809279872
 30
0.0
 10
-61.12693340781153
 20
-13.12669858651439
 30
0.0
 10
-63.21754537418009
 20
-12.80760567745516
 30
0.0
 10
-65.20157299349313
 20
-12.42648418475635
 30
0.0
 10
-66.48472559758004
 20
-12.13350475041538
 30
0.0
 10
-67.07603885528017
 20
-11.98878100223466
 30
0.0
  0
SPLINE
  5
664E
330
1F
100
AcDbEntity
  8
AM_0
  6
CONTINUOUS
100
AcDbSpline
210
0.0
220
0.0
230
1.0
 70
     8
 71
     3
 72
    17
 73
    13
 74
     0
 42
0.0000000001
 43
0.0000000001
 40
1.580019955310467
 40
1.580019955310467
 40
1.580019955310467
 40
1.580019955310467
 40
2.030549285115227
 40
3.082371838836284
 40
4.126290986361125
 40
5.162752068350215
 40
6.192395305374981
 40
7.216039564037012
 40
8.234688489606833
 40
9.249433870634691
 40
10.26152376260694
 40
11.27226744710342
 40
11.27226744710342
 40
11.27226744710342
 40
11.27226744710352
 10
-39.16545134626385
 20
-9.852912819453347
 30
0.0
 10
-39.46380019615507
 20
-9.954387373501472
 30
0.0
 10
-40.46038558872628
 20
-10.28698377825713
 30
0.0
 10
-42.16180399668009
 20
-10.80867313962287
 30
0.0
 10
-44.26926239338714
 20
-11.39289601752486
 30
0.0
 10
-46.37730097141747
 20
-11.90576613608946
 30
0.0
 10
-48.48543613903972
 20
-12.34556116219016
 30
0.0
 10
-50.59380098421023
 20
-12.7090820055686
 30
0.0
 10
-52.70231149025782
 20
-12.9942542130613
 30
0.0
 10
-54.81095328904806
 20
-13.19922977334424
 30
0.0
 10
-56.91967442910758
 20
-13.3226892349317
 30
0.0
 10
-58.32582972572158
 20
-13.35021978386163
 30
0.0
 10
-59.02843945137218
 20
-13.35021970747177
 30
0.0
  0
LINE
  5
664F
330
1F
100
AcDbEntity
  8
AM_11
  6
AM_ISO09W050
 48
0.5
100
AcDbLine
 10
-53.94111375723277
 20
-13.35021970747263
 30
0.0
 11
-18.09426372945081
 21
-13.35021970747284
 31
0.0
  0
LINE
  5
6650
330
1F
100
AcDbEntity
  8
AM_0
100
AcDbLine
 10
-18.1781930068766
 20
5.743235610923211
 30
0.0
 11
-18.07592226154419
 21
13.34978029252742
 31
0.0
  0
LINE
  5
6651
330
1F
100
AcDbEntity
  8
AM_0
100
AcDbLine
 10
-19.77596849149098
 20
-13.32138752508932
 30
0.0
 11
-19.77596849149083
 21
6.43964670520833
 31
0.0
  0
LINE
  5
6652
330
1F
100
AcDbEntity
  8
AM_0
  6
CONTINUOUS
 48
0.5
100
AcDbLine
 10
-97.51872108341585
 20
-13.35021970747138
 30
0.0
 11
-59.02843945137242
 21
-13.35021970747204
 31
0.0
  0
LINE
  5
6653
330
1F
100
AcDbEntity
  8
AM_0
  6
CONTINUOUS
 48
0.5
100
AcDbLine
 10
-103.6000027755733
 20
13.34978029252872
 30
0.0
 11
-47.66617935213605
 21
13.34978029252776
 31
0.0
  0
SPLINE
  5
6654
330
1F
100
AcDbEntity
  8
AM_0
  6
CONTINUOUS
100
AcDbSpline
210
0.0
220
0.0
230
1.0
 70
     8
 71
     3
 72
    22
 73
    18
 74
     0
 42
0.0000000001
 43
0.0000000001
 40
17.17441611292
 40
17.17441611292
 40
17.17441611292
 40
17.17441611292
 40
17.38177636558528
 40
18.41823744757437
 40
19.46215659509824
 40
20.51397914882054
 40
21.57394542641293
 40
22.64209583141747
 40
23.71826625065247
 40
24.80210429862395
 40
25.8930771157021
 40
26.99048705697709
 40
28.09349309193389
 40
29.20112995599786
 40
30.31233024745139
 40
31.42594771747373
 40
32.5407895042663
 40
32.54078950426994
 40
32.54078950426994
 40
32.54078950426994
 10
-67.07696107173685
 20
-11.98861633008644
 30
0.0
 10
-67.21816404545612
 20
-11.95771238947841
 30
0.0
 10
-68.06459875746785
 20
-11.76947310934893
 30
0.0
 10
-69.61521945346716
 20
-11.39202885280099
 30
0.0
 10
-71.72297124440082
 20
-10.80870306501668
 30
0.0
 10
-73.8305082598515
 20
-10.15876517830554
 30
0.0
 10
-75.93784537891231
 20
-9.446272266109929
 30
0.0
 10
-78.04497981793733
 20
-8.675592963417139
 30
0.0
 10
-80.15193751330825
 20
-7.851523563654107
 30
0.0
 10
-82.2587282208315
 20
-6.979128532206106
 30
0.0
 10
-84.36537143333083
 20
-6.063787881430461
 30
0.0
 10
-86.47189057534317
 20
-5.111148683356731
 30
0.0
 10
-88.57830393018369
 20
-4.127068745221552
 30
0.0
 10
-90.68463270230852
 20
-3.117602293094877
 30
0.0
 10
-92.79089556248861
 20
-2.088956403006652
 30
0.0
 10
-94.89712371317679
 20
-1.047478376089153
 30
0.0
 10
-96.30100019539368
 20
-0.3489811553995519
 30
0.0
 10
-97.00332409147909
 20
0.0004593086441847
 30
0.0
  0
VIEWPORT
  5
110
330
101
100
AcDbEntity
 67
     1
  8
0
100
AcDbViewport
 10
420.5
 20
297.0
 30
0.0
 40
948.9782706766916
 41
628.452
 68
     1
 69
     1
1001
ACAD
1000
MVIEW
1002
{
1070
    16
1010
0.0
1020
0.0
1030
0.0
1010
0.0
1020
0.0
1030
1.0
1040
0.0
1040
628.452
1040
420.5
1040
297.0
1040
50.0
1040
0.0
1040
0.0
1070
     0
1070
   100
1070
     1
1070
     1
1070
     0
1070
     0
1070
     0
1070
     0
1040
0.0
1040
0.0
1040
0.0
1040
10.0
1040
10.0
1040
10.0
1040
10.0
1070
     0
1002
{
1002
}
1002
}
  0
ENDSEC
  0
SECTION
  2
OBJECTS
  0
DICTIONARY
  5
C
330
0
100
AcDbDictionary
  3
ACAD_GROUP
350
D
  3
ACAD_LAYOUT
350
1A
  3
ACAD_MLINESTYLE
350
17
  3
ACAD_PLOTSETTINGS
350
19
  3
ACAD_PLOTSTYLENAME
350
E
  3
ACDBVARIABLEDICTIONARY
350
34
  3
ACMDICTIONARY
350
43
  3
AMG
350
2B
  3
AMGSNAPSETTINGS
350
6E
  3
DWGPROPS
350
6671
  3
ACDBHEADERROUNDTRIPXREC
350
6681
  0
DICTIONARY
  5
74
330
1F
100
AcDbDictionary
280
     1
  3
ACAD_INDEX
360
6673
  3
ACAD_LAYOUTSELFREF
360
66A4
  0
DICTIONARY
  5
66A9
330
101
100
AcDbDictionary
280
     1
  3
ACAD_LAYOUTSELFREF
360
66AA
  0
DICTIONARY
  5
D
102
{ACAD_REACTORS
330
C
102
}
330
C
100
AcDbDictionary
  0
DICTIONARY
  5
1A
102
{ACAD_REACTORS
330
C
102
}
330
C
100
AcDbDictionary
  0
DICTIONARY
  5
17
102
{ACAD_REACTORS
330
C
102
}
330
C
100
AcDbDictionary
  3
STANDARD
350
18
  0
DICTIONARY
  5
19
102
{ACAD_REACTORS
330
C
102
}
330
C
100
AcDbDictionary
  0
ACDBDICTIONARYWDFLT
  5
E
102
{ACAD_REACTORS
330
C
102
}
330
C
100
AcDbDictionary
281
     1
  3
Normal
350
F
100
AcDbDictionaryWithDefault
340
F
  0
DICTIONARY
  5
34
102
{ACAD_REACTORS
330
C
102
}
330
C
100
AcDbDictionary
  3
INDEXCTL
350
35
  3
SORTENTS
350
B5E
  0
DICTIONARY
  5
43
102
{ACAD_REACTORS
330
C
102
}
330
C
100
AcDbDictionary
  3
ACMSTDDICTIONARY
350
260
  0
DICTIONARY
  5
2B
102
{ACAD_REACTORS
330
C
102
}
330
C
100
AcDbDictionary
  3
ACMGSETTINGS
350
2C
  0
DICTIONARY
  5
6E
102
{ACAD_REACTORS
330
C
102
}
330
C
100
AcDbDictionary
  0
XRECORD
  5
6671
102
{ACAD_REACTORS
330
C
102
}
330
C
100
AcDbXrecord
  1
DWGPROPS COOKIE
  2

  3

  4

  6

  7

  8

  9

300
AmdtFileType=82
301
=
302
=
303
=
304
=
305
=
306
=
307
=
308
=
309
=
 40
0.8668283217592593
 41
2452800.443498622
 42
2453002.612678136
  1

 90
        1
  0
DICTIONARY
  5
6681
102
{ACAD_REACTORS
330
C
102
}
330
C
100
AcDbDictionary
  3
TSTACKALIGN
350
6682
  3
TSTACKSIZE
350
6683
  3
HYPERLINKBASE
350
6684
  3
STYLESHEET
350
6685
  3
LAYOUTDICT
350
6686
  3
PLOTSETDICT
350
6687
  3
PLOTSTYLNAMDICT
350
6688
  3
LWETCUNION
350
6689
  3
INSUNITS
350
668A
  3
CEPSNTYPE
350
668B
  3
FINGERPRINTGUID
350
668C
  3
VERSIONGUID
350
668D
  3
PSVPSCALE
350
668E
  3
DIMSTYLEDATA
350
668F
  3
PUCSORTHOREF
350
6690
  3
PUCSORTHOVIEW
350
6691
  3
PUCSBASE
350
6692
  3
PUCSORGTOP
350
6693
  3
PUCSORGBOTTOM
350
6694
  3
PUCSORGLEFT
350
6695
  3
PUCSORGRIGHT
350
6696
  3
PUCSORGFRONT
350
6697
  3
PUCSORGBACK
350
6698
  3
UCSORTHOREF
350
6699
  3
UCSORTHOVIEW
350
669A
  3
UCSBASE
350
669B
  3
UCSORGTOP
350
669C
  3
UCSORGBOTTOM
350
669D
  3
UCSORGLEFT
350
669E
  3
UCSORGRIGHT
350
669F
  3
UCSORGFRONT
350
66A0
  3
UCSORGBACK
350
66A1
  0
DICTIONARY
  5
6673
102
{ACAD_REACTORS
330
74
102
}
330
74
100
AcDbDictionary
  3
*A1
350
6674
  0
XRECORD
  5
66A4
102
{ACAD_REACTORS
330
74
102
}
330
74
100
AcDbXrecord
340
1F
  0
XRECORD
  5
66AA
102
{ACAD_REACTORS
330
66A9
102
}
330
66A9
100
AcDbXrecord
340
101
  0
MLINESTYLE
  5
18
102
{ACAD_REACTORS
330
17
102
}
330
17
100
AcDbMlineStyle
  2
STANDARD
 70
     0
  3

 62
   256
 51
90.0
 52
90.0
 71
     2
 49
0.5
 62
   256
  6
BYLAYER
 49
-0.5
 62
   256
  6
BYLAYER
  0
ACDBPLACEHOLDER
  5
F
102
{ACAD_REACTORS
330
E
102
}
330
E
100
AcDbPlaceHolder
280
     0
  0
DICTIONARYVAR
  5
35
102
{ACAD_REACTORS
330
34
102
}
330
34
100
DictionaryVariables
280
     0
  1
1
  0
DICTIONARYVAR
  5
B5E
102
{ACAD_REACTORS
330
34
102
}
330
34
100
DictionaryVariables
280
     0
  1
96
  0
DICTIONARY
  5
260
102
{ACAD_REACTORS
330
43
102
}
330
43
100
AcDbDictionary
  0
DICTIONARY
  5
2C
102
{ACAD_REACTORS
330
2B
102
}
330
2B
100
AcDbDictionary
  3
DWGSETTINGS
350
2D
  0
XRECORD
  5
6682
102
{ACAD_REACTORS
330
6681
102
}
330
6681
100
AcDbXrecord
 90
        1
  0
XRECORD
  5
6683
102
{ACAD_REACTORS
330
6681
102
}
330
6681
100
AcDbXrecord
 90
       70
  0
XRECORD
  5
6684
102
{ACAD_REACTORS
330
6681
102
}
330
6681
100
AcDbXrecord
  1

  0
XRECORD
  5
6685
102
{ACAD_REACTORS
330
6681
102
}
330
6681
100
AcDbXrecord
  1
ASAMI.ctb
  0
XRECORD
  5
6686
102
{ACAD_REACTORS
330
6681
102
}
330
6681
100
AcDbXrecord
340
1A
  0
XRECORD
  5
6687
102
{ACAD_REACTORS
330
6681
102
}
330
6681
100
AcDbXrecord
340
19
  0
XRECORD
  5
6688
102
{ACAD_REACTORS
330
6681
102
}
330
6681
100
AcDbXrecord
340
E
  0
XRECORD
  5
6689
102
{ACAD_REACTORS
330
6681
102
}
330
6681
100
AcDbXrecord
 90
    10781
  0
XRECORD
  5
668A
102
{ACAD_REACTORS
330
6681
102
}
330
6681
100
AcDbXrecord
 90
        4
  0
XRECORD
  5
668B
102
{ACAD_REACTORS
330
6681
102
}
330
6681
100
AcDbXrecord
 90
        0
  0
XRECORD
  5
668C
102
{ACAD_REACTORS
330
6681
102
}
330
6681
100
AcDbXrecord
  1
{AFB28963-8C59-40AE-9337-C84526B81ACE}
  0
XRECORD
  5
668D
102
{ACAD_REACTORS
330
6681
102
}
330
6681
100
AcDbXrecord
  1
{BC2F69A3-7B15-45C2-B84E-5CC4CF239C2B}
  0
XRECORD
  5
668E
102
{ACAD_REACTORS
330
6681
102
}
330
6681
100
AcDbXrecord
 40
0.0
  0
XRECORD
  5
668F
102
{ACAD_REACTORS
330
6681
102
}
330
6681
100
AcDbXrecord
1000
DSTYLE
1002
{
1070
    79
 70
     2
1070
   341
340
59
1070
   342
340
59
1070
   371
 70
    -1
1070
   372
 70
    -1
1002
}
  0
XRECORD
  5
6690
102
{ACAD_REACTORS
330
6681
102
}
330
6681
100
AcDbXrecord
340
0
  0
XRECORD
  5
6691
102
{ACAD_REACTORS
330
6681
102
}
330
6681
100
AcDbXrecord
 70
     0
  0
XRECORD
  5
6692
102
{ACAD_REACTORS
330
6681
102
}
330
6681
100
AcDbXrecord
340
0
  0
XRECORD
  5
6693
102
{ACAD_REACTORS
330
6681
102
}
330
6681
100
AcDbXrecord
 10
0.0
 20
0.0
 30
0.0
  0
XRECORD
  5
6694
102
{ACAD_REACTORS
330
6681
102
}
330
6681
100
AcDbXrecord
 10
0.0
 20
0.0
 30
0.0
  0
XRECORD
  5
6695
102
{ACAD_REACTORS
330
6681
102
}
330
6681
100
AcDbXrecord
 10
0.0
 20
0.0
 30
0.0
  0
XRECORD
  5
6696
102
{ACAD_REACTORS
330
6681
102
}
330
6681
100
AcDbXrecord
 10
0.0
 20
0.0
 30
0.0
  0
XRECORD
  5
6697
102
{ACAD_REACTORS
330
6681
102
}
330
6681
100
AcDbXrecord
 10
0.0
 20
0.0
 30
0.0
  0
XRECORD
  5
6698
102
{ACAD_REACTORS
330
6681
102
}
330
6681
100
AcDbXrecord
 10
0.0
 20
0.0
 30
0.0
  0
XRECORD
  5
6699
102
{ACAD_REACTORS
330
6681
102
}
330
6681
100
AcDbXrecord
340
0
  0
XRECORD
  5
669A
102
{ACAD_REACTORS
330
6681
102
}
330
6681
100
AcDbXrecord
 70
     0
  0
XRECORD
  5
669B
102
{ACAD_REACTORS
330
6681
102
}
330
6681
100
AcDbXrecord
340
0
  0
XRECORD
  5
669C
102
{ACAD_REACTORS
330
6681
102
}
330
6681
100
AcDbXrecord
 10
0.0
 20
0.0
 30
0.0
  0
XRECORD
  5
669D
102
{ACAD_REACTORS
330
6681
102
}
330
6681
100
AcDbXrecord
 10
0.0
 20
0.0
 30
0.0
  0
XRECORD
  5
669E
102
{ACAD_REACTORS
330
6681
102
}
330
6681
100
AcDbXrecord
 10
0.0
 20
0.0
 30
0.0
  0
XRECORD
  5
669F
102
{ACAD_REACTORS
330
6681
102
}
330
6681
100
AcDbXrecord
 10
0.0
 20
0.0
 30
0.0
  0
XRECORD
  5
66A0
102
{ACAD_REACTORS
330
6681
102
}
330
6681
100
AcDbXrecord
 10
0.0
 20
0.0
 30
0.0
  0
XRECORD
  5
66A1
102
{ACAD_REACTORS
330
6681
102
}
330
6681
100
AcDbXrecord
 10
0.0
 20
0.0
 30
0.0
  0
LAYER_INDEX
  5
6674
102
{ACAD_REACTORS
330
6673
102
}
330
6673
100
AcDbIndex
 40
2453151.720065266
100
AcDbLayerIndex
  8
0
360
6675
 90
        0
  8
AM_0
360
6676
 90
       35
  8
PV0001_1
360
6677
 90
       10
  8
AM_CL
360
6678
 90
        0
  8
AM_7
360
6679
 90
        1
  8
AM_11
360
667A
 90
        2
  8
AM_5
360
667B
 90
        9
  8
Defpoints
360
667C
 90
        0
  8
AM_6
360
667D
 90
        1
  8
AM_4
360
667E
 90
        0
  8
AM_3
360
667F
 90
        0
  0
XRECORD
  5
2D
102
{ACAD_REACTORS
330
2C
102
}
330
2C
100
AcDbXrecord
  1
VERSION
140
15.0
  1
PRODUCT
  2
AutoCAD Mechanical 2000
  0
IDBUFFER
  5
6675
330
0
100
AcDbIdBuffer
  0
IDBUFFER
  5
6676
330
0
100
AcDbIdBuffer
330
65CC
330
65CD
330
65CE
330
65CF
330
65D0
330
65D1
330
65D2
330
65D3
330
65D4
330
6649
330
664A
330
664C
330
664D
330
664E
330
6650
330
6651
330
6652
330
6653
330
6654
330
5D69
330
5D6A
330
5D6B
330
5D6C
330
6350
330
6351
330
637B
330
637C
330
6380
330
6381
330
6382
330
6383
330
6384
330
6385
330
6387
330
6388
  0
IDBUFFER
  5
6677
330
0
100
AcDbIdBuffer
330
35CA
330
5D63
330
5D64
330
5D65
330
5D66
330
5D67
330
5D68
330
5D6D
330
5D6E
330
5D6F
  0
IDBUFFER
  5
6678
330
0
100
AcDbIdBuffer
  0
IDBUFFER
  5
6679
330
0
100
AcDbIdBuffer
330
5CCE
  0
IDBUFFER
  5
667A
330
0
100
AcDbIdBuffer
330
664B
330
664F
  0
IDBUFFER
  5
667B
330
0
100
AcDbIdBuffer
330
5D62
330
5D70
330
5D71
330
5D72
330
5D73
330
5EEB
330
6016
330
60C0
330
638D
  0
IDBUFFER
  5
667C
330
0
100
AcDbIdBuffer
  0
IDBUFFER
  5
667D
330
0
100
AcDbIdBuffer
330
19BD
  0
IDBUFFER
  5
667E
330
0
100
AcDbIdBuffer
  0
IDBUFFER
  5
667F
330
0
100
AcDbIdBuffer
  0
ENDSEC
  0
EOF
