  0
SECTION
  2
HEADER
  9
$ACADVER
  1
AC1014
  9
$ACADMAINTVER
 70
     9
  9
$DWGCODEPAGE
  3
ANSI_932
  9
$INSBASE
 10
0.0
 20
0.0
 30
0.0
  9
$EXTMIN
 10
-266.9965472798339
 20
-82.29651903350747
 30
-0.00000001
  9
$EXTMAX
 10
36.12411063492018
 20
52.5560313192437
 30
0.00000001
  9
$LIMMIN
 10
-294.403942917042
 20
-122.6330745544469
  9
$LIMMAX
 10
64.92815201195026
 20
79.43217198033676
  9
$ORTHOMODE
 70
     0
  9
$REGENMODE
 70
     1
  9
$FILLMODE
 70
     1
  9
$QTEXTMODE
 70
     0
  9
$MIRRTEXT
 70
     0
  9
$DRAGMODE
 70
     2
  9
$LTSCALE
 40
1.0
  9
$OSMODE
 70
    55
  9
$ATTMODE
 70
     1
  9
$TEXTSIZE
 40
2.5
  9
$TRACEWID
 40
1.0
  9
$TEXTSTYLE
  7
STANDARD
  9
$CLAYER
  8
AM_0
  9
$CELTYPE
  6
BYLAYER
  9
$CECOLOR
 62
   256
  9
$CELTSCALE
 40
1.0
  9
$DELOBJ
 70
     1
  9
$DISPSILH
 70
     0
  9
$DIMSCALE
 40
1.0
  9
$DIMASZ
 40
2.5
  9
$DIMEXO
 40
1.0
  9
$DIMDLI
 40
12.0
  9
$DIMRND
 40
0.0
  9
$DIMDLE
 40
0.0
  9
$DIMEXE
 40
1.0
  9
$DIMTP
 40
0.1
  9
$DIMTM
 40
0.1
  9
$DIMTXT
 40
3.2
  9
$DIMCEN
 40
0.0
  9
$DIMTSZ
 40
0.0
  9
$DIMTOL
 70
     0
  9
$DIMLIM
 70
     0
  9
$DIMTIH
 70
     0
  9
$DIMTOH
 70
     0
  9
$DIMSE1
 70
     0
  9
$DIMSE2
 70
     0
  9
$DIMTAD
 70
     3
  9
$DIMZIN
 70
     8
  9
$DIMBLK
  1
OPEN30
  9
$DIMASO
 70
     1
  9
$DIMSHO
 70
     1
  9
$DIMPOST
  1

  9
$DIMAPOST
  1
"
  9
$DIMALT
 70
     0
  9
$DIMALTD
 70
     2
  9
$DIMALTF
 40
0.0393701
  9
$DIMLFAC
 40
1.0
  9
$DIMTOFL
 70
     1
  9
$DIMTVP
 40
0.0
  9
$DIMTIX
 70
     0
  9
$DIMSOXD
 70
     0
  9
$DIMSAH
 70
     0
  9
$DIMBLK1
  1

  9
$DIMBLK2
  1

  9
$DIMSTYLE
  2
AM_JIS
  9
$DIMCLRD
 70
   256
  9
$DIMCLRE
 70
   256
  9
$DIMCLRT
 70
     2
  9
$DIMTFAC
 40
0.71
  9
$DIMGAP
 40
1.5
  9
$DIMJUST
 70
     0
  9
$DIMSD1
 70
     0
  9
$DIMSD2
 70
     0
  9
$DIMTOLJ
 70
     0
  9
$DIMTZIN
 70
     0
  9
$DIMALTZ
 70
     0
  9
$DIMALTTZ
 70
     0
  9
$DIMFIT
 70
     3
  9
$DIMUPT
 70
     0
  9
$DIMUNIT
 70
     2
  9
$DIMDEC
 70
     3
  9
$DIMTDEC
 70
     3
  9
$DIMALTU
 70
     2
  9
$DIMALTTD
 70
     2
  9
$DIMTXSTY
  7
ASAMI
  9
$DIMAUNIT
 70
     0
  9
$LUNITS
 70
     2
  9
$LUPREC
 70
     2
  9
$SKETCHINC
 40
1.0
  9
$FILLETRAD
 40
2.5
  9
$AUNITS
 70
     0
  9
$AUPREC
 70
     0
  9
$MENU
  1
.
  9
$ELEVATION
 40
0.0
  9
$PELEVATION
 40
0.0
  9
$THICKNESS
 40
0.0
  9
$LIMCHECK
 70
     0
  9
$BLIPMODE
 70
     0
  9
$CHAMFERA
 40
2.5
  9
$CHAMFERB
 40
2.5
  9
$CHAMFERC
 40
20.0
  9
$CHAMFERD
 40
0.0
  9
$SKPOLY
 70
     0
  9
$TDCREATE
 40
2452800.443498622
  9
$TDUPDATE
 40
2453151.710700578
  9
$TDINDWG
 40
0.5684630440
  9
$TDUSRTIMER
 40
0.5684630440
  9
$USRTIMER
 70
     1
  9
$ANGBASE
 50
0.0
  9
$ANGDIR
 70
     0
  9
$PDMODE
 70
     0
  9
$PDSIZE
 40
0.0
  9
$PLINEWID
 40
0.0
  9
$COORDS
 70
     1
  9
$SPLFRAME
 70
     0
  9
$SPLINETYPE
 70
     6
  9
$SPLINESEGS
 70
     8
  9
$ATTDIA
 70
     1
  9
$ATTREQ
 70
     1
  9
$HANDLING
 70
 12289
  9
$HANDSEED
  5
58C1
  9
$SURFTAB1
 70
     6
  9
$SURFTAB2
 70
     6
  9
$SURFTYPE
 70
     6
  9
$SURFU
 70
     6
  9
$SURFV
 70
     6
  9
$UCSNAME
  2

  9
$UCSORG
 10
-0.0000000000002549
 20
-0.0000000000001167
 30
0.0
  9
$UCSXDIR
 10
1.0
 20
0.0000000000000027
 30
0.0
  9
$UCSYDIR
 10
-0.0000000000000027
 20
1.0
 30
0.0
  9
$PUCSNAME
  2

  9
$PUCSORG
 10
0.0
 20
0.0
 30
0.0
  9
$PUCSXDIR
 10
1.0
 20
0.0
 30
0.0
  9
$PUCSYDIR
 10
0.0
 20
1.0
 30
0.0
  9
$USERI1
 70
     0
  9
$USERI2
 70
     0
  9
$USERI3
 70
     0
  9
$USERI4
 70
     0
  9
$USERI5
 70
     0
  9
$USERR1
 40
0.0
  9
$USERR2
 40
0.0
  9
$USERR3
 40
0.0
  9
$USERR4
 40
0.0
  9
$USERR5
 40
0.0
  9
$WORLDVIEW
 70
     1
  9
$SHADEDGE
 70
     3
  9
$SHADEDIF
 70
    70
  9
$TILEMODE
 70
     1
  9
$MAXACTVP
 70
    64
  9
$PINSBASE
 10
0.0
 20
0.0
 30
0.0
  9
$PLIMCHECK
 70
     0
  9
$PEXTMIN
 10
1.000000000000000E+20
 20
1.000000000000000E+20
 30
1.000000000000000E+20
  9
$PEXTMAX
 10
-1.000000000000000E+20
 20
-1.000000000000000E+20
 30
-1.000000000000000E+20
  9
$PLIMMIN
 10
0.0
 20
0.0
  9
$PLIMMAX
 10
841.0
 20
594.0
  9
$UNITMODE
 70
     0
  9
$VISRETAIN
 70
     1
  9
$PLINEGEN
 70
     0
  9
$PSLTSCALE
 70
     0
  9
$TREEDEPTH
 70
  3020
  9
$PICKSTYLE
 70
     0
  9
$CMLSTYLE
  2
STANDARD
  9
$CMLJUST
 70
     0
  9
$CMLSCALE
 40
20.0
  9
$PROXYGRAPHICS
 70
     1
  9
$MEASUREMENT
 70
     1
  0
ENDSEC
  0
SECTION
  2
CLASSES
  0
CLASS
  1
ACDBDICTIONARYWDFLT
  2
AcDbDictionaryWithDefault
  3
AutoCAD 2000
 90
        0
280
     0
281
     0
  0
CLASS
  1
ACDBPLACEHOLDER
  2
AcDbPlaceHolder
  3
AutoCAD 2000
 90
        0
280
     0
281
     0
  0
CLASS
  1
LAYOUT
  2
AcDbLayout
  3
AutoCAD 2000
 90
        0
280
     0
281
     0
  0
CLASS
  1
AMGSETTINGSOBJ
  2
AmgSettingsObj
  3
"AcadM|Product Description: AutoCAD Mechanical 2000|Company: Autodesk"
 90
        0
280
     0
281
     0
  0
CLASS
  1
ACME_DOCUMENT
  2
AcMeDbDoc
  3
AcMeServices
 90
        0
280
     0
281
     0
  0
CLASS
  1
ACMESCOPE
  2
AcMeScope
  3
AcMeServices
 90
        0
280
     0
281
     0
  0
CLASS
  1
ACMECOMMANDHISTORY
  2
AcMeCommandHistory
  3
AcMeServices
 90
        0
280
     0
281
     0
  0
CLASS
  1
DICTIONARYVAR
  2
AcDbDictionaryVar
  3
AutoCAD 2000
 90
        0
280
     0
281
     0
  0
CLASS
  1
ACIMSYSVARMAN
  2
AcImSysVarManager
  3
AcMeServices
 90
        0
280
     0
281
     0
  0
CLASS
  1
ACIMREALSYSVAR
  2
AcImRealSysVar
  3
AcMeServices
 90
        0
280
     0
281
     0
  0
CLASS
  1
ACIMINTSYSVAR
  2
AcImIntSysVar
  3
AcMeServices
 90
        0
280
     0
281
     0
  0
CLASS
  1
ACMEDRAWINGMAN
  2
AcMeDrawingMan
  3
AcMeServices
 90
        0
280
     0
281
     0
  0
CLASS
  1
ACMEVIEW
  2
AcMeView
  3
AcMeServices
 90
        0
280
     0
281
     0
  0
CLASS
  1
ACDBENTITYCACHE
  2
AcMeEntityCache
  3
AcMeServices
 90
        0
280
     0
281
     0
  0
CLASS
  1
GSMANAGER
  2
AcMeGSManager
  3
AcMeServices
 90
        0
280
     0
281
     0
  0
CLASS
  1
AmdtInternalReactor
  2
AmdtInternalReactor
  3
AcMeServices
 90
        0
280
     0
281
     0
  0
CLASS
  1
ACMESTATEMGR
  2
AcMeStateMgr
  3
AcMeServices
 90
        0
280
     0
281
     0
  0
CLASS
  1
ACME_DATABASE
  2
AcMeDbDatabase
  3
AcMeServices
 90
        0
280
     0
281
     0
  0
CLASS
  1
ACRFINSADJUSTERMGR
  2
AcRfInsAdjusterMgr
  3
AcMeServices
 90
        0
280
     0
281
     0
  0
CLASS
  1
ACMDATADICTIONARY
  2
AcmDataDictionary
  3
"AcmSymBB|Product Description: AutoCAD Mechanical 2000|Company: Autodesk"
 90
        0
280
     0
281
     0
  0
CLASS
  1
ACMDATAENTRYBLOCK
  2
AcmDataEntryBlock
  3
"AcmSymBB|Product Description: AutoCAD Mechanical 2000|Company: Autodesk"
 90
        0
280
     0
281
     0
  0
CLASS
  1
AMGOBJPROPCFG
  2
AmgObjPropCfg
  3
"AmgLay|Product Description: AutoCAD Mechanical 2000|Company: Autodesk"
 90
        1
280
     0
281
     0
  0
CLASS
  1
ACAMGFILTERDAT
  2
AcAmgFilterDat
  3
"AcadM|Product Description: AutoCAD Mechanical 2000|Company: Autodesk"
 90
        0
280
     0
281
     0
  0
CLASS
  1
LAYER_INDEX
  2
AcDbLayerIndex
  3
AutoCAD 2000
 90
        0
280
     0
281
     0
  0
CLASS
  1
IDBUFFER
  2
AcDbIdBuffer
  3
AutoCAD 2000
 90
        0
280
     0
281
     0
  0
CLASS
  1
ACIMSTRSYSVAR
  2
AcImStrSysVar
  3
AcMeServices
 90
        0
280
     0
281
     0
  0
CLASS
  1
ACMSTANDARDJIS
  2
AcmStandardJIS
  3
"AcmSymBB|Product Description: AutoCAD Mechanical 2000|Company: Autodesk"
 90
        0
280
     0
281
     0
  0
CLASS
  1
ACMSURFSTANDARDJIS
  2
AcmSurfTextStdJIS
  3
"AcmSymBB|Product Description: AutoCAD Mechanical 2000|Company: Autodesk"
 90
        0
280
     0
281
     0
  0
CLASS
  1
ACMFCFSTANDARDJIS
  2
AcmFCFStdJIS
  3
"AcmSymBB|Product Description: AutoCAD Mechanical 2000|Company: Autodesk"
 90
        0
280
     0
281
     0
  0
CLASS
  1
ACMWELDSTANDARDJIS
  2
AcmWeldingStdJIS
  3
"AcmSymBB|Product Description: AutoCAD Mechanical 2000|Company: Autodesk"
 90
        0
280
     0
281
     0
  0
CLASS
  1
ACMIDSTANDARDJIS
  2
AcmIdStdJIS
  3
"AcmSymBB|Product Description: AutoCAD Mechanical 2000|Company: Autodesk"
 90
        0
280
     0
281
     0
  0
CLASS
  1
ACMDATUMSTANDARDJIS
  2
AcmDatumStdJIS
  3
"AcmSymBB|Product Description: AutoCAD Mechanical 2000|Company: Autodesk"
 90
        0
280
     0
281
     0
  0
CLASS
  1
ACMBOMSTANDARDJIS
  2
AcmBOMStdJIS
  3
"AcmSymBB|Product Description: AutoCAD Mechanical 2000|Company: Autodesk"
 90
        0
280
     0
281
     0
  0
CLASS
  1
ACMSTANDARDANSI
  2
AcmStandardANSI
  3
"AcmSymBB|Product Description: AutoCAD Mechanical 2000|Company: Autodesk"
 90
        0
280
     0
281
     0
  0
CLASS
  1
ACMSURFSTANDARDANSI
  2
AcmSurfTextStdANSI
  3
"AcmSymBB|Product Description: AutoCAD Mechanical 2000|Company: Autodesk"
 90
        0
280
     0
281
     0
  0
CLASS
  1
ACMFCFSTANDARDANSI
  2
AcmFCFStdANSI
  3
"AcmSymBB|Product Description: AutoCAD Mechanical 2000|Company: Autodesk"
 90
        0
280
     0
281
     0
  0
CLASS
  1
ACMWELDSTANDARDANSI
  2
AcmWeldingStdANSI
  3
"AcmSymBB|Product Description: AutoCAD Mechanical 2000|Company: Autodesk"
 90
        0
280
     0
281
     0
  0
CLASS
  1
ACMIDSTANDARDANSI
  2
AcmIdStdANSI
  3
"AcmSymBB|Product Description: AutoCAD Mechanical 2000|Company: Autodesk"
 90
        0
280
     0
281
     0
  0
CLASS
  1
ACMDATUMSTANDARDANSI
  2
AcmDatumStdANSI
  3
"AcmSymBB|Product Description: AutoCAD Mechanical 2000|Company: Autodesk"
 90
        0
280
     0
281
     0
  0
CLASS
  1
ACMBOMSTANDARDANSI
  2
AcmBOMStdANSI
  3
"AcmSymBB|Product Description: AutoCAD Mechanical 2000|Company: Autodesk"
 90
        0
280
     0
281
     0
  0
CLASS
  1
ACMSTANDARDBSI
  2
AcmStandardBSI
  3
"AcmSymBB|Product Description: AutoCAD Mechanical 2000|Company: Autodesk"
 90
        0
280
     0
281
     0
  0
CLASS
  1
ACMSURFSTANDARDBSI
  2
AcmSurfTextStdBSI
  3
"AcmSymBB|Product Description: AutoCAD Mechanical 2000|Company: Autodesk"
 90
        0
280
     0
281
     0
  0
CLASS
  1
ACMFCFSTANDARDBSI
  2
AcmFCFStdBSI
  3
"AcmSymBB|Product Description: AutoCAD Mechanical 2000|Company: Autodesk"
 90
        0
280
     0
281
     0
  0
CLASS
  1
ACMWELDSTANDARDBSI
  2
AcmWeldingStdBSI
  3
"AcmSymBB|Product Description: AutoCAD Mechanical 2000|Company: Autodesk"
 90
        0
280
     0
281
     0
  0
CLASS
  1
ACMIDSTANDARDBSI
  2
AcmIdStdBSI
  3
"AcmSymBB|Product Description: AutoCAD Mechanical 2000|Company: Autodesk"
 90
        0
280
     0
281
     0
  0
CLASS
  1
ACMDATUMSTANDARDBSI
  2
AcmDatumStdBSI
  3
"AcmSymBB|Product Description: AutoCAD Mechanical 2000|Company: Autodesk"
 90
        0
280
     0
281
     0
  0
CLASS
  1
ACMBOMSTANDARDBSI
  2
AcmBOMStdBSI
  3
"AcmSymBB|Product Description: AutoCAD Mechanical 2000|Company: Autodesk"
 90
        0
280
     0
281
     0
  0
CLASS
  1
LONG_TRANSACTION
  2
AcDbLongTransaction
  3
AutoCAD 2000
 90
        0
280
     0
281
     0
  0
CLASS
  1
LWPOLYLINE
  2
AcDbPolyline
  3
AutoCAD 2000
 90
        0
280
     0
281
     1
  0
CLASS
  1
HATCH
  2
AcDbHatch
  3
AutoCAD 2000
 90
        0
280
     0
281
     1
  0
CLASS
  1
XRECORD
  2
AcDbXrecord
  3
AutoCAD 2000
 90
        0
280
     0
281
     0
  0
ENDSEC
  0
SECTION
  2
TABLES
  0
TABLE
  2
VPORT
  5
8
330
0
100
AcDbSymbolTable
 70
     3
  0
VPORT
  5
5896
330
8
100
AcDbSymbolTableRecord
100
AcDbViewportTableRecord
  2
*ACTIVE
 70
     0
 10
0.0
 20
0.0
 11
1.0
 21
1.0
 12
-115.4022173615097
 22
2.745320727689929
 13
0.0
 23
0.0
 14
2.5
 24
2.5
 15
10.0
 25
10.0
 16
0.0
 26
0.0
 36
1.0
 17
0.0
 27
0.0
 37
0.0
 40
229.6753120836056
 41
1.56570841889117
 42
50.0
 43
0.0
 44
0.0
 50
0.0
 51
0.0
 71
     0
 72
   100
 73
     1
 74
     1
 75
     0
 76
     0
 77
     0
 78
     0
  0
ENDTAB
  0
TABLE
  2
LTYPE
  5
5
330
0
100
AcDbSymbolTable
 70
    10
  0
LTYPE
  5
14
330
5
100
AcDbSymbolTableRecord
100
AcDbLinetypeTableRecord
  2
BYBLOCK
 70
     0
  3

 72
    65
 73
     0
 40
0.0
  0
LTYPE
  5
15
330
5
100
AcDbSymbolTableRecord
100
AcDbLinetypeTableRecord
  2
BYLAYER
 70
     0
  3

 72
    65
 73
     0
 40
0.0
  0
LTYPE
  5
16
330
5
100
AcDbSymbolTableRecord
100
AcDbLinetypeTableRecord
  2
CONTINUOUS
 70
     0
  3
Solid line
 72
    65
 73
     0
 40
0.0
  0
LTYPE
  5
4B
330
5
100
AcDbSymbolTableRecord
100
AcDbLinetypeTableRecord
  2
AM_ISO02W050
 70
     0
  3
__ __ __ __ __ __ __ __ __ __ __ __ __ __ __
 72
    65
 73
     2
 40
7.5
 49
6.0
 74
     0
 49
-1.5
 74
     0
  0
LTYPE
  5
4C
330
5
100
AcDbSymbolTableRecord
100
AcDbLinetypeTableRecord
  2
AM_ISO08W050
 70
     0
  3
____ . ____ . ____ . ____ . ____ . ____ . ____
 72
    65
 73
     4
 40
18.0
 49
12.0
 74
     0
 49
-1.5
 74
     0
 49
3.0
 74
     0
 49
-1.5
 74
     0
  0
LTYPE
  5
4D
330
5
100
AcDbSymbolTableRecord
100
AcDbLinetypeTableRecord
  2
AM_ISO09W050
 70
     0
  3
_____ . . _____ . . _____ . . ____ .. ____
 72
    65
 73
     6
 40
22.5
 49
12.0
 74
     0
 49
-1.5
 74
     0
 49
3.0
 74
     0
 49
-1.5
 74
     0
 49
3.0
 74
     0
 49
-1.5
 74
     0
  0
LTYPE
  5
4E
330
5
100
AcDbSymbolTableRecord
100
AcDbLinetypeTableRecord
  2
AMCONSTR
 70
     0
  3
_______________________
 72
    65
 73
     2
 40
9999.0
 49
9999.0
 74
     0
 49
0.0
 74
     0
  0
LTYPE
  5
4F
330
5
100
AcDbSymbolTableRecord
100
AcDbLinetypeTableRecord
  2
AM_ISO02W050X2
 70
     0
  3
 _ _ _ _ _ _ _ _ _ _ _ _
 72
    65
 73
     2
 40
3.75
 49
3.0
 74
     0
 49
-0.75
 74
     0
  0
LTYPE
  5
50
330
5
100
AcDbSymbolTableRecord
100
AcDbLinetypeTableRecord
  2
AM_ISO08W050X2
 70
     0
  3
__ . __ . __ . __ . __ . __
 72
    65
 73
     4
 40
9.0
 49
6.0
 74
     0
 49
-0.75
 74
     0
 49
1.5
 74
     0
 49
-0.75
 74
     0
  0
LTYPE
  5
53
330
5
100
AcDbSymbolTableRecord
100
AcDbLinetypeTableRecord
  2
AMZIGZAG
 70
     0
  3
/\/-/\/-/\/-/\/-/\/-/\/
 72
    65
 73
     2
 40
11.00009999999999
 49
0.0001
 74
     4
 75
   135
340
52
 46
0.04
 50
0.0
 44
0.0
 45
0.0
 49
-11.0
 74
     0
  0
LTYPE
  5
166
330
5
100
AcDbSymbolTableRecord
100
AcDbLinetypeTableRecord
  2
ACJISTGL
 70
     0
  3
_ _ _ _ _
 72
    65
 73
     2
 40
3.0
 49
2.0
 74
     0
 49
-1.0
 74
     0
  0
LTYPE
  5
26A
330
5
100
AcDbSymbolTableRecord
100
AcDbLinetypeTableRecord
  2
ACJISTGB
 70
     0
  3
__ . . __ . .
 72
    65
 73
     6
 40
9.0
 49
4.0
 74
     0
 49
-1.0
 74
     0
 49
1.0
 74
     0
 49
-1.0
 74
     0
 49
1.0
 74
     0
 49
-1.0
 74
     0
  0
ENDTAB
  0
TABLE
  2
LAYER
  5
2
330
0
100
AcDbSymbolTable
 70
    11
  0
LAYER
  5
10
330
2
100
AcDbSymbolTableRecord
100
AcDbLayerTableRecord
  2
0
 70
     0
 62
     7
  6
CONTINUOUS
  0
LAYER
  5
3F9
330
2
100
AcDbSymbolTableRecord
100
AcDbLayerTableRecord
  2
AM_0
 70
     0
 62
     7
  6
CONTINUOUS
  0
LAYER
  5
BA4
330
2
100
AcDbSymbolTableRecord
100
AcDbLayerTableRecord
  2
PV0001_1
 70
     0
 62
     7
  6
CONTINUOUS
  0
LAYER
  5
C6C
330
2
100
AcDbSymbolTableRecord
100
AcDbLayerTableRecord
  2
AM_CL
 70
     0
 62
     1
  6
AMCONSTR
  0
LAYER
  5
C7C
330
2
100
AcDbSymbolTableRecord
100
AcDbLayerTableRecord
  2
AM_7
 70
     0
 62
     4
  6
AM_ISO08W050
  0
LAYER
  5
C97
330
2
100
AcDbSymbolTableRecord
100
AcDbLayerTableRecord
  2
AM_11
 70
     0
 62
     3
  6
AM_ISO09W050
  0
LAYER
  5
CC5
330
2
100
AcDbSymbolTableRecord
100
AcDbLayerTableRecord
  2
AM_5
 70
     0
 62
     3
  6
CONTINUOUS
  0
LAYER
  5
CC7
330
2
100
AcDbSymbolTableRecord
100
AcDbLayerTableRecord
  2
DEFPOINTS
 70
     0
 62
     7
  6
CONTINUOUS
  0
LAYER
  5
19BC
330
2
100
AcDbSymbolTableRecord
100
AcDbLayerTableRecord
  2
AM_6
 70
     0
 62
     2
  6
CONTINUOUS
  0
LAYER
  5
1F8E
330
2
100
AcDbSymbolTableRecord
100
AcDbLayerTableRecord
  2
AM_4
 70
     0
 62
     3
  6
CONTINUOUS
  0
LAYER
  5
3588
330
2
100
AcDbSymbolTableRecord
100
AcDbLayerTableRecord
  2
AM_3
 70
     0
 62
     6
  6
ACJISTGL
  0
ENDTAB
  0
TABLE
  2
STYLE
  5
3
330
0
100
AcDbSymbolTable
 70
     5
  0
STYLE
  5
11
330
3
100
AcDbSymbolTableRecord
100
AcDbTextStyleTableRecord
  2
STANDARD
 70
     0
 40
0.0
 41
1.0
 50
0.0
 71
     0
 42
2.5
  3
simplex.shx
  4
EXTFONT.SHX
  0
STYLE
  5
52
330
3
100
AcDbSymbolTableRecord
100
AcDbTextStyleTableRecord
  2

 70
     1
 40
0.0
 41
1.0
 50
0.0
 71
     0
 42
2.5
  3
ltypeshp.shx
  4

  0
STYLE
  5
6B
330
3
100
AcDbSymbolTableRecord
100
AcDbTextStyleTableRecord
  2
ASAMI
 70
     0
 40
0.0
 41
1.0
 50
0.0
 71
     0
 42
2.5
  3
simplex.shx
  4
EXTFONT.SHX
  0
STYLE
  5
262
330
3
100
AcDbSymbolTableRecord
100
AcDbTextStyleTableRecord
  2
ACJISTS
 70
     0
 40
1.0
 41
1.0
 50
0.0
 71
     0
 42
2.5
  3
simplex.shx
  4
bigfont.shx
  0
STYLE
  5
269
330
3
100
AcDbSymbolTableRecord
100
AcDbTextStyleTableRecord
  2
ACJISGDT
 70
     0
 40
0.0
 41
1.0
 50
0.0
 71
     0
 42
2.5
  3
amgdtans.shx
  4

  0
ENDTAB
  0
TABLE
  2
VIEW
  5
6
330
0
100
AcDbSymbolTable
 70
     0
  0
ENDTAB
  0
TABLE
  2
UCS
  5
7
330
0
100
AcDbSymbolTable
 70
     0
  0
ENDTAB
  0
TABLE
  2
APPID
  5
9
330
0
100
AcDbSymbolTable
 70
    14
  0
APPID
  5
12
330
9
100
AcDbSymbolTableRecord
100
AcDbRegAppTableRecord
  2
ACAD
 70
     0
  0
APPID
  5
30
330
9
100
AcDbSymbolTableRecord
100
AcDbRegAppTableRecord
  2
MCAD_NO_VIS
 70
     0
  0
APPID
  5
31
330
9
100
AcDbSymbolTableRecord
100
AcDbRegAppTableRecord
  2
ACAD_TEMP_GRAPHIC
 70
     0
  0
APPID
  5
2C2
330
9
100
AcDbSymbolTableRecord
100
AcDbRegAppTableRecord
  2
GENIUS_GENDTOL_13
 70
     0
  0
APPID
  5
339
330
9
100
AcDbSymbolTableRecord
100
AcDbRegAppTableRecord
  2
GENIUS_GENODEF_13
 70
     0
  0
APPID
  5
33A
330
9
100
AcDbSymbolTableRecord
100
AcDbRegAppTableRecord
  2
GENIUS_GENOBJ-N-RSBK_13
 70
     0
  0
APPID
  5
33B
330
9
100
AcDbSymbolTableRecord
100
AcDbRegAppTableRecord
  2
GENIUS_GENOBJ-N-LIB_13
 70
     0
  0
APPID
  5
33C
330
9
100
AcDbSymbolTableRecord
100
AcDbRegAppTableRecord
  2
GENIUS_GENSCALE_13
 70
     0
  0
APPID
  5
378
330
9
100
AcDbSymbolTableRecord
100
AcDbRegAppTableRecord
  2
GENIUS_GENDIMSH_14
 70
     0
  0
APPID
  5
C82
330
9
100
AcDbSymbolTableRecord
100
AcDbRegAppTableRecord
  2
GENIUS_GENOBJ-N-CRS_13
 70
     0
  0
APPID
  5
C83
330
9
100
AcDbSymbolTableRecord
100
AcDbRegAppTableRecord
  2
GENIUS_GENOENT_13
 70
     0
  0
APPID
  5
C84
330
9
100
AcDbSymbolTableRecord
100
AcDbRegAppTableRecord
  2
GENIUS_GENOREF_13
 70
     0
  0
APPID
  5
C85
330
9
100
AcDbSymbolTableRecord
100
AcDbRegAppTableRecord
  2
GENIUS_GENOLIS_13
 70
     0
  0
APPID
  5
CA0
330
9
100
AcDbSymbolTableRecord
100
AcDbRegAppTableRecord
  2
GENIUS_GENOBJ-N-CEN_13
 70
     0
  0
ENDTAB
  0
TABLE
  2
DIMSTYLE
  5
A
330
0
100
AcDbSymbolTable
 70
    10
  0
DIMSTYLE
105
58
330
A
100
AcDbSymbolTableRecord
100
AcDbDimStyleTableRecord
  2
AM_JIS
 70
     0
  3

  4
"
  5
OPEN30
  6

  7

 40
1.0
 41
2.5
 42
1.0
 43
12.0
 44
1.0
 45
0.0
 46
0.0
 47
0.1
 48
0.1
140
3.2
141
0.0
142
0.0
143
0.0393701
144
1.0
145
0.0
146
0.71
147
1.5
 71
     0
 72
     0
 73
     0
 74
     0
 75
     0
 76
     0
 77
     3
 78
     8
170
     0
171
     2
172
     1
173
     0
174
     0
175
     0
176
   256
177
   256
178
     2
270
     2
271
     3
272
     3
273
     2
274
     2
340
6B
275
     0
280
     0
281
     0
282
     0
283
     0
284
     0
285
     0
286
     0
287
     3
288
     0
  0
DIMSTYLE
105
5F
330
A
100
AcDbSymbolTableRecord
100
AcDbDimStyleTableRecord
  2
AM_JIS$3
 70
     0
  3

  4
"
  5
OPEN30
  6

  7

 40
1.0
 41
2.5
 42
1.0
 43
10.0
 44
1.0
 45
0.0
 46
0.0
 47
0.1
 48
0.1
140
3.2
141
0.0
142
0.0
143
0.0393701
144
1.0
145
0.0
146
0.71
147
1.5
 71
     0
 72
     0
 73
     0
 74
     1
 75
     0
 76
     0
 77
     3
 78
     8
170
     0
171
     2
172
     0
173
     0
174
     0
175
     0
176
   256
177
   256
178
     2
270
     2
271
     2
272
     3
273
     2
274
     2
340
6B
275
     0
280
     0
281
     0
282
     0
283
     0
284
     0
285
     0
286
     0
287
     0
288
     1
  0
DIMSTYLE
105
60
330
A
100
AcDbSymbolTableRecord
100
AcDbDimStyleTableRecord
  2
AM_JIS$4
 70
     0
  3

  4
"
  5
OPEN30
  6

  7

 40
1.0
 41
2.5
 42
1.0
 43
10.0
 44
1.0
 45
0.0
 46
0.0
 47
0.1
 48
0.1
140
3.2
141
0.0
142
0.0
143
0.0393701
144
1.0
145
0.0
146
0.71
147
1.5
 71
     0
 72
     0
 73
     0
 74
     1
 75
     0
 76
     0
 77
     3
 78
     8
170
     0
171
     2
172
     0
173
     0
174
     0
175
     0
176
   256
177
   256
178
     2
270
     2
271
     2
272
     3
273
     2
274
     2
340
6B
275
     0
280
     0
281
     0
282
     0
283
     0
284
     0
285
     0
286
     0
287
     0
288
     1
  0
DIMSTYLE
105
61
330
A
100
AcDbSymbolTableRecord
100
AcDbDimStyleTableRecord
  2
AM_JIS$6
 70
     0
  3

  4
"
  5
OPEN30
  6

  7

 40
1.0
 41
2.5
 42
1.0
 43
10.0
 44
1.0
 45
0.0
 46
0.0
 47
0.1
 48
0.1
140
3.2
141
0.0
142
0.0
143
0.0393701
144
1.0
145
0.0
146
0.71
147
1.5
 71
     0
 72
     0
 73
     0
 74
     0
 75
     0
 76
     0
 77
     0
 78
     8
170
     0
171
     2
172
     1
173
     0
174
     0
175
     0
176
   256
177
   256
178
     2
270
     2
271
     2
272
     2
273
     2
274
     2
340
6B
275
     0
280
     0
281
     0
282
     0
283
     0
284
     0
285
     0
286
     0
287
     3
288
     0
  0
DIMSTYLE
105
62
330
A
100
AcDbSymbolTableRecord
100
AcDbDimStyleTableRecord
  2
AM_JIS$7
 70
     0
  3

  4
"
  5
OPEN30
  6

  7

 40
1.0
 41
2.5
 42
1.0
 43
10.0
 44
1.0
 45
0.0
 46
0.0
 47
0.1
 48
0.1
140
3.2
141
0.0
142
0.0
143
0.0393701
144
1.0
145
0.0
146
0.71
147
1.5
 71
     0
 72
     0
 73
     0
 74
     0
 75
     0
 76
     0
 77
     3
 78
     8
170
     0
171
     2
172
     1
173
     0
174
     0
175
     0
176
   256
177
   256
178
     2
270
     2
271
     2
272
     3
273
     2
274
     2
340
6B
275
     0
280
     0
281
     0
282
     0
283
     0
284
     0
285
     0
286
     0
287
     3
288
     0
  0
DIMSTYLE
105
63
330
A
100
AcDbSymbolTableRecord
100
AcDbDimStyleTableRecord
  2
AM_JIS$SF
 70
     0
  3

  4
"
  5
OPEN30
  6

  7

 40
1.0
 41
2.5
 42
1.0
 43
10.0
 44
1.0
 45
0.0
 46
0.0
 47
0.1
 48
0.1
140
3.2
141
0.0
142
0.0
143
0.0393701
144
1.0
145
0.0
146
0.71
147
1.5
 71
     0
 72
     0
 73
     0
 74
     0
 75
     1
 76
     1
 77
     3
 78
     8
170
     0
171
     2
172
     1
173
     0
174
     0
175
     0
176
   256
177
   256
178
     2
270
     2
271
     2
272
     2
273
     2
274
     2
340
6B
275
     0
280
     0
281
     0
282
     0
283
     0
284
     0
285
     0
286
     0
287
     3
288
     0
  0
DIMSTYLE
105
68
330
A
100
AcDbSymbolTableRecord
100
AcDbDimStyleTableRecord
  2
AM_JIS$SH
 70
     0
  3

  4
"
  5

  6
GENAXEH
  7
OPEN30
 40
1.0
 41
2.5
 42
1.0
 43
10.0
 44
1.0
 45
0.0
 46
0.0
 47
0.1
 48
0.1
140
3.2
141
0.0
142
0.0
143
0.0393701
144
2.0
145
0.0
146
0.71
147
1.5
 71
     0
 72
     0
 73
     0
 74
     0
 75
     1
 76
     1
 77
     3
 78
     8
170
     0
171
     2
172
     1
173
     1
174
     0
175
     0
176
   256
177
   256
178
     2
270
     2
271
     2
272
     2
273
     2
274
     2
340
6B
275
     0
280
     0
281
     0
282
     0
283
     0
284
     0
285
     0
286
     0
287
     3
288
     0
  0
DIMSTYLE
105
B34
102
{ACAD_REACTORS
330
36BA
102
}
330
A
100
AcDbSymbolTableRecord
100
AcDbDimStyleTableRecord
  2
AM_JIS$2
 70
     0
  3

  4
"
  5
OPEN30
  6

  7

 40
1.0
 41
2.5
 42
1.0
 43
12.0
 44
1.0
 45
0.0
 46
0.0
 47
0.1
 48
0.1
140
3.2
141
0.0
142
0.0
143
0.0393701
144
1.0
145
0.0
146
0.71
147
1.5
 71
     0
 72
     0
 73
     0
 74
     0
 75
     0
 76
     0
 77
     3
 78
     8
170
     0
171
     2
172
     1
173
     0
174
     0
175
     0
176
   256
177
   256
178
     2
270
     2
271
     3
272
     3
273
     2
274
     2
340
6B
275
     0
280
     0
281
     0
282
     0
283
     0
284
     0
285
     0
286
     0
287
     3
288
     0
  0
DIMSTYLE
105
BA5
102
{ACAD_REACTORS
330
3B0D
330
471A
330
4A5A
330
4A5C
330
5242
330
535A
330
5368
330
5369
330
536A
102
}
330
A
100
AcDbSymbolTableRecord
100
AcDbDimStyleTableRecord
  2
AM_JIS$0
 70
     0
  3

  4
"
  5
OPEN30
  6

  7

 40
1.0
 41
2.5
 42
0.8
 43
10.0
 44
1.0
 45
0.0
 46
0.0
 47
0.1
 48
0.1000000001
140
3.799999999999999
141
0.0
142
0.0
143
0.0393701
144
1.0
145
0.0
146
0.71
147
1.5
 71
     0
 72
     0
 73
     0
 74
     0
 75
     0
 76
     0
 77
     3
 78
     9
170
     0
171
     2
172
     1
173
     0
174
     0
175
     0
176
     3
177
     3
178
     2
270
     2
271
     2
272
     2
273
     2
274
     2
340
11
275
     1
280
     0
281
     0
282
     0
283
     0
284
     8
285
     0
286
     0
287
     0
288
     0
  0
DIMSTYLE
105
BA6
330
A
100
AcDbSymbolTableRecord
100
AcDbDimStyleTableRecord
  2
AM_JISORG-1P0$2
 70
     0
  3

  4
"
  5
OPEN30
  6

  7

 40
1.0
 41
2.5
 42
0.0
 43
10.0
 44
1.0
 45
0.0
 46
0.0
 47
0.1
 48
0.1000000001
140
3.799999999999999
141
0.0
142
0.0
143
0.0393701
144
-0.999999980146674
145
0.0
146
0.71
147
1.5
 71
     0
 72
     0
 73
     0
 74
     0
 75
     0
 76
     0
 77
     3
 78
     1
170
     0
171
     2
172
     1
173
     0
174
     0
175
     0
176
     3
177
     3
178
     2
270
     2
271
     2
272
     2
273
     2
274
     2
340
11
275
     1
280
     0
281
     0
282
     0
283
     0
284
     8
285
     0
286
     0
287
     0
288
     0
  0
ENDTAB
  0
TABLE
  2
BLOCK_RECORD
  5
1
330
0
100
AcDbSymbolTable
 70
    19
  0
BLOCK_RECORD
  5
1F
102
{ACAD_XDICTIONARY
360
74
102
}
330
1
100
AcDbSymbolTableRecord
100
AcDbBlockTableRecord
  2
*MODEL_SPACE
  0
BLOCK_RECORD
  5
101
102
{ACAD_XDICTIONARY
360
58BF
102
}
330
1
100
AcDbSymbolTableRecord
100
AcDbBlockTableRecord
  2
*PAPER_SPACE
  0
BLOCK_RECORD
  5
59
330
1
100
AcDbSymbolTableRecord
100
AcDbBlockTableRecord
  2
_OPEN30
  0
BLOCK_RECORD
  5
64
330
1
100
AcDbSymbolTableRecord
100
AcDbBlockTableRecord
  2
GENAXEH
  0
BLOCK_RECORD
  5
C31
330
1
100
AcDbSymbolTableRecord
100
AcDbBlockTableRecord
  2
A$C36D02A34
  0
BLOCK_RECORD
  5
2453
330
1
100
AcDbSymbolTableRecord
100
AcDbBlockTableRecord
  2
*D6
  0
BLOCK_RECORD
  5
245F
330
1
100
AcDbSymbolTableRecord
100
AcDbBlockTableRecord
  2
A$C4FFC6CC0
  0
BLOCK_RECORD
  5
36BB
330
1
100
AcDbSymbolTableRecord
100
AcDbBlockTableRecord
  2
*D8
  0
BLOCK_RECORD
  5
3B0E
330
1
100
AcDbSymbolTableRecord
100
AcDbBlockTableRecord
  2
*D9
  0
BLOCK_RECORD
  5
471B
330
1
100
AcDbSymbolTableRecord
100
AcDbBlockTableRecord
  2
*D10
  0
BLOCK_RECORD
  5
4A78
330
1
100
AcDbSymbolTableRecord
100
AcDbBlockTableRecord
  2
*D11
  0
BLOCK_RECORD
  5
4A90
330
1
100
AcDbSymbolTableRecord
100
AcDbBlockTableRecord
  2
*D12
  0
BLOCK_RECORD
  5
5243
330
1
100
AcDbSymbolTableRecord
100
AcDbBlockTableRecord
  2
*D13
  0
BLOCK_RECORD
  5
536B
330
1
100
AcDbSymbolTableRecord
100
AcDbBlockTableRecord
  2
*D14
  0
BLOCK_RECORD
  5
5377
330
1
100
AcDbSymbolTableRecord
100
AcDbBlockTableRecord
  2
*D15
  0
BLOCK_RECORD
  5
5383
330
1
100
AcDbSymbolTableRecord
100
AcDbBlockTableRecord
  2
*D16
  0
BLOCK_RECORD
  5
5391
330
1
100
AcDbSymbolTableRecord
100
AcDbBlockTableRecord
  2
*D17
  0
ENDTAB
  0
ENDSEC
  0
SECTION
  2
BLOCKS
  0
BLOCK
  5
20
330
1F
100
AcDbEntity
  8
0
100
AcDbBlockBegin
  2
*MODEL_SPACE
 70
     0
 10
0.0
 20
0.0
 30
0.0
  3
*MODEL_SPACE
  1

  0
ENDBLK
  5
21
330
1F
100
AcDbEntity
  8
0
100
AcDbBlockEnd
  0
BLOCK
  5
103
330
101
100
AcDbEntity
 67
     1
  8
0
100
AcDbBlockBegin
  2
*PAPER_SPACE
 70
     0
 10
0.0
 20
0.0
 30
0.0
  3
*PAPER_SPACE
  1

  0
ENDBLK
  5
104
330
101
100
AcDbEntity
 67
     1
  8
0
100
AcDbBlockEnd
  0
BLOCK
  5
5D
330
59
100
AcDbEntity
  8
0
100
AcDbBlockBegin
  2
_OPEN30
 70
     0
 10
0.0
 20
0.0
 30
0.0
  3
_OPEN30
  1

  0
LINE
  5
5A
330
59
100
AcDbEntity
  8
0
 62
     0
100
AcDbLine
 10
-1.0
 20
0.26794919
 30
0.0
 11
0.0
 21
0.0
 31
0.0
  0
LINE
  5
5B
330
59
100
AcDbEntity
  8
0
 62
     0
100
AcDbLine
 10
0.0
 20
0.0
 30
0.0
 11
-1.0
 21
-0.26794919
 31
0.0
  0
LINE
  5
5C
330
59
100
AcDbEntity
  8
0
 62
     0
100
AcDbLine
 10
0.0
 20
0.0
 30
0.0
 11
-1.0
 21
0.0
 31
0.0
  0
ENDBLK
  5
5E
330
59
100
AcDbEntity
  8
0
100
AcDbBlockEnd
  0
BLOCK
  5
66
330
64
100
AcDbEntity
  8
0
100
AcDbBlockBegin
  2
GENAXEH
 70
     0
 10
0.0
 20
0.0
 30
0.0
  3
GENAXEH
  1

  0
LINE
  5
65
330
64
100
AcDbEntity
  8
0
100
AcDbLine
 10
-1.0
 20
0.0
 30
0.0
 11
1.0
 21
0.0
 31
0.0
  0
ENDBLK
  5
67
330
64
100
AcDbEntity
  8
0
100
AcDbBlockEnd
  0
BLOCK
  5
C4B
330
C31
100
AcDbEntity
  8
0
100
AcDbBlockBegin
  2
A$C36D02A34
 70
     0
 10
0.0
 20
0.0
 30
0.0
  3
A$C36D02A34
  1

  0
ARC
  5
C32
330
C31
100
AcDbEntity
  8
PV0001_1
  6
CONTINUOUS
 48
0.5
100
AcDbCircle
 10
18.06811523436999
 20
-11.83651161193799
 30
0.0
 40
21.600000381469
100
AcDbArc
 50
123.2290435713209
 51
126.6341524197568
  0
ARC
  5
C33
330
C31
100
AcDbEntity
  8
PV0001_1
  6
CONTINUOUS
 48
0.5
100
AcDbCircle
 10
18.06811523436999
 20
-11.83651161193799
 30
0.0
 40
21.600000381469
100
AcDbArc
 50
135.0736707620117
 51
146.7709980930592
  0
ARC
  5
C34
330
C31
100
AcDbEntity
  8
PV0001_1
  6
CONTINUOUS
 48
0.5
100
AcDbCircle
 10
-18.0680770874
 20
11.8365631103514
 30
0.0
 40
21.600000381469
100
AcDbArc
 50
315.0734847530392
 51
326.770781348241
  0
ARC
  5
C35
330
C31
100
AcDbEntity
  8
PV0001_1
  6
CONTINUOUS
 48
0.5
100
AcDbCircle
 10
-18.0680770874
 20
11.8365631103514
 30
0.0
 40
21.600000381469
100
AcDbArc
 50
303.2288882981993
 51
306.633986901359
  0
ARC
  5
C36
330
C31
100
AcDbEntity
  8
PV0001_1
  6
CONTINUOUS
 48
0.5
100
AcDbCircle
 10
-0.6269836425800009
 20
-2.044216156005997
 30
0.0
 40
2.0
100
AcDbArc
 50
337.4067997351092
 51
43.42231293132884
  0
ARC
  5
C37
330
C31
100
AcDbEntity
  8
PV0001_1
  6
CONTINUOUS
 48
0.5
100
AcDbCircle
 10
0.626953125
 20
2.044223785401001
 30
0.0
 40
2.0
100
AcDbArc
 50
157.4068184044407
 51
223.4222769591536
  0
CIRCLE
  5
C38
330
C31
100
AcDbEntity
  8
PV0001_1
  6
CONTINUOUS
 48
0.5
100
AcDbCircle
 10
3.856727600100001
 20
4.596265792847002
 30
0.0
 40
1.6000000238419
  0
CIRCLE
  5
C39
330
C31
100
AcDbEntity
  8
PV0001_1
  6
CONTINUOUS
 48
0.5
100
AcDbCircle
 10
-3.856727600100001
 20
-4.596265792845997
 30
0.0
 40
1.6000000238419
  0
ARC
  5
C3A
330
C31
100
AcDbEntity
  8
PV0001_1
  6
CONTINUOUS
 48
0.5
100
AcDbCircle
 10
-5.58123779297
 20
5.092639923096001
 30
0.0
 40
5.019082546234099
100
AcDbArc
 50
240.2658959250867
 51
321.5156269706421
  0
ARC
  5
C3B
330
C31
100
AcDbEntity
  8
PV0001_1
  6
CONTINUOUS
 48
0.5
100
AcDbCircle
 10
5.486755371089998
 20
-4.601703643798998
 30
0.0
 40
4.651036739349399
100
AcDbArc
 50
56.25271400417071
 51
145.528859890601
  0
ARC
  5
C3C
330
C31
100
AcDbEntity
  8
PV0001_1
  6
CONTINUOUS
 48
0.5
100
AcDbCircle
 10
-2.11590576172
 20
-3.453323364257997
 30
0.0
 40
4.050000190734899
100
AcDbArc
 50
43.42230610113921
 51
58.50391703385149
  0
ARC
  5
C3D
330
C31
100
AcDbEntity
  8
PV0001_1
  6
CONTINUOUS
 48
0.5
100
AcDbCircle
 10
2.115875244139999
 20
3.453330993653001
 30
0.0
 40
4.050000190734899
100
AcDbArc
 50
223.4222942619974
 51
238.5038164022482
  0
ARC
  5
C3E
330
C31
100
AcDbEntity
  8
PV0001_1
  6
CONTINUOUS
 48
0.5
100
AcDbCircle
 10
-6.70369720459
 20
5.094657897949002
 30
0.0
 40
5.940000057220499
100
AcDbArc
 50
328.2536768887549
 51
31.74641873389623
  0
ARC
  5
C3F
330
C31
100
AcDbEntity
  8
PV0001_1
  6
CONTINUOUS
 48
0.5
100
AcDbCircle
 10
6.703674316410001
 20
-5.094650268553998
 30
0.0
 40
5.940000057220499
100
AcDbArc
 50
148.2533403882529
 51
211.7466423089037
  0
ARC
  5
C40
330
C31
100
AcDbEntity
  8
PV0001_1
  6
CONTINUOUS
 48
0.5
100
AcDbCircle
 10
0.0
 20
0.0
 30
0.0
 40
8.812800407409699
100
AcDbArc
 50
175.2198288164333
 51
272.8622597568298
  0
ARC
  5
C41
330
C31
100
AcDbEntity
  8
PV0001_1
  6
CONTINUOUS
 48
0.5
100
AcDbCircle
 10
0.0
 20
0.0
 30
0.0
 40
9.1800003051758
100
AcDbArc
 50
272.7511362215027
 51
280.3697477877874
  0
ARC
  5
C42
330
C31
100
AcDbEntity
  8
PV0001_1
  6
CONTINUOUS
 48
0.5
100
AcDbCircle
 10
0.0
 20
0.0
 30
0.0
 40
8.812800407409699
100
AcDbArc
 50
355.2198199654955
 51
92.86229572901076
  0
ARC
  5
C43
330
C31
100
AcDbEntity
  8
PV0001_1
  6
CONTINUOUS
 48
0.5
100
AcDbCircle
 10
0.0
 20
0.0
 30
0.0
 40
9.1800003051758
100
AcDbArc
 50
92.75115489083434
 51
100.3697664571193
  0
CIRCLE
  5
C44
330
C31
100
AcDbEntity
  8
PV0001_1
  6
CONTINUOUS
100
AcDbCircle
 10
0.0
 20
0.0
 30
0.0
 40
9.1800003051758
  0
LINE
  5
C45
330
C31
100
AcDbEntity
  8
PV0001_1
  6
CONTINUOUS
 48
0.5
100
AcDbLine
 10
-1.652404785160001
 20
9.030059814453
 30
0.0
 11
-1.652404785160001
 21
8.220062255860002
 31
0.0
  0
LINE
  5
C46
330
C31
100
AcDbEntity
  8
PV0001_1
  6
CONTINUOUS
 48
0.5
100
AcDbLine
 10
1.652404785160001
 20
-8.220058441161999
 30
0.0
 11
1.652404785160001
 21
-9.030055999755997
 31
0.0
  0
LINE
  5
C47
330
C31
100
AcDbEntity
  8
PV0001_1
  6
CONTINUOUS
 48
0.5
100
AcDbLine
 10
-8.78217315674
 20
0.7343807220460015
 30
0.0
 11
-8.070594787600001
 21
0.7343997955320028
 31
0.0
  0
LINE
  5
C48
330
C31
100
AcDbEntity
  8
PV0001_1
  6
CONTINUOUS
 48
0.5
100
AcDbLine
 10
8.07057952881
 20
-0.7343864440919994
 30
0.0
 11
8.78215789795
 21
-0.7343654632569994
 31
0.0
  0
LINE
  5
C49
330
C31
100
AcDbEntity
  8
PV0001_1
  6
CONTINUOUS
 48
0.5
100
AcDbLine
 10
0.4406127929700006
 20
-9.169414520263
 30
0.0
 11
0.4406127929700006
 21
-8.812801361083998
 31
0.0
  0
LINE
  5
C4A
330
C31
100
AcDbEntity
  8
PV0001_1
  6
CONTINUOUS
 48
0.5
100
AcDbLine
 10
-0.4406127929700006
 20
9.169418334961001
 30
0.0
 11
-0.4406127929700006
 21
8.812805175781001
 31
0.0
  0
ENDBLK
  5
C4C
330
C31
100
AcDbEntity
  8
0
100
AcDbBlockEnd
  0
BLOCK
  5
245D
330
2453
100
AcDbEntity
  8
0
100
AcDbBlockBegin
  2
*D6
 70
     1
 10
0.0
 20
0.0
 30
0.0
  3
*D6
  1

  0
LINE
  5
2454
330
2453
100
AcDbEntity
  8
AM_5
 62
     3
100
AcDbLine
 10
-137.574381722344
 20
-5.00000294019065
 30
0.0
 11
-152.8199008769066
 21
-5.000002940190694
 31
0.0
  0
LINE
  5
2455
330
2453
100
AcDbEntity
  8
AM_5
 62
     3
100
AcDbLine
 10
-137.5743817223442
 20
5.00002461040103
 30
0.0
 11
-152.8199008769066
 21
5.000024610400987
 31
0.0
  0
LINE
  5
2456
330
2453
100
AcDbEntity
  8
AM_5
 62
     3
100
AcDbLine
 10
-151.8199008769066
 20
-2.500002940190691
 30
0.0
 11
-151.8199008769066
 21
2.50002461040099
 31
0.0
  0
INSERT
  5
2457
330
2453
100
AcDbEntity
  8
AM_5
 62
     3
100
AcDbBlockReference
  2
_OPEN30
 10
-151.8199008769066
 20
-5.00000294019069
 30
0.0
 41
2.5
 42
2.5
 43
2.5
 50
270.0000000000001
  0
INSERT
  5
2458
330
2453
100
AcDbEntity
  8
AM_5
 62
     3
100
AcDbBlockReference
  2
_OPEN30
 10
-151.8199008769066
 20
5.00002461040099
 30
0.0
 41
2.5
 42
2.5
 43
2.5
 50
90.00000000000015
  0
MTEXT
  5
2459
330
2453
100
AcDbEntity
  8
AM_5
 62
     2
100
AcDbMText
 10
-155.2199008769066
 20
0.000010835105146
 30
0.0
 40
3.799999999999999
 41
0.0
 71
     5
 72
     1
  1
%%c10
 11
-0.0000000000000028
 21
1.0
 31
0.0
1001
ACAD
1000
MTEXTBEGIN
1070
    73
1070
     1
1070
    44
1040
1.0
1070
    74
1070
     0
1000
MTEXTEND
  0
POINT
  5
245A
330
2453
100
AcDbEntity
  8
DEFPOINTS
 62
     0
100
AcDbPoint
 10
-137.5743817223441
 20
-5.000002940190223
 30
0.0
  0
POINT
  5
245B
330
2453
100
AcDbEntity
  8
DEFPOINTS
 62
     0
100
AcDbPoint
 10
-137.5743817223441
 20
5.000024610401458
 30
0.0
  0
POINT
  5
245C
330
2453
100
AcDbEntity
  8
DEFPOINTS
 62
     0
100
AcDbPoint
 10
-151.8199008769066
 20
5.000024610401462
 30
0.0
  0
ENDBLK
  5
245E
330
2453
100
AcDbEntity
  8
0
100
AcDbBlockEnd
  0
BLOCK
  5
246B
330
245F
100
AcDbEntity
  8
0
100
AcDbBlockBegin
  2
A$C4FFC6CC0
 70
     0
 10
0.0
 20
0.0
 30
0.0
  3
A$C4FFC6CC0
  1

  0
DIMENSION
  5
2460
330
245F
100
AcDbEntity
  8
AM_5
100
AcDbDimension
  2
*D6
 10
-70.00000100000002
 20
5.000008477104842
 30
0.0
 11
-70.00000100000002
 21
-0.0000052981910228
 31
0.0
 12
81.81989987690661
 22
-0.0000161332966199
 32
0.0
 70
   128
  1
%%c<>
 51
359.9999999999998
  3
AM_JIS$0
100
AcDbAlignedDimension
 13
-55.75448184543748
 23
-5.000019073486843
 33
0.0
 14
-55.75448184543756
 24
5.000008477104838
 34
0.0
 50
270.0
100
AcDbRotatedDimension
1001
ACAD
1000
DSTYLE
1002
{
1070
   271
1070
     0
1002
}
1001
GENIUS_GENDTOL_13
1000

1000
h7
1000

1040
0.0
  0
LINE
  5
2461
330
245F
100
AcDbEntity
  8
AM_0
 48
0.5
100
AcDbLine
 10
-56.0
 20
-4.754495620727796
 30
0.0
 11
-56.00000000000003
 21
4.754485024345811
 31
0.0
  0
LINE
  5
2462
330
245F
100
AcDbEntity
  8
AM_0
 48
0.5
100
AcDbLine
 10
-55.75448184543751
 20
-5.000019073486843
 30
0.0
 11
-55.75448184543754
 21
5.000008477104838
 31
0.0
  0
LINE
  5
2463
330
245F
100
AcDbEntity
  8
AM_0
100
AcDbLine
 10
-0.0000000000000142
 20
4.999995231627903
 30
0.0
 11
-55.75448184543754
 21
4.999995231627746
 31
0.0
  0
LINE
  5
2464
330
245F
100
AcDbEntity
  8
AM_0
 48
0.5
100
AcDbLine
 10
-55.99996821086117
 20
4.754439989725671
 30
0.0
 11
-55.75443945990975
 21
4.999963442484006
 31
0.0
  0
LINE
  5
2465
330
245F
100
AcDbEntity
  8
AM_0
100
AcDbLine
 10
-55.75448184543751
 20
-5.000008477105588
 30
0.0
 11
0.0000000000000142
 21
-5.00000847710543
 31
0.0
  0
LINE
  5
2466
330
245F
100
AcDbEntity
  8
AM_0
 48
0.5
100
AcDbLine
 10
-55.99996821086114
 20
-4.754474427965309
 30
0.0
 11
-55.75443945990972
 21
-4.999997880724334
 31
0.0
  0
LINE
  5
2467
330
245F
100
AcDbEntity
  8
AM_0
100
AcDbLine
 10
0.7794201296714505
 20
4.549985867772141
 30
0.0
 11
0.7794201296714789
 21
-4.550003370497427
 31
0.0
  0
LINE
  5
2468
330
245F
100
AcDbEntity
  8
AM_0
 48
0.5
100
AcDbLine
 10
0.0000000000000142
 20
-5.00000847710543
 30
0.0
 11
-0.0000000000000142
 21
5.000008477104995
 31
0.0
  0
LINE
  5
2469
330
245F
100
AcDbEntity
  8
AM_0
 48
0.5
100
AcDbLine
 10
0.7794201296714647
 20
-4.550003370497435
 30
0.0
 11
-0.0000105963812445
 21
-5.00000847710543
 31
0.0
  0
LINE
  5
246A
330
245F
100
AcDbEntity
  8
AM_0
 48
0.5
100
AcDbLine
 10
0.7794201296714647
 20
4.549985867772141
 30
0.0
 11
-0.0000000000000142
 21
4.999984635246652
 31
0.0
  0
ENDBLK
  5
246C
330
245F
100
AcDbEntity
  8
0
100
AcDbBlockEnd
  0
BLOCK
  5
36C9
330
36BB
100
AcDbEntity
  8
0
100
AcDbBlockBegin
  2
*D8
 70
     1
 10
0.0
 20
0.0
 30
0.0
  3
*D8
  1

  0
LINE
  5
4DBC
330
36BB
100
AcDbEntity
  8
AM_5
100
AcDbLine
 10
0.3420201408161528
 20
-0.93969262169946
 30
0.0
 11
12.73376567701368
 21
-34.98573395293323
 31
0.0
  0
LINE
  5
4DBD
330
36BB
100
AcDbEntity
  8
AM_5
100
AcDbLine
 10
0.3420201408161419
 20
0.9396926216991598
 30
0.0
 11
12.73376567701327
 21
34.98573395293309
 31
0.0
  0
ARC
  5
4DBE
330
36BB
100
AcDbEntity
  8
AM_5
100
AcDbCircle
 10
0.0000000000000289
 20
-0.0000000000001521
 30
0.0
 40
36.23104039027792
100
AcDbArc
 50
293.9542854242186
 51
66.04571457578202
  0
INSERT
  5
4DBF
330
36BB
100
AcDbEntity
  8
AM_5
100
AcDbBlockReference
  2
_OPEN30
 10
12.39174553619755
 20
-34.04604133123393
 30
0.0
 41
2.5
 42
2.5
 43
2.5
 50
201.9771426356022
  0
INSERT
  5
4DC0
330
36BB
100
AcDbEntity
  8
AM_5
100
AcDbBlockReference
  2
_OPEN30
 10
12.39174553619716
 20
34.04604133123378
 30
0.0
 41
2.5
 42
2.5
 43
2.5
 50
158.0228573643984
  0
MTEXT
  5
4DC1
330
36BB
100
AcDbEntity
  8
AM_5
 62
     2
100
AcDbMText
 10
33.13104039027795
 20
0.0000000000000646
 30
0.0
 40
3.2
 41
0.0
 71
     5
 72
     1
  1
140°
  7
ASAMI
 11
-0.0000000000000028
 21
1.0
 31
0.0
1001
ACAD
1000
MTEXTBEGIN
1070
    73
1070
     1
1070
    44
1040
1.0
1070
    74
1070
     0
1000
MTEXTEND
  0
POINT
  5
4DC2
330
36BB
100
AcDbEntity
  8
DEFPOINTS
 62
     0
100
AcDbPoint
 10
33.26792484260828
 20
-14.35038203075178
 30
0.0
  0
POINT
  5
4DC3
330
36BB
100
AcDbEntity
  8
DEFPOINTS
 62
     0
100
AcDbPoint
 10
0.0
 20
-0.0000000000002316
 30
0.0
  0
POINT
  5
4DC4
330
36BB
100
AcDbEntity
  8
DEFPOINTS
 62
     0
100
AcDbPoint
 10
0.0
 20
-0.0000000000000725
 30
0.0
  0
POINT
  5
4DC5
330
36BB
100
AcDbEntity
  8
DEFPOINTS
 62
     0
100
AcDbPoint
 10
-2.800374408476802
 20
7.693965517241139
 30
0.0
  0
POINT
  5
4DC6
330
36BB
100
AcDbEntity
  8
DEFPOINTS
 62
     0
100
AcDbPoint
 10
-2.800374408476762
 20
-7.693965517241461
 30
0.0
  0
ENDBLK
  5
36CA
330
36BB
100
AcDbEntity
  8
0
100
AcDbBlockEnd
  0
BLOCK
  5
3B18
330
3B0E
100
AcDbEntity
  8
0
100
AcDbBlockBegin
  2
*D9
 70
     1
 10
0.0
 20
0.0
 30
0.0
  3
*D9
  1

  0
LINE
  5
57F4
330
3B0E
100
AcDbEntity
  8
AM_5
 62
     3
100
AcDbLine
 10
-5.095583237385852
 20
14.28610634648367
 30
0.0
 11
-5.095583237385909
 21
34.05408874454664
 31
0.0
  0
LINE
  5
57F5
330
3B0E
100
AcDbEntity
  8
AM_5
 62
     3
100
AcDbLine
 10
-149.0955832373856
 20
14.80000000000308
 30
0.0
 11
-149.0955832373856
 21
34.05408874454622
 31
0.0
  0
LINE
  5
57F6
330
3B0E
100
AcDbEntity
  8
AM_5
 62
     3
100
AcDbLine
 10
-7.595583237385906
 20
33.05408874454663
 30
0.0
 11
-146.5955832373856
 21
33.05408874454622
 31
0.0
  0
INSERT
  5
57F7
330
3B0E
100
AcDbEntity
  8
AM_5
 62
     3
100
AcDbBlockReference
  2
_OPEN30
 10
-5.095583237385906
 20
33.05408874454664
 30
0.0
 41
2.5
 42
2.5
 43
2.5
 50
0.0000000000001527
  0
INSERT
  5
57F8
330
3B0E
100
AcDbEntity
  8
AM_5
 62
     3
100
AcDbBlockReference
  2
_OPEN30
 10
-149.0955832373856
 20
33.05408874454622
 30
0.0
 41
2.5
 42
2.5
 43
2.5
 50
180.0000000000001
  0
MTEXT
  5
57F9
330
3B0E
100
AcDbEntity
  8
AM_5
 62
     2
100
AcDbMText
 10
-77.09558323738578
 20
36.45408874454642
 30
0.0
 40
3.799999999999999
 41
0.0
 71
     5
 72
     1
  1
144
1001
ACAD
1000
MTEXTBEGIN
1070
    73
1070
     1
1070
    44
1040
1.0
1070
    74
1070
     0
1000
MTEXTEND
  0
POINT
  5
57FA
330
3B0E
100
AcDbEntity
  8
DEFPOINTS
 62
     0
100
AcDbPoint
 10
-5.09558323738581
 20
13.48610634648368
 30
0.0
  0
POINT
  5
57FB
330
3B0E
100
AcDbEntity
  8
DEFPOINTS
 62
     0
100
AcDbPoint
 10
-149.0955832373855
 20
14.00000000000351
 30
0.0
  0
POINT
  5
57FC
330
3B0E
100
AcDbEntity
  8
DEFPOINTS
 62
     0
100
AcDbPoint
 10
-149.0955832373855
 20
33.05408874454665
 30
0.0
  0
ENDBLK
  5
3B19
330
3B0E
100
AcDbEntity
  8
0
100
AcDbBlockEnd
  0
BLOCK
  5
4725
330
471B
100
AcDbEntity
  8
0
100
AcDbBlockBegin
  2
*D10
 70
     1
 10
0.0
 20
0.0
 30
0.0
  3
*D10
  1

  0
LINE
  5
57EB
330
471B
100
AcDbEntity
  8
AM_5
 62
     3
100
AcDbLine
 10
-5.095583237385852
 20
14.28610634648367
 30
0.0
 11
-5.095583237385949
 21
48.25603131924391
 31
0.0
  0
LINE
  5
57EC
330
471B
100
AcDbEntity
  8
AM_5
 62
     3
100
AcDbLine
 10
-162.0955832373857
 20
14.80000000000332
 30
0.0
 11
-162.0955832373858
 21
48.25603131924345
 31
0.0
  0
LINE
  5
57ED
330
471B
100
AcDbEntity
  8
AM_5
 62
     3
100
AcDbLine
 10
-7.595583237385946
 20
47.2560313192439
 30
0.0
 11
-159.5955832373858
 21
47.25603131924346
 31
0.0
  0
INSERT
  5
57EE
330
471B
100
AcDbEntity
  8
AM_5
 62
     3
100
AcDbBlockReference
  2
_OPEN30
 10
-5.095583237385946
 20
47.2560313192439
 30
0.0
 41
2.5
 42
2.5
 43
2.5
 50
0.0000000000001527
  0
INSERT
  5
57EF
330
471B
100
AcDbEntity
  8
AM_5
 62
     3
100
AcDbBlockReference
  2
_OPEN30
 10
-162.0955832373858
 20
47.25603131924345
 30
0.0
 41
2.5
 42
2.5
 43
2.5
 50
180.0000000000001
  0
MTEXT
  5
57F0
330
471B
100
AcDbEntity
  8
AM_5
 62
     2
100
AcDbMText
 10
-83.59558323738587
 20
50.65603131924368
 30
0.0
 40
3.799999999999999
 41
0.0
 71
     5
 72
     1
  1
157
1001
ACAD
1000
MTEXTBEGIN
1070
    73
1070
     1
1070
    44
1040
1.0
1070
    74
1070
     0
1000
MTEXTEND
  0
POINT
  5
57F1
330
471B
100
AcDbEntity
  8
DEFPOINTS
 62
     0
100
AcDbPoint
 10
-5.09558323738581
 20
13.48610634648368
 30
0.0
  0
POINT
  5
57F2
330
471B
100
AcDbEntity
  8
DEFPOINTS
 62
     0
100
AcDbPoint
 10
-162.0955832373856
 20
14.00000000000379
 30
0.0
  0
POINT
  5
57F3
330
471B
100
AcDbEntity
  8
DEFPOINTS
 62
     0
100
AcDbPoint
 10
-162.0955832373856
 20
47.25603131924392
 30
0.0
  0
ENDBLK
  5
4726
330
471B
100
AcDbEntity
  8
0
100
AcDbBlockEnd
  0
BLOCK
  5
4A82
330
4A78
100
AcDbEntity
  8
0
100
AcDbBlockBegin
  2
*D11
 70
     1
 10
0.0
 20
0.0
 30
0.0
  3
*D11
  1

  0
LINE
  5
57B8
330
4A78
100
AcDbEntity
  8
AM_5
 62
     3
100
AcDbLine
 10
-5.09558323738546
 20
-14.2861063464837
 30
0.0
 11
-5.095583237385462
 21
-60.79651903350736
 31
0.0
  0
LINE
  5
57B9
330
4A78
100
AcDbEntity
  8
AM_5
 62
     3
100
AcDbLine
 10
-245.0955832373854
 20
-15.91955414979427
 30
0.0
 11
-245.0955832373854
 21
-60.79651903350736
 31
0.0
  0
LINE
  5
57BA
330
4A78
100
AcDbEntity
  8
AM_5
 62
     3
100
AcDbLine
 10
-7.595583237385462
 20
-59.79651903350736
 30
0.0
 11
-242.5955832373854
 21
-59.79651903350736
 31
0.0
  0
INSERT
  5
57BB
330
4A78
100
AcDbEntity
  8
AM_5
 62
     3
100
AcDbBlockReference
  2
_OPEN30
 10
-5.095583237385462
 20
-59.79651903350736
 30
0.0
 41
2.5
 42
2.5
 43
2.5
  0
INSERT
  5
57BC
330
4A78
100
AcDbEntity
  8
AM_5
 62
     3
100
AcDbBlockReference
  2
_OPEN30
 10
-245.0955832373854
 20
-59.79651903350736
 30
0.0
 41
2.5
 42
2.5
 43
2.5
 50
180.0
  0
MTEXT
  5
57BD
330
4A78
100
AcDbEntity
  8
AM_5
 62
     2
100
AcDbMText
 10
-125.0955832373854
 20
-56.39651903350736
 30
0.0
 40
3.799999999999999
 41
0.0
 71
     5
 72
     1
  1
240
1001
ACAD
1000
MTEXTBEGIN
1070
    73
1070
     1
1070
    44
1040
1.0
1070
    74
1070
     0
1000
MTEXTEND
  0
POINT
  5
57BE
330
4A78
100
AcDbEntity
  8
DEFPOINTS
 62
     0
100
AcDbPoint
 10
-5.09558323738546
 20
-13.4861063464837
 30
0.0
  0
POINT
  5
57BF
330
4A78
100
AcDbEntity
  8
DEFPOINTS
 62
     0
100
AcDbPoint
 10
-245.0955832373854
 20
-15.11955414979427
 30
0.0
  0
POINT
  5
57C0
330
4A78
100
AcDbEntity
  8
DEFPOINTS
 62
     0
100
AcDbPoint
 10
-245.0955832373854
 20
-59.79651903350736
 30
0.0
  0
ENDBLK
  5
4A83
330
4A78
100
AcDbEntity
  8
0
100
AcDbBlockEnd
  0
BLOCK
  5
4A9A
330
4A90
100
AcDbEntity
  8
0
100
AcDbBlockBegin
  2
*D12
 70
     1
 10
0.0
 20
0.0
 30
0.0
  3
*D12
  1

  0
LINE
  5
57CA
330
4A90
100
AcDbEntity
  8
AM_5
 62
     3
100
AcDbLine
 10
-5.095583237385469
 20
-14.28610634648239
 30
0.0
 11
-5.095583237385471
 21
-46.82025857312612
 31
0.0
  0
LINE
  5
57CB
330
4A90
100
AcDbEntity
  8
AM_5
 62
     3
100
AcDbLine
 10
-185.0955832373854
 20
-16.76804658143575
 30
0.0
 11
-185.0955832373854
 21
-46.82025857312612
 31
0.0
  0
LINE
  5
57CC
330
4A90
100
AcDbEntity
  8
AM_5
 62
     3
100
AcDbLine
 10
-7.595583237385471
 20
-45.82025857312611
 30
0.0
 11
-182.5955832373854
 21
-45.82025857312611
 31
0.0
  0
INSERT
  5
57CD
330
4A90
100
AcDbEntity
  8
AM_5
 62
     3
100
AcDbBlockReference
  2
_OPEN30
 10
-5.095583237385471
 20
-45.82025857312611
 30
0.0
 41
2.5
 42
2.5
 43
2.5
  0
INSERT
  5
57CE
330
4A90
100
AcDbEntity
  8
AM_5
 62
     3
100
AcDbBlockReference
  2
_OPEN30
 10
-185.0955832373854
 20
-45.82025857312611
 30
0.0
 41
2.5
 42
2.5
 43
2.5
 50
180.0
  0
MTEXT
  5
57CF
330
4A90
100
AcDbEntity
  8
AM_5
 62
     2
100
AcDbMText
 10
-95.09558323738549
 20
-42.42025857312611
 30
0.0
 40
3.799999999999999
 41
0.0
 71
     5
 72
     1
  1
180
1001
ACAD
1000
MTEXTBEGIN
1070
    73
1070
     1
1070
    44
1040
1.0
1070
    74
1070
     0
1000
MTEXTEND
  0
POINT
  5
57D0
330
4A90
100
AcDbEntity
  8
DEFPOINTS
 62
     0
100
AcDbPoint
 10
-5.095583237385469
 20
-13.48610634648239
 30
0.0
  0
POINT
  5
57D1
330
4A90
100
AcDbEntity
  8
DEFPOINTS
 62
     0
100
AcDbPoint
 10
-185.0955832373854
 20
-15.96804658143575
 30
0.0
  0
POINT
  5
57D2
330
4A90
100
AcDbEntity
  8
DEFPOINTS
 62
     0
100
AcDbPoint
 10
-185.0955832373854
 20
-45.82025857312611
 30
0.0
  0
ENDBLK
  5
4A9B
330
4A90
100
AcDbEntity
  8
0
100
AcDbBlockEnd
  0
BLOCK
  5
524D
330
5243
100
AcDbEntity
  8
0
100
AcDbBlockBegin
  2
*D13
 70
     1
 10
0.0
 20
0.0
 30
0.0
  3
*D13
  1

  0
LINE
  5
5811
330
5243
100
AcDbEntity
  8
AM_5
 62
     3
100
AcDbLine
 10
-3.809294236789389
 20
13.99999999999998
 30
0.0
 11
20.10169757500834
 21
14.00000000000005
 31
0.0
  0
LINE
  5
5812
330
5243
100
AcDbEntity
  8
AM_5
 62
     3
100
AcDbLine
 10
-3.962937378015665
 20
-13.99999999999999
 30
0.0
 11
20.10169757500841
 21
-13.99999999999993
 31
0.0
  0
LINE
  5
5813
330
5243
100
AcDbEntity
  8
AM_5
 62
     3
100
AcDbLine
 10
19.10169757500834
 20
11.50000000000005
 30
0.0
 11
19.10169757500841
 21
-11.49999999999993
 31
0.0
  0
INSERT
  5
5814
330
5243
100
AcDbEntity
  8
AM_5
 62
     3
100
AcDbBlockReference
  2
_OPEN30
 10
19.10169757500834
 20
14.00000000000004
 30
0.0
 41
2.5
 42
2.5
 43
2.5
 50
90.00000000000017
  0
INSERT
  5
5815
330
5243
100
AcDbEntity
  8
AM_5
 62
     3
100
AcDbBlockReference
  2
_OPEN30
 10
19.10169757500842
 20
-13.99999999999993
 30
0.0
 41
2.5
 42
2.5
 43
2.5
 50
270.0000000000001
  0
MTEXT
  5
5816
330
5243
100
AcDbEntity
  8
AM_5
 62
     2
100
AcDbMText
 10
15.70169757500837
 20
-0.0000000000001027
 30
0.0
 40
3.799999999999999
 41
0.0
 71
     5
 72
     1
  1
%%C28
 11
-0.0000000000000028
 21
1.0
 31
0.0
1001
ACAD
1000
MTEXTBEGIN
1070
    73
1070
     1
1070
    44
1040
1.0
1070
    74
1070
     0
1000
MTEXTEND
  0
POINT
  5
5817
330
5243
100
AcDbEntity
  8
DEFPOINTS
 62
     0
100
AcDbPoint
 10
-4.609294236789346
 20
13.99999999999999
 30
0.0
  0
POINT
  5
5818
330
5243
100
AcDbEntity
  8
DEFPOINTS
 62
     0
100
AcDbPoint
 10
-4.762937378015708
 20
-13.99999999999998
 30
0.0
  0
POINT
  5
5819
330
5243
100
AcDbEntity
  8
DEFPOINTS
 62
     0
100
AcDbPoint
 10
19.10169757500837
 20
-13.99999999999999
 30
0.0
  0
ENDBLK
  5
524E
330
5243
100
AcDbEntity
  8
0
100
AcDbBlockEnd
  0
BLOCK
  5
5375
330
536B
100
AcDbEntity
  8
0
100
AcDbBlockBegin
  2
*D14
 70
     1
 10
0.0
 20
0.0
 30
0.0
  3
*D14
  1

  0
LINE
  5
5792
330
536B
100
AcDbEntity
  8
AM_5
 62
     3
100
AcDbLine
 10
-239.9269623189077
 20
16.03201201231513
 30
0.0
 11
-262.6965472798338
 21
16.03201201231513
 31
0.0
  0
LINE
  5
5793
330
536B
100
AcDbEntity
  8
AM_5
 62
     3
100
AcDbLine
 10
-239.9269623189075
 20
-15.96786347911922
 30
0.0
 11
-262.6965472798338
 21
-15.96786347911921
 31
0.0
  0
LINE
  5
5794
330
536B
100
AcDbEntity
  8
AM_5
 62
     3
100
AcDbLine
 10
-261.6965472798339
 20
13.53201201231513
 30
0.0
 11
-261.6965472798339
 21
-13.46786347911921
 31
0.0
  0
INSERT
  5
5795
330
536B
100
AcDbEntity
  8
AM_5
 62
     3
100
AcDbBlockReference
  2
_OPEN30
 10
-261.6965472798339
 20
16.03201201231513
 30
0.0
 41
2.5
 42
2.5
 43
2.5
 50
90.0
  0
INSERT
  5
5796
330
536B
100
AcDbEntity
  8
AM_5
 62
     3
100
AcDbBlockReference
  2
_OPEN30
 10
-261.6965472798339
 20
-15.96786347911921
 30
0.0
 41
2.5
 42
2.5
 43
2.5
 50
270.0
  0
MTEXT
  5
5797
330
536B
100
AcDbEntity
  8
AM_5
 62
     2
100
AcDbMText
 10
-265.0965472798338
 20
0.032074266597919
 30
0.0
 40
3.799999999999999
 41
0.0
 71
     5
 72
     1
  1
%%C32
 11
0.0000000000000001
 21
1.0
 31
0.0
1001
ACAD
1000
MTEXTBEGIN
1070
    73
1070
     1
1070
    44
1040
1.0
1070
    74
1070
     0
1000
MTEXTEND
  0
POINT
  5
5798
330
536B
100
AcDbEntity
  8
DEFPOINTS
 62
     0
100
AcDbPoint
 10
-239.1269623189077
 20
16.03201201231513
 30
0.0
  0
POINT
  5
5799
330
536B
100
AcDbEntity
  8
DEFPOINTS
 62
     0
100
AcDbPoint
 10
-239.1269623189075
 20
-15.96786347911922
 30
0.0
  0
POINT
  5
579A
330
536B
100
AcDbEntity
  8
DEFPOINTS
 62
     0
100
AcDbPoint
 10
-261.6965472798339
 20
-15.96786347911921
 30
0.0
  0
ENDBLK
  5
5376
330
536B
100
AcDbEntity
  8
0
100
AcDbBlockEnd
  0
BLOCK
  5
5381
330
5377
100
AcDbEntity
  8
0
100
AcDbBlockBegin
  2
*D15
 70
     1
 10
0.0
 20
0.0
 30
0.0
  3
*D15
  1

  0
LINE
  5
57A4
330
5377
100
AcDbEntity
  8
AM_5
 62
     3
100
AcDbLine
 10
-239.095594602788
 20
-0.800000000001372
 30
0.0
 11
-239.095594602788
 21
-32.47941722561932
 31
0.0
  0
LINE
  5
57A5
330
5377
100
AcDbEntity
  8
AM_5
 62
     3
100
AcDbLine
 10
-189.0955832373856
 20
-0.8000000000011288
 30
0.0
 11
-189.0955832373856
 21
-32.47941722561932
 31
0.0
  0
LINE
  5
57A6
330
5377
100
AcDbEntity
  8
AM_5
 62
     3
100
AcDbLine
 10
-236.595594602788
 20
-31.47941722561932
 30
0.0
 11
-191.5955832373855
 21
-31.47941722561932
 31
0.0
  0
INSERT
  5
57A7
330
5377
100
AcDbEntity
  8
AM_5
 62
     3
100
AcDbBlockReference
  2
_OPEN30
 10
-239.095594602788
 20
-31.47941722561932
 30
0.0
 41
2.5
 42
2.5
 43
2.5
 50
180.0
  0
INSERT
  5
57A8
330
5377
100
AcDbEntity
  8
AM_5
 62
     3
100
AcDbBlockReference
  2
_OPEN30
 10
-189.0955832373856
 20
-31.47941722561932
 30
0.0
 41
2.5
 42
2.5
 43
2.5
  0
MTEXT
  5
57A9
330
5377
100
AcDbEntity
  8
AM_5
 62
     2
100
AcDbMText
 10
-214.0955889200868
 20
-28.07941722561933
 30
0.0
 40
3.799999999999999
 41
0.0
 71
     5
 72
     1
  1
50
1001
ACAD
1000
MTEXTBEGIN
1070
    73
1070
     1
1070
    44
1040
1.0
1070
    74
1070
     0
1000
MTEXTEND
  0
POINT
  5
57AA
330
5377
100
AcDbEntity
  8
DEFPOINTS
 62
     0
100
AcDbPoint
 10
-239.095594602788
 20
-0.000000000001372
 30
0.0
  0
POINT
  5
57AB
330
5377
100
AcDbEntity
  8
DEFPOINTS
 62
     0
100
AcDbPoint
 10
-189.0955832373856
 20
-0.0000000000011289
 30
0.0
  0
POINT
  5
57AC
330
5377
100
AcDbEntity
  8
DEFPOINTS
 62
     0
100
AcDbPoint
 10
-189.0955832373856
 20
-31.47941722561932
 30
0.0
  0
ENDBLK
  5
5382
330
5377
100
AcDbEntity
  8
0
100
AcDbBlockEnd
  0
BLOCK
  5
538F
330
5383
100
AcDbEntity
  8
0
100
AcDbBlockBegin
  2
*D16
 70
     1
 10
0.0
 20
0.0
 30
0.0
  3
*D16
  1

  0
LINE
  5
57AD
330
5383
100
AcDbEntity
  8
AM_5
 62
     3
100
AcDbLine
 10
-245.0954733741213
 20
-15.91948090760735
 30
0.0
 11
-245.0954733741213
 21
-32.47941722561967
 31
0.0
  0
LINE
  5
57AE
330
5383
100
AcDbEntity
  8
AM_5
 62
     3
100
AcDbLine
 10
-239.095594602788
 20
-0.800000000001372
 30
0.0
 11
-239.095594602788
 21
-32.47941722561968
 31
0.0
  0
LINE
  5
57AF
330
5383
100
AcDbEntity
  8
AM_5
 62
     3
100
AcDbLine
 10
-247.5954733741213
 20
-31.47941722561967
 30
0.0
 11
-250.0954733741213
 21
-31.47941722561967
 31
0.0
  0
LINE
  5
57B0
330
5383
100
AcDbEntity
  8
AM_5
 62
     3
100
AcDbLine
 10
-236.595594602788
 20
-31.47941722561967
 30
0.0
 11
-234.0955946027881
 21
-31.47941722561967
 31
0.0
  0
LINE
  5
57B1
330
5383
100
AcDbEntity
  8
AM_5
 62
     3
100
AcDbLine
 10
-245.0954733741213
 20
-31.47941722561967
 30
0.0
 11
-239.095594602788
 21
-31.47941722561967
 31
0.0
  0
INSERT
  5
57B2
330
5383
100
AcDbEntity
  8
AM_5
 62
     3
100
AcDbBlockReference
  2
_OPEN30
 10
-245.0954733741213
 20
-31.47941722561967
 30
0.0
 41
2.5
 42
2.5
 43
2.5
  0
INSERT
  5
57B3
330
5383
100
AcDbEntity
  8
AM_5
 62
     3
100
AcDbBlockReference
  2
_OPEN30
 10
-239.095594602788
 20
-31.47941722561967
 30
0.0
 41
2.5
 42
2.5
 43
2.5
 50
180.0
  0
MTEXT
  5
57B4
330
5383
100
AcDbEntity
  8
AM_5
 62
     2
100
AcDbMText
 10
-242.0955339884547
 20
-28.07941722561967
 30
0.0
 40
3.799999999999999
 41
0.0
 71
     5
 72
     1
  1
6
1001
ACAD
1000
MTEXTBEGIN
1070
    73
1070
     1
1070
    44
1040
1.0
1070
    74
1070
     0
1000
MTEXTEND
  0
POINT
  5
57B5
330
5383
100
AcDbEntity
  8
DEFPOINTS
 62
     0
100
AcDbPoint
 10
-245.0954733741213
 20
-15.11948090760735
 30
0.0
  0
POINT
  5
57B6
330
5383
100
AcDbEntity
  8
DEFPOINTS
 62
     0
100
AcDbPoint
 10
-239.095594602788
 20
-0.000000000001372
 30
0.0
  0
POINT
  5
57B7
330
5383
100
AcDbEntity
  8
DEFPOINTS
 62
     0
100
AcDbPoint
 10
-239.095594602788
 20
-31.47941722561967
 30
0.0
  0
ENDBLK
  5
5390
330
5383
100
AcDbEntity
  8
0
100
AcDbBlockEnd
  0
BLOCK
  5
539B
330
5391
100
AcDbEntity
  8
0
100
AcDbBlockBegin
  2
*D17
 70
     1
 10
0.0
 20
0.0
 30
0.0
  3
*D17
  1

  0
LINE
  5
579B
330
5391
100
AcDbEntity
  8
AM_5
 62
     3
100
AcDbLine
 10
-185.0955832373854
 20
-16.76804658143575
 30
0.0
 11
-185.0955832373854
 21
-46.7645196373479
 31
0.0
  0
LINE
  5
579C
330
5391
100
AcDbEntity
  8
AM_5
 62
     3
100
AcDbLine
 10
-245.0955832373854
 20
-15.91955414979427
 30
0.0
 11
-245.0955832373854
 21
-46.7645196373479
 31
0.0
  0
LINE
  5
579D
330
5391
100
AcDbEntity
  8
AM_5
 62
     3
100
AcDbLine
 10
-187.5955832373854
 20
-45.76451963734791
 30
0.0
 11
-242.5955832373854
 21
-45.76451963734791
 31
0.0
  0
INSERT
  5
579E
330
5391
100
AcDbEntity
  8
AM_5
 62
     3
100
AcDbBlockReference
  2
_OPEN30
 10
-185.0955832373854
 20
-45.76451963734791
 30
0.0
 41
2.5
 42
2.5
 43
2.5
  0
INSERT
  5
579F
330
5391
100
AcDbEntity
  8
AM_5
 62
     3
100
AcDbBlockReference
  2
_OPEN30
 10
-245.0955832373854
 20
-45.76451963734791
 30
0.0
 41
2.5
 42
2.5
 43
2.5
 50
180.0
  0
MTEXT
  5
57A0
330
5391
100
AcDbEntity
  8
AM_5
 62
     2
100
AcDbMText
 10
-215.0955832373854
 20
-42.36451963734791
 30
0.0
 40
3.799999999999999
 41
0.0
 71
     5
 72
     1
  1
60
1001
ACAD
1000
MTEXTBEGIN
1070
    73
1070
     1
1070
    44
1040
1.0
1070
    74
1070
     0
1000
MTEXTEND
  0
POINT
  5
57A1
330
5391
100
AcDbEntity
  8
DEFPOINTS
 62
     0
100
AcDbPoint
 10
-185.0955832373854
 20
-15.96804658143575
 30
0.0
  0
POINT
  5
57A2
330
5391
100
AcDbEntity
  8
DEFPOINTS
 62
     0
100
AcDbPoint
 10
-245.0955832373854
 20
-15.11955414979427
 30
0.0
  0
POINT
  5
57A3
330
5391
100
AcDbEntity
  8
DEFPOINTS
 62
     0
100
AcDbPoint
 10
-245.0955832373854
 20
-45.76451963734791
 30
0.0
  0
ENDBLK
  5
539C
330
5391
100
AcDbEntity
  8
0
100
AcDbBlockEnd
  0
ENDSEC
  0
SECTION
  2
ENTITIES
  0
TEXT
  5
19BD
330
1F
100
AcDbEntity
  8
AM_6
100
AcDbText
 10
-145.9289165707187
 20
-82.29651903350742
 30
0.0
 40
5.0
  1
KDS280LAK
 50
0.0000000000001527
 72
     4
 11
-125.0955832373853
 21
-79.79651903350736
 31
0.0
100
AcDbText
  0
LINE
  5
35D1
330
1F
100
AcDbEntity
  8
AM_7
100
AcDbLine
 10
4.909002595337891
 20
-0.0000000000001046
 30
0.0
 11
-250.8307679664874
 21
-0.0000000000007345
 31
0.0
  0
LINE
  5
35F4
330
1F
100
AcDbEntity
  8
PV0001_1
  6
CONTINUOUS
 48
0.5
100
AcDbLine
 10
-162.0955832373856
 20
14.00000000000379
 30
0.0
 11
-185.0955832373856
 21
16.03196623594646
 31
0.0
  0
LINE
  5
35F5
330
1F
100
AcDbEntity
  8
PV0001_1
  6
CONTINUOUS
 48
0.5
100
AcDbLine
 10
-162.0955832373856
 20
-13.99999999999655
 30
0.0
 11
-185.0955832373854
 21
-15.96804658143576
 31
0.0
  0
DIMENSION
  5
36BA
330
1F
100
AcDbEntity
  8
AM_5
100
AcDbDimension
  2
*D8
 10
-2.800374408476762
 20
-7.693965517241461
 30
0.0
 11
33.13104039027795
 21
-0.0000000000000372
 31
0.0
 70
    34
  1
<>
 51
359.9999999999998
  3
AM_JIS$2
100
AcDb2LineAngularDimension
 13
0.0
 23
-0.0000000000000725
 33
0.0
 14
-2.800374408476802
 24
7.693965517241139
 34
0.0
 15
0.0
 25
-0.0000000000002316
 35
0.0
 16
33.26792484260828
 26
-14.35038203075178
 36
0.0
1001
ACAD
1000
DSTYLE
1002
{
1070
   179
1070
     3
1002
}
1001
GENIUS_GENDTOL_13
1000

1000
h7
1000

1040
0.0
  0
DIMENSION
  5
3B0D
330
1F
100
AcDbEntity
  8
AM_5
100
AcDbDimension
  2
*D9
 10
-149.0955832373855
 20
33.05408874454665
 30
0.0
 11
-77.09558323738568
 21
36.45408874454665
 31
0.0
 70
    32
  1
<>
 51
359.9999999999998
  3
AM_JIS$0
100
AcDbAlignedDimension
 13
-5.09558323738581
 23
13.48610634648368
 33
0.0
 14
-149.0955832373855
 24
14.00000000000351
 34
0.0
 50
180.0000000000001
100
AcDbRotatedDimension
1001
ACAD
1000
DSTYLE
1002
{
1070
   271
1070
     3
1002
}
1001
GENIUS_GENDTOL_13
1000

1000
h7
1000

1040
0.0
  0
LINE
  5
4534
330
1F
100
AcDbEntity
  8
PV0001_1
  6
CONTINUOUS
100
AcDbLine
 10
-162.0955832373856
 20
7.327570441534533
 30
0.0
 11
-162.0955832373856
 21
14.00000000000371
 31
0.0
  0
LINE
  5
4536
330
1F
100
AcDbEntity
  8
PV0001_1
  6
CONTINUOUS
100
AcDbLine
 10
-162.0955832373856
 20
-13.99999999999655
 30
0.0
 11
-162.0955832373856
 21
-10.66263551020245
 31
0.0
  0
LINE
  5
46A5
330
1F
100
AcDbEntity
  8
AM_11
 48
0.5
100
AcDbLine
 10
-149.0955832373855
 20
-13.99999999999677
 30
0.0
 11
-149.0955832373855
 21
14.00000000000351
 31
0.0
  0
DIMENSION
  5
471A
330
1F
100
AcDbEntity
  8
AM_5
100
AcDbDimension
  2
*D10
 10
-162.0955832373856
 20
47.25603131924392
 30
0.0
 11
-83.59558323738573
 21
50.65603131924392
 31
0.0
 70
    32
  1
<>
 51
359.9999999999998
  3
AM_JIS$0
100
AcDbAlignedDimension
 13
-5.09558323738581
 23
13.48610634648368
 33
0.0
 14
-162.0955832373856
 24
14.00000000000379
 34
0.0
 50
180.0000000000002
100
AcDbRotatedDimension
1001
ACAD
1000
DSTYLE
1002
{
1070
   271
1070
     3
1002
}
1001
GENIUS_GENDTOL_13
1000

1000
h7
1000

1040
0.0
  0
DIMENSION
  5
4A5A
330
1F
100
AcDbEntity
  8
AM_5
100
AcDbDimension
  2
*D11
 10
-245.0955832373854
 20
-59.79651903350736
 30
0.0
 11
-125.0955832373854
 21
-56.39651903350736
 31
0.0
 70
    32
  1
<>
  3
AM_JIS$0
100
AcDbAlignedDimension
 13
-5.09558323738546
 23
-13.4861063464837
 33
0.0
 14
-245.0955832373854
 24
-15.11955414979427
 34
0.0
 50
0.0000000000004184
100
AcDbRotatedDimension
1001
ACAD
1000
DSTYLE
1002
{
1070
   271
1070
     3
1002
}
1001
GENIUS_GENDTOL_13
1000

1000
h7
1000

1040
0.0
  0
DIMENSION
  5
4A5C
330
1F
100
AcDbEntity
  8
AM_5
100
AcDbDimension
  2
*D12
 10
-185.0955832373854
 20
-45.82025857312611
 30
0.0
 11
-95.09558323738549
 21
-42.42025857312611
 31
0.0
 70
    32
  1
<>
  3
AM_JIS$0
100
AcDbAlignedDimension
 13
-5.095583237385469
 23
-13.48610634648239
 33
0.0
 14
-185.0955832373854
 24
-15.96804658143575
 34
0.0
 50
0.0000000000003167
100
AcDbRotatedDimension
1001
ACAD
1000
DSTYLE
1002
{
1070
   271
1070
     3
1002
}
1001
GENIUS_GENDTOL_13
1000

1000
h7
1000

1040
0.0
  0
SPLINE
  5
4BDC
330
1F
100
AcDbEntity
  8
AM_0
100
AcDbSpline
210
0.0
220
0.0
230
1.0
 70
     8
 71
     3
 72
    12
 73
     8
 74
     0
 42
0.0000000001
 43
0.0000000001
 40
0.0
 40
0.0
 40
0.0
 40
0.0
 40
3.550288329958888
 40
5.110699985623471
 40
6.310592039948465
 40
8.859663010396623
 40
10.65155104271494
 40
10.65155104271494
 40
10.65155104271494
 40
10.65155104271494
 10
-149.3760708671235
 20
2.230623390782412
 30
0.0
 10
-166.7942691189397
 20
10.35782529678674
 30
0.0
 10
-176.4428878200759
 20
9.764045735095013
 30
0.0
 10
-182.6310054938468
 20
6.340551057075074
 30
0.0
 10
-183.4989729343378
 20
2.56703975410396
 30
0.0
 10
-181.6368147242292
 20
-0.6713288627815502
 30
0.0
 10
-170.5523277803649
 20
-8.136750087577205
 30
0.0
 10
-161.0605954537668
 20
-10.96927299698621
 30
0.0
  0
LINE
  5
5202
330
1F
100
AcDbEntity
  8
PV0001_1
  6
CONTINUOUS
 48
0.5
100
AcDbLine
 10
-0.0000000000002984
 20
0.0000000000000101
 30
0.0
 11
-5.095583237385645
 21
13.99999999999998
 31
0.0
  0
LINE
  5
5203
330
1F
100
AcDbEntity
  8
PV0001_1
  6
CONTINUOUS
 48
0.5
100
AcDbLine
 10
-0.0000000000002984
 20
-0.0000000000002481
 30
0.0
 11
-5.09558323738547
 21
-13.99999999999999
 31
0.0
  0
LINE
  5
522F
330
1F
100
AcDbEntity
  8
PV0001_1
  6
CONTINUOUS
 48
0.5
100
AcDbLine
 10
-162.0955832373856
 20
14.00000000000379
 30
0.0
 11
-132.2946046042833
 21
14.00000000000314
 31
0.0
  0
SPLINE
  5
5230
330
1F
100
AcDbEntity
  8
PV0001_1
  6
CONTINUOUS
100
AcDbSpline
210
0.0
220
0.0
230
1.0
 70
     8
 71
     3
 72
    30
 73
    26
 74
     0
 42
0.0000000001
 43
0.0000000001
 40
0.0
 40
0.0
 40
0.0
 40
0.0
 40
1.010743684496582
 40
2.022833576467832
 40
3.037578957496688
 40
4.056212745003489
 40
5.079857003664532
 40
6.109500240690281
 40
7.145961322679372
 40
8.189895241603872
 40
9.241717795325891
 40
10.30168407291828
 40
11.36983447792315
 40
12.44600489715814
 40
13.52984294512926
 40
14.62081576220742
 40
15.7182257034828
 40
16.82123173843959
 40
17.92886860250316
 40
19.0400688939571
 40
20.15368796660465
 40
21.26852814259644
 40
22.38336992938901
 40
23.49698739941135
 40
23.53853004329818
 40
23.53853004329818
 40
23.53853004329818
 40
23.53853004329818
 10
-96.42765588060697
 20
-13.99999999999768
 30
0.0
 10
-97.22872326536501
 20
-13.99167033916842
 30
0.0
 10
-98.83192497491499
 20
-13.97499992325144
 30
0.0
 10
-101.2361441035794
 20
-13.84061765606974
 30
0.0
 10
-103.6402606051943
 20
-13.62698495581551
 30
0.0
 10
-106.0442283156006
 20
-13.3275706013467
 30
0.0
 10
-108.4480232469849
 20
-12.94643223121936
 30
0.0
 10
-110.8515979778477
 20
-12.48526470702825
 30
0.0
 10
-113.2549605480399
 20
-11.94717461759015
 30
0.0
 10
-115.6580896445926
 20
-11.33545696915656
 30
0.0
 10
-118.0609688978168
 20
-10.65386767097918
 30
0.0
 10
-120.4636102847374
 20
-9.906684988626214
 30
0.0
 10
-122.866020240107
 20
-9.098481731336795
 30
0.0
 10
-125.2682287801139
 20
-8.234289169686137
 30
0.0
 10
-127.6702469029636
 20
-7.319417952123191
 30
0.0
 10
-130.0720968819401
 20
-6.359510179929747
 30
0.0
 10
-132.4738053538852
 20
-5.360487717492016
 30
0.0
 10
-134.8753933974744
 20
-4.328494080281034
 30
0.0
 10
-137.2768843203934
 20
-3.269876430622275
 30
0.0
 10
-139.6783038196157
 20
-2.19115043437828
 30
0.0
 10
-142.0796729578762
 20
-1.098947655657301
 30
0.0
 10
-144.4810256462266
 20
-0.0000028565052137
 30
0.0
 10
-146.8823675545128
 20
1.098961724338144
 30
0.0
 10
-148.5146090151445
 20
1.841331938582824
 30
0.0
 10
-149.3461646670214
 20
2.217111970081729
 30
0.0
 10
-149.3760708671235
 20
2.230623390782412
 30
0.0
  0
LINE
  5
5231
330
1F
100
AcDbEntity
  8
AM_0
100
AcDbLine
 10
-162.0955832373856
 20
-13.99999999999647
 30
0.0
 11
-136.9583204363467
 21
-13.99999999999704
 31
0.0
  0
SPLINE
  5
5232
330
1F
100
AcDbEntity
  8
PV0001_1
  6
CONTINUOUS
100
AcDbSpline
210
0.0
220
0.0
230
1.0
 70
     8
 71
     3
 72
    16
 73
    12
 74
     0
 42
0.0000000001
 43
0.0000000001
 40
0.0
 40
0.0
 40
0.0
 40
0.0
 40
1.010743684496582
 40
2.022833576467832
 40
3.037578957496688
 40
4.056212745003489
 40
5.079857003664532
 40
6.109500240690281
 40
7.145961322679372
 40
8.189895241603872
 40
8.753615341503387
 40
8.753615341503387
 40
8.753615341503387
 40
8.753615341503387
 10
-136.9583855864894
 20
-13.9999999306184
 30
0.0
 10
-137.8996930797289
 20
-13.99167026978914
 30
0.0
 10
-139.7835617917594
 20
-13.97499985387215
 30
0.0
 10
-142.6086792840726
 20
-13.84061758669042
 30
0.0
 10
-145.433676182772
 20
-13.6269848864362
 30
0.0
 10
-148.2584982418984
 20
-13.32757053196738
 30
0.0
 10
-151.0831172741743
 20
-12.94643216184002
 30
0.0
 10
-153.9074775561818
 20
-12.4852646376489
 30
0.0
 10
-156.7315885352807
 20
-11.94717454821077
 30
0.0
 10
-159.1153785979914
 20
-11.43078261711283
 30
0.0
 10
-160.5563558378747
 20
-11.09129873556563
 30
0.0
 10
-161.0605954537668
 20
-10.96927299698621
 30
0.0
  0
LINE
  5
5234
330
1F
100
AcDbEntity
  8
PV0001_1
  6
CONTINUOUS
 48
0.5
100
AcDbLine
 10
-20.31538365675177
 20
14.00000000000027
 30
0.0
 11
-5.095583237385645
 21
13.99999999999999
 31
0.0
  0
LINE
  5
5235
330
1F
100
AcDbEntity
  8
PV0001_1
  6
CONTINUOUS
 48
0.5
100
AcDbLine
 10
-4.416172787004142
 20
12.13333511352435
 30
0.0
 11
-20.36771642646942
 21
12.13333511352465
 31
0.0
  0
LINE
  5
5236
330
1F
100
AcDbEntity
  8
AM_0
100
AcDbLine
 10
-3.458296563660489
 20
-3.464516794799467
 30
0.0
 11
-7.919951499386723
 21
-5.83671823492657
 31
0.0
  0
LINE
  5
5237
330
1F
100
AcDbEntity
  8
AM_0
100
AcDbLine
 10
-4.460321989147409
 20
0.8891297969484885
 30
0.0
 11
-3.458296563660489
 21
-3.464516794799467
 31
0.0
  0
LINE
  5
5238
330
1F
100
AcDbEntity
  8
PV0001_1
  6
CONTINUOUS
 48
0.5
100
AcDbLine
 10
-3.458296563660489
 20
-3.464516794799467
 30
0.0
 11
-5.477050658371655
 21
-12.09090909090907
 31
0.0
  0
LINE
  5
523A
330
1F
100
AcDbEntity
  8
PV0001_1
  6
CONTINUOUS
 48
0.5
100
AcDbLine
 10
-16.09055502605681
 20
4.149410043033525
 30
0.0
 11
-10.81644976801528
 21
1.578749753736764
 31
0.0
  0
LINE
  5
523D
330
1F
100
AcDbEntity
  8
PV0001_1
  6
CONTINUOUS
 48
0.5
100
AcDbLine
 10
-21.89558323738583
 20
-13.99999999999967
 30
0.0
 11
-5.09558323738547
 21
-13.99999999999999
 31
0.0
  0
LINE
  5
523E
330
1F
100
AcDbEntity
  8
PV0001_1
  6
CONTINUOUS
 48
0.5
100
AcDbLine
 10
-21.8955832373858
 20
-12.0909090909088
 30
0.0
 11
-5.477050658371655
 21
-12.09090909090907
 31
0.0
  0
LINE
  5
523F
330
1F
100
AcDbEntity
  8
PV0001_1
  6
CONTINUOUS
 48
0.5
100
AcDbLine
 10
-10.81644976801521
 20
1.578749753736561
 30
0.0
 11
-5.477050658371655
 21
-12.09090909090907
 31
0.0
  0
ELLIPSE
  5
5240
330
1F
100
AcDbEntity
  8
AM_0
100
AcDbEllipse
 10
-7.277115880559222
 20
5.629029498491718
 30
0.0
 11
-5.765972898726862
 21
1.217392223683583
 31
0.0
210
0.0
220
0.0
230
1.0
 40
0.8897830275698348
 41
1.108890516382578
 42
3.110415494961835
  0
DIMENSION
  5
5242
330
1F
100
AcDbEntity
  8
AM_5
100
AcDbDimension
  2
*D13
 10
19.10169757500837
 20
-13.99999999999999
 30
0.0
 11
19.10169757500838
 21
-0.0000000000001488
 31
0.0
 70
   160
  1
%%C<>
 51
359.9999999999998
  3
AM_JIS$0
100
AcDbAlignedDimension
 13
-4.609294236789346
 23
13.99999999999999
 33
0.0
 14
-4.762937378015708
 24
-13.99999999999998
 34
0.0
 50
89.99999999999905
100
AcDbRotatedDimension
1001
GENIUS_GENDTOL_13
1000

1000
h7
1000

1040
0.0
1001
ACAD
1000
DSTYLE
1002
{
1070
   271
1070
     3
1002
}
  0
SPLINE
  5
5251
330
1F
100
AcDbEntity
  8
PV0001_1
  6
CONTINUOUS
100
AcDbSpline
210
0.0
220
0.0
230
1.0
 70
     8
 71
     3
 72
    16
 73
    12
 74
     0
 42
0.0000000001
 43
0.0000000001
 40
2.625839846755727
 40
2.625839846755727
 40
2.625839846755727
 40
2.625839846755727
 40
3.082371838836284
 40
4.126290986361125
 40
5.162752068350215
 40
6.192395305374981
 40
7.216039564037012
 40
8.234688489606833
 40
9.249433870634691
 40
10.26152376260694
 40
11.27226744710342
 40
11.27226744710342
 40
11.27226744710342
 40
11.27226744710352
 10
-118.3672135962084
 20
-10.55133982788005
 30
0.0
 10
-119.6550899980227
 20
-11.13696950051689
 30
0.0
 10
-120.6500430273323
 20
-11.45114832468617
 30
0.0
 10
-122.3406155119863
 20
-11.94737590567014
 30
0.0
 10
-124.4284581911974
 20
-12.48521722850944
 30
0.0
 10
-126.5163965346315
 20
-12.94642549558132
 30
0.0
 10
-128.604562355206
 20
-13.32764585567854
 30
0.0
 10
-130.6928724411648
 20
-13.62670285230008
 30
0.0
 10
-132.7813125620265
 20
-13.84165849604248
 30
0.0
 10
-134.8698312640347
 20
-13.97112909246377
 30
0.0
 10
-136.2625149997436
 20
-14.00000008010563
 30
0.0
 10
-136.9583934278379
 20
-13.99999999999641
 30
0.0
  0
LINE
  5
5252
330
1F
100
AcDbEntity
  8
AM_11
 48
0.5
100
AcDbLine
 10
-13.90255145942371
 20
-13.99999999999984
 30
0.0
 11
-136.958387631357
 21
-13.99999999999766
 31
0.0
  0
DIMENSION
  5
535A
330
1F
100
AcDbEntity
  8
AM_5
100
AcDbDimension
  2
*D14
 10
-261.6965472798339
 20
-15.96786347911921
 30
0.0
 11
-265.0965472798338
 21
0.032074266597919
 31
0.0
 70
    32
  1
%%C<>
  3
AM_JIS$0
100
AcDbAlignedDimension
 13
-239.1269623189077
 23
16.03201201231513
 33
0.0
 14
-239.1269623189075
 24
-15.96786347911922
 34
0.0
 50
270.0
100
AcDbRotatedDimension
1001
ACAD
1000
DSTYLE
1002
{
1070
   271
1070
     3
1002
}
1001
GENIUS_GENDTOL_13
1000

1000
h7
1000

1040
0.0
  0
LINE
  5
535B
330
1F
100
AcDbEntity
  8
PV0001_1
  6
CONTINUOUS
 48
0.5
100
AcDbLine
 10
-245.0954733741213
 20
-15.11948090760735
 30
0.0
 11
-244.2469260108334
 21
-15.9680099603423
 31
0.0
  0
LINE
  5
535C
330
1F
100
AcDbEntity
  8
PV0001_1
  6
CONTINUOUS
 48
0.5
100
AcDbLine
 10
-245.0954733741216
 20
15.18332731993287
 30
0.0
 11
-244.2469260108335
 21
16.0318563726655
 31
0.0
  0
LINE
  5
535D
330
1F
100
AcDbEntity
  8
PV0001_1
  6
CONTINUOUS
 48
0.5
100
AcDbLine
 10
-245.0955832373855
 20
0.0319644048926521
 30
0.0
 11
-245.0955832373856
 21
15.18348295958014
 31
0.0
  0
LINE
  5
535E
330
1F
100
AcDbEntity
  8
PV0001_1
  6
CONTINUOUS
 48
0.5
100
AcDbLine
 10
-245.0955832373855
 20
0.0319644048926521
 30
0.0
 11
-245.0955832373854
 21
-15.11955414979427
 31
0.0
  0
LINE
  5
535F
330
1F
100
AcDbEntity
  8
PV0001_1
  6
CONTINUOUS
100
AcDbLine
 10
-185.0955832373854
 20
-15.96804658143575
 30
0.0
 11
-185.0955832373856
 21
16.03196623594646
 31
0.0
  0
LINE
  5
5360
330
1F
100
AcDbEntity
  8
PV0001_1
  6
CONTINUOUS
 48
0.5
100
AcDbLine
 10
-244.2470724952175
 20
0.0319644048926557
 30
0.0
 11
-244.2470724952177
 21
16.0320120123151
 31
0.0
  0
LINE
  5
5361
330
1F
100
AcDbEntity
  8
AM_0
100
AcDbLine
 10
-234.2543654200287
 20
-4.841229182760659
 30
0.0
 11
-193.9368124201448
 21
-4.841229182760444
 31
0.0
  0
LINE
  5
5362
330
1F
100
AcDbEntity
  8
AM_0
100
AcDbLine
 10
-193.9368124201448
 20
4.841229182758095
 30
0.0
 11
-234.2543654200288
 21
4.841229182757879
 31
0.0
  0
LINE
  5
5363
330
1F
100
AcDbEntity
  8
PV0001_1
  6
CONTINUOUS
100
AcDbLine
 10
-244.217954876718
 20
-15.96804658143604
 30
0.0
 11
-185.0955832373854
 21
-15.96804658143575
 31
0.0
  0
LINE
  5
5364
330
1F
100
AcDbEntity
  8
PV0001_1
  6
CONTINUOUS
 48
0.5
100
AcDbLine
 10
-244.2470724952175
 20
0.0319644048926557
 30
0.0
 11
-244.2470724952174
 21
-15.9680832025298
 31
0.0
  0
ARC
  5
5365
330
1F
100
AcDbEntity
  8
AM_0
100
AcDbCircle
 10
-234.2543654200288
 20
-0.0000000000013652
 30
0.0
 40
4.841229182759249
100
AcDbArc
 50
90.00000000000161
 51
270.0000000000016
  0
ARC
  5
5366
330
1F
100
AcDbEntity
  8
AM_0
100
AcDbCircle
 10
-193.9368124201448
 20
-0.000000000001152
 30
0.0
 40
4.841229182759249
100
AcDbArc
 50
270.0
 51
90.0
  0
LINE
  5
5367
330
1F
100
AcDbEntity
  8
PV0001_1
  6
CONTINUOUS
100
AcDbLine
 10
-185.0955832373856
 20
16.03196623594646
 30
0.0
 11
-244.2179548767182
 21
16.03196623594618
 31
0.0
  0
DIMENSION
  5
5368
330
1F
100
AcDbEntity
  8
AM_5
100
AcDbDimension
  2
*D15
 10
-189.0955832373856
 20
-31.47941722561932
 30
0.0
 11
-214.0955889200868
 21
-28.07941722561933
 31
0.0
 70
    32
  1
<>
  3
AM_JIS$0
100
AcDbAlignedDimension
 13
-239.095594602788
 23
-0.000000000001372
 33
0.0
 14
-189.0955832373856
 24
-0.0000000000011289
 34
0.0
 50
0.0000000000004184
100
AcDbRotatedDimension
1001
ACAD
1000
DSTYLE
1002
{
1070
   271
1070
     3
1002
}
1001
GENIUS_GENDTOL_13
1000

1000
h7
1000

1040
0.0
  0
DIMENSION
  5
5369
330
1F
100
AcDbEntity
  8
AM_5
100
AcDbDimension
  2
*D16
 10
-239.095594602788
 20
-31.47941722561967
 30
0.0
 11
-242.0955339884547
 21
-31.47941722561967
 31
0.0
 70
   160
  1
<>
  3
AM_JIS$0
100
AcDbAlignedDimension
 13
-245.0954733741213
 23
-15.11948090760735
 33
0.0
 14
-239.095594602788
 24
-0.000000000001372
 34
0.0
 50
0.0000000000004185
100
AcDbRotatedDimension
1001
ACAD
1000
DSTYLE
1002
{
1070
   271
1070
     3
1002
}
1001
GENIUS_GENDTOL_13
1000

1000
h7
1000

1040
0.0
  0
DIMENSION
  5
536A
330
1F
100
AcDbEntity
  8
AM_5
100
AcDbDimension
  2
*D17
 10
-245.0955832373854
 20
-45.76451963734791
 30
0.0
 11
-215.0955832373854
 21
-42.36451963734791
 31
0.0
 70
    32
  1
<>
  3
AM_JIS$0
100
AcDbAlignedDimension
 13
-185.0955832373854
 23
-15.96804658143575
 33
0.0
 14
-245.0955832373854
 24
-15.11955414979427
 34
0.0
 50
0.0000000000004184
100
AcDbRotatedDimension
1001
ACAD
1000
DSTYLE
1002
{
1070
   271
1070
     3
1002
}
1001
GENIUS_GENDTOL_13
1000

1000
h7
1000

1040
0.0
  0
SPLINE
  5
5861
330
1F
100
AcDbEntity
  8
PV0001_1
  6
CONTINUOUS
100
AcDbSpline
210
0.0
220
0.0
230
1.0
 70
     8
 71
     3
 72
    25
 73
    21
 74
     0
 42
0.0000000001
 43
0.0000000001
 40
24.56499986022253
 40
24.56499986022253
 40
24.56499986022253
 40
24.56499986022253
 40
24.6081876908653
 40
25.71582455492886
 40
26.81883757994213
 40
27.91624752121713
 40
29.00722033829659
 40
30.09105838626677
 40
31.16722880550176
 40
32.23537921050758
 40
33.29534548809967
 40
34.347168041821
 40
35.39108718934584
 40
36.42754827133493
 40
37.45720575381954
 40
38.48085062012849
 40
39.49948440763516
 40
40.51422944315121
 40
41.52631975251916
 40
42.53706336680078
 40
42.53706336680078
 40
42.53706336680078
 40
42.53706336680078
 10
-16.09055502605681
 20
4.149410043033525
 30
0.0
 10
-16.11639633614757
 20
4.162594767055505
 30
0.0
 10
-16.80502785821508
 20
4.513815611037315
 30
0.0
 10
-18.15574210297754
 20
5.195739644950013
 30
0.0
 10
-20.14587358049354
 20
6.174173546296923
 30
0.0
 10
-22.13520563961878
 20
7.119659711024945
 30
0.0
 10
-24.12359077791975
 20
8.026036639781452
 30
0.0
 10
-26.11089298674142
 20
8.887390798012553
 30
0.0
 10
-28.09697802676826
 20
9.698080488584956
 30
0.0
 10
-30.08171099399142
 20
10.45279676583048
 30
0.0
 10
-32.06497985578356
 20
11.14651069926102
 30
0.0
 10
-34.04665780668323
 20
11.77464349680825
 30
0.0
 10
-36.02664383387519
 20
12.33293887906591
 30
0.0
 10
-38.00483763377887
 20
12.81763104989737
 30
0.0
 10
-39.98113407720311
 20
13.22536031758155
 30
0.0
 10
-41.95543963776579
 20
13.55325570742141
 30
0.0
 10
-43.92765385440531
 20
13.79898069218669
 30
0.0
 10
-45.89771146770998
 20
13.96060381042073
 30
0.0
 10
-47.86553601979743
 20
14.03683729157949
 30
0.0
 10
-49.17618116157404
 20
14.0301812499053
 30
0.0
 10
-49.83067695929837
 20
14.01244533238506
 30
0.0
  0
SPLINE
  5
5862
330
1F
100
AcDbEntity
  8
PV0001_1
  6
CONTINUOUS
 48
0.5
100
AcDbSpline
210
0.0
220
0.0
230
1.0
 70
     8
 71
     3
 72
    15
 73
    11
 74
     0
 42
0.0000000001
 43
0.0000000001
 40
0.0
 40
0.0
 40
0.0
 40
0.0
 40
1.010743614677189
 40
2.022833924044153
 40
3.037578959561199
 40
4.056212747067873
 40
5.079857613375832
 40
6.109500119648989
 40
7.14596120163808
 40
7.389283248208032
 40
7.389283248208032
 40
7.389283248208032
 40
7.389283248208032
 10
-20.31551920397268
 20
13.9887851284478
 30
0.0
 10
-20.94068773628089
 20
13.98870100035798
 30
0.0
 10
-22.19197823722454
 20
13.95997422540396
 30
0.0
 10
-24.06835937916348
 20
13.83041333498625
 30
0.0
 10
-25.94468937637549
 20
13.61549690269057
 30
0.0
 10
-27.82089531126141
 20
13.31643296896964
 30
0.0
 10
-29.69696550097033
 20
12.93518284754219
 30
0.0
 10
-31.57286794060316
 20
12.47405776916598
 30
0.0
 10
-32.96573583093705
 20
12.07448330279744
 30
0.0
 10
-33.7341925628399
 20
11.83551108815585
 30
0.0
 10
-33.98990451781154
 20
11.74606499306203
 30
0.0
  0
LINE
  5
5863
330
1F
100
AcDbEntity
  8
AM_0
100
AcDbLine
 10
-21.89558323738583
 20
-13.96976400349305
 30
0.0
 11
-21.89558323738549
 21
7.001376639341982
 31
0.0
  0
SPLINE
  5
5864
330
1F
100
AcDbEntity
  8
PV0001_1
  6
CONTINUOUS
100
AcDbSpline
210
0.0
220
0.0
230
1.0
 70
     8
 71
     3
 72
    17
 73
    13
 74
     0
 42
0.0000000001
 43
0.0000000001
 40
1.580019955310467
 40
1.580019955310467
 40
1.580019955310467
 40
1.580019955310467
 40
2.030549285115227
 40
3.082371838836284
 40
4.126290986361125
 40
5.162752068350215
 40
6.192395305374981
 40
7.216039564037012
 40
8.234688489606833
 40
9.249433870634691
 40
10.26152376260694
 40
11.27226744710342
 40
11.27226744710342
 40
11.27226744710342
 40
11.27226744710352
 10
-40.11686753845104
 20
-10.33241225226432
 30
0.0
 10
-40.394887762239
 20
-10.4388275149365
 30
0.0
 10
-41.32356871397546
 20
-10.78761775213344
 30
0.0
 10
-42.90905740182776
 20
-11.33470771910876
 30
0.0
 10
-44.87291969018556
 20
-11.94737590567261
 30
0.0
 10
-46.83732262799257
 20
-12.4852172285119
 30
0.0
 10
-48.80181557405646
 20
-12.94642549558377
 30
0.0
 10
-50.76652254810614
 20
-13.32764585568099
 30
0.0
 10
-52.73136525812271
 20
-13.62670285230252
 30
0.0
 10
-54.69633031497494
 20
-13.84165849604492
 30
0.0
 10
-56.66136930701232
 20
-13.97112909246621
 30
0.0
 10
-57.9717132563447
 20
-14.00000008010806
 30
0.0
 10
-58.62644919124839
 20
-13.99999999999882
 30
0.0
  0
LINE
  5
5865
330
1F
100
AcDbEntity
  8
AM_0
100
AcDbLine
 10
-20.40852477113001
 20
6.295440911832474
 30
0.0
 11
-20.31538365675177
 21
14.00000000000004
 31
0.0
  0
LINE
  5
5866
330
1F
100
AcDbEntity
  8
PV0001_1
  6
CONTINUOUS
 48
0.5
100
AcDbLine
 10
-104.2295302430457
 20
-13.99999999999795
 30
0.0
 11
-58.62644919124865
 21
-13.99999999999913
 31
0.0
  0
LINE
  5
5867
330
1F
100
AcDbEntity
  8
PV0001_1
  6
CONTINUOUS
 48
0.5
100
AcDbLine
 10
-100.1610353459847
 20
14.00000000000192
 30
0.0
 11
-50.28993810197341
 21
14.00000000000061
 31
0.0
  0
SPLINE
  5
5868
330
1F
100
AcDbEntity
  8
PV0001_1
  6
CONTINUOUS
100
AcDbSpline
210
0.0
220
0.0
230
1.0
 70
     8
 71
     3
 72
    55
 73
    51
 74
     0
 42
0.0000000001
 43
0.0000000001
 40
0.0
 40
0.0
 40
0.0
 40
0.0
 40
1.010743684496582
 40
2.022833576467832
 40
3.037578957496688
 40
4.056212745003489
 40
5.079857003664532
 40
6.109500240690281
 40
7.145961322679372
 40
8.189895241603872
 40
9.241717795325891
 40
10.30168407291828
 40
11.36983447792315
 40
12.44600489715814
 40
13.52984294512926
 40
14.62081576220742
 40
15.7182257034828
 40
16.82123173843959
 40
17.92886860250316
 40
19.0400688939571
 40
20.15368796660465
 40
21.26852814259644
 40
22.38336992938901
 40
23.49698739941135
 40
24.6081876908653
 40
25.71582455492886
 40
26.81883757994213
 40
27.91624752121713
 40
29.00722033829659
 40
30.09105838626677
 40
31.16722880550176
 40
32.23537921050758
 40
33.29534548809967
 40
34.347168041821
 40
35.39108718934584
 40
36.42754827133493
 40
37.45720575381954
 40
38.48085062012849
 40
39.49948440763516
 40
40.51422944315121
 40
41.52631975251916
 40
42.53706336719636
 40
43.54780698187354
 40
44.55989729124051
 40
45.57464232675757
 40
46.59327611426424
 40
47.6169209805722
 40
48.64656348684535
 40
49.68302456883444
 40
50.58557219878025
 40
50.58557219878025
 40
50.58557219878025
 40
50.58557219878025
 10
-21.89558323738583
 20
-14.0000000000002
 30
0.0
 10
-22.26490981681466
 20
-13.99167033917058
 30
0.0
 10
-23.57525374538049
 20
-13.97499992325359
 30
0.0
 10
-25.54029277909741
 20
-13.8406176560719
 30
0.0
 10
-27.50524793270703
 20
-13.62698495581768
 30
0.0
 10
-29.47008147488401
 20
-13.32757060134888
 30
0.0
 10
-31.43477379968256
 20
-12.94643223122153
 30
0.0
 10
-33.39928614811587
 20
-12.48526470703043
 30
0.0
 10
-35.36362509139069
 20
-11.94717461759232
 30
0.0
 10
-37.32777320979038
 20
-11.33545696915874
 30
0.0
 10
-39.29171712388653
 20
-10.65386767098138
 30
0.0
 10
-41.25546662285386
 20
-9.906684988628407
 30
0.0
 10
-43.21902696600523
 20
-9.098481731338988
 30
0.0
 10
-45.18242268645424
 20
-8.234289169688334
 30
0.0
 10
-47.14566277335802
 20
-7.319417952125399
 30
0.0
 10
-49.10876543132696
 20
-6.35951017993196
 30
0.0
 10
-51.07175243143548
 20
-5.360487717494227
 30
0.0
 10
-53.03464100190547
 20
-4.32849408028325
 30
0.0
 10
-54.99745019279399
 20
-3.269876430624497
 30
0.0
 10
-56.96020100699377
 20
-2.191150434380506
 30
0.0
 10
-58.92291065969754
 20
-1.098947655659529
 30
0.0
 10
-60.88560686740589
 20
-0.0000028565074452
 30
0.0
 10
-62.84829426425057
 20
1.098961724335906
 30
0.0
 10
-64.8110104955293
 20
2.191147494570817
 30
0.0
 10
-66.77375888668686
 20
3.269876756056722
 30
0.0
 10
-68.73657157724252
 20
4.328498438576873
 30
0.0
 10
-70.69946829071572
 20
5.36048326857239
 30
0.0
 10
-72.66245838893644
 20
6.35951079744419
 30
0.0
 10
-74.62556133031218
 20
7.319417791251304
 30
0.0
 10
-76.58880134577976
 20
8.234289201208193
 30
0.0
 10
-78.55219707125627
 20
9.098481764124031
 30
0.0
 10
-80.51575746442113
 20
9.906684828159468
 30
0.0
 10
-82.47950676070814
 20
10.65386827345432
 30
0.0
 10
-84.44344223449483
 20
11.33545155320708
 30
0.0
 10
-86.407578206907
 20
11.94717721361547
 30
0.0
 10
-88.37191642151395
 20
12.48527812336894
 30
0.0
 10
-90.33644279722388
 20
12.94639297582716
 30
0.0
 10
-92.30114161281067
 20
13.32764931633634
 30
0.0
 10
-94.26597573745224
 20
13.62670875373483
 30
0.0
 10
-96.23093225637244
 20
13.84163876755501
 30
0.0
 10
-98.19596962397037
 20
13.97114998869514
 30
0.0
 10
-100.1610501720727
 20
14.01441540227501
 30
0.0
 10
-102.1261307172838
 20
13.97114998862751
 30
0.0
 10
-104.0911680935727
 20
13.84163876782722
 30
0.0
 10
-106.0561245804956
 20
13.62670875270955
 30
0.0
 10
-108.0209588251029
 20
13.32764932019079
 30
0.0
 10
-109.9856476114122
 20
12.94639482002126
 30
0.0
 10
-111.950166247636
 20
12.48528283801952
 30
0.0
 10
-113.8251902665773
 20
11.97160358818159
 30
0.0
 10
-115.0417272034467
 20
11.59594509661924
 30
0.0
 10
-116.6046864575623
 20
10.99747018946423
 30
0.0
  0
SPLINE
  5
5869
330
1F
100
AcDbEntity
  8
PV0001_1
  6
CONTINUOUS
100
AcDbSpline
210
0.0
220
0.0
230
1.0
 70
     8
 71
     3
 72
    47
 73
    43
 74
     0
 42
0.0000000001
 43
0.0000000001
 40
0.0
 40
0.0
 40
0.0
 40
0.0
 40
1.010743684496582
 40
2.022833576467832
 40
3.037578957496688
 40
4.056212745003489
 40
5.079857003664532
 40
6.109500240690281
 40
7.145961322679372
 40
8.189895241603872
 40
9.241717795325891
 40
10.30168407291828
 40
11.36983447792315
 40
12.44600489715814
 40
13.52984294512926
 40
14.62081576220742
 40
15.7182257034828
 40
16.82123173843959
 40
17.92886860250316
 40
19.0400688939571
 40
20.15368796660465
 40
21.26852814259644
 40
22.38336992938901
 40
23.49698739941135
 40
24.6081876908653
 40
25.71582455492886
 40
26.81883757994213
 40
27.91624752121713
 40
29.00722033829659
 40
30.09105838626677
 40
31.16722880550176
 40
32.23537921050758
 40
33.29534548809967
 40
34.347168041821
 40
35.39108718934584
 40
36.42754827133493
 40
37.45720575381954
 40
38.48085062012849
 40
39.49948440763516
 40
40.51422944315121
 40
41.52631975251916
 40
42.53706336679711
 40
42.53706336679711
 40
42.53706336679711
 40
42.53706336679711
 10
-54.73713276153302
 20
-13.99999999999897
 30
0.0
 10
-55.3918687050747
 20
-13.9916703391697
 30
0.0
 10
-56.70221263364054
 20
-13.97499992325273
 30
0.0
 10
-58.66725166735747
 20
-13.84061765607103
 30
0.0
 10
-60.63220682096707
 20
-13.62698495581681
 30
0.0
 10
-62.5970403631441
 20
-13.327570601348
 30
0.0
 10
-64.56173268794268
 20
-12.94643223122065
 30
0.0
 10
-66.526245036376
 20
-12.48526470702955
 30
0.0
 10
-68.49058397965072
 20
-11.94717461759145
 30
0.0
 10
-70.45473209805044
 20
-11.33545696915786
 30
0.0
 10
-72.41867601214657
 20
-10.6538676709805
 30
0.0
 10
-74.38242551111397
 20
-9.90668498862753
 30
0.0
 10
-76.34598585426539
 20
-9.098481731338114
 30
0.0
 10
-78.3093815747144
 20
-8.23428916968746
 30
0.0
 10
-80.27262166161811
 20
-7.319417952124524
 30
0.0
 10
-82.23572431958707
 20
-6.359510179931084
 30
0.0
 10
-84.19871131969555
 20
-5.360487717493351
 30
0.0
 10
-86.1615998901656
 20
-4.328494080282376
 30
0.0
 10
-88.12440908105411
 20
-3.269876430623622
 30
0.0
 10
-90.08715989525384
 20
-2.191150434379629
 30
0.0
 10
-92.04986954795769
 20
-1.098947655658653
 30
0.0
 10
-94.01256575566598
 20
-0.0000028565065694
 30
0.0
 10
-95.9752531525107
 20
1.098961724336783
 30
0.0
 10
-97.9379693837895
 20
2.191147494571692
 30
0.0
 10
-99.900717774947
 20
3.269876756057597
 30
0.0
 10
-101.8635304655025
 20
4.328498438577748
 30
0.0
 10
-103.8264271789758
 20
5.360483268573268
 30
0.0
 10
-105.7894172771964
 20
6.359510797445065
 30
0.0
 10
-107.7525202185722
 20
7.319417791252178
 30
0.0
 10
-109.7157602340398
 20
8.234289201209078
 30
0.0
 10
-111.6791559595163
 20
9.098481764124906
 30
0.0
 10
-113.6427163526811
 20
9.906684828160344
 30
0.0
 10
-115.6064656489682
 20
10.65386827345519
 30
0.0
 10
-117.5704011227549
 20
11.33545155320796
 30
0.0
 10
-119.534537095167
 20
11.94717721361635
 30
0.0
 10
-121.498875309774
 20
12.48527812336981
 30
0.0
 10
-123.4634016854839
 20
12.94639297582805
 30
0.0
 10
-125.4281005010707
 20
13.32764931633722
 30
0.0
 10
-127.3929346257124
 20
13.62670875373571
 30
0.0
 10
-129.3578911446325
 20
13.84163876755588
 30
0.0
 10
-131.3229285119724
 20
13.97114998867899
 30
0.0
 10
-132.6332729962182
 20
14.00000000000297
 30
0.0
 10
-133.2880090590755
 20
14.00000000000308
 30
0.0
  0
LINE
  5
586A
330
1F
100
AcDbEntity
  8
AM_11
 48
0.5
100
AcDbLine
 10
-133.2880090590755
 20
14.00000000000214
 30
0.0
 11
-20.33243212248371
 21
13.99999999999975
 31
0.0
  0
VIEWPORT
  5
110
330
101
100
AcDbEntity
 67
     1
  8
0
100
AcDbViewport
 10
420.5
 20
297.0
 30
0.0
 40
948.9782706766916
 41
628.452
 68
     1
 69
     1
1001
ACAD
1000
MVIEW
1002
{
1070
    16
1010
0.0
1020
0.0
1030
0.0
1010
0.0
1020
0.0
1030
1.0
1040
0.0
1040
628.452
1040
420.5
1040
297.0
1040
50.0
1040
0.0
1040
0.0
1070
     0
1070
   100
1070
     1
1070
     1
1070
     0
1070
     0
1070
     0
1070
     0
1040
0.0
1040
0.0
1040
0.0
1040
10.0
1040
10.0
1040
10.0
1040
10.0
1070
     0
1002
{
1002
}
1002
}
  0
ENDSEC
  0
SECTION
  2
OBJECTS
  0
DICTIONARY
  5
C
330
0
100
AcDbDictionary
  3
ACAD_GROUP
350
D
  3
ACAD_LAYOUT
350
1A
  3
ACAD_MLINESTYLE
350
17
  3
ACAD_PLOTSETTINGS
350
19
  3
ACAD_PLOTSTYLENAME
350
E
  3
ACDBVARIABLEDICTIONARY
350
34
  3
ACMDICTIONARY
350
43
  3
AMG
350
2B
  3
AMGSNAPSETTINGS
350
6E
  3
DWGPROPS
350
5887
  3
ACDBHEADERROUNDTRIPXREC
350
5897
  0
DICTIONARY
  5
74
330
1F
100
AcDbDictionary
280
     1
  3
ACAD_INDEX
360
5889
  3
ACAD_LAYOUTSELFREF
360
58BA
  0
DICTIONARY
  5
58BF
330
101
100
AcDbDictionary
280
     1
  3
ACAD_LAYOUTSELFREF
360
58C0
  0
DICTIONARY
  5
D
102
{ACAD_REACTORS
330
C
102
}
330
C
100
AcDbDictionary
  0
DICTIONARY
  5
1A
102
{ACAD_REACTORS
330
C
102
}
330
C
100
AcDbDictionary
  0
DICTIONARY
  5
17
102
{ACAD_REACTORS
330
C
102
}
330
C
100
AcDbDictionary
  3
STANDARD
350
18
  0
DICTIONARY
  5
19
102
{ACAD_REACTORS
330
C
102
}
330
C
100
AcDbDictionary
  0
ACDBDICTIONARYWDFLT
  5
E
102
{ACAD_REACTORS
330
C
102
}
330
C
100
AcDbDictionary
281
     1
  3
Normal
350
F
100
AcDbDictionaryWithDefault
340
F
  0
DICTIONARY
  5
34
102
{ACAD_REACTORS
330
C
102
}
330
C
100
AcDbDictionary
  3
INDEXCTL
350
35
  3
SORTENTS
350
B5E
  0
DICTIONARY
  5
43
102
{ACAD_REACTORS
330
C
102
}
330
C
100
AcDbDictionary
  3
ACMSTDDICTIONARY
350
260
  0
DICTIONARY
  5
2B
102
{ACAD_REACTORS
330
C
102
}
330
C
100
AcDbDictionary
  3
ACMGSETTINGS
350
2C
  0
DICTIONARY
  5
6E
102
{ACAD_REACTORS
330
C
102
}
330
C
100
AcDbDictionary
  0
XRECORD
  5
5887
102
{ACAD_REACTORS
330
C
102
}
330
C
100
AcDbXrecord
  1
DWGPROPS COOKIE
  2

  3

  4

  6

  7

  8

  9

300
AmdtFileType=82
301
=
302
=
303
=
304
=
305
=
306
=
307
=
308
=
309
=
 40
0.5682847337962964
 41
2452800.443498622
 42
2453002.119638379
  1

 90
        1
  0
DICTIONARY
  5
5897
102
{ACAD_REACTORS
330
C
102
}
330
C
100
AcDbDictionary
  3
TSTACKALIGN
350
5898
  3
TSTACKSIZE
350
5899
  3
HYPERLINKBASE
350
589A
  3
STYLESHEET
350
589B
  3
LAYOUTDICT
350
589C
  3
PLOTSETDICT
350
589D
  3
PLOTSTYLNAMDICT
350
589E
  3
LWETCUNION
350
589F
  3
INSUNITS
350
58A0
  3
CEPSNTYPE
350
58A1
  3
FINGERPRINTGUID
350
58A2
  3
VERSIONGUID
350
58A3
  3
PSVPSCALE
350
58A4
  3
DIMSTYLEDATA
350
58A5
  3
PUCSORTHOREF
350
58A6
  3
PUCSORTHOVIEW
350
58A7
  3
PUCSBASE
350
58A8
  3
PUCSORGTOP
350
58A9
  3
PUCSORGBOTTOM
350
58AA
  3
PUCSORGLEFT
350
58AB
  3
PUCSORGRIGHT
350
58AC
  3
PUCSORGFRONT
350
58AD
  3
PUCSORGBACK
350
58AE
  3
UCSORTHOREF
350
58AF
  3
UCSORTHOVIEW
350
58B0
  3
UCSBASE
350
58B1
  3
UCSORGTOP
350
58B2
  3
UCSORGBOTTOM
350
58B3
  3
UCSORGLEFT
350
58B4
  3
UCSORGRIGHT
350
58B5
  3
UCSORGFRONT
350
58B6
  3
UCSORGBACK
350
58B7
  0
DICTIONARY
  5
5889
102
{ACAD_REACTORS
330
74
102
}
330
74
100
AcDbDictionary
  3
*A1
350
588A
  0
XRECORD
  5
58BA
102
{ACAD_REACTORS
330
74
102
}
330
74
100
AcDbXrecord
340
1F
  0
XRECORD
  5
58C0
102
{ACAD_REACTORS
330
58BF
102
}
330
58BF
100
AcDbXrecord
340
101
  0
MLINESTYLE
  5
18
102
{ACAD_REACTORS
330
17
102
}
330
17
100
AcDbMlineStyle
  2
STANDARD
 70
     0
  3

 62
   256
 51
90.0
 52
90.0
 71
     2
 49
0.5
 62
   256
  6
BYLAYER
 49
-0.5
 62
   256
  6
BYLAYER
  0
ACDBPLACEHOLDER
  5
F
102
{ACAD_REACTORS
330
E
102
}
330
E
100
AcDbPlaceHolder
280
     0
  0
DICTIONARYVAR
  5
35
102
{ACAD_REACTORS
330
34
102
}
330
34
100
DictionaryVariables
280
     0
  1
1
  0
DICTIONARYVAR
  5
B5E
102
{ACAD_REACTORS
330
34
102
}
330
34
100
DictionaryVariables
280
     0
  1
96
  0
DICTIONARY
  5
260
102
{ACAD_REACTORS
330
43
102
}
330
43
100
AcDbDictionary
  0
DICTIONARY
  5
2C
102
{ACAD_REACTORS
330
2B
102
}
330
2B
100
AcDbDictionary
  3
DWGSETTINGS
350
2D
  0
XRECORD
  5
5898
102
{ACAD_REACTORS
330
5897
102
}
330
5897
100
AcDbXrecord
 90
        1
  0
XRECORD
  5
5899
102
{ACAD_REACTORS
330
5897
102
}
330
5897
100
AcDbXrecord
 90
       70
  0
XRECORD
  5
589A
102
{ACAD_REACTORS
330
5897
102
}
330
5897
100
AcDbXrecord
  1

  0
XRECORD
  5
589B
102
{ACAD_REACTORS
330
5897
102
}
330
5897
100
AcDbXrecord
  1
ASAMI.ctb
  0
XRECORD
  5
589C
102
{ACAD_REACTORS
330
5897
102
}
330
5897
100
AcDbXrecord
340
1A
  0
XRECORD
  5
589D
102
{ACAD_REACTORS
330
5897
102
}
330
5897
100
AcDbXrecord
340
19
  0
XRECORD
  5
589E
102
{ACAD_REACTORS
330
5897
102
}
330
5897
100
AcDbXrecord
340
E
  0
XRECORD
  5
589F
102
{ACAD_REACTORS
330
5897
102
}
330
5897
100
AcDbXrecord
 90
    10781
  0
XRECORD
  5
58A0
102
{ACAD_REACTORS
330
5897
102
}
330
5897
100
AcDbXrecord
 90
        4
  0
XRECORD
  5
58A1
102
{ACAD_REACTORS
330
5897
102
}
330
5897
100
AcDbXrecord
 90
        0
  0
XRECORD
  5
58A2
102
{ACAD_REACTORS
330
5897
102
}
330
5897
100
AcDbXrecord
  1
{AFB28963-8C59-40AE-9337-C84526B81ACE}
  0
XRECORD
  5
58A3
102
{ACAD_REACTORS
330
5897
102
}
330
5897
100
AcDbXrecord
  1
{48E53F97-C5BA-4F83-9BE8-DE6595A97FEB}
  0
XRECORD
  5
58A4
102
{ACAD_REACTORS
330
5897
102
}
330
5897
100
AcDbXrecord
 40
0.0
  0
XRECORD
  5
58A5
102
{ACAD_REACTORS
330
5897
102
}
330
5897
100
AcDbXrecord
1000
DSTYLE
1002
{
1070
    79
 70
     2
1070
   341
340
59
1070
   342
340
59
1070
   371
 70
    -1
1070
   372
 70
    -1
1002
}
  0
XRECORD
  5
58A6
102
{ACAD_REACTORS
330
5897
102
}
330
5897
100
AcDbXrecord
340
0
  0
XRECORD
  5
58A7
102
{ACAD_REACTORS
330
5897
102
}
330
5897
100
AcDbXrecord
 70
     0
  0
XRECORD
  5
58A8
102
{ACAD_REACTORS
330
5897
102
}
330
5897
100
AcDbXrecord
340
0
  0
XRECORD
  5
58A9
102
{ACAD_REACTORS
330
5897
102
}
330
5897
100
AcDbXrecord
 10
0.0
 20
0.0
 30
0.0
  0
XRECORD
  5
58AA
102
{ACAD_REACTORS
330
5897
102
}
330
5897
100
AcDbXrecord
 10
0.0
 20
0.0
 30
0.0
  0
XRECORD
  5
58AB
102
{ACAD_REACTORS
330
5897
102
}
330
5897
100
AcDbXrecord
 10
0.0
 20
0.0
 30
0.0
  0
XRECORD
  5
58AC
102
{ACAD_REACTORS
330
5897
102
}
330
5897
100
AcDbXrecord
 10
0.0
 20
0.0
 30
0.0
  0
XRECORD
  5
58AD
102
{ACAD_REACTORS
330
5897
102
}
330
5897
100
AcDbXrecord
 10
0.0
 20
0.0
 30
0.0
  0
XRECORD
  5
58AE
102
{ACAD_REACTORS
330
5897
102
}
330
5897
100
AcDbXrecord
 10
0.0
 20
0.0
 30
0.0
  0
XRECORD
  5
58AF
102
{ACAD_REACTORS
330
5897
102
}
330
5897
100
AcDbXrecord
340
0
  0
XRECORD
  5
58B0
102
{ACAD_REACTORS
330
5897
102
}
330
5897
100
AcDbXrecord
 70
     0
  0
XRECORD
  5
58B1
102
{ACAD_REACTORS
330
5897
102
}
330
5897
100
AcDbXrecord
340
0
  0
XRECORD
  5
58B2
102
{ACAD_REACTORS
330
5897
102
}
330
5897
100
AcDbXrecord
 10
0.0
 20
0.0
 30
0.0
  0
XRECORD
  5
58B3
102
{ACAD_REACTORS
330
5897
102
}
330
5897
100
AcDbXrecord
 10
0.0
 20
0.0
 30
0.0
  0
XRECORD
  5
58B4
102
{ACAD_REACTORS
330
5897
102
}
330
5897
100
AcDbXrecord
 10
0.0
 20
0.0
 30
0.0
  0
XRECORD
  5
58B5
102
{ACAD_REACTORS
330
5897
102
}
330
5897
100
AcDbXrecord
 10
0.0
 20
0.0
 30
0.0
  0
XRECORD
  5
58B6
102
{ACAD_REACTORS
330
5897
102
}
330
5897
100
AcDbXrecord
 10
0.0
 20
0.0
 30
0.0
  0
XRECORD
  5
58B7
102
{ACAD_REACTORS
330
5897
102
}
330
5897
100
AcDbXrecord
 10
0.0
 20
0.0
 30
0.0
  0
LAYER_INDEX
  5
588A
102
{ACAD_REACTORS
330
5889
102
}
330
5889
100
AcDbIndex
 40
2453151.710700578
100
AcDbLayerIndex
  8
0
360
588B
 90
        0
  8
AM_0
360
588C
 90
       11
  8
PV0001_1
360
588D
 90
       33
  8
AM_CL
360
588E
 90
        0
  8
AM_7
360
588F
 90
        1
  8
AM_11
360
5890
 90
        3
  8
AM_5
360
5891
 90
       10
  8
Defpoints
360
5892
 90
        0
  8
AM_6
360
5893
 90
        1
  8
AM_4
360
5894
 90
        0
  8
AM_3
360
5895
 90
        0
  0
XRECORD
  5
2D
102
{ACAD_REACTORS
330
2C
102
}
330
2C
100
AcDbXrecord
  1
VERSION
140
15.0
  1
PRODUCT
  2
AutoCAD Mechanical 2000
  0
IDBUFFER
  5
588B
330
0
100
AcDbIdBuffer
  0
IDBUFFER
  5
588C
330
0
100
AcDbIdBuffer
330
4BDC
330
5231
330
5236
330
5237
330
5240
330
5361
330
5362
330
5365
330
5366
330
5863
330
5865
  0
IDBUFFER
  5
588D
330
0
100
AcDbIdBuffer
330
5251
330
535B
330
535C
330
535D
330
535E
330
535F
330
5360
330
5363
330
5364
330
5367
330
5861
330
5862
330
5864
330
5866
330
5867
330
5868
330
5869
330
35F4
330
35F5
330
4534
330
4536
330
5202
330
5203
330
522F
330
5230
330
5232
330
5234
330
5235
330
5238
330
523A
330
523D
330
523E
330
523F
  0
IDBUFFER
  5
588E
330
0
100
AcDbIdBuffer
  0
IDBUFFER
  5
588F
330
0
100
AcDbIdBuffer
330
35D1
  0
IDBUFFER
  5
5890
330
0
100
AcDbIdBuffer
330
46A5
330
5252
330
586A
  0
IDBUFFER
  5
5891
330
0
100
AcDbIdBuffer
330
36BA
330
3B0D
330
471A
330
4A5A
330
4A5C
330
5242
330
535A
330
5368
330
5369
330
536A
  0
IDBUFFER
  5
5892
330
0
100
AcDbIdBuffer
  0
IDBUFFER
  5
5893
330
0
100
AcDbIdBuffer
330
19BD
  0
IDBUFFER
  5
5894
330
0
100
AcDbIdBuffer
  0
IDBUFFER
  5
5895
330
0
100
AcDbIdBuffer
  0
ENDSEC
  0
EOF
