  0
SECTION
  2
HEADER
  9
$ACADVER
  1
AC1014
  9
$ACADMAINTVER
 70
     9
  9
$DWGCODEPAGE
  3
ANSI_932
  9
$INSBASE
 10
0.0
 20
0.0
 30
0.0
  9
$EXTMIN
 10
-292.5407007551885
 20
-84.37686180095324
 30
-0.00000001
  9
$EXTMAX
 10
36.08870150610942
 20
54.20008593249125
 30
0.00000001
  9
$LIMMIN
 10
-299.0072125685646
 20
-122.8639834312199
  9
$LIMMAX
 10
62.11487670136875
 20
84.0130533763812
  9
$ORTHOMODE
 70
     0
  9
$REGENMODE
 70
     1
  9
$FILLMODE
 70
     1
  9
$QTEXTMODE
 70
     0
  9
$MIRRTEXT
 70
     0
  9
$DRAGMODE
 70
     2
  9
$LTSCALE
 40
1.0
  9
$OSMODE
 70
    55
  9
$ATTMODE
 70
     1
  9
$TEXTSIZE
 40
2.5
  9
$TRACEWID
 40
1.0
  9
$TEXTSTYLE
  7
STANDARD
  9
$CLAYER
  8
AM_0
  9
$CELTYPE
  6
BYLAYER
  9
$CECOLOR
 62
   256
  9
$CELTSCALE
 40
1.0
  9
$DELOBJ
 70
     1
  9
$DISPSILH
 70
     0
  9
$DIMSCALE
 40
1.0
  9
$DIMASZ
 40
2.5
  9
$DIMEXO
 40
1.0
  9
$DIMDLI
 40
12.0
  9
$DIMRND
 40
0.0
  9
$DIMDLE
 40
0.0
  9
$DIMEXE
 40
1.0
  9
$DIMTP
 40
0.1
  9
$DIMTM
 40
0.1
  9
$DIMTXT
 40
3.2
  9
$DIMCEN
 40
0.0
  9
$DIMTSZ
 40
0.0
  9
$DIMTOL
 70
     0
  9
$DIMLIM
 70
     0
  9
$DIMTIH
 70
     0
  9
$DIMTOH
 70
     0
  9
$DIMSE1
 70
     0
  9
$DIMSE2
 70
     0
  9
$DIMTAD
 70
     3
  9
$DIMZIN
 70
     8
  9
$DIMBLK
  1
OPEN30
  9
$DIMASO
 70
     1
  9
$DIMSHO
 70
     1
  9
$DIMPOST
  1

  9
$DIMAPOST
  1
"
  9
$DIMALT
 70
     0
  9
$DIMALTD
 70
     2
  9
$DIMALTF
 40
0.0393701
  9
$DIMLFAC
 40
1.0
  9
$DIMTOFL
 70
     1
  9
$DIMTVP
 40
0.0
  9
$DIMTIX
 70
     0
  9
$DIMSOXD
 70
     0
  9
$DIMSAH
 70
     0
  9
$DIMBLK1
  1

  9
$DIMBLK2
  1

  9
$DIMSTYLE
  2
AM_JIS
  9
$DIMCLRD
 70
   256
  9
$DIMCLRE
 70
   256
  9
$DIMCLRT
 70
     2
  9
$DIMTFAC
 40
0.71
  9
$DIMGAP
 40
1.5
  9
$DIMJUST
 70
     0
  9
$DIMSD1
 70
     0
  9
$DIMSD2
 70
     0
  9
$DIMTOLJ
 70
     0
  9
$DIMTZIN
 70
     0
  9
$DIMALTZ
 70
     0
  9
$DIMALTTZ
 70
     0
  9
$DIMFIT
 70
     3
  9
$DIMUPT
 70
     0
  9
$DIMUNIT
 70
     2
  9
$DIMDEC
 70
     3
  9
$DIMTDEC
 70
     3
  9
$DIMALTU
 70
     2
  9
$DIMALTTD
 70
     2
  9
$DIMTXSTY
  7
ASAMI
  9
$DIMAUNIT
 70
     0
  9
$LUNITS
 70
     2
  9
$LUPREC
 70
     2
  9
$SKETCHINC
 40
1.0
  9
$FILLETRAD
 40
2.5
  9
$AUNITS
 70
     0
  9
$AUPREC
 70
     0
  9
$MENU
  1
.
  9
$ELEVATION
 40
0.0
  9
$PELEVATION
 40
0.0
  9
$THICKNESS
 40
0.0
  9
$LIMCHECK
 70
     0
  9
$BLIPMODE
 70
     0
  9
$CHAMFERA
 40
2.5
  9
$CHAMFERB
 40
2.5
  9
$CHAMFERC
 40
20.0
  9
$CHAMFERD
 40
0.0
  9
$SKPOLY
 70
     0
  9
$TDCREATE
 40
2452800.443498622
  9
$TDUPDATE
 40
2453151.711734108
  9
$TDINDWG
 40
0.6273488542
  9
$TDUSRTIMER
 40
0.6273488542
  9
$USRTIMER
 70
     1
  9
$ANGBASE
 50
0.0
  9
$ANGDIR
 70
     0
  9
$PDMODE
 70
     0
  9
$PDSIZE
 40
0.0
  9
$PLINEWID
 40
0.0
  9
$COORDS
 70
     1
  9
$SPLFRAME
 70
     0
  9
$SPLINETYPE
 70
     6
  9
$SPLINESEGS
 70
     8
  9
$ATTDIA
 70
     1
  9
$ATTREQ
 70
     1
  9
$HANDLING
 70
 12289
  9
$HANDSEED
  5
5C09
  9
$SURFTAB1
 70
     6
  9
$SURFTAB2
 70
     6
  9
$SURFTYPE
 70
     6
  9
$SURFU
 70
     6
  9
$SURFV
 70
     6
  9
$UCSNAME
  2

  9
$UCSORG
 10
-0.0000000000002549
 20
-0.0000000000001167
 30
0.0
  9
$UCSXDIR
 10
1.0
 20
0.0000000000000027
 30
0.0
  9
$UCSYDIR
 10
-0.0000000000000027
 20
1.0
 30
0.0
  9
$PUCSNAME
  2

  9
$PUCSORG
 10
0.0
 20
0.0
 30
0.0
  9
$PUCSXDIR
 10
1.0
 20
0.0
 30
0.0
  9
$PUCSYDIR
 10
0.0
 20
1.0
 30
0.0
  9
$USERI1
 70
     0
  9
$USERI2
 70
     0
  9
$USERI3
 70
     0
  9
$USERI4
 70
     0
  9
$USERI5
 70
     0
  9
$USERR1
 40
0.0
  9
$USERR2
 40
0.0
  9
$USERR3
 40
0.0
  9
$USERR4
 40
0.0
  9
$USERR5
 40
0.0
  9
$WORLDVIEW
 70
     1
  9
$SHADEDGE
 70
     3
  9
$SHADEDIF
 70
    70
  9
$TILEMODE
 70
     1
  9
$MAXACTVP
 70
    64
  9
$PINSBASE
 10
0.0
 20
0.0
 30
0.0
  9
$PLIMCHECK
 70
     0
  9
$PEXTMIN
 10
1.000000000000000E+20
 20
1.000000000000000E+20
 30
1.000000000000000E+20
  9
$PEXTMAX
 10
-1.000000000000000E+20
 20
-1.000000000000000E+20
 30
-1.000000000000000E+20
  9
$PLIMMIN
 10
0.0
 20
0.0
  9
$PLIMMAX
 10
841.0
 20
594.0
  9
$UNITMODE
 70
     0
  9
$VISRETAIN
 70
     1
  9
$PLINEGEN
 70
     0
  9
$PSLTSCALE
 70
     0
  9
$TREEDEPTH
 70
  3020
  9
$PICKSTYLE
 70
     0
  9
$CMLSTYLE
  2
STANDARD
  9
$CMLJUST
 70
     0
  9
$CMLSCALE
 40
20.0
  9
$PROXYGRAPHICS
 70
     1
  9
$MEASUREMENT
 70
     1
  0
ENDSEC
  0
SECTION
  2
CLASSES
  0
CLASS
  1
ACDBDICTIONARYWDFLT
  2
AcDbDictionaryWithDefault
  3
AutoCAD 2000
 90
        0
280
     0
281
     0
  0
CLASS
  1
ACDBPLACEHOLDER
  2
AcDbPlaceHolder
  3
AutoCAD 2000
 90
        0
280
     0
281
     0
  0
CLASS
  1
LAYOUT
  2
AcDbLayout
  3
AutoCAD 2000
 90
        0
280
     0
281
     0
  0
CLASS
  1
AMGSETTINGSOBJ
  2
AmgSettingsObj
  3
"AcadM|Product Description: AutoCAD Mechanical 2000|Company: Autodesk"
 90
        0
280
     0
281
     0
  0
CLASS
  1
ACME_DOCUMENT
  2
AcMeDbDoc
  3
AcMeServices
 90
        0
280
     0
281
     0
  0
CLASS
  1
ACMESCOPE
  2
AcMeScope
  3
AcMeServices
 90
        0
280
     0
281
     0
  0
CLASS
  1
ACMECOMMANDHISTORY
  2
AcMeCommandHistory
  3
AcMeServices
 90
        0
280
     0
281
     0
  0
CLASS
  1
DICTIONARYVAR
  2
AcDbDictionaryVar
  3
AutoCAD 2000
 90
        0
280
     0
281
     0
  0
CLASS
  1
ACIMSYSVARMAN
  2
AcImSysVarManager
  3
AcMeServices
 90
        0
280
     0
281
     0
  0
CLASS
  1
ACIMREALSYSVAR
  2
AcImRealSysVar
  3
AcMeServices
 90
        0
280
     0
281
     0
  0
CLASS
  1
ACIMINTSYSVAR
  2
AcImIntSysVar
  3
AcMeServices
 90
        0
280
     0
281
     0
  0
CLASS
  1
ACMEDRAWINGMAN
  2
AcMeDrawingMan
  3
AcMeServices
 90
        0
280
     0
281
     0
  0
CLASS
  1
ACMEVIEW
  2
AcMeView
  3
AcMeServices
 90
        0
280
     0
281
     0
  0
CLASS
  1
ACDBENTITYCACHE
  2
AcMeEntityCache
  3
AcMeServices
 90
        0
280
     0
281
     0
  0
CLASS
  1
GSMANAGER
  2
AcMeGSManager
  3
AcMeServices
 90
        0
280
     0
281
     0
  0
CLASS
  1
AmdtInternalReactor
  2
AmdtInternalReactor
  3
AcMeServices
 90
        0
280
     0
281
     0
  0
CLASS
  1
ACMESTATEMGR
  2
AcMeStateMgr
  3
AcMeServices
 90
        0
280
     0
281
     0
  0
CLASS
  1
ACME_DATABASE
  2
AcMeDbDatabase
  3
AcMeServices
 90
        0
280
     0
281
     0
  0
CLASS
  1
ACRFINSADJUSTERMGR
  2
AcRfInsAdjusterMgr
  3
AcMeServices
 90
        0
280
     0
281
     0
  0
CLASS
  1
ACMDATADICTIONARY
  2
AcmDataDictionary
  3
"AcmSymBB|Product Description: AutoCAD Mechanical 2000|Company: Autodesk"
 90
        0
280
     0
281
     0
  0
CLASS
  1
ACMDATAENTRYBLOCK
  2
AcmDataEntryBlock
  3
"AcmSymBB|Product Description: AutoCAD Mechanical 2000|Company: Autodesk"
 90
        0
280
     0
281
     0
  0
CLASS
  1
AMGOBJPROPCFG
  2
AmgObjPropCfg
  3
"AmgLay|Product Description: AutoCAD Mechanical 2000|Company: Autodesk"
 90
        1
280
     0
281
     0
  0
CLASS
  1
ACAMGFILTERDAT
  2
AcAmgFilterDat
  3
"AcadM|Product Description: AutoCAD Mechanical 2000|Company: Autodesk"
 90
        0
280
     0
281
     0
  0
CLASS
  1
LAYER_INDEX
  2
AcDbLayerIndex
  3
AutoCAD 2000
 90
        0
280
     0
281
     0
  0
CLASS
  1
IDBUFFER
  2
AcDbIdBuffer
  3
AutoCAD 2000
 90
        0
280
     0
281
     0
  0
CLASS
  1
ACIMSTRSYSVAR
  2
AcImStrSysVar
  3
AcMeServices
 90
        0
280
     0
281
     0
  0
CLASS
  1
ACMSTANDARDJIS
  2
AcmStandardJIS
  3
"AcmSymBB|Product Description: AutoCAD Mechanical 2000|Company: Autodesk"
 90
        0
280
     0
281
     0
  0
CLASS
  1
ACMSURFSTANDARDJIS
  2
AcmSurfTextStdJIS
  3
"AcmSymBB|Product Description: AutoCAD Mechanical 2000|Company: Autodesk"
 90
        0
280
     0
281
     0
  0
CLASS
  1
ACMFCFSTANDARDJIS
  2
AcmFCFStdJIS
  3
"AcmSymBB|Product Description: AutoCAD Mechanical 2000|Company: Autodesk"
 90
        0
280
     0
281
     0
  0
CLASS
  1
ACMWELDSTANDARDJIS
  2
AcmWeldingStdJIS
  3
"AcmSymBB|Product Description: AutoCAD Mechanical 2000|Company: Autodesk"
 90
        0
280
     0
281
     0
  0
CLASS
  1
ACMIDSTANDARDJIS
  2
AcmIdStdJIS
  3
"AcmSymBB|Product Description: AutoCAD Mechanical 2000|Company: Autodesk"
 90
        0
280
     0
281
     0
  0
CLASS
  1
ACMDATUMSTANDARDJIS
  2
AcmDatumStdJIS
  3
"AcmSymBB|Product Description: AutoCAD Mechanical 2000|Company: Autodesk"
 90
        0
280
     0
281
     0
  0
CLASS
  1
ACMBOMSTANDARDJIS
  2
AcmBOMStdJIS
  3
"AcmSymBB|Product Description: AutoCAD Mechanical 2000|Company: Autodesk"
 90
        0
280
     0
281
     0
  0
CLASS
  1
ACMSTANDARDANSI
  2
AcmStandardANSI
  3
"AcmSymBB|Product Description: AutoCAD Mechanical 2000|Company: Autodesk"
 90
        0
280
     0
281
     0
  0
CLASS
  1
ACMSURFSTANDARDANSI
  2
AcmSurfTextStdANSI
  3
"AcmSymBB|Product Description: AutoCAD Mechanical 2000|Company: Autodesk"
 90
        0
280
     0
281
     0
  0
CLASS
  1
ACMFCFSTANDARDANSI
  2
AcmFCFStdANSI
  3
"AcmSymBB|Product Description: AutoCAD Mechanical 2000|Company: Autodesk"
 90
        0
280
     0
281
     0
  0
CLASS
  1
ACMWELDSTANDARDANSI
  2
AcmWeldingStdANSI
  3
"AcmSymBB|Product Description: AutoCAD Mechanical 2000|Company: Autodesk"
 90
        0
280
     0
281
     0
  0
CLASS
  1
ACMIDSTANDARDANSI
  2
AcmIdStdANSI
  3
"AcmSymBB|Product Description: AutoCAD Mechanical 2000|Company: Autodesk"
 90
        0
280
     0
281
     0
  0
CLASS
  1
ACMDATUMSTANDARDANSI
  2
AcmDatumStdANSI
  3
"AcmSymBB|Product Description: AutoCAD Mechanical 2000|Company: Autodesk"
 90
        0
280
     0
281
     0
  0
CLASS
  1
ACMBOMSTANDARDANSI
  2
AcmBOMStdANSI
  3
"AcmSymBB|Product Description: AutoCAD Mechanical 2000|Company: Autodesk"
 90
        0
280
     0
281
     0
  0
CLASS
  1
ACMSTANDARDBSI
  2
AcmStandardBSI
  3
"AcmSymBB|Product Description: AutoCAD Mechanical 2000|Company: Autodesk"
 90
        0
280
     0
281
     0
  0
CLASS
  1
ACMSURFSTANDARDBSI
  2
AcmSurfTextStdBSI
  3
"AcmSymBB|Product Description: AutoCAD Mechanical 2000|Company: Autodesk"
 90
        0
280
     0
281
     0
  0
CLASS
  1
ACMFCFSTANDARDBSI
  2
AcmFCFStdBSI
  3
"AcmSymBB|Product Description: AutoCAD Mechanical 2000|Company: Autodesk"
 90
        0
280
     0
281
     0
  0
CLASS
  1
ACMWELDSTANDARDBSI
  2
AcmWeldingStdBSI
  3
"AcmSymBB|Product Description: AutoCAD Mechanical 2000|Company: Autodesk"
 90
        0
280
     0
281
     0
  0
CLASS
  1
ACMIDSTANDARDBSI
  2
AcmIdStdBSI
  3
"AcmSymBB|Product Description: AutoCAD Mechanical 2000|Company: Autodesk"
 90
        0
280
     0
281
     0
  0
CLASS
  1
ACMDATUMSTANDARDBSI
  2
AcmDatumStdBSI
  3
"AcmSymBB|Product Description: AutoCAD Mechanical 2000|Company: Autodesk"
 90
        0
280
     0
281
     0
  0
CLASS
  1
ACMBOMSTANDARDBSI
  2
AcmBOMStdBSI
  3
"AcmSymBB|Product Description: AutoCAD Mechanical 2000|Company: Autodesk"
 90
        0
280
     0
281
     0
  0
CLASS
  1
LONG_TRANSACTION
  2
AcDbLongTransaction
  3
AutoCAD 2000
 90
        0
280
     0
281
     0
  0
CLASS
  1
LWPOLYLINE
  2
AcDbPolyline
  3
AutoCAD 2000
 90
        0
280
     0
281
     1
  0
CLASS
  1
HATCH
  2
AcDbHatch
  3
AutoCAD 2000
 90
        0
280
     0
281
     1
  0
CLASS
  1
XRECORD
  2
AcDbXrecord
  3
AutoCAD 2000
 90
        0
280
     0
281
     0
  0
ENDSEC
  0
SECTION
  2
TABLES
  0
TABLE
  2
VPORT
  5
8
330
0
100
AcDbSymbolTable
 70
     3
  0
VPORT
  5
5BDE
330
8
100
AcDbSymbolTableRecord
100
AcDbViewportTableRecord
  2
*ACTIVE
 70
     0
 10
0.0
 20
0.0
 11
1.0
 21
1.0
 12
-117.2348470105435
 22
-12.1619886364468
 13
0.0
 23
0.0
 14
2.5
 24
2.5
 15
10.0
 25
10.0
 16
0.0
 26
0.0
 36
1.0
 17
0.0
 27
0.0
 37
0.0
 40
262.4822623004257
 41
1.56570841889117
 42
50.0
 43
0.0
 44
0.0
 50
0.0
 51
0.0
 71
     0
 72
   100
 73
     1
 74
     1
 75
     0
 76
     0
 77
     0
 78
     0
  0
ENDTAB
  0
TABLE
  2
LTYPE
  5
5
330
0
100
AcDbSymbolTable
 70
    10
  0
LTYPE
  5
14
330
5
100
AcDbSymbolTableRecord
100
AcDbLinetypeTableRecord
  2
BYBLOCK
 70
     0
  3

 72
    65
 73
     0
 40
0.0
  0
LTYPE
  5
15
330
5
100
AcDbSymbolTableRecord
100
AcDbLinetypeTableRecord
  2
BYLAYER
 70
     0
  3

 72
    65
 73
     0
 40
0.0
  0
LTYPE
  5
16
330
5
100
AcDbSymbolTableRecord
100
AcDbLinetypeTableRecord
  2
CONTINUOUS
 70
     0
  3
Solid line
 72
    65
 73
     0
 40
0.0
  0
LTYPE
  5
4B
330
5
100
AcDbSymbolTableRecord
100
AcDbLinetypeTableRecord
  2
AM_ISO02W050
 70
     0
  3
__ __ __ __ __ __ __ __ __ __ __ __ __ __ __
 72
    65
 73
     2
 40
7.5
 49
6.0
 74
     0
 49
-1.5
 74
     0
  0
LTYPE
  5
4C
330
5
100
AcDbSymbolTableRecord
100
AcDbLinetypeTableRecord
  2
AM_ISO08W050
 70
     0
  3
____ . ____ . ____ . ____ . ____ . ____ . ____
 72
    65
 73
     4
 40
18.0
 49
12.0
 74
     0
 49
-1.5
 74
     0
 49
3.0
 74
     0
 49
-1.5
 74
     0
  0
LTYPE
  5
4D
330
5
100
AcDbSymbolTableRecord
100
AcDbLinetypeTableRecord
  2
AM_ISO09W050
 70
     0
  3
_____ . . _____ . . _____ . . ____ .. ____
 72
    65
 73
     6
 40
22.5
 49
12.0
 74
     0
 49
-1.5
 74
     0
 49
3.0
 74
     0
 49
-1.5
 74
     0
 49
3.0
 74
     0
 49
-1.5
 74
     0
  0
LTYPE
  5
4E
330
5
100
AcDbSymbolTableRecord
100
AcDbLinetypeTableRecord
  2
AMCONSTR
 70
     0
  3
_______________________
 72
    65
 73
     2
 40
9999.0
 49
9999.0
 74
     0
 49
0.0
 74
     0
  0
LTYPE
  5
4F
330
5
100
AcDbSymbolTableRecord
100
AcDbLinetypeTableRecord
  2
AM_ISO02W050X2
 70
     0
  3
 _ _ _ _ _ _ _ _ _ _ _ _
 72
    65
 73
     2
 40
3.75
 49
3.0
 74
     0
 49
-0.75
 74
     0
  0
LTYPE
  5
50
330
5
100
AcDbSymbolTableRecord
100
AcDbLinetypeTableRecord
  2
AM_ISO08W050X2
 70
     0
  3
__ . __ . __ . __ . __ . __
 72
    65
 73
     4
 40
9.0
 49
6.0
 74
     0
 49
-0.75
 74
     0
 49
1.5
 74
     0
 49
-0.75
 74
     0
  0
LTYPE
  5
53
330
5
100
AcDbSymbolTableRecord
100
AcDbLinetypeTableRecord
  2
AMZIGZAG
 70
     0
  3
/\/-/\/-/\/-/\/-/\/-/\/
 72
    65
 73
     2
 40
11.00009999999999
 49
0.0001
 74
     4
 75
   135
340
52
 46
0.04
 50
0.0
 44
0.0
 45
0.0
 49
-11.0
 74
     0
  0
LTYPE
  5
166
330
5
100
AcDbSymbolTableRecord
100
AcDbLinetypeTableRecord
  2
ACJISTGL
 70
     0
  3
_ _ _ _ _
 72
    65
 73
     2
 40
3.0
 49
2.0
 74
     0
 49
-1.0
 74
     0
  0
LTYPE
  5
26A
330
5
100
AcDbSymbolTableRecord
100
AcDbLinetypeTableRecord
  2
ACJISTGB
 70
     0
  3
__ . . __ . .
 72
    65
 73
     6
 40
9.0
 49
4.0
 74
     0
 49
-1.0
 74
     0
 49
1.0
 74
     0
 49
-1.0
 74
     0
 49
1.0
 74
     0
 49
-1.0
 74
     0
  0
ENDTAB
  0
TABLE
  2
LAYER
  5
2
330
0
100
AcDbSymbolTable
 70
    11
  0
LAYER
  5
10
330
2
100
AcDbSymbolTableRecord
100
AcDbLayerTableRecord
  2
0
 70
     0
 62
     7
  6
CONTINUOUS
  0
LAYER
  5
3F9
330
2
100
AcDbSymbolTableRecord
100
AcDbLayerTableRecord
  2
AM_0
 70
     0
 62
     7
  6
CONTINUOUS
  0
LAYER
  5
BA4
330
2
100
AcDbSymbolTableRecord
100
AcDbLayerTableRecord
  2
PV0001_1
 70
     0
 62
     7
  6
CONTINUOUS
  0
LAYER
  5
C6C
330
2
100
AcDbSymbolTableRecord
100
AcDbLayerTableRecord
  2
AM_CL
 70
     0
 62
     1
  6
AMCONSTR
  0
LAYER
  5
C7C
330
2
100
AcDbSymbolTableRecord
100
AcDbLayerTableRecord
  2
AM_7
 70
     0
 62
     4
  6
AM_ISO08W050
  0
LAYER
  5
C97
330
2
100
AcDbSymbolTableRecord
100
AcDbLayerTableRecord
  2
AM_11
 70
     0
 62
     3
  6
AM_ISO09W050
  0
LAYER
  5
CC5
330
2
100
AcDbSymbolTableRecord
100
AcDbLayerTableRecord
  2
AM_5
 70
     0
 62
     3
  6
CONTINUOUS
  0
LAYER
  5
CC7
330
2
100
AcDbSymbolTableRecord
100
AcDbLayerTableRecord
  2
DEFPOINTS
 70
     0
 62
     7
  6
CONTINUOUS
  0
LAYER
  5
19BC
330
2
100
AcDbSymbolTableRecord
100
AcDbLayerTableRecord
  2
AM_6
 70
     0
 62
     2
  6
CONTINUOUS
  0
LAYER
  5
1F8E
330
2
100
AcDbSymbolTableRecord
100
AcDbLayerTableRecord
  2
AM_4
 70
     0
 62
     3
  6
CONTINUOUS
  0
LAYER
  5
3588
330
2
100
AcDbSymbolTableRecord
100
AcDbLayerTableRecord
  2
AM_3
 70
     0
 62
     6
  6
ACJISTGL
  0
ENDTAB
  0
TABLE
  2
STYLE
  5
3
330
0
100
AcDbSymbolTable
 70
     5
  0
STYLE
  5
11
330
3
100
AcDbSymbolTableRecord
100
AcDbTextStyleTableRecord
  2
STANDARD
 70
     0
 40
0.0
 41
1.0
 50
0.0
 71
     0
 42
2.5
  3
simplex.shx
  4
EXTFONT.SHX
  0
STYLE
  5
52
330
3
100
AcDbSymbolTableRecord
100
AcDbTextStyleTableRecord
  2

 70
     1
 40
0.0
 41
1.0
 50
0.0
 71
     0
 42
2.5
  3
ltypeshp.shx
  4

  0
STYLE
  5
6B
330
3
100
AcDbSymbolTableRecord
100
AcDbTextStyleTableRecord
  2
ASAMI
 70
     0
 40
0.0
 41
1.0
 50
0.0
 71
     0
 42
2.5
  3
simplex.shx
  4
EXTFONT.SHX
  0
STYLE
  5
262
330
3
100
AcDbSymbolTableRecord
100
AcDbTextStyleTableRecord
  2
ACJISTS
 70
     0
 40
1.0
 41
1.0
 50
0.0
 71
     0
 42
2.5
  3
simplex.shx
  4
bigfont.shx
  0
STYLE
  5
269
330
3
100
AcDbSymbolTableRecord
100
AcDbTextStyleTableRecord
  2
ACJISGDT
 70
     0
 40
0.0
 41
1.0
 50
0.0
 71
     0
 42
2.5
  3
amgdtans.shx
  4

  0
ENDTAB
  0
TABLE
  2
VIEW
  5
6
330
0
100
AcDbSymbolTable
 70
     0
  0
ENDTAB
  0
TABLE
  2
UCS
  5
7
330
0
100
AcDbSymbolTable
 70
     0
  0
ENDTAB
  0
TABLE
  2
APPID
  5
9
330
0
100
AcDbSymbolTable
 70
    14
  0
APPID
  5
12
330
9
100
AcDbSymbolTableRecord
100
AcDbRegAppTableRecord
  2
ACAD
 70
     0
  0
APPID
  5
30
330
9
100
AcDbSymbolTableRecord
100
AcDbRegAppTableRecord
  2
MCAD_NO_VIS
 70
     0
  0
APPID
  5
31
330
9
100
AcDbSymbolTableRecord
100
AcDbRegAppTableRecord
  2
ACAD_TEMP_GRAPHIC
 70
     0
  0
APPID
  5
2C2
330
9
100
AcDbSymbolTableRecord
100
AcDbRegAppTableRecord
  2
GENIUS_GENDTOL_13
 70
     0
  0
APPID
  5
339
330
9
100
AcDbSymbolTableRecord
100
AcDbRegAppTableRecord
  2
GENIUS_GENODEF_13
 70
     0
  0
APPID
  5
33A
330
9
100
AcDbSymbolTableRecord
100
AcDbRegAppTableRecord
  2
GENIUS_GENOBJ-N-RSBK_13
 70
     0
  0
APPID
  5
33B
330
9
100
AcDbSymbolTableRecord
100
AcDbRegAppTableRecord
  2
GENIUS_GENOBJ-N-LIB_13
 70
     0
  0
APPID
  5
33C
330
9
100
AcDbSymbolTableRecord
100
AcDbRegAppTableRecord
  2
GENIUS_GENSCALE_13
 70
     0
  0
APPID
  5
378
330
9
100
AcDbSymbolTableRecord
100
AcDbRegAppTableRecord
  2
GENIUS_GENDIMSH_14
 70
     0
  0
APPID
  5
C82
330
9
100
AcDbSymbolTableRecord
100
AcDbRegAppTableRecord
  2
GENIUS_GENOBJ-N-CRS_13
 70
     0
  0
APPID
  5
C83
330
9
100
AcDbSymbolTableRecord
100
AcDbRegAppTableRecord
  2
GENIUS_GENOENT_13
 70
     0
  0
APPID
  5
C84
330
9
100
AcDbSymbolTableRecord
100
AcDbRegAppTableRecord
  2
GENIUS_GENOREF_13
 70
     0
  0
APPID
  5
C85
330
9
100
AcDbSymbolTableRecord
100
AcDbRegAppTableRecord
  2
GENIUS_GENOLIS_13
 70
     0
  0
APPID
  5
CA0
330
9
100
AcDbSymbolTableRecord
100
AcDbRegAppTableRecord
  2
GENIUS_GENOBJ-N-CEN_13
 70
     0
  0
ENDTAB
  0
TABLE
  2
DIMSTYLE
  5
A
330
0
100
AcDbSymbolTable
 70
    10
  0
DIMSTYLE
105
58
330
A
100
AcDbSymbolTableRecord
100
AcDbDimStyleTableRecord
  2
AM_JIS
 70
     0
  3

  4
"
  5
OPEN30
  6

  7

 40
1.0
 41
2.5
 42
1.0
 43
12.0
 44
1.0
 45
0.0
 46
0.0
 47
0.1
 48
0.1
140
3.2
141
0.0
142
0.0
143
0.0393701
144
1.0
145
0.0
146
0.71
147
1.5
 71
     0
 72
     0
 73
     0
 74
     0
 75
     0
 76
     0
 77
     3
 78
     8
170
     0
171
     2
172
     1
173
     0
174
     0
175
     0
176
   256
177
   256
178
     2
270
     2
271
     3
272
     3
273
     2
274
     2
340
6B
275
     0
280
     0
281
     0
282
     0
283
     0
284
     0
285
     0
286
     0
287
     3
288
     0
  0
DIMSTYLE
105
5F
330
A
100
AcDbSymbolTableRecord
100
AcDbDimStyleTableRecord
  2
AM_JIS$3
 70
     0
  3

  4
"
  5
OPEN30
  6

  7

 40
1.0
 41
2.5
 42
1.0
 43
10.0
 44
1.0
 45
0.0
 46
0.0
 47
0.1
 48
0.1
140
3.2
141
0.0
142
0.0
143
0.0393701
144
1.0
145
0.0
146
0.71
147
1.5
 71
     0
 72
     0
 73
     0
 74
     1
 75
     0
 76
     0
 77
     3
 78
     8
170
     0
171
     2
172
     0
173
     0
174
     0
175
     0
176
   256
177
   256
178
     2
270
     2
271
     2
272
     3
273
     2
274
     2
340
6B
275
     0
280
     0
281
     0
282
     0
283
     0
284
     0
285
     0
286
     0
287
     0
288
     1
  0
DIMSTYLE
105
60
330
A
100
AcDbSymbolTableRecord
100
AcDbDimStyleTableRecord
  2
AM_JIS$4
 70
     0
  3

  4
"
  5
OPEN30
  6

  7

 40
1.0
 41
2.5
 42
1.0
 43
10.0
 44
1.0
 45
0.0
 46
0.0
 47
0.1
 48
0.1
140
3.2
141
0.0
142
0.0
143
0.0393701
144
1.0
145
0.0
146
0.71
147
1.5
 71
     0
 72
     0
 73
     0
 74
     1
 75
     0
 76
     0
 77
     3
 78
     8
170
     0
171
     2
172
     0
173
     0
174
     0
175
     0
176
   256
177
   256
178
     2
270
     2
271
     2
272
     3
273
     2
274
     2
340
6B
275
     0
280
     0
281
     0
282
     0
283
     0
284
     0
285
     0
286
     0
287
     0
288
     1
  0
DIMSTYLE
105
61
330
A
100
AcDbSymbolTableRecord
100
AcDbDimStyleTableRecord
  2
AM_JIS$6
 70
     0
  3

  4
"
  5
OPEN30
  6

  7

 40
1.0
 41
2.5
 42
1.0
 43
10.0
 44
1.0
 45
0.0
 46
0.0
 47
0.1
 48
0.1
140
3.2
141
0.0
142
0.0
143
0.0393701
144
1.0
145
0.0
146
0.71
147
1.5
 71
     0
 72
     0
 73
     0
 74
     0
 75
     0
 76
     0
 77
     0
 78
     8
170
     0
171
     2
172
     1
173
     0
174
     0
175
     0
176
   256
177
   256
178
     2
270
     2
271
     2
272
     2
273
     2
274
     2
340
6B
275
     0
280
     0
281
     0
282
     0
283
     0
284
     0
285
     0
286
     0
287
     3
288
     0
  0
DIMSTYLE
105
62
330
A
100
AcDbSymbolTableRecord
100
AcDbDimStyleTableRecord
  2
AM_JIS$7
 70
     0
  3

  4
"
  5
OPEN30
  6

  7

 40
1.0
 41
2.5
 42
1.0
 43
10.0
 44
1.0
 45
0.0
 46
0.0
 47
0.1
 48
0.1
140
3.2
141
0.0
142
0.0
143
0.0393701
144
1.0
145
0.0
146
0.71
147
1.5
 71
     0
 72
     0
 73
     0
 74
     0
 75
     0
 76
     0
 77
     3
 78
     8
170
     0
171
     2
172
     1
173
     0
174
     0
175
     0
176
   256
177
   256
178
     2
270
     2
271
     2
272
     3
273
     2
274
     2
340
6B
275
     0
280
     0
281
     0
282
     0
283
     0
284
     0
285
     0
286
     0
287
     3
288
     0
  0
DIMSTYLE
105
63
330
A
100
AcDbSymbolTableRecord
100
AcDbDimStyleTableRecord
  2
AM_JIS$SF
 70
     0
  3

  4
"
  5
OPEN30
  6

  7

 40
1.0
 41
2.5
 42
1.0
 43
10.0
 44
1.0
 45
0.0
 46
0.0
 47
0.1
 48
0.1
140
3.2
141
0.0
142
0.0
143
0.0393701
144
1.0
145
0.0
146
0.71
147
1.5
 71
     0
 72
     0
 73
     0
 74
     0
 75
     1
 76
     1
 77
     3
 78
     8
170
     0
171
     2
172
     1
173
     0
174
     0
175
     0
176
   256
177
   256
178
     2
270
     2
271
     2
272
     2
273
     2
274
     2
340
6B
275
     0
280
     0
281
     0
282
     0
283
     0
284
     0
285
     0
286
     0
287
     3
288
     0
  0
DIMSTYLE
105
68
330
A
100
AcDbSymbolTableRecord
100
AcDbDimStyleTableRecord
  2
AM_JIS$SH
 70
     0
  3

  4
"
  5

  6
GENAXEH
  7
OPEN30
 40
1.0
 41
2.5
 42
1.0
 43
10.0
 44
1.0
 45
0.0
 46
0.0
 47
0.1
 48
0.1
140
3.2
141
0.0
142
0.0
143
0.0393701
144
2.0
145
0.0
146
0.71
147
1.5
 71
     0
 72
     0
 73
     0
 74
     0
 75
     1
 76
     1
 77
     3
 78
     8
170
     0
171
     2
172
     1
173
     1
174
     0
175
     0
176
   256
177
   256
178
     2
270
     2
271
     2
272
     2
273
     2
274
     2
340
6B
275
     0
280
     0
281
     0
282
     0
283
     0
284
     0
285
     0
286
     0
287
     3
288
     0
  0
DIMSTYLE
105
B34
102
{ACAD_REACTORS
330
36BA
102
}
330
A
100
AcDbSymbolTableRecord
100
AcDbDimStyleTableRecord
  2
AM_JIS$2
 70
     0
  3

  4
"
  5
OPEN30
  6

  7

 40
1.0
 41
2.5
 42
1.0
 43
12.0
 44
1.0
 45
0.0
 46
0.0
 47
0.1
 48
0.1
140
3.2
141
0.0
142
0.0
143
0.0393701
144
1.0
145
0.0
146
0.71
147
1.5
 71
     0
 72
     0
 73
     0
 74
     0
 75
     0
 76
     0
 77
     3
 78
     8
170
     0
171
     2
172
     1
173
     0
174
     0
175
     0
176
   256
177
   256
178
     2
270
     2
271
     3
272
     3
273
     2
274
     2
340
6B
275
     0
280
     0
281
     0
282
     0
283
     0
284
     0
285
     0
286
     0
287
     3
288
     0
  0
DIMSTYLE
105
BA5
102
{ACAD_REACTORS
330
3B0D
330
471A
330
4A5A
330
4A5C
330
5242
330
535A
330
5368
330
5369
330
536A
102
}
330
A
100
AcDbSymbolTableRecord
100
AcDbDimStyleTableRecord
  2
AM_JIS$0
 70
     0
  3

  4
"
  5
OPEN30
  6

  7

 40
1.0
 41
2.5
 42
0.8
 43
10.0
 44
1.0
 45
0.0
 46
0.0
 47
0.1
 48
0.1000000001
140
3.799999999999999
141
0.0
142
0.0
143
0.0393701
144
1.0
145
0.0
146
0.71
147
1.5
 71
     0
 72
     0
 73
     0
 74
     0
 75
     0
 76
     0
 77
     3
 78
     9
170
     0
171
     2
172
     1
173
     0
174
     0
175
     0
176
     3
177
     3
178
     2
270
     2
271
     2
272
     2
273
     2
274
     2
340
11
275
     1
280
     0
281
     0
282
     0
283
     0
284
     8
285
     0
286
     0
287
     0
288
     0
  0
DIMSTYLE
105
BA6
330
A
100
AcDbSymbolTableRecord
100
AcDbDimStyleTableRecord
  2
AM_JISORG-1P0$2
 70
     0
  3

  4
"
  5
OPEN30
  6

  7

 40
1.0
 41
2.5
 42
0.0
 43
10.0
 44
1.0
 45
0.0
 46
0.0
 47
0.1
 48
0.1000000001
140
3.799999999999999
141
0.0
142
0.0
143
0.0393701
144
-0.999999980146674
145
0.0
146
0.71
147
1.5
 71
     0
 72
     0
 73
     0
 74
     0
 75
     0
 76
     0
 77
     3
 78
     1
170
     0
171
     2
172
     1
173
     0
174
     0
175
     0
176
     3
177
     3
178
     2
270
     2
271
     2
272
     2
273
     2
274
     2
340
11
275
     1
280
     0
281
     0
282
     0
283
     0
284
     8
285
     0
286
     0
287
     0
288
     0
  0
ENDTAB
  0
TABLE
  2
BLOCK_RECORD
  5
1
330
0
100
AcDbSymbolTable
 70
    20
  0
BLOCK_RECORD
  5
1F
102
{ACAD_XDICTIONARY
360
74
102
}
330
1
100
AcDbSymbolTableRecord
100
AcDbBlockTableRecord
  2
*MODEL_SPACE
  0
BLOCK_RECORD
  5
101
102
{ACAD_XDICTIONARY
360
5C07
102
}
330
1
100
AcDbSymbolTableRecord
100
AcDbBlockTableRecord
  2
*PAPER_SPACE
  0
BLOCK_RECORD
  5
59
330
1
100
AcDbSymbolTableRecord
100
AcDbBlockTableRecord
  2
_OPEN30
  0
BLOCK_RECORD
  5
64
330
1
100
AcDbSymbolTableRecord
100
AcDbBlockTableRecord
  2
GENAXEH
  0
BLOCK_RECORD
  5
C31
330
1
100
AcDbSymbolTableRecord
100
AcDbBlockTableRecord
  2
A$C36D02A34
  0
BLOCK_RECORD
  5
2453
330
1
100
AcDbSymbolTableRecord
100
AcDbBlockTableRecord
  2
*D6
  0
BLOCK_RECORD
  5
245F
330
1
100
AcDbSymbolTableRecord
100
AcDbBlockTableRecord
  2
A$C4FFC6CC0
  0
BLOCK_RECORD
  5
36BB
330
1
100
AcDbSymbolTableRecord
100
AcDbBlockTableRecord
  2
*D8
  0
BLOCK_RECORD
  5
3B0E
330
1
100
AcDbSymbolTableRecord
100
AcDbBlockTableRecord
  2
*D9
  0
BLOCK_RECORD
  5
471B
330
1
100
AcDbSymbolTableRecord
100
AcDbBlockTableRecord
  2
*D10
  0
BLOCK_RECORD
  5
4A78
330
1
100
AcDbSymbolTableRecord
100
AcDbBlockTableRecord
  2
*D11
  0
BLOCK_RECORD
  5
4A90
330
1
100
AcDbSymbolTableRecord
100
AcDbBlockTableRecord
  2
*D12
  0
BLOCK_RECORD
  5
5243
330
1
100
AcDbSymbolTableRecord
100
AcDbBlockTableRecord
  2
*D13
  0
BLOCK_RECORD
  5
536B
330
1
100
AcDbSymbolTableRecord
100
AcDbBlockTableRecord
  2
*D14
  0
BLOCK_RECORD
  5
5377
330
1
100
AcDbSymbolTableRecord
100
AcDbBlockTableRecord
  2
*D15
  0
BLOCK_RECORD
  5
5383
330
1
100
AcDbSymbolTableRecord
100
AcDbBlockTableRecord
  2
*D16
  0
BLOCK_RECORD
  5
5391
330
1
100
AcDbSymbolTableRecord
100
AcDbBlockTableRecord
  2
*D17
  0
ENDTAB
  0
ENDSEC
  0
SECTION
  2
BLOCKS
  0
BLOCK
  5
20
330
1F
100
AcDbEntity
  8
0
100
AcDbBlockBegin
  2
*MODEL_SPACE
 70
     0
 10
0.0
 20
0.0
 30
0.0
  3
*MODEL_SPACE
  1

  0
ENDBLK
  5
21
330
1F
100
AcDbEntity
  8
0
100
AcDbBlockEnd
  0
BLOCK
  5
103
330
101
100
AcDbEntity
 67
     1
  8
0
100
AcDbBlockBegin
  2
*PAPER_SPACE
 70
     0
 10
0.0
 20
0.0
 30
0.0
  3
*PAPER_SPACE
  1

  0
ENDBLK
  5
104
330
101
100
AcDbEntity
 67
     1
  8
0
100
AcDbBlockEnd
  0
BLOCK
  5
5D
330
59
100
AcDbEntity
  8
0
100
AcDbBlockBegin
  2
_OPEN30
 70
     0
 10
0.0
 20
0.0
 30
0.0
  3
_OPEN30
  1

  0
LINE
  5
5A
330
59
100
AcDbEntity
  8
0
 62
     0
100
AcDbLine
 10
-1.0
 20
0.26794919
 30
0.0
 11
0.0
 21
0.0
 31
0.0
  0
LINE
  5
5B
330
59
100
AcDbEntity
  8
0
 62
     0
100
AcDbLine
 10
0.0
 20
0.0
 30
0.0
 11
-1.0
 21
-0.26794919
 31
0.0
  0
LINE
  5
5C
330
59
100
AcDbEntity
  8
0
 62
     0
100
AcDbLine
 10
0.0
 20
0.0
 30
0.0
 11
-1.0
 21
0.0
 31
0.0
  0
ENDBLK
  5
5E
330
59
100
AcDbEntity
  8
0
100
AcDbBlockEnd
  0
BLOCK
  5
66
330
64
100
AcDbEntity
  8
0
100
AcDbBlockBegin
  2
GENAXEH
 70
     0
 10
0.0
 20
0.0
 30
0.0
  3
GENAXEH
  1

  0
LINE
  5
65
330
64
100
AcDbEntity
  8
0
100
AcDbLine
 10
-1.0
 20
0.0
 30
0.0
 11
1.0
 21
0.0
 31
0.0
  0
ENDBLK
  5
67
330
64
100
AcDbEntity
  8
0
100
AcDbBlockEnd
  0
BLOCK
  5
C4B
330
C31
100
AcDbEntity
  8
0
100
AcDbBlockBegin
  2
A$C36D02A34
 70
     0
 10
0.0
 20
0.0
 30
0.0
  3
A$C36D02A34
  1

  0
ARC
  5
C32
330
C31
100
AcDbEntity
  8
PV0001_1
  6
CONTINUOUS
 48
0.5
100
AcDbCircle
 10
18.06811523436999
 20
-11.83651161193799
 30
0.0
 40
21.600000381469
100
AcDbArc
 50
123.2290435713209
 51
126.6341524197568
  0
ARC
  5
C33
330
C31
100
AcDbEntity
  8
PV0001_1
  6
CONTINUOUS
 48
0.5
100
AcDbCircle
 10
18.06811523436999
 20
-11.83651161193799
 30
0.0
 40
21.600000381469
100
AcDbArc
 50
135.0736707620117
 51
146.7709980930592
  0
ARC
  5
C34
330
C31
100
AcDbEntity
  8
PV0001_1
  6
CONTINUOUS
 48
0.5
100
AcDbCircle
 10
-18.0680770874
 20
11.8365631103514
 30
0.0
 40
21.600000381469
100
AcDbArc
 50
315.0734847530392
 51
326.770781348241
  0
ARC
  5
C35
330
C31
100
AcDbEntity
  8
PV0001_1
  6
CONTINUOUS
 48
0.5
100
AcDbCircle
 10
-18.0680770874
 20
11.8365631103514
 30
0.0
 40
21.600000381469
100
AcDbArc
 50
303.2288882981993
 51
306.633986901359
  0
ARC
  5
C36
330
C31
100
AcDbEntity
  8
PV0001_1
  6
CONTINUOUS
 48
0.5
100
AcDbCircle
 10
-0.6269836425800009
 20
-2.044216156005997
 30
0.0
 40
2.0
100
AcDbArc
 50
337.4067997351092
 51
43.42231293132884
  0
ARC
  5
C37
330
C31
100
AcDbEntity
  8
PV0001_1
  6
CONTINUOUS
 48
0.5
100
AcDbCircle
 10
0.626953125
 20
2.044223785401001
 30
0.0
 40
2.0
100
AcDbArc
 50
157.4068184044407
 51
223.4222769591536
  0
CIRCLE
  5
C38
330
C31
100
AcDbEntity
  8
PV0001_1
  6
CONTINUOUS
 48
0.5
100
AcDbCircle
 10
3.856727600100001
 20
4.596265792847002
 30
0.0
 40
1.6000000238419
  0
CIRCLE
  5
C39
330
C31
100
AcDbEntity
  8
PV0001_1
  6
CONTINUOUS
 48
0.5
100
AcDbCircle
 10
-3.856727600100001
 20
-4.596265792845997
 30
0.0
 40
1.6000000238419
  0
ARC
  5
C3A
330
C31
100
AcDbEntity
  8
PV0001_1
  6
CONTINUOUS
 48
0.5
100
AcDbCircle
 10
-5.58123779297
 20
5.092639923096001
 30
0.0
 40
5.019082546234099
100
AcDbArc
 50
240.2658959250867
 51
321.5156269706421
  0
ARC
  5
C3B
330
C31
100
AcDbEntity
  8
PV0001_1
  6
CONTINUOUS
 48
0.5
100
AcDbCircle
 10
5.486755371089998
 20
-4.601703643798998
 30
0.0
 40
4.651036739349399
100
AcDbArc
 50
56.25271400417071
 51
145.528859890601
  0
ARC
  5
C3C
330
C31
100
AcDbEntity
  8
PV0001_1
  6
CONTINUOUS
 48
0.5
100
AcDbCircle
 10
-2.11590576172
 20
-3.453323364257997
 30
0.0
 40
4.050000190734899
100
AcDbArc
 50
43.42230610113921
 51
58.50391703385149
  0
ARC
  5
C3D
330
C31
100
AcDbEntity
  8
PV0001_1
  6
CONTINUOUS
 48
0.5
100
AcDbCircle
 10
2.115875244139999
 20
3.453330993653001
 30
0.0
 40
4.050000190734899
100
AcDbArc
 50
223.4222942619974
 51
238.5038164022482
  0
ARC
  5
C3E
330
C31
100
AcDbEntity
  8
PV0001_1
  6
CONTINUOUS
 48
0.5
100
AcDbCircle
 10
-6.70369720459
 20
5.094657897949002
 30
0.0
 40
5.940000057220499
100
AcDbArc
 50
328.2536768887549
 51
31.74641873389623
  0
ARC
  5
C3F
330
C31
100
AcDbEntity
  8
PV0001_1
  6
CONTINUOUS
 48
0.5
100
AcDbCircle
 10
6.703674316410001
 20
-5.094650268553998
 30
0.0
 40
5.940000057220499
100
AcDbArc
 50
148.2533403882529
 51
211.7466423089037
  0
ARC
  5
C40
330
C31
100
AcDbEntity
  8
PV0001_1
  6
CONTINUOUS
 48
0.5
100
AcDbCircle
 10
0.0
 20
0.0
 30
0.0
 40
8.812800407409699
100
AcDbArc
 50
175.2198288164333
 51
272.8622597568298
  0
ARC
  5
C41
330
C31
100
AcDbEntity
  8
PV0001_1
  6
CONTINUOUS
 48
0.5
100
AcDbCircle
 10
0.0
 20
0.0
 30
0.0
 40
9.1800003051758
100
AcDbArc
 50
272.7511362215027
 51
280.3697477877874
  0
ARC
  5
C42
330
C31
100
AcDbEntity
  8
PV0001_1
  6
CONTINUOUS
 48
0.5
100
AcDbCircle
 10
0.0
 20
0.0
 30
0.0
 40
8.812800407409699
100
AcDbArc
 50
355.2198199654955
 51
92.86229572901076
  0
ARC
  5
C43
330
C31
100
AcDbEntity
  8
PV0001_1
  6
CONTINUOUS
 48
0.5
100
AcDbCircle
 10
0.0
 20
0.0
 30
0.0
 40
9.1800003051758
100
AcDbArc
 50
92.75115489083434
 51
100.3697664571193
  0
CIRCLE
  5
C44
330
C31
100
AcDbEntity
  8
PV0001_1
  6
CONTINUOUS
100
AcDbCircle
 10
0.0
 20
0.0
 30
0.0
 40
9.1800003051758
  0
LINE
  5
C45
330
C31
100
AcDbEntity
  8
PV0001_1
  6
CONTINUOUS
 48
0.5
100
AcDbLine
 10
-1.652404785160001
 20
9.030059814453
 30
0.0
 11
-1.652404785160001
 21
8.220062255860002
 31
0.0
  0
LINE
  5
C46
330
C31
100
AcDbEntity
  8
PV0001_1
  6
CONTINUOUS
 48
0.5
100
AcDbLine
 10
1.652404785160001
 20
-8.220058441161999
 30
0.0
 11
1.652404785160001
 21
-9.030055999755997
 31
0.0
  0
LINE
  5
C47
330
C31
100
AcDbEntity
  8
PV0001_1
  6
CONTINUOUS
 48
0.5
100
AcDbLine
 10
-8.78217315674
 20
0.7343807220460015
 30
0.0
 11
-8.070594787600001
 21
0.7343997955320028
 31
0.0
  0
LINE
  5
C48
330
C31
100
AcDbEntity
  8
PV0001_1
  6
CONTINUOUS
 48
0.5
100
AcDbLine
 10
8.07057952881
 20
-0.7343864440919994
 30
0.0
 11
8.78215789795
 21
-0.7343654632569994
 31
0.0
  0
LINE
  5
C49
330
C31
100
AcDbEntity
  8
PV0001_1
  6
CONTINUOUS
 48
0.5
100
AcDbLine
 10
0.4406127929700006
 20
-9.169414520263
 30
0.0
 11
0.4406127929700006
 21
-8.812801361083998
 31
0.0
  0
LINE
  5
C4A
330
C31
100
AcDbEntity
  8
PV0001_1
  6
CONTINUOUS
 48
0.5
100
AcDbLine
 10
-0.4406127929700006
 20
9.169418334961001
 30
0.0
 11
-0.4406127929700006
 21
8.812805175781001
 31
0.0
  0
ENDBLK
  5
C4C
330
C31
100
AcDbEntity
  8
0
100
AcDbBlockEnd
  0
BLOCK
  5
245D
330
2453
100
AcDbEntity
  8
0
100
AcDbBlockBegin
  2
*D6
 70
     1
 10
0.0
 20
0.0
 30
0.0
  3
*D6
  1

  0
LINE
  5
2454
330
2453
100
AcDbEntity
  8
AM_5
 62
     3
100
AcDbLine
 10
-137.574381722344
 20
-5.00000294019065
 30
0.0
 11
-152.8199008769066
 21
-5.000002940190694
 31
0.0
  0
LINE
  5
2455
330
2453
100
AcDbEntity
  8
AM_5
 62
     3
100
AcDbLine
 10
-137.5743817223442
 20
5.00002461040103
 30
0.0
 11
-152.8199008769066
 21
5.000024610400987
 31
0.0
  0
LINE
  5
2456
330
2453
100
AcDbEntity
  8
AM_5
 62
     3
100
AcDbLine
 10
-151.8199008769066
 20
-2.500002940190691
 30
0.0
 11
-151.8199008769066
 21
2.50002461040099
 31
0.0
  0
INSERT
  5
2457
330
2453
100
AcDbEntity
  8
AM_5
 62
     3
100
AcDbBlockReference
  2
_OPEN30
 10
-151.8199008769066
 20
-5.00000294019069
 30
0.0
 41
2.5
 42
2.5
 43
2.5
 50
270.0000000000001
  0
INSERT
  5
2458
330
2453
100
AcDbEntity
  8
AM_5
 62
     3
100
AcDbBlockReference
  2
_OPEN30
 10
-151.8199008769066
 20
5.00002461040099
 30
0.0
 41
2.5
 42
2.5
 43
2.5
 50
90.00000000000015
  0
MTEXT
  5
2459
330
2453
100
AcDbEntity
  8
AM_5
 62
     2
100
AcDbMText
 10
-155.2199008769066
 20
0.000010835105146
 30
0.0
 40
3.799999999999999
 41
0.0
 71
     5
 72
     1
  1
%%c10
 11
-0.0000000000000028
 21
1.0
 31
0.0
1001
ACAD
1000
MTEXTBEGIN
1070
    73
1070
     1
1070
    44
1040
1.0
1070
    74
1070
     0
1000
MTEXTEND
  0
POINT
  5
245A
330
2453
100
AcDbEntity
  8
DEFPOINTS
 62
     0
100
AcDbPoint
 10
-137.5743817223441
 20
-5.000002940190223
 30
0.0
  0
POINT
  5
245B
330
2453
100
AcDbEntity
  8
DEFPOINTS
 62
     0
100
AcDbPoint
 10
-137.5743817223441
 20
5.000024610401458
 30
0.0
  0
POINT
  5
245C
330
2453
100
AcDbEntity
  8
DEFPOINTS
 62
     0
100
AcDbPoint
 10
-151.8199008769066
 20
5.000024610401462
 30
0.0
  0
ENDBLK
  5
245E
330
2453
100
AcDbEntity
  8
0
100
AcDbBlockEnd
  0
BLOCK
  5
246B
330
245F
100
AcDbEntity
  8
0
100
AcDbBlockBegin
  2
A$C4FFC6CC0
 70
     0
 10
0.0
 20
0.0
 30
0.0
  3
A$C4FFC6CC0
  1

  0
DIMENSION
  5
2460
330
245F
100
AcDbEntity
  8
AM_5
100
AcDbDimension
  2
*D6
 10
-70.00000100000002
 20
5.000008477104842
 30
0.0
 11
-70.00000100000002
 21
-0.0000052981910228
 31
0.0
 12
81.81989987690661
 22
-0.0000161332966199
 32
0.0
 70
   128
  1
%%c<>
 51
359.9999999999998
  3
AM_JIS$0
100
AcDbAlignedDimension
 13
-55.75448184543748
 23
-5.000019073486843
 33
0.0
 14
-55.75448184543756
 24
5.000008477104838
 34
0.0
 50
270.0
100
AcDbRotatedDimension
1001
ACAD
1000
DSTYLE
1002
{
1070
   271
1070
     0
1002
}
1001
GENIUS_GENDTOL_13
1000

1000
h7
1000

1040
0.0
  0
LINE
  5
2461
330
245F
100
AcDbEntity
  8
AM_0
 48
0.5
100
AcDbLine
 10
-56.0
 20
-4.754495620727796
 30
0.0
 11
-56.00000000000003
 21
4.754485024345811
 31
0.0
  0
LINE
  5
2462
330
245F
100
AcDbEntity
  8
AM_0
 48
0.5
100
AcDbLine
 10
-55.75448184543751
 20
-5.000019073486843
 30
0.0
 11
-55.75448184543754
 21
5.000008477104838
 31
0.0
  0
LINE
  5
2463
330
245F
100
AcDbEntity
  8
AM_0
100
AcDbLine
 10
-0.0000000000000142
 20
4.999995231627903
 30
0.0
 11
-55.75448184543754
 21
4.999995231627746
 31
0.0
  0
LINE
  5
2464
330
245F
100
AcDbEntity
  8
AM_0
 48
0.5
100
AcDbLine
 10
-55.99996821086117
 20
4.754439989725671
 30
0.0
 11
-55.75443945990975
 21
4.999963442484006
 31
0.0
  0
LINE
  5
2465
330
245F
100
AcDbEntity
  8
AM_0
100
AcDbLine
 10
-55.75448184543751
 20
-5.000008477105588
 30
0.0
 11
0.0000000000000142
 21
-5.00000847710543
 31
0.0
  0
LINE
  5
2466
330
245F
100
AcDbEntity
  8
AM_0
 48
0.5
100
AcDbLine
 10
-55.99996821086114
 20
-4.754474427965309
 30
0.0
 11
-55.75443945990972
 21
-4.999997880724334
 31
0.0
  0
LINE
  5
2467
330
245F
100
AcDbEntity
  8
AM_0
100
AcDbLine
 10
0.7794201296714505
 20
4.549985867772141
 30
0.0
 11
0.7794201296714789
 21
-4.550003370497427
 31
0.0
  0
LINE
  5
2468
330
245F
100
AcDbEntity
  8
AM_0
 48
0.5
100
AcDbLine
 10
0.0000000000000142
 20
-5.00000847710543
 30
0.0
 11
-0.0000000000000142
 21
5.000008477104995
 31
0.0
  0
LINE
  5
2469
330
245F
100
AcDbEntity
  8
AM_0
 48
0.5
100
AcDbLine
 10
0.7794201296714647
 20
-4.550003370497435
 30
0.0
 11
-0.0000105963812445
 21
-5.00000847710543
 31
0.0
  0
LINE
  5
246A
330
245F
100
AcDbEntity
  8
AM_0
 48
0.5
100
AcDbLine
 10
0.7794201296714647
 20
4.549985867772141
 30
0.0
 11
-0.0000000000000142
 21
4.999984635246652
 31
0.0
  0
ENDBLK
  5
246C
330
245F
100
AcDbEntity
  8
0
100
AcDbBlockEnd
  0
BLOCK
  5
36C9
330
36BB
100
AcDbEntity
  8
0
100
AcDbBlockBegin
  2
*D8
 70
     1
 10
0.0
 20
0.0
 30
0.0
  3
*D8
  1

  0
LINE
  5
4DBC
330
36BB
100
AcDbEntity
  8
AM_5
100
AcDbLine
 10
0.3420201408161528
 20
-0.93969262169946
 30
0.0
 11
12.73376567701368
 21
-34.98573395293323
 31
0.0
  0
LINE
  5
4DBD
330
36BB
100
AcDbEntity
  8
AM_5
100
AcDbLine
 10
0.3420201408161419
 20
0.9396926216991598
 30
0.0
 11
12.73376567701327
 21
34.98573395293309
 31
0.0
  0
ARC
  5
4DBE
330
36BB
100
AcDbEntity
  8
AM_5
100
AcDbCircle
 10
0.0000000000000289
 20
-0.0000000000001521
 30
0.0
 40
36.23104039027792
100
AcDbArc
 50
293.9542854242186
 51
66.04571457578202
  0
INSERT
  5
4DBF
330
36BB
100
AcDbEntity
  8
AM_5
100
AcDbBlockReference
  2
_OPEN30
 10
12.39174553619755
 20
-34.04604133123393
 30
0.0
 41
2.5
 42
2.5
 43
2.5
 50
201.9771426356022
  0
INSERT
  5
4DC0
330
36BB
100
AcDbEntity
  8
AM_5
100
AcDbBlockReference
  2
_OPEN30
 10
12.39174553619716
 20
34.04604133123378
 30
0.0
 41
2.5
 42
2.5
 43
2.5
 50
158.0228573643984
  0
MTEXT
  5
4DC1
330
36BB
100
AcDbEntity
  8
AM_5
 62
     2
100
AcDbMText
 10
33.13104039027795
 20
0.0000000000000646
 30
0.0
 40
3.2
 41
0.0
 71
     5
 72
     1
  1
140°
  7
ASAMI
 11
-0.0000000000000028
 21
1.0
 31
0.0
1001
ACAD
1000
MTEXTBEGIN
1070
    73
1070
     1
1070
    44
1040
1.0
1070
    74
1070
     0
1000
MTEXTEND
  0
POINT
  5
4DC2
330
36BB
100
AcDbEntity
  8
DEFPOINTS
 62
     0
100
AcDbPoint
 10
33.26792484260828
 20
-14.35038203075178
 30
0.0
  0
POINT
  5
4DC3
330
36BB
100
AcDbEntity
  8
DEFPOINTS
 62
     0
100
AcDbPoint
 10
0.0
 20
-0.0000000000002316
 30
0.0
  0
POINT
  5
4DC4
330
36BB
100
AcDbEntity
  8
DEFPOINTS
 62
     0
100
AcDbPoint
 10
0.0
 20
-0.0000000000000725
 30
0.0
  0
POINT
  5
4DC5
330
36BB
100
AcDbEntity
  8
DEFPOINTS
 62
     0
100
AcDbPoint
 10
-2.800374408476802
 20
7.693965517241139
 30
0.0
  0
POINT
  5
4DC6
330
36BB
100
AcDbEntity
  8
DEFPOINTS
 62
     0
100
AcDbPoint
 10
-2.800374408476762
 20
-7.693965517241461
 30
0.0
  0
ENDBLK
  5
36CA
330
36BB
100
AcDbEntity
  8
0
100
AcDbBlockEnd
  0
BLOCK
  5
3B18
330
3B0E
100
AcDbEntity
  8
0
100
AcDbBlockBegin
  2
*D9
 70
     1
 10
0.0
 20
0.0
 30
0.0
  3
*D9
  1

  0
LINE
  5
5A96
330
3B0E
100
AcDbEntity
  8
AM_5
 62
     3
100
AcDbLine
 10
-5.550546026438158
 20
15.80000000000058
 30
0.0
 11
-5.550546026438213
 21
35.20405258133283
 31
0.0
  0
LINE
  5
5A97
330
3B0E
100
AcDbEntity
  8
AM_5
 62
     3
100
AcDbLine
 10
-162.5505460264379
 20
15.80000000000336
 30
0.0
 11
-162.550546026438
 21
35.20405258133237
 31
0.0
  0
LINE
  5
5A98
330
3B0E
100
AcDbEntity
  8
AM_5
 62
     3
100
AcDbLine
 10
-8.05054602643821
 20
34.20405258133283
 30
0.0
 11
-160.050546026438
 21
34.20405258133238
 31
0.0
  0
INSERT
  5
5A99
330
3B0E
100
AcDbEntity
  8
AM_5
 62
     3
100
AcDbBlockReference
  2
_OPEN30
 10
-5.55054602643821
 20
34.20405258133284
 30
0.0
 41
2.5
 42
2.5
 43
2.5
 50
0.0000000000001527
  0
INSERT
  5
5A9A
330
3B0E
100
AcDbEntity
  8
AM_5
 62
     3
100
AcDbBlockReference
  2
_OPEN30
 10
-162.550546026438
 20
34.20405258133238
 30
0.0
 41
2.5
 42
2.5
 43
2.5
 50
180.0000000000001
  0
MTEXT
  5
5A9B
330
3B0E
100
AcDbEntity
  8
AM_5
 62
     2
100
AcDbMText
 10
-84.05054602643811
 20
37.6040525813326
 30
0.0
 40
3.799999999999999
 41
0.0
 71
     5
 72
     1
  1
157
1001
ACAD
1000
MTEXTBEGIN
1070
    73
1070
     1
1070
    44
1040
1.0
1070
    74
1070
     0
1000
MTEXTEND
  0
POINT
  5
5A9C
330
3B0E
100
AcDbEntity
  8
DEFPOINTS
 62
     0
100
AcDbPoint
 10
-5.550546026438111
 20
15.00000000000059
 30
0.0
  0
POINT
  5
5A9D
330
3B0E
100
AcDbEntity
  8
DEFPOINTS
 62
     0
100
AcDbPoint
 10
-162.5505460264379
 20
15.00000000000383
 30
0.0
  0
POINT
  5
5A9E
330
3B0E
100
AcDbEntity
  8
DEFPOINTS
 62
     0
100
AcDbPoint
 10
-162.5505460264379
 20
34.20405258133285
 30
0.0
  0
ENDBLK
  5
3B19
330
3B0E
100
AcDbEntity
  8
0
100
AcDbBlockEnd
  0
BLOCK
  5
4725
330
471B
100
AcDbEntity
  8
0
100
AcDbBlockBegin
  2
*D10
 70
     1
 10
0.0
 20
0.0
 30
0.0
  3
*D10
  1

  0
LINE
  5
5A9F
330
471B
100
AcDbEntity
  8
AM_5
 62
     3
100
AcDbLine
 10
-5.550546026438158
 20
15.80000000000058
 30
0.0
 11
-5.550546026438254
 21
49.90008593249148
 31
0.0
  0
LINE
  5
5AA0
330
471B
100
AcDbEntity
  8
AM_5
 62
     3
100
AcDbLine
 10
-172.5505460264379
 20
15.80000000000349
 30
0.0
 11
-172.5505460264379
 21
49.90008593249099
 31
0.0
  0
LINE
  5
5AA1
330
471B
100
AcDbEntity
  8
AM_5
 62
     3
100
AcDbLine
 10
-8.050546026438251
 20
48.90008593249147
 30
0.0
 11
-170.0505460264379
 21
48.90008593249099
 31
0.0
  0
INSERT
  5
5AA2
330
471B
100
AcDbEntity
  8
AM_5
 62
     3
100
AcDbBlockReference
  2
_OPEN30
 10
-5.550546026438252
 20
48.90008593249148
 30
0.0
 41
2.5
 42
2.5
 43
2.5
 50
0.0000000000001527
  0
INSERT
  5
5AA3
330
471B
100
AcDbEntity
  8
AM_5
 62
     3
100
AcDbBlockReference
  2
_OPEN30
 10
-172.5505460264379
 20
48.90008593249099
 30
0.0
 41
2.5
 42
2.5
 43
2.5
 50
180.0000000000001
  0
MTEXT
  5
5AA4
330
471B
100
AcDbEntity
  8
AM_5
 62
     2
100
AcDbMText
 10
-89.05054602643813
 20
52.30008593249124
 30
0.0
 40
3.799999999999999
 41
0.0
 71
     5
 72
     1
  1
167
1001
ACAD
1000
MTEXTBEGIN
1070
    73
1070
     1
1070
    44
1040
1.0
1070
    74
1070
     0
1000
MTEXTEND
  0
POINT
  5
5AA5
330
471B
100
AcDbEntity
  8
DEFPOINTS
 62
     0
100
AcDbPoint
 10
-5.550546026438111
 20
15.00000000000059
 30
0.0
  0
POINT
  5
5AA6
330
471B
100
AcDbEntity
  8
DEFPOINTS
 62
     0
100
AcDbPoint
 10
-172.5505460264378
 20
15.00000000000399
 30
0.0
  0
POINT
  5
5AA7
330
471B
100
AcDbEntity
  8
DEFPOINTS
 62
     0
100
AcDbPoint
 10
-172.5505460264378
 20
48.90008593249149
 30
0.0
  0
ENDBLK
  5
4726
330
471B
100
AcDbEntity
  8
0
100
AcDbBlockEnd
  0
BLOCK
  5
4A82
330
4A78
100
AcDbEntity
  8
0
100
AcDbBlockBegin
  2
*D11
 70
     1
 10
0.0
 20
0.0
 30
0.0
  3
*D11
  1

  0
LINE
  5
5A8D
330
4A78
100
AcDbEntity
  8
AM_5
 62
     3
100
AcDbLine
 10
-5.550546026437715
 20
-15.80000000000001
 30
0.0
 11
-5.550546026437718
 21
-62.87686180095319
 31
0.0
  0
LINE
  5
5A8E
330
4A78
100
AcDbEntity
  8
AM_5
 62
     3
100
AcDbLine
 10
-260.5505460264377
 20
-15.95151855468769
 30
0.0
 11
-260.5505460264377
 21
-62.87686180095319
 31
0.0
  0
LINE
  5
5A8F
330
4A78
100
AcDbEntity
  8
AM_5
 62
     3
100
AcDbLine
 10
-8.050546026437718
 20
-61.87686180095319
 30
0.0
 11
-258.0505460264377
 21
-61.87686180095319
 31
0.0
  0
INSERT
  5
5A90
330
4A78
100
AcDbEntity
  8
AM_5
 62
     3
100
AcDbBlockReference
  2
_OPEN30
 10
-5.550546026437718
 20
-61.87686180095319
 30
0.0
 41
2.5
 42
2.5
 43
2.5
  0
INSERT
  5
5A91
330
4A78
100
AcDbEntity
  8
AM_5
 62
     3
100
AcDbBlockReference
  2
_OPEN30
 10
-260.5505460264377
 20
-61.87686180095319
 30
0.0
 41
2.5
 42
2.5
 43
2.5
 50
180.0
  0
MTEXT
  5
5A92
330
4A78
100
AcDbEntity
  8
AM_5
 62
     2
100
AcDbMText
 10
-133.0505460264377
 20
-58.47686180095319
 30
0.0
 40
3.799999999999999
 41
0.0
 71
     5
 72
     1
  1
255
1001
ACAD
1000
MTEXTBEGIN
1070
    73
1070
     1
1070
    44
1040
1.0
1070
    74
1070
     0
1000
MTEXTEND
  0
POINT
  5
5A93
330
4A78
100
AcDbEntity
  8
DEFPOINTS
 62
     0
100
AcDbPoint
 10
-5.550546026437715
 20
-15.00000000000001
 30
0.0
  0
POINT
  5
5A94
330
4A78
100
AcDbEntity
  8
DEFPOINTS
 62
     0
100
AcDbPoint
 10
-260.5505460264377
 20
-15.15151855468769
 30
0.0
  0
POINT
  5
5A95
330
4A78
100
AcDbEntity
  8
DEFPOINTS
 62
     0
100
AcDbPoint
 10
-260.5505460264377
 20
-61.87686180095319
 30
0.0
  0
ENDBLK
  5
4A83
330
4A78
100
AcDbEntity
  8
0
100
AcDbBlockEnd
  0
BLOCK
  5
4A9A
330
4A90
100
AcDbEntity
  8
0
100
AcDbBlockBegin
  2
*D12
 70
     1
 10
0.0
 20
0.0
 30
0.0
  3
*D12
  1

  0
LINE
  5
5A84
330
4A90
100
AcDbEntity
  8
AM_5
 62
     3
100
AcDbLine
 10
-5.550546026437726
 20
-15.79999999999865
 30
0.0
 11
-5.550546026437728
 21
-47.57269563617758
 31
0.0
  0
LINE
  5
5A85
330
4A90
100
AcDbEntity
  8
AM_5
 62
     3
100
AcDbLine
 10
-200.5505460264378
 20
-16.80001098632917
 30
0.0
 11
-200.5505460264378
 21
-47.57269563617758
 31
0.0
  0
LINE
  5
5A86
330
4A90
100
AcDbEntity
  8
AM_5
 62
     3
100
AcDbLine
 10
-8.050546026437729
 20
-46.57269563617759
 30
0.0
 11
-198.0505460264378
 21
-46.57269563617759
 31
0.0
  0
INSERT
  5
5A87
330
4A90
100
AcDbEntity
  8
AM_5
 62
     3
100
AcDbBlockReference
  2
_OPEN30
 10
-5.550546026437728
 20
-46.57269563617759
 30
0.0
 41
2.5
 42
2.5
 43
2.5
  0
INSERT
  5
5A88
330
4A90
100
AcDbEntity
  8
AM_5
 62
     3
100
AcDbBlockReference
  2
_OPEN30
 10
-200.5505460264378
 20
-46.57269563617759
 30
0.0
 41
2.5
 42
2.5
 43
2.5
 50
180.0
  0
MTEXT
  5
5A89
330
4A90
100
AcDbEntity
  8
AM_5
 62
     2
100
AcDbMText
 10
-103.0505460264377
 20
-43.17269563617759
 30
0.0
 40
3.799999999999999
 41
0.0
 71
     5
 72
     1
  1
195
1001
ACAD
1000
MTEXTBEGIN
1070
    73
1070
     1
1070
    44
1040
1.0
1070
    74
1070
     0
1000
MTEXTEND
  0
POINT
  5
5A8A
330
4A90
100
AcDbEntity
  8
DEFPOINTS
 62
     0
100
AcDbPoint
 10
-5.550546026437726
 20
-14.99999999999865
 30
0.0
  0
POINT
  5
5A8B
330
4A90
100
AcDbEntity
  8
DEFPOINTS
 62
     0
100
AcDbPoint
 10
-200.5505460264378
 20
-16.00001098632917
 30
0.0
  0
POINT
  5
5A8C
330
4A90
100
AcDbEntity
  8
DEFPOINTS
 62
     0
100
AcDbPoint
 10
-200.5505460264378
 20
-46.57269563617759
 30
0.0
  0
ENDBLK
  5
4A9B
330
4A90
100
AcDbEntity
  8
0
100
AcDbBlockEnd
  0
BLOCK
  5
524D
330
5243
100
AcDbEntity
  8
0
100
AcDbBlockBegin
  2
*D13
 70
     1
 10
0.0
 20
0.0
 30
0.0
  3
*D13
  1

  0
LINE
  5
5A71
330
5243
100
AcDbEntity
  8
AM_5
 62
     3
100
AcDbLine
 10
-4.220838365074128
 20
15.24999999999998
 30
0.0
 11
21.80720628706267
 21
15.25000000000006
 31
0.0
  0
LINE
  5
5A72
330
5243
100
AcDbEntity
  8
AM_5
 62
     3
100
AcDbLine
 10
-4.38819964390989
 20
-15.24999999999998
 30
0.0
 11
21.80720628706275
 21
-15.24999999999991
 31
0.0
  0
LINE
  5
5A73
330
5243
100
AcDbEntity
  8
AM_5
 62
     3
100
AcDbLine
 10
20.80720628706268
 20
12.75000000000005
 30
0.0
 11
20.80720628706275
 21
-12.74999999999991
 31
0.0
  0
INSERT
  5
5A74
330
5243
100
AcDbEntity
  8
AM_5
 62
     3
100
AcDbBlockReference
  2
_OPEN30
 10
20.80720628706267
 20
15.25000000000005
 30
0.0
 41
2.5
 42
2.5
 43
2.5
 50
90.00000000000017
  0
INSERT
  5
5A75
330
5243
100
AcDbEntity
  8
AM_5
 62
     3
100
AcDbBlockReference
  2
_OPEN30
 10
20.80720628706275
 20
-15.24999999999991
 30
0.0
 41
2.5
 42
2.5
 43
2.5
 50
270.0000000000001
  0
MTEXT
  5
5A76
330
5243
100
AcDbEntity
  8
AM_5
 62
     2
100
AcDbMText
 10
17.40720628706271
 20
-0.0000000000001027
 30
0.0
 40
3.799999999999999
 41
0.0
 71
     5
 72
     1
  1
%%C30.5
 11
-0.0000000000000028
 21
1.0
 31
0.0
1001
ACAD
1000
MTEXTBEGIN
1070
    73
1070
     1
1070
    44
1040
1.0
1070
    74
1070
     0
1000
MTEXTEND
  0
POINT
  5
5A77
330
5243
100
AcDbEntity
  8
DEFPOINTS
 62
     0
100
AcDbPoint
 10
-5.02083836507408
 20
15.25
 30
0.0
  0
POINT
  5
5A78
330
5243
100
AcDbEntity
  8
DEFPOINTS
 62
     0
100
AcDbPoint
 10
-5.188199643909938
 20
-15.24999999999997
 30
0.0
  0
POINT
  5
5A79
330
5243
100
AcDbEntity
  8
DEFPOINTS
 62
     0
100
AcDbPoint
 10
20.80720628706271
 20
-15.24999999999998
 30
0.0
  0
ENDBLK
  5
524E
330
5243
100
AcDbEntity
  8
0
100
AcDbBlockEnd
  0
BLOCK
  5
5375
330
536B
100
AcDbEntity
  8
0
100
AcDbBlockBegin
  2
*D14
 70
     1
 10
0.0
 20
0.0
 30
0.0
  3
*D14
  1

  0
LINE
  5
5AC5
330
536B
100
AcDbEntity
  8
AM_5
 62
     3
100
AcDbLine
 10
-260.4729176657705
 20
16.00000183105276
 30
0.0
 11
-288.2407007551885
 21
16.00000183105277
 31
0.0
  0
LINE
  5
5AC6
330
536B
100
AcDbEntity
  8
AM_5
 62
     3
100
AcDbLine
 10
-260.4729176657703
 20
-16.00001098632946
 30
0.0
 11
-288.2407007551885
 21
-16.00001098632945
 31
0.0
  0
LINE
  5
5AC7
330
536B
100
AcDbEntity
  8
AM_5
 62
     3
100
AcDbLine
 10
-287.2407007551885
 20
13.50000183105277
 30
0.0
 11
-287.2407007551885
 21
-13.50001098632945
 31
0.0
  0
INSERT
  5
5AC8
330
536B
100
AcDbEntity
  8
AM_5
 62
     3
100
AcDbBlockReference
  2
_OPEN30
 10
-287.2407007551885
 20
16.00000183105277
 30
0.0
 41
2.5
 42
2.5
 43
2.5
 50
90.0
  0
INSERT
  5
5AC9
330
536B
100
AcDbEntity
  8
AM_5
 62
     3
100
AcDbBlockReference
  2
_OPEN30
 10
-287.2407007551885
 20
-16.00001098632945
 30
0.0
 41
2.5
 42
2.5
 43
2.5
 50
270.0
  0
MTEXT
  5
5ACA
330
536B
100
AcDbEntity
  8
AM_5
 62
     2
100
AcDbMText
 10
-290.6407007551885
 20
-0.000004577638389
 30
0.0
 40
3.799999999999999
 41
0.0
 71
     5
 72
     1
  1
%%C32
 11
0.0000000000000001
 21
1.0
 31
0.0
1001
ACAD
1000
MTEXTBEGIN
1070
    73
1070
     1
1070
    44
1040
1.0
1070
    74
1070
     0
1000
MTEXTEND
  0
POINT
  5
5ACB
330
536B
100
AcDbEntity
  8
DEFPOINTS
 62
     0
100
AcDbPoint
 10
-259.6729176657705
 20
16.00000183105276
 30
0.0
  0
POINT
  5
5ACC
330
536B
100
AcDbEntity
  8
DEFPOINTS
 62
     0
100
AcDbPoint
 10
-259.6729176657703
 20
-16.00001098632946
 30
0.0
  0
POINT
  5
5ACD
330
536B
100
AcDbEntity
  8
DEFPOINTS
 62
     0
100
AcDbPoint
 10
-287.2407007551885
 20
-16.00001098632945
 30
0.0
  0
ENDBLK
  5
5376
330
536B
100
AcDbEntity
  8
0
100
AcDbBlockEnd
  0
BLOCK
  5
5381
330
5377
100
AcDbEntity
  8
0
100
AcDbBlockBegin
  2
*D15
 70
     1
 10
0.0
 20
0.0
 30
0.0
  3
*D15
  1

  0
LINE
  5
5ABC
330
5377
100
AcDbEntity
  8
AM_5
 62
     3
100
AcDbLine
 10
-254.5505573918404
 20
-0.8319644048947907
 30
0.0
 11
-254.5505573918404
 21
-32.51138163051274
 31
0.0
  0
LINE
  5
5ABD
330
5377
100
AcDbEntity
  8
AM_5
 62
     3
100
AcDbLine
 10
-204.5505460264379
 20
-0.8319644048945475
 30
0.0
 11
-204.5505460264379
 21
-32.51138163051273
 31
0.0
  0
LINE
  5
5ABE
330
5377
100
AcDbEntity
  8
AM_5
 62
     3
100
AcDbLine
 10
-252.0505573918404
 20
-31.51138163051274
 30
0.0
 11
-207.0505460264379
 21
-31.51138163051274
 31
0.0
  0
INSERT
  5
5ABF
330
5377
100
AcDbEntity
  8
AM_5
 62
     3
100
AcDbBlockReference
  2
_OPEN30
 10
-254.5505573918404
 20
-31.51138163051274
 30
0.0
 41
2.5
 42
2.5
 43
2.5
 50
180.0
  0
INSERT
  5
5AC0
330
5377
100
AcDbEntity
  8
AM_5
 62
     3
100
AcDbBlockReference
  2
_OPEN30
 10
-204.5505460264379
 20
-31.51138163051274
 30
0.0
 41
2.5
 42
2.5
 43
2.5
  0
MTEXT
  5
5AC1
330
5377
100
AcDbEntity
  8
AM_5
 62
     2
100
AcDbMText
 10
-229.5505517091391
 20
-28.11138163051274
 30
0.0
 40
3.799999999999999
 41
0.0
 71
     5
 72
     1
  1
50
1001
ACAD
1000
MTEXTBEGIN
1070
    73
1070
     1
1070
    44
1040
1.0
1070
    74
1070
     0
1000
MTEXTEND
  0
POINT
  5
5AC2
330
5377
100
AcDbEntity
  8
DEFPOINTS
 62
     0
100
AcDbPoint
 10
-254.5505573918404
 20
-0.0319644048947907
 30
0.0
  0
POINT
  5
5AC3
330
5377
100
AcDbEntity
  8
DEFPOINTS
 62
     0
100
AcDbPoint
 10
-204.5505460264379
 20
-0.0319644048945476
 30
0.0
  0
POINT
  5
5AC4
330
5377
100
AcDbEntity
  8
DEFPOINTS
 62
     0
100
AcDbPoint
 10
-204.5505460264379
 20
-31.51138163051274
 30
0.0
  0
ENDBLK
  5
5382
330
5377
100
AcDbEntity
  8
0
100
AcDbBlockEnd
  0
BLOCK
  5
538F
330
5383
100
AcDbEntity
  8
0
100
AcDbBlockBegin
  2
*D16
 70
     1
 10
0.0
 20
0.0
 30
0.0
  3
*D16
  1

  0
LINE
  5
5AB1
330
5383
100
AcDbEntity
  8
AM_5
 62
     3
100
AcDbLine
 10
-260.5504361631736
 20
-15.95144531250077
 30
0.0
 11
-260.5504361631736
 21
-32.51138163051309
 31
0.0
  0
LINE
  5
5AB2
330
5383
100
AcDbEntity
  8
AM_5
 62
     3
100
AcDbLine
 10
-254.5505573918404
 20
-0.8319644048947907
 30
0.0
 11
-254.5505573918404
 21
-32.5113816305131
 31
0.0
  0
LINE
  5
5AB3
330
5383
100
AcDbEntity
  8
AM_5
 62
     3
100
AcDbLine
 10
-263.0504361631736
 20
-31.51138163051309
 30
0.0
 11
-265.5504361631737
 21
-31.51138163051309
 31
0.0
  0
LINE
  5
5AB4
330
5383
100
AcDbEntity
  8
AM_5
 62
     3
100
AcDbLine
 10
-252.0505573918404
 20
-31.51138163051309
 30
0.0
 11
-249.5505573918404
 21
-31.51138163051309
 31
0.0
  0
LINE
  5
5AB5
330
5383
100
AcDbEntity
  8
AM_5
 62
     3
100
AcDbLine
 10
-260.5504361631736
 20
-31.51138163051309
 30
0.0
 11
-254.5505573918404
 21
-31.51138163051309
 31
0.0
  0
INSERT
  5
5AB6
330
5383
100
AcDbEntity
  8
AM_5
 62
     3
100
AcDbBlockReference
  2
_OPEN30
 10
-260.5504361631736
 20
-31.51138163051309
 30
0.0
 41
2.5
 42
2.5
 43
2.5
  0
INSERT
  5
5AB7
330
5383
100
AcDbEntity
  8
AM_5
 62
     3
100
AcDbBlockReference
  2
_OPEN30
 10
-254.5505573918404
 20
-31.51138163051309
 30
0.0
 41
2.5
 42
2.5
 43
2.5
 50
180.0
  0
MTEXT
  5
5AB8
330
5383
100
AcDbEntity
  8
AM_5
 62
     2
100
AcDbMText
 10
-257.550496777507
 20
-28.11138163051309
 30
0.0
 40
3.799999999999999
 41
0.0
 71
     5
 72
     1
  1
6
1001
ACAD
1000
MTEXTBEGIN
1070
    73
1070
     1
1070
    44
1040
1.0
1070
    74
1070
     0
1000
MTEXTEND
  0
POINT
  5
5AB9
330
5383
100
AcDbEntity
  8
DEFPOINTS
 62
     0
100
AcDbPoint
 10
-260.5504361631736
 20
-15.15144531250077
 30
0.0
  0
POINT
  5
5ABA
330
5383
100
AcDbEntity
  8
DEFPOINTS
 62
     0
100
AcDbPoint
 10
-254.5505573918404
 20
-0.0319644048947907
 30
0.0
  0
POINT
  5
5ABB
330
5383
100
AcDbEntity
  8
DEFPOINTS
 62
     0
100
AcDbPoint
 10
-254.5505573918404
 20
-31.51138163051309
 30
0.0
  0
ENDBLK
  5
5390
330
5383
100
AcDbEntity
  8
0
100
AcDbBlockEnd
  0
BLOCK
  5
539B
330
5391
100
AcDbEntity
  8
0
100
AcDbBlockBegin
  2
*D17
 70
     1
 10
0.0
 20
0.0
 30
0.0
  3
*D17
  1

  0
LINE
  5
5AA8
330
5391
100
AcDbEntity
  8
AM_5
 62
     3
100
AcDbLine
 10
-200.5505460264378
 20
-16.80001098632917
 30
0.0
 11
-200.5505460264378
 21
-47.57269563617803
 31
0.0
  0
LINE
  5
5AA9
330
5391
100
AcDbEntity
  8
AM_5
 62
     3
100
AcDbLine
 10
-260.5505460264377
 20
-15.95151855468769
 30
0.0
 11
-260.5505460264377
 21
-47.57269563617803
 31
0.0
  0
LINE
  5
5AAA
330
5391
100
AcDbEntity
  8
AM_5
 62
     3
100
AcDbLine
 10
-203.0505460264378
 20
-46.57269563617802
 30
0.0
 11
-258.0505460264377
 21
-46.57269563617802
 31
0.0
  0
INSERT
  5
5AAB
330
5391
100
AcDbEntity
  8
AM_5
 62
     3
100
AcDbBlockReference
  2
_OPEN30
 10
-200.5505460264378
 20
-46.57269563617802
 30
0.0
 41
2.5
 42
2.5
 43
2.5
  0
INSERT
  5
5AAC
330
5391
100
AcDbEntity
  8
AM_5
 62
     3
100
AcDbBlockReference
  2
_OPEN30
 10
-260.5505460264377
 20
-46.57269563617802
 30
0.0
 41
2.5
 42
2.5
 43
2.5
 50
180.0
  0
MTEXT
  5
5AAD
330
5391
100
AcDbEntity
  8
AM_5
 62
     2
100
AcDbMText
 10
-230.5505460264378
 20
-43.17269563617802
 30
0.0
 40
3.799999999999999
 41
0.0
 71
     5
 72
     1
  1
60
1001
ACAD
1000
MTEXTBEGIN
1070
    73
1070
     1
1070
    44
1040
1.0
1070
    74
1070
     0
1000
MTEXTEND
  0
POINT
  5
5AAE
330
5391
100
AcDbEntity
  8
DEFPOINTS
 62
     0
100
AcDbPoint
 10
-200.5505460264378
 20
-16.00001098632917
 30
0.0
  0
POINT
  5
5AAF
330
5391
100
AcDbEntity
  8
DEFPOINTS
 62
     0
100
AcDbPoint
 10
-260.5505460264377
 20
-15.15151855468769
 30
0.0
  0
POINT
  5
5AB0
330
5391
100
AcDbEntity
  8
DEFPOINTS
 62
     0
100
AcDbPoint
 10
-260.5505460264377
 20
-46.57269563617802
 30
0.0
  0
ENDBLK
  5
539C
330
5391
100
AcDbEntity
  8
0
100
AcDbBlockEnd
  0
ENDSEC
  0
SECTION
  2
ENTITIES
  0
TEXT
  5
19BD
330
1F
100
AcDbEntity
  8
AM_6
100
AcDbText
 10
-153.7928868019606
 20
-84.37686180095324
 30
0.0
 40
5.0
  1
KDS305LAK
 50
0.0000000000001527
 72
     4
 11
-132.9595534686272
 21
-81.87686180095319
 31
0.0
100
AcDbText
  0
LINE
  5
35D1
330
1F
100
AcDbEntity
  8
AM_7
100
AcDbLine
 10
4.909002595337891
 20
-0.0000000000001046
 30
0.0
 11
-266.3340327350274
 21
-0.0000000000007727
 31
0.0
  0
LINE
  5
35F4
330
1F
100
AcDbEntity
  8
PV0001_1
  6
CONTINUOUS
 48
0.5
100
AcDbLine
 10
-172.5505460264378
 20
15.25000000000405
 30
0.0
 11
-200.550546026438
 21
16.00000183105304
 31
0.0
  0
LINE
  5
35F5
330
1F
100
AcDbEntity
  8
PV0001_1
  6
CONTINUOUS
 48
0.5
100
AcDbLine
 10
-172.5505460264378
 20
-15.24999999999623
 30
0.0
 11
-200.5505460264378
 21
-16.00001098632915
 31
0.0
  0
DIMENSION
  5
36BA
330
1F
100
AcDbEntity
  8
AM_5
100
AcDbDimension
  2
*D8
 10
-2.800374408476762
 20
-7.693965517241461
 30
0.0
 11
33.13104039027795
 21
-0.0000000000000372
 31
0.0
 70
    34
  1
<>
 51
359.9999999999998
  3
AM_JIS$2
100
AcDb2LineAngularDimension
 13
0.0
 23
-0.0000000000000725
 33
0.0
 14
-2.800374408476802
 24
7.693965517241139
 34
0.0
 15
0.0
 25
-0.0000000000002316
 35
0.0
 16
33.26792484260828
 26
-14.35038203075178
 36
0.0
1001
ACAD
1000
DSTYLE
1002
{
1070
   179
1070
     3
1002
}
1001
GENIUS_GENDTOL_13
1000

1000
h7
1000

1040
0.0
  0
DIMENSION
  5
3B0D
330
1F
100
AcDbEntity
  8
AM_5
100
AcDbDimension
  2
*D9
 10
-162.5505460264379
 20
34.20405258133285
 30
0.0
 11
-84.05054602643799
 21
37.60405258133285
 31
0.0
 70
    32
  1
<>
 51
359.9999999999998
  3
AM_JIS$0
100
AcDbAlignedDimension
 13
-5.550546026438111
 23
15.00000000000059
 33
0.0
 14
-162.5505460264379
 24
15.00000000000383
 34
0.0
 50
180.0000000000001
100
AcDbRotatedDimension
1001
ACAD
1000
DSTYLE
1002
{
1070
   271
1070
     3
1002
}
1001
GENIUS_GENDTOL_13
1000

1000
h7
1000

1040
0.0
  0
LINE
  5
4534
330
1F
100
AcDbEntity
  8
PV0001_1
  6
CONTINUOUS
100
AcDbLine
 10
-172.5505460264378
 20
6.480680711024318
 30
0.0
 11
-172.5505460264378
 21
15.25000000000405
 31
0.0
  0
LINE
  5
4536
330
1F
100
AcDbEntity
  8
PV0001_1
  6
CONTINUOUS
100
AcDbLine
 10
-172.5505460264378
 20
-15.24999999999623
 30
0.0
 11
-172.5505460264378
 21
-12.57770681046497
 31
0.0
  0
LINE
  5
46A5
330
1F
100
AcDbEntity
  8
AM_11
 48
0.5
100
AcDbLine
 10
-162.5505460264379
 20
-14.99999999999646
 30
0.0
 11
-162.5505460264379
 21
15.00000000000383
 31
0.0
  0
DIMENSION
  5
471A
330
1F
100
AcDbEntity
  8
AM_5
100
AcDbDimension
  2
*D10
 10
-172.5505460264378
 20
48.90008593249149
 30
0.0
 11
-89.05054602643797
 21
52.30008593249149
 31
0.0
 70
    32
  1
<>
 51
359.9999999999998
  3
AM_JIS$0
100
AcDbAlignedDimension
 13
-5.550546026438111
 23
15.00000000000059
 33
0.0
 14
-172.5505460264378
 24
15.00000000000399
 34
0.0
 50
180.0000000000002
100
AcDbRotatedDimension
1001
ACAD
1000
DSTYLE
1002
{
1070
   271
1070
     3
1002
}
1001
GENIUS_GENDTOL_13
1000

1000
h7
1000

1040
0.0
  0
DIMENSION
  5
4A5A
330
1F
100
AcDbEntity
  8
AM_5
100
AcDbDimension
  2
*D11
 10
-260.5505460264377
 20
-61.87686180095319
 30
0.0
 11
-133.0505460264377
 21
-58.47686180095319
 31
0.0
 70
    32
  1
<>
  3
AM_JIS$0
100
AcDbAlignedDimension
 13
-5.550546026437715
 23
-15.00000000000001
 33
0.0
 14
-260.5505460264377
 24
-15.15151855468769
 34
0.0
 50
0.0000000000004184
100
AcDbRotatedDimension
1001
ACAD
1000
DSTYLE
1002
{
1070
   271
1070
     3
1002
}
1001
GENIUS_GENDTOL_13
1000

1000
h7
1000

1040
0.0
  0
DIMENSION
  5
4A5C
330
1F
100
AcDbEntity
  8
AM_5
100
AcDbDimension
  2
*D12
 10
-200.5505460264378
 20
-46.57269563617759
 30
0.0
 11
-103.0505460264377
 21
-43.17269563617759
 31
0.0
 70
    32
  1
<>
  3
AM_JIS$0
100
AcDbAlignedDimension
 13
-5.550546026437726
 23
-14.99999999999865
 33
0.0
 14
-200.5505460264378
 24
-16.00001098632917
 34
0.0
 50
0.0000000000003167
100
AcDbRotatedDimension
1001
ACAD
1000
DSTYLE
1002
{
1070
   271
1070
     3
1002
}
1001
GENIUS_GENDTOL_13
1000

1000
h7
1000

1040
0.0
  0
SPLINE
  5
4BDC
330
1F
100
AcDbEntity
  8
AM_0
100
AcDbSpline
210
0.0
220
0.0
230
1.0
 70
     8
 71
     3
 72
    12
 73
     8
 74
     0
 42
0.0000000001
 43
0.0000000001
 40
0.0
 40
0.0
 40
0.0
 40
0.0
 40
3.550288329958888
 40
5.110699985623471
 40
6.310592039948465
 40
8.859663010396623
 40
10.65155104271494
 40
10.65155104271494
 40
10.65155104271494
 40
10.65155104271494
 10
-162.713220051688
 20
2.42978619353085
 30
0.0
 10
-181.6925631790878
 20
11.37911662383704
 30
0.0
 10
-191.6768608537694
 20
10.76467925402223
 30
0.0
 10
-198.080265404683
 20
7.222079944028362
 30
0.0
 10
-198.9784297498833
 20
3.317286802684479
 30
0.0
 10
-196.5751358232978
 20
-1.31387668870354
 30
0.0
 10
-185.5813660758347
 20
-9.011913370376305
 30
0.0
 10
-175.4410057621387
 20
-11.94867237171711
 30
0.0
  0
LINE
  5
5202
330
1F
100
AcDbEntity
  8
PV0001_1
  6
CONTINUOUS
 48
0.5
100
AcDbLine
 10
-0.0000000000002984
 20
0.0000000000000193
 30
0.0
 11
-5.550546026437906
 21
15.24999999999999
 31
0.0
  0
LINE
  5
5203
330
1F
100
AcDbEntity
  8
PV0001_1
  6
CONTINUOUS
 48
0.5
100
AcDbLine
 10
-0.0000000000002984
 20
-0.000000000000262
 30
0.0
 11
-5.550546026437717
 21
-15.24999999999998
 31
0.0
  0
LINE
  5
522F
330
1F
100
AcDbEntity
  8
PV0001_1
  6
CONTINUOUS
 48
0.5
100
AcDbLine
 10
-172.5505460264378
 20
15.25000000000405
 30
0.0
 11
-144.1066222676817
 21
15.25000000000343
 31
0.0
  0
SPLINE
  5
5230
330
1F
100
AcDbEntity
  8
PV0001_1
  6
CONTINUOUS
100
AcDbSpline
210
0.0
220
0.0
230
1.0
 70
     8
 71
     3
 72
    30
 73
    26
 74
     0
 42
0.0000000001
 43
0.0000000001
 40
0.0
 40
0.0
 40
0.0
 40
0.0
 40
1.010743684496582
 40
2.022833576467832
 40
3.037578957496688
 40
4.056212745003489
 40
5.079857003664532
 40
6.109500240690281
 40
7.145961322679372
 40
8.189895241603872
 40
9.241717795325891
 40
10.30168407291828
 40
11.36983447792315
 40
12.44600489715814
 40
13.52984294512926
 40
14.62081576220742
 40
15.7182257034828
 40
16.82123173843959
 40
17.92886860250316
 40
19.0400688939571
 40
20.15368796660465
 40
21.26852814259644
 40
22.38336992938901
 40
23.49698739941135
 40
23.53853004329818
 40
23.53853004329818
 40
23.53853004329818
 40
23.53853004329818
 10
-105.037268012804
 20
-15.24999999999747
 30
0.0
 10
-105.9098592712011
 20
-15.24092661945131
 30
0.0
 10
-107.6562039905324
 20
-15.22276777354174
 30
0.0
 10
-110.275085541399
 20
-15.07638708964739
 30
0.0
 10
-112.8938553020867
 20
-14.84368004115617
 30
0.0
 10
-115.5124629866364
 20
-14.51753226218122
 30
0.0
 10
-118.1308824654657
 20
-14.10236368043537
 30
0.0
 10
-120.7490620830126
 20
-13.60002048444148
 30
0.0
 10
-123.3670105969721
 20
-13.01388663701783
 30
0.0
 10
-125.9847047914312
 20
-12.34755134140267
 30
0.0
 10
-128.6021268351218
 20
-11.60510585588803
 30
0.0
 10
-131.2192897744461
 20
-10.79121043403926
 30
0.0
 10
-133.836200618688
 20
-9.910846171634711
 30
0.0
 10
-136.4528920640525
 20
-8.969493559836678
 30
0.0
 10
-139.0693760907282
 20
-7.972937412134181
 30
0.0
 10
-141.6856769606846
 20
-6.927323588852035
 30
0.0
 10
-144.3018236890535
 20
-5.839102692268079
 30
0.0
 10
-146.9178392365346
 20
-4.714966766020403
 30
0.0
 10
-149.5337489918571
 20
-3.561829683356397
 30
0.0
 10
-152.1495809463671
 20
-2.386788866019189
 30
0.0
 10
-154.7653580434009
 20
-1.197067982055266
 30
0.0
 10
-157.3811172217826
 20
-0.0000031115503137
 30
0.0
 10
-159.9968646575942
 20
1.197083306868344
 30
0.0
 10
-161.7748419629253
 20
2.005736575956298
 30
0.0
 10
-162.6806436551483
 20
2.415068395981891
 30
0.0
 10
-162.713220051688
 20
2.42978619353085
 30
0.0
  0
LINE
  5
5231
330
1F
100
AcDbEntity
  8
AM_0
100
AcDbLine
 10
-172.5505460264378
 20
-15.24999999999623
 30
0.0
 11
-149.1867419038775
 21
-15.24999999999677
 31
0.0
  0
SPLINE
  5
5232
330
1F
100
AcDbEntity
  8
PV0001_1
  6
CONTINUOUS
100
AcDbSpline
210
0.0
220
0.0
230
1.0
 70
     8
 71
     3
 72
    16
 73
    12
 74
     0
 42
0.0000000001
 43
0.0000000001
 40
0.0
 40
0.0
 40
0.0
 40
0.0
 40
1.010743684496582
 40
2.022833576467832
 40
3.037578957496688
 40
4.056212745003489
 40
5.079857003664532
 40
6.109500240690281
 40
7.145961322679372
 40
8.189895241603872
 40
8.753615341503387
 40
8.753615341503387
 40
8.753615341503387
 40
8.753615341503387
 10
-149.1868128709973
 20
-15.24999992442361
 30
0.0
 10
-150.2121656761332
 20
-15.24092654387744
 30
0.0
 10
-152.2642369517378
 20
-15.22276769796787
 30
0.0
 10
-155.3415970772934
 20
-15.07638701407349
 30
0.0
 10
-158.4188258419481
 20
-14.84367996558229
 30
0.0
 10
-161.4958641563536
 20
-14.51753218660731
 30
0.0
 10
-164.5726813165112
 20
-14.10236360486143
 30
0.0
 10
-167.649216623698
 20
-13.60002040886754
 30
0.0
 10
-170.7254803687879
 20
-13.01388656144387
 30
0.0
 10
-173.3221088299548
 20
-12.45138820792647
 30
0.0
 10
-174.8917447519707
 20
-12.08159326552683
 30
0.0
 10
-175.4410057621388
 20
-11.94867237171711
 30
0.0
  0
LINE
  5
5234
330
1F
100
AcDbEntity
  8
PV0001_1
  6
CONTINUOUS
 48
0.5
100
AcDbLine
 10
-21.80404518363255
 20
15.2500000000003
 30
0.0
 11
-5.550546026437906
 21
15.24999999999999
 31
0.0
  0
LINE
  5
5235
330
1F
100
AcDbEntity
  8
PV0001_1
  6
CONTINUOUS
 48
0.5
100
AcDbLine
 10
-4.810473928700913
 20
13.21666860580332
 30
0.0
 11
-21.80404518363258
 21
13.21666860580363
 31
0.0
  0
LINE
  5
5236
330
1F
100
AcDbEntity
  8
AM_0
100
AcDbLine
 10
-3.767073042558719
 20
-3.773848651477981
 30
0.0
 11
-8.638893819639994
 21
-6.364129708601505
 31
0.0
  0
LINE
  5
5237
330
1F
100
AcDbEntity
  8
AM_0
100
AcDbLine
 10
-4.820459168363028
 20
0.8029522956376787
 30
0.0
 11
-3.767073042558719
 21
-3.773848651477981
 31
0.0
  0
LINE
  5
5238
330
1F
100
AcDbEntity
  8
PV0001_1
  6
CONTINUOUS
 48
0.5
100
AcDbLine
 10
-3.767073042558719
 20
-3.773848651477981
 30
0.0
 11
-5.966073038583381
 21
-13.17045454545451
 31
0.0
  0
LINE
  5
523A
330
1F
100
AcDbEntity
  8
PV0001_1
  6
CONTINUOUS
 48
0.5
100
AcDbLine
 10
-17.19636754128838
 20
4.335101887736561
 30
0.0
 11
-11.88810705446447
 21
1.909975647491594
 31
0.0
  0
LINE
  5
523D
330
1F
100
AcDbEntity
  8
PV0001_1
  6
CONTINUOUS
 48
0.5
100
AcDbLine
 10
-23.55054602643812
 20
-15.24999999999963
 30
0.0
 11
-5.550546026437717
 21
-15.24999999999998
 31
0.0
  0
LINE
  5
523E
330
1F
100
AcDbEntity
  8
PV0001_1
  6
CONTINUOUS
 48
0.5
100
AcDbLine
 10
-23.55054602643809
 20
-13.17045454545422
 30
0.0
 11
-5.966073038583381
 21
-13.17045454545451
 31
0.0
  0
LINE
  5
523F
330
1F
100
AcDbEntity
  8
PV0001_1
  6
CONTINUOUS
 48
0.5
100
AcDbLine
 10
-11.88810705446439
 20
1.909975647491372
 30
0.0
 11
-5.966073038583381
 21
-13.17045454545451
 31
0.0
  0
ELLIPSE
  5
5240
330
1F
100
AcDbEntity
  8
AM_0
100
AcDbEllipse
 10
-7.921710798313597
 20
5.973582992270621
 30
0.0
 11
-6.000691829079136
 21
2.223509327088144
 31
0.0
210
0.0
220
0.0
230
1.0
 40
0.8692605649949408
 41
1.201930923344883
 42
3.30567276015561
  0
DIMENSION
  5
5242
330
1F
100
AcDbEntity
  8
AM_5
100
AcDbDimension
  2
*D13
 10
20.80720628706271
 20
-15.24999999999998
 30
0.0
 11
20.80720628706271
 21
-0.0000000000001538
 31
0.0
 70
   160
  1
%%C<>
 51
359.9999999999998
  3
AM_JIS$0
100
AcDbAlignedDimension
 13
-5.02083836507408
 23
15.25
 33
0.0
 14
-5.188199643909938
 24
-15.24999999999997
 34
0.0
 50
89.99999999999905
100
AcDbRotatedDimension
1001
GENIUS_GENDTOL_13
1000

1000
h7
1000

1040
0.0
1001
ACAD
1000
DSTYLE
1002
{
1070
   271
1070
     3
1002
}
  0
DIMENSION
  5
535A
330
1F
100
AcDbEntity
  8
AM_5
100
AcDbDimension
  2
*D14
 10
-287.2407007551885
 20
-16.00001098632945
 30
0.0
 11
-290.6407007551885
 21
-0.000004577638389
 31
0.0
 70
    32
  1
%%C<>
  3
AM_JIS$0
100
AcDbAlignedDimension
 13
-259.6729176657705
 23
16.00000183105276
 33
0.0
 14
-259.6729176657703
 24
-16.00001098632946
 34
0.0
 50
270.0
100
AcDbRotatedDimension
1001
ACAD
1000
DSTYLE
1002
{
1070
   271
1070
     3
1002
}
1001
GENIUS_GENDTOL_13
1000

1000
h7
1000

1040
0.0
  0
LINE
  5
535B
330
1F
100
AcDbEntity
  8
PV0001_1
  6
CONTINUOUS
 48
0.5
100
AcDbLine
 10
-260.5504361631736
 20
-15.15144531250077
 30
0.0
 11
-259.7018887998857
 21
-15.99997436523572
 31
0.0
  0
LINE
  5
535C
330
1F
100
AcDbEntity
  8
PV0001_1
  6
CONTINUOUS
 48
0.5
100
AcDbLine
 10
-260.5504361631739
 20
15.15136291503945
 30
0.0
 11
-259.7018887998859
 21
15.99989196777208
 31
0.0
  0
LINE
  5
535D
330
1F
100
AcDbEntity
  8
PV0001_1
  6
CONTINUOUS
 48
0.5
100
AcDbLine
 10
-260.5505460264378
 20
-0.0000000000007674
 30
0.0
 11
-260.5505460264379
 21
15.15151855468672
 31
0.0
  0
LINE
  5
535E
330
1F
100
AcDbEntity
  8
PV0001_1
  6
CONTINUOUS
 48
0.5
100
AcDbLine
 10
-260.5505460264378
 20
-0.0000000000007674
 30
0.0
 11
-260.5505460264377
 21
-15.15151855468769
 31
0.0
  0
LINE
  5
535F
330
1F
100
AcDbEntity
  8
PV0001_1
  6
CONTINUOUS
100
AcDbLine
 10
-200.5505460264378
 20
-16.00001098632917
 30
0.0
 11
-200.550546026438
 21
16.00000183105304
 31
0.0
  0
LINE
  5
5360
330
1F
100
AcDbEntity
  8
PV0001_1
  6
CONTINUOUS
 48
0.5
100
AcDbLine
 10
-259.7020352842698
 20
-0.0000000000007638
 30
0.0
 11
-259.70203528427
 21
16.00004760742168
 31
0.0
  0
LINE
  5
5361
330
1F
100
AcDbEntity
  8
AM_0
100
AcDbLine
 10
-249.709328209081
 20
-4.873193587654077
 30
0.0
 11
-209.3917752091971
 21
-4.873193587653863
 31
0.0
  0
LINE
  5
5362
330
1F
100
AcDbEntity
  8
AM_0
100
AcDbLine
 10
-209.3917752091972
 20
4.809264777864678
 30
0.0
 11
-249.7093282090812
 21
4.809264777864461
 31
0.0
  0
LINE
  5
5363
330
1F
100
AcDbEntity
  8
PV0001_1
  6
CONTINUOUS
100
AcDbLine
 10
-259.6729176657703
 20
-16.00001098632946
 30
0.0
 11
-200.5505460264378
 21
-16.00001098632917
 31
0.0
  0
LINE
  5
5364
330
1F
100
AcDbEntity
  8
PV0001_1
  6
CONTINUOUS
 48
0.5
100
AcDbLine
 10
-259.7020352842698
 20
-0.0000000000007638
 30
0.0
 11
-259.7020352842698
 21
-16.00004760742322
 31
0.0
  0
ARC
  5
5365
330
1F
100
AcDbEntity
  8
AM_0
100
AcDbCircle
 10
-249.7093282090812
 20
-0.0319644048947847
 30
0.0
 40
4.841229182759249
100
AcDbArc
 50
90.00000000000161
 51
270.0000000000016
  0
ARC
  5
5366
330
1F
100
AcDbEntity
  8
AM_0
100
AcDbCircle
 10
-209.3917752091972
 20
-0.0319644048945715
 30
0.0
 40
4.841229182759249
100
AcDbArc
 50
270.0
 51
90.0
  0
LINE
  5
5367
330
1F
100
AcDbEntity
  8
PV0001_1
  6
CONTINUOUS
100
AcDbLine
 10
-200.550546026438
 20
16.00000183105304
 30
0.0
 11
-259.6729176657705
 21
16.00000183105276
 31
0.0
  0
DIMENSION
  5
5368
330
1F
100
AcDbEntity
  8
AM_5
100
AcDbDimension
  2
*D15
 10
-204.5505460264379
 20
-31.51138163051274
 30
0.0
 11
-229.5505517091391
 21
-28.11138163051274
 31
0.0
 70
    32
  1
<>
  3
AM_JIS$0
100
AcDbAlignedDimension
 13
-254.5505573918404
 23
-0.0319644048947907
 33
0.0
 14
-204.5505460264379
 24
-0.0319644048945476
 34
0.0
 50
0.0000000000004182
100
AcDbRotatedDimension
1001
ACAD
1000
DSTYLE
1002
{
1070
   271
1070
     3
1002
}
1001
GENIUS_GENDTOL_13
1000

1000
h7
1000

1040
0.0
  0
DIMENSION
  5
5369
330
1F
100
AcDbEntity
  8
AM_5
100
AcDbDimension
  2
*D16
 10
-254.5505573918404
 20
-31.51138163051309
 30
0.0
 11
-257.550496777507
 21
-31.51138163051309
 31
0.0
 70
   160
  1
<>
  3
AM_JIS$0
100
AcDbAlignedDimension
 13
-260.5504361631736
 23
-15.15144531250077
 33
0.0
 14
-254.5505573918404
 24
-0.0319644048947907
 34
0.0
 50
0.0000000000004186
100
AcDbRotatedDimension
1001
ACAD
1000
DSTYLE
1002
{
1070
   271
1070
     3
1002
}
1001
GENIUS_GENDTOL_13
1000

1000
h7
1000

1040
0.0
  0
DIMENSION
  5
536A
330
1F
100
AcDbEntity
  8
AM_5
100
AcDbDimension
  2
*D17
 10
-260.5505460264377
 20
-46.57269563617802
 30
0.0
 11
-230.5505460264378
 21
-43.17269563617802
 31
0.0
 70
    32
  1
<>
  3
AM_JIS$0
100
AcDbAlignedDimension
 13
-200.5505460264378
 23
-16.00001098632917
 33
0.0
 14
-260.5505460264377
 24
-15.15151855468769
 34
0.0
 50
0.0000000000004182
100
AcDbRotatedDimension
1001
ACAD
1000
DSTYLE
1002
{
1070
   271
1070
     3
1002
}
1001
GENIUS_GENDTOL_13
1000

1000
h7
1000

1040
0.0
  0
SPLINE
  5
5BA6
330
1F
100
AcDbEntity
  8
PV0001_1
  6
CONTINUOUS
100
AcDbSpline
210
0.0
220
0.0
230
1.0
 70
     8
 71
     3
 72
    25
 73
    21
 74
     0
 42
0.0000000001
 43
0.0000000001
 40
24.56499986022253
 40
24.56499986022253
 40
24.56499986022253
 40
24.56499986022253
 40
24.6081876908653
 40
25.71582455492886
 40
26.81883757994213
 40
27.91624752121713
 40
29.00722033829659
 40
30.09105838626677
 40
31.16722880550176
 40
32.23537921050758
 40
33.29534548809967
 40
34.347168041821
 40
35.39108718934584
 40
36.42754827133493
 40
37.45720575381954
 40
38.48085062012849
 40
39.49948440763516
 40
40.51422944315121
 40
41.52631975251916
 40
42.53706336680078
 40
42.53706336680078
 40
42.53706336680078
 40
42.53706336680078
 10
-17.19636754128838
 20
4.335101887736561
 30
0.0
 10
-17.22484621957755
 20
4.349603415768623
 30
0.0
 10
-17.98376039991199
 20
4.735903298582112
 30
0.0
 10
-19.4723735076517
 20
5.48601009854488
 30
0.0
 10
-21.66584676807834
 20
6.562555207893646
 30
0.0
 10
-23.8586402783358
 20
7.603206687523814
 30
0.0
 10
-26.05062912488783
 20
8.601252142484481
 30
0.0
 10
-28.24169956365749
 20
9.550249343031964
 30
0.0
 10
-30.43173812477215
 20
10.44405217603746
 30
0.0
 10
-32.62062854568283
 20
11.27687698427833
 30
0.0
 10
-34.80827810977698
 20
12.04324524907297
 30
0.0
 10
-36.99457498919387
 20
12.73816869864728
 30
0.0
 10
-39.17943386779314
 20
13.35701050721265
 30
0.0
 10
-41.36276717968342
 20
13.89566812640469
 30
0.0
 10
-43.54447951390168
 20
14.35048134317349
 30
0.0
 10
-45.72448526040882
 20
14.71832235683728
 30
0.0
 10
-47.9026878393242
 20
14.99664549214152
 30
0.0
 10
-50.07902707088127
 20
15.18334649412201
 30
0.0
 10
-52.25342641739832
 20
15.27702220689101
 30
0.0
 10
-53.70201334293883
 20
15.27685596354886
 30
0.0
 10
-54.42548215486062
 20
15.26107414020084
 30
0.0
  0
LINE
  5
5BA7
330
1F
100
AcDbEntity
  8
AM_0
100
AcDbLine
 10
-23.55054602643812
 20
-15.21706436094788
 30
0.0
 11
-23.55054602643775
 21
6.639643630458329
 31
0.0
  0
SPLINE
  5
5BA8
330
1F
100
AcDbEntity
  8
PV0001_1
  6
CONTINUOUS
100
AcDbSpline
210
0.0
220
0.0
230
1.0
 70
     8
 71
     3
 72
    17
 73
    13
 74
     0
 42
0.0000000001
 43
0.0000000001
 40
1.580019955310467
 40
1.580019955310467
 40
1.580019955310467
 40
1.580019955310467
 40
2.030549285115227
 40
3.082371838836284
 40
4.126290986361125
 40
5.162752068350215
 40
6.192395305374981
 40
7.216039564037012
 40
8.234688489606833
 40
9.249433870634691
 40
10.26152376260694
 40
11.27226744710342
 40
11.27226744710342
 40
11.27226744710342
 40
11.27226744710352
 10
-43.68945049067065
 20
-11.25494906050229
 30
0.0
 10
-43.9967297490083
 20
-11.37086568591306
 30
0.0
 10
-45.02314570607009
 20
-11.75079790857402
 30
0.0
 10
-46.77549228527976
 20
-12.34673519402928
 30
0.0
 10
-48.94603275611999
 20
-13.01410589725062
 30
0.0
 10
-51.11717077471951
 20
-13.59996876677199
 30
0.0
 10
-53.28840827410511
 20
-14.10235634340385
 30
0.0
 10
-55.4598823259251
 20
-14.5176142356526
 30
0.0
 10
-57.63150639865603
 20
-14.84337274982962
 30
0.0
 10
-59.80326569408555
 20
-15.0775208617633
 30
0.0
 10
-61.97510670568863
 20
-15.21855133286507
 30
0.0
 10
-63.42335212982414
 20
-15.25000008726066
 30
0.0
 10
-64.14699291301275
 20
-15.24999999999881
 30
0.0
  0
SPLINE
  5
5BA9
330
1F
100
AcDbEntity
  8
PV0001_1
  6
CONTINUOUS
 48
0.5
100
AcDbSpline
210
0.0
220
0.0
230
1.0
 70
     8
 71
     3
 72
    15
 73
    11
 74
     0
 42
0.0000000001
 43
0.0000000001
 40
0.0
 40
0.0
 40
0.0
 40
0.0
 40
1.010743614677189
 40
2.022833924044153
 40
3.037578959561199
 40
4.056212747067873
 40
5.079857613375832
 40
6.109500119648989
 40
7.14596120163808
 40
7.42746313310914
 40
7.42746313310914
 40
7.42746313310914
 40
7.42746313310914
 10
-21.80419499593381
 20
15.23778380063054
 30
0.0
 10
-22.49515668327564
 20
15.23769216110413
 30
0.0
 10
-23.87813383456421
 20
15.20640049552922
 30
0.0
 10
-25.95198658454771
 20
15.06527166846706
 30
0.0
 10
-28.02578280729903
 20
14.83116626900213
 30
0.0
 10
-30.09944191132194
 20
14.50540019834183
 30
0.0
 10
-32.17295098425452
 20
14.09010988750122
 30
0.0
 10
-34.24627465298064
 20
13.58781292712713
 30
0.0
 10
-35.81117945727056
 20
13.1453665168346
 30
0.0
 10
-36.68573142590881
 20
12.8767044949935
 30
0.0
 10
-37.06013827888226
 20
12.745232627813
 30
0.0
  0
LINE
  5
5BAA
330
1F
100
AcDbEntity
  8
AM_0
100
AcDbLine
 10
-21.90924115115258
 20
6.673888801247191
 30
0.0
 11
-21.80404518363255
 21
15.24999999999995
 31
0.0
  0
LINE
  5
5BAB
330
1F
100
AcDbEntity
  8
PV0001_1
  6
CONTINUOUS
 48
0.5
100
AcDbLine
 10
-114.5493727564089
 20
-15.24999999999786
 30
0.0
 11
-64.14699291301303
 21
-15.24999999999915
 31
0.0
  0
LINE
  5
5BAC
330
1F
100
AcDbEntity
  8
PV0001_1
  6
CONTINUOUS
 48
0.5
100
AcDbLine
 10
-110.052706731592
 20
15.250000000002
 30
0.0
 11
-54.93314181349891
 21
15.25000000000057
 31
0.0
  0
SPLINE
  5
5BAD
330
1F
100
AcDbEntity
  8
PV0001_1
  6
CONTINUOUS
100
AcDbSpline
210
0.0
220
0.0
230
1.0
 70
     8
 71
     3
 72
    16
 73
    12
 74
     0
 42
0.0000000001
 43
0.0000000001
 40
2.625839846755727
 40
2.625839846755727
 40
2.625839846755727
 40
2.625839846755727
 40
3.082371838836284
 40
4.126290986361125
 40
5.162752068350215
 40
6.192395305374981
 40
7.216039564037012
 40
8.234688489606833
 40
9.249433870634691
 40
10.26152376260694
 40
11.27226744710342
 40
11.27226744710342
 40
11.27226744710342
 40
11.27226744710352
 10
-132.1828686739545
 20
-11.49342374108381
 30
0.0
 10
-133.5221254326545
 20
-12.13134177734894
 30
0.0
 10
-134.5567725208493
 20
-12.47357228224761
 30
0.0
 10
-136.3147910876589
 20
-13.014105897248
 30
0.0
 10
-138.4859291062583
 20
-13.59996876676937
 30
0.0
 10
-140.657166605644
 20
-14.10235634340124
 30
0.0
 10
-142.828640657464
 20
-14.51761423565
 30
0.0
 10
-145.0002647301949
 20
-14.84337274982701
 30
0.0
 10
-147.1720240256244
 20
-15.0775208617607
 30
0.0
 10
-149.3438650372275
 20
-15.21855133286246
 30
0.0
 10
-150.7921104613631
 20
-15.25000008725805
 30
0.0
 10
-151.5157512445516
 20
-15.24999999999621
 30
0.0
  0
LINE
  5
5BAE
330
1F
100
AcDbEntity
  8
AM_11
 48
0.5
100
AcDbLine
 10
-23.55054602643812
 20
-15.25000000000031
 30
0.0
 11
-151.5157452168178
 21
-15.24999999999758
 31
0.0
  0
SPLINE
  5
5BAF
330
1F
100
AcDbEntity
  8
PV0001_1
  6
CONTINUOUS
100
AcDbSpline
210
0.0
220
0.0
230
1.0
 70
     8
 71
     3
 72
    47
 73
    43
 74
     0
 42
0.0000000001
 43
0.0000000001
 40
0.0
 40
0.0
 40
0.0
 40
0.0
 40
1.010743684496582
 40
2.022833576467832
 40
3.037578957496688
 40
4.056212745003489
 40
5.079857003664532
 40
6.109500240690281
 40
7.145961322679372
 40
8.189895241603872
 40
9.241717795325891
 40
10.30168407291828
 40
11.36983447792315
 40
12.44600489715814
 40
13.52984294512926
 40
14.62081576220742
 40
15.7182257034828
 40
16.82123173843959
 40
17.92886860250316
 40
19.0400688939571
 40
20.15368796660465
 40
21.26852814259644
 40
22.38336992938901
 40
23.49698739941135
 40
24.6081876908653
 40
25.71582455492886
 40
26.81883757994213
 40
27.91624752121713
 40
29.00722033829659
 40
30.09105838626677
 40
31.16722880550176
 40
32.23537921050758
 40
33.29534548809967
 40
34.347168041821
 40
35.39108718934584
 40
36.42754827133493
 40
37.45720575381954
 40
38.48085062012849
 40
39.49948440763516
 40
40.51422944315121
 40
41.52631975251916
 40
42.53706336679711
 40
42.53706336679711
 40
42.53706336679711
 40
42.53706336679711
 10
-59.84836221744598
 20
-15.24999999999897
 30
0.0
 10
-60.57200301018167
 20
-15.2409266194528
 30
0.0
 10
-62.02024841136517
 20
-15.22276777354324
 30
0.0
 10
-64.19208946903416
 20
-15.07638708964889
 30
0.0
 10
-66.36383781899716
 20
-14.84368004115769
 30
0.0
 10
-68.53545175905899
 20
-14.51753226218274
 30
0.0
 10
-70.70690961993091
 20
-14.10236368043688
 30
0.0
 10
-72.87816856360428
 20
-13.60002048444299
 30
0.0
 10
-75.04923585284412
 20
-13.01388663701936
 30
0.0
 10
-77.22009223467124
 20
-12.34755134140419
 30
0.0
 10
-79.39072292159713
 20
-11.60510585588956
 30
0.0
 10
-81.56113873301592
 20
-10.79121043404079
 30
0.0
 10
-83.731345481734
 20
-9.910846171636258
 30
0.0
 10
-85.90137028274616
 20
-8.969493559838221
 30
0.0
 10
-88.07122307123455
 20
-7.972937412135735
 30
0.0
 10
-90.24092396767503
 20
-6.927323588853592
 30
0.0
 10
-92.41049703434429
 20
-5.839102692269636
 30
0.0
 10
-94.57996131257409
 20
-4.714966766021967
 30
0.0
 10
-96.74933785726203
 20
-3.561829683357967
 30
0.0
 10
-98.9186498816594
 20
-2.386788866020759
 30
0.0
 10
-101.0879164126974
 20
-1.197067982056841
 30
0.0
 10
-103.2571680837795
 20
-0.0000031115518921
 30
0.0
 10
-105.4264100167369
 20
1.197083306866759
 30
0.0
 10
-107.5956838186836
 20
2.386785663729785
 30
0.0
 10
-109.7649931650361
 20
3.561830037848361
 30
0.0
 10
-111.9343735776983
 20
4.714971513450668
 30
0.0
 10
-114.1038468559065
 20
5.839097846124357
 30
0.0
 10
-116.2734233467354
 20
6.927324261502567
 30
0.0
 10
-118.4431245564086
 20
7.9729372368996
 30
0.0
 10
-120.6129772659428
 20
8.969493594174076
 30
0.0
 10
-122.7830020725117
 20
9.910846207350248
 30
0.0
 10
-124.9532088765065
 20
10.79121025924599
 30
0.0
 10
-127.1236244639147
 20
11.60510651215645
 30
0.0
 10
-129.2942458222674
 20
12.34754544188715
 30
0.0
 10
-131.4650887798551
 20
13.013889464832
 30
0.0
 10
-133.6361552637417
 20
13.60003509867059
 30
0.0
 10
-135.8074297109316
 20
14.10232092009831
 30
0.0
 10
-137.9788947456866
 20
14.5176180052958
 30
0.0
 10
-140.1505093295121
 20
14.8433791781763
 30
0.0
 10
-142.3222591884718
 20
15.07749937180184
 30
0.0
 10
-144.4940984043931
 20
15.21857409481094
 30
0.0
 10
-145.9423444197367
 20
15.25000000000313
 30
0.0
 10
-146.6659853443449
 20
15.25000000000326
 30
0.0
  0
SPLINE
  5
5BB0
330
1F
100
AcDbEntity
  8
PV0001_1
  6
CONTINUOUS
100
AcDbSpline
210
0.0
220
0.0
230
1.0
 70
     8
 71
     3
 72
    55
 73
    51
 74
     0
 42
0.0000000001
 43
0.0000000001
 40
0.0
 40
0.0
 40
0.0
 40
0.0
 40
1.010743684496582
 40
2.022833576467832
 40
3.037578957496688
 40
4.056212745003489
 40
5.079857003664532
 40
6.109500240690281
 40
7.145961322679372
 40
8.189895241603872
 40
9.241717795325891
 40
10.30168407291828
 40
11.36983447792315
 40
12.44600489715814
 40
13.52984294512926
 40
14.62081576220742
 40
15.7182257034828
 40
16.82123173843959
 40
17.92886860250316
 40
19.0400688939571
 40
20.15368796660465
 40
21.26852814259644
 40
22.38336992938901
 40
23.49698739941135
 40
24.6081876908653
 40
25.71582455492886
 40
26.81883757994213
 40
27.91624752121713
 40
29.00722033829659
 40
30.09105838626677
 40
31.16722880550176
 40
32.23537921050758
 40
33.29534548809967
 40
34.347168041821
 40
35.39108718934584
 40
36.42754827133493
 40
37.45720575381954
 40
38.48085062012849
 40
39.49948440763516
 40
40.51422944315121
 40
41.52631975251916
 40
42.53706336719636
 40
43.54780698187354
 40
44.55989729124051
 40
45.57464232675757
 40
46.59327611426424
 40
47.6169209805722
 40
48.64656348684535
 40
49.68302456883444
 40
50.58557219878025
 40
50.58557219878025
 40
50.58557219878025
 40
50.58557219878025
 10
-23.55054602643812
 20
-15.25000000000031
 30
0.0
 10
-23.95874078243477
 20
-15.24092661945377
 30
0.0
 10
-25.40698618361827
 20
-15.22276777354418
 30
0.0
 10
-27.57882724128725
 20
-15.07638708964984
 30
0.0
 10
-29.75057559125028
 20
-14.84368004115864
 30
0.0
 10
-31.92218953131205
 20
-14.51753226218369
 30
0.0
 10
-34.09364739218389
 20
-14.10236368043784
 30
0.0
 10
-36.26490633585731
 20
-13.60002048444395
 30
0.0
 10
-38.4359736250972
 20
-13.0138866370203
 30
0.0
 10
-40.60683000692432
 20
-12.34755134140516
 30
0.0
 10
-42.77746069385017
 20
-11.60510585589052
 30
0.0
 10
-44.94787650526888
 20
-10.79121043404175
 30
0.0
 10
-47.11808325398692
 20
-9.910846171637205
 30
0.0
 10
-49.28810805499913
 20
-8.969493559839174
 30
0.0
 10
-51.45796084348754
 20
-7.972937412136686
 30
0.0
 10
-53.62766173992795
 20
-6.927323588854547
 30
0.0
 10
-55.79723480659732
 20
-5.839102692270589
 30
0.0
 10
-57.96669908482707
 20
-4.714966766022919
 30
0.0
 10
-60.136075629515
 20
-3.561829683358919
 30
0.0
 10
-62.30538765391239
 20
-2.386788866021715
 30
0.0
 10
-64.47465418495034
 20
-1.197067982057795
 30
0.0
 10
-66.64390585603261
 20
-0.0000031115528461
 30
0.0
 10
-68.81314778898993
 20
1.197083306865804
 30
0.0
 10
-70.98242159093652
 20
2.386785663728832
 30
0.0
 10
-73.15173093728908
 20
3.561830037847407
 30
0.0
 10
-75.32111134995149
 20
4.714971513449713
 30
0.0
 10
-77.49058462815954
 20
5.839097846123403
 30
0.0
 10
-79.66016111898849
 20
6.927324261501612
 30
0.0
 10
-81.82986232866168
 20
7.972937236898648
 30
0.0
 10
-83.99971503819591
 20
8.969493594173114
 30
0.0
 10
-86.16973984476471
 20
9.910846207349294
 30
0.0
 10
-88.33994664875964
 20
10.79121025924503
 30
0.0
 10
-90.51036223616785
 20
11.6051065121555
 30
0.0
 10
-92.68098359452048
 20
12.34754544188619
 30
0.0
 10
-94.85182655210818
 20
13.01388946483104
 30
0.0
 10
-97.02289303599474
 20
13.60003509866964
 30
0.0
 10
-99.19416748318472
 20
14.10232092009735
 30
0.0
 10
-101.3656325179396
 20
14.51761800529484
 30
0.0
 10
-103.537247101765
 20
14.84337917817534
 30
0.0
 10
-105.7089969607248
 20
15.07749937180089
 30
0.0
 10
-107.8808361769313
 20
15.21857409482853
 30
0.0
 10
-110.0527231179876
 20
15.26570249176375
 30
0.0
 10
-112.2246100558482
 20
15.21857409475487
 30
0.0
 10
-114.3964492816603
 20
15.07749937209741
 30
0.0
 10
-116.5681991052553
 20
14.84337917705853
 30
0.0
 10
-118.7398138216716
 20
14.51761800949344
 30
0.0
 10
-120.9112677716614
 20
14.10232292895163
 30
0.0
 10
-123.0825336648565
 20
13.60004023427116
 30
0.0
 10
-125.1548864673092
 20
13.0404967656977
 30
0.0
 10
-126.4994525661649
 20
12.63129733738872
 30
0.0
 10
-128.2268986989427
 20
11.97938717066629
 30
0.0
  0
LINE
  5
5BB1
330
1F
100
AcDbEntity
  8
AM_11
 48
0.5
100
AcDbLine
 10
-146.6659853443449
 20
15.25000000000223
 30
0.0
 11
-21.822887841316
 21
15.24999999999964
 31
0.0
  0
VIEWPORT
  5
110
330
101
100
AcDbEntity
 67
     1
  8
0
100
AcDbViewport
 10
420.5
 20
297.0
 30
0.0
 40
948.9782706766916
 41
628.452
 68
     1
 69
     1
1001
ACAD
1000
MVIEW
1002
{
1070
    16
1010
0.0
1020
0.0
1030
0.0
1010
0.0
1020
0.0
1030
1.0
1040
0.0
1040
628.452
1040
420.5
1040
297.0
1040
50.0
1040
0.0
1040
0.0
1070
     0
1070
   100
1070
     1
1070
     1
1070
     0
1070
     0
1070
     0
1070
     0
1040
0.0
1040
0.0
1040
0.0
1040
10.0
1040
10.0
1040
10.0
1040
10.0
1070
     0
1002
{
1002
}
1002
}
  0
ENDSEC
  0
SECTION
  2
OBJECTS
  0
DICTIONARY
  5
C
330
0
100
AcDbDictionary
  3
ACAD_GROUP
350
D
  3
ACAD_LAYOUT
350
1A
  3
ACAD_MLINESTYLE
350
17
  3
ACAD_PLOTSETTINGS
350
19
  3
ACAD_PLOTSTYLENAME
350
E
  3
ACDBVARIABLEDICTIONARY
350
34
  3
ACMDICTIONARY
350
43
  3
AMG
350
2B
  3
AMGSNAPSETTINGS
350
6E
  3
DWGPROPS
350
5BCF
  3
ACDBHEADERROUNDTRIPXREC
350
5BDF
  0
DICTIONARY
  5
74
330
1F
100
AcDbDictionary
280
     1
  3
ACAD_INDEX
360
5BD1
  3
ACAD_LAYOUTSELFREF
360
5C02
  0
DICTIONARY
  5
5C07
330
101
100
AcDbDictionary
280
     1
  3
ACAD_LAYOUTSELFREF
360
5C08
  0
DICTIONARY
  5
D
102
{ACAD_REACTORS
330
C
102
}
330
C
100
AcDbDictionary
  0
DICTIONARY
  5
1A
102
{ACAD_REACTORS
330
C
102
}
330
C
100
AcDbDictionary
  0
DICTIONARY
  5
17
102
{ACAD_REACTORS
330
C
102
}
330
C
100
AcDbDictionary
  3
STANDARD
350
18
  0
DICTIONARY
  5
19
102
{ACAD_REACTORS
330
C
102
}
330
C
100
AcDbDictionary
  0
ACDBDICTIONARYWDFLT
  5
E
102
{ACAD_REACTORS
330
C
102
}
330
C
100
AcDbDictionary
281
     1
  3
Normal
350
F
100
AcDbDictionaryWithDefault
340
F
  0
DICTIONARY
  5
34
102
{ACAD_REACTORS
330
C
102
}
330
C
100
AcDbDictionary
  3
INDEXCTL
350
35
  3
SORTENTS
350
B5E
  0
DICTIONARY
  5
43
102
{ACAD_REACTORS
330
C
102
}
330
C
100
AcDbDictionary
  3
ACMSTDDICTIONARY
350
260
  0
DICTIONARY
  5
2B
102
{ACAD_REACTORS
330
C
102
}
330
C
100
AcDbDictionary
  3
ACMGSETTINGS
350
2C
  0
DICTIONARY
  5
6E
102
{ACAD_REACTORS
330
C
102
}
330
C
100
AcDbDictionary
  0
XRECORD
  5
5BCF
102
{ACAD_REACTORS
330
C
102
}
330
C
100
AcDbXrecord
  1
DWGPROPS COOKIE
  2

  3

  4

  6

  7

  8

  9

300
AmdtFileType=82
301
=
302
=
303
=
304
=
305
=
306
=
307
=
308
=
309
=
 40
0.6271797685185186
 41
2452800.443498622
 42
2453002.108438599
  1

 90
        1
  0
DICTIONARY
  5
5BDF
102
{ACAD_REACTORS
330
C
102
}
330
C
100
AcDbDictionary
  3
TSTACKALIGN
350
5BE0
  3
TSTACKSIZE
350
5BE1
  3
HYPERLINKBASE
350
5BE2
  3
STYLESHEET
350
5BE3
  3
LAYOUTDICT
350
5BE4
  3
PLOTSETDICT
350
5BE5
  3
PLOTSTYLNAMDICT
350
5BE6
  3
LWETCUNION
350
5BE7
  3
INSUNITS
350
5BE8
  3
CEPSNTYPE
350
5BE9
  3
FINGERPRINTGUID
350
5BEA
  3
VERSIONGUID
350
5BEB
  3
PSVPSCALE
350
5BEC
  3
DIMSTYLEDATA
350
5BED
  3
PUCSORTHOREF
350
5BEE
  3
PUCSORTHOVIEW
350
5BEF
  3
PUCSBASE
350
5BF0
  3
PUCSORGTOP
350
5BF1
  3
PUCSORGBOTTOM
350
5BF2
  3
PUCSORGLEFT
350
5BF3
  3
PUCSORGRIGHT
350
5BF4
  3
PUCSORGFRONT
350
5BF5
  3
PUCSORGBACK
350
5BF6
  3
UCSORTHOREF
350
5BF7
  3
UCSORTHOVIEW
350
5BF8
  3
UCSBASE
350
5BF9
  3
UCSORGTOP
350
5BFA
  3
UCSORGBOTTOM
350
5BFB
  3
UCSORGLEFT
350
5BFC
  3
UCSORGRIGHT
350
5BFD
  3
UCSORGFRONT
350
5BFE
  3
UCSORGBACK
350
5BFF
  0
DICTIONARY
  5
5BD1
102
{ACAD_REACTORS
330
74
102
}
330
74
100
AcDbDictionary
  3
*A1
350
5BD2
  0
XRECORD
  5
5C02
102
{ACAD_REACTORS
330
74
102
}
330
74
100
AcDbXrecord
340
1F
  0
XRECORD
  5
5C08
102
{ACAD_REACTORS
330
5C07
102
}
330
5C07
100
AcDbXrecord
340
101
  0
MLINESTYLE
  5
18
102
{ACAD_REACTORS
330
17
102
}
330
17
100
AcDbMlineStyle
  2
STANDARD
 70
     0
  3

 62
   256
 51
90.0
 52
90.0
 71
     2
 49
0.5
 62
   256
  6
BYLAYER
 49
-0.5
 62
   256
  6
BYLAYER
  0
ACDBPLACEHOLDER
  5
F
102
{ACAD_REACTORS
330
E
102
}
330
E
100
AcDbPlaceHolder
280
     0
  0
DICTIONARYVAR
  5
35
102
{ACAD_REACTORS
330
34
102
}
330
34
100
DictionaryVariables
280
     0
  1
1
  0
DICTIONARYVAR
  5
B5E
102
{ACAD_REACTORS
330
34
102
}
330
34
100
DictionaryVariables
280
     0
  1
96
  0
DICTIONARY
  5
260
102
{ACAD_REACTORS
330
43
102
}
330
43
100
AcDbDictionary
  0
DICTIONARY
  5
2C
102
{ACAD_REACTORS
330
2B
102
}
330
2B
100
AcDbDictionary
  3
DWGSETTINGS
350
2D
  0
XRECORD
  5
5BE0
102
{ACAD_REACTORS
330
5BDF
102
}
330
5BDF
100
AcDbXrecord
 90
        1
  0
XRECORD
  5
5BE1
102
{ACAD_REACTORS
330
5BDF
102
}
330
5BDF
100
AcDbXrecord
 90
       70
  0
XRECORD
  5
5BE2
102
{ACAD_REACTORS
330
5BDF
102
}
330
5BDF
100
AcDbXrecord
  1

  0
XRECORD
  5
5BE3
102
{ACAD_REACTORS
330
5BDF
102
}
330
5BDF
100
AcDbXrecord
  1
ASAMI.ctb
  0
XRECORD
  5
5BE4
102
{ACAD_REACTORS
330
5BDF
102
}
330
5BDF
100
AcDbXrecord
340
1A
  0
XRECORD
  5
5BE5
102
{ACAD_REACTORS
330
5BDF
102
}
330
5BDF
100
AcDbXrecord
340
19
  0
XRECORD
  5
5BE6
102
{ACAD_REACTORS
330
5BDF
102
}
330
5BDF
100
AcDbXrecord
340
E
  0
XRECORD
  5
5BE7
102
{ACAD_REACTORS
330
5BDF
102
}
330
5BDF
100
AcDbXrecord
 90
    10781
  0
XRECORD
  5
5BE8
102
{ACAD_REACTORS
330
5BDF
102
}
330
5BDF
100
AcDbXrecord
 90
        4
  0
XRECORD
  5
5BE9
102
{ACAD_REACTORS
330
5BDF
102
}
330
5BDF
100
AcDbXrecord
 90
        0
  0
XRECORD
  5
5BEA
102
{ACAD_REACTORS
330
5BDF
102
}
330
5BDF
100
AcDbXrecord
  1
{AFB28963-8C59-40AE-9337-C84526B81ACE}
  0
XRECORD
  5
5BEB
102
{ACAD_REACTORS
330
5BDF
102
}
330
5BDF
100
AcDbXrecord
  1
{9505CB2A-06C8-4B44-8258-182604F4142C}
  0
XRECORD
  5
5BEC
102
{ACAD_REACTORS
330
5BDF
102
}
330
5BDF
100
AcDbXrecord
 40
0.0
  0
XRECORD
  5
5BED
102
{ACAD_REACTORS
330
5BDF
102
}
330
5BDF
100
AcDbXrecord
1000
DSTYLE
1002
{
1070
    79
 70
     2
1070
   341
340
59
1070
   342
340
59
1070
   371
 70
    -1
1070
   372
 70
    -1
1002
}
  0
XRECORD
  5
5BEE
102
{ACAD_REACTORS
330
5BDF
102
}
330
5BDF
100
AcDbXrecord
340
0
  0
XRECORD
  5
5BEF
102
{ACAD_REACTORS
330
5BDF
102
}
330
5BDF
100
AcDbXrecord
 70
     0
  0
XRECORD
  5
5BF0
102
{ACAD_REACTORS
330
5BDF
102
}
330
5BDF
100
AcDbXrecord
340
0
  0
XRECORD
  5
5BF1
102
{ACAD_REACTORS
330
5BDF
102
}
330
5BDF
100
AcDbXrecord
 10
0.0
 20
0.0
 30
0.0
  0
XRECORD
  5
5BF2
102
{ACAD_REACTORS
330
5BDF
102
}
330
5BDF
100
AcDbXrecord
 10
0.0
 20
0.0
 30
0.0
  0
XRECORD
  5
5BF3
102
{ACAD_REACTORS
330
5BDF
102
}
330
5BDF
100
AcDbXrecord
 10
0.0
 20
0.0
 30
0.0
  0
XRECORD
  5
5BF4
102
{ACAD_REACTORS
330
5BDF
102
}
330
5BDF
100
AcDbXrecord
 10
0.0
 20
0.0
 30
0.0
  0
XRECORD
  5
5BF5
102
{ACAD_REACTORS
330
5BDF
102
}
330
5BDF
100
AcDbXrecord
 10
0.0
 20
0.0
 30
0.0
  0
XRECORD
  5
5BF6
102
{ACAD_REACTORS
330
5BDF
102
}
330
5BDF
100
AcDbXrecord
 10
0.0
 20
0.0
 30
0.0
  0
XRECORD
  5
5BF7
102
{ACAD_REACTORS
330
5BDF
102
}
330
5BDF
100
AcDbXrecord
340
0
  0
XRECORD
  5
5BF8
102
{ACAD_REACTORS
330
5BDF
102
}
330
5BDF
100
AcDbXrecord
 70
     0
  0
XRECORD
  5
5BF9
102
{ACAD_REACTORS
330
5BDF
102
}
330
5BDF
100
AcDbXrecord
340
0
  0
XRECORD
  5
5BFA
102
{ACAD_REACTORS
330
5BDF
102
}
330
5BDF
100
AcDbXrecord
 10
0.0
 20
0.0
 30
0.0
  0
XRECORD
  5
5BFB
102
{ACAD_REACTORS
330
5BDF
102
}
330
5BDF
100
AcDbXrecord
 10
0.0
 20
0.0
 30
0.0
  0
XRECORD
  5
5BFC
102
{ACAD_REACTORS
330
5BDF
102
}
330
5BDF
100
AcDbXrecord
 10
0.0
 20
0.0
 30
0.0
  0
XRECORD
  5
5BFD
102
{ACAD_REACTORS
330
5BDF
102
}
330
5BDF
100
AcDbXrecord
 10
0.0
 20
0.0
 30
0.0
  0
XRECORD
  5
5BFE
102
{ACAD_REACTORS
330
5BDF
102
}
330
5BDF
100
AcDbXrecord
 10
0.0
 20
0.0
 30
0.0
  0
XRECORD
  5
5BFF
102
{ACAD_REACTORS
330
5BDF
102
}
330
5BDF
100
AcDbXrecord
 10
0.0
 20
0.0
 30
0.0
  0
LAYER_INDEX
  5
5BD2
102
{ACAD_REACTORS
330
5BD1
102
}
330
5BD1
100
AcDbIndex
 40
2453151.711734108
100
AcDbLayerIndex
  8
0
360
5BD3
 90
        0
  8
AM_0
360
5BD4
 90
       11
  8
PV0001_1
360
5BD5
 90
       33
  8
AM_CL
360
5BD6
 90
        0
  8
AM_7
360
5BD7
 90
        1
  8
AM_11
360
5BD8
 90
        3
  8
AM_5
360
5BD9
 90
       10
  8
Defpoints
360
5BDA
 90
        0
  8
AM_6
360
5BDB
 90
        1
  8
AM_4
360
5BDC
 90
        0
  8
AM_3
360
5BDD
 90
        0
  0
XRECORD
  5
2D
102
{ACAD_REACTORS
330
2C
102
}
330
2C
100
AcDbXrecord
  1
VERSION
140
15.0
  1
PRODUCT
  2
AutoCAD Mechanical 2000
  0
IDBUFFER
  5
5BD3
330
0
100
AcDbIdBuffer
  0
IDBUFFER
  5
5BD4
330
0
100
AcDbIdBuffer
330
4BDC
330
5231
330
5236
330
5237
330
5240
330
5361
330
5362
330
5365
330
5366
330
5BA7
330
5BAA
  0
IDBUFFER
  5
5BD5
330
0
100
AcDbIdBuffer
330
535B
330
535C
330
535D
330
535E
330
535F
330
5360
330
5363
330
5364
330
5367
330
5BA6
330
5BA8
330
5BA9
330
5BAB
330
5BAC
330
5BAD
330
5BAF
330
5BB0
330
35F4
330
35F5
330
4534
330
4536
330
5202
330
5203
330
522F
330
5230
330
5232
330
5234
330
5235
330
5238
330
523A
330
523D
330
523E
330
523F
  0
IDBUFFER
  5
5BD6
330
0
100
AcDbIdBuffer
  0
IDBUFFER
  5
5BD7
330
0
100
AcDbIdBuffer
330
35D1
  0
IDBUFFER
  5
5BD8
330
0
100
AcDbIdBuffer
330
46A5
330
5BAE
330
5BB1
  0
IDBUFFER
  5
5BD9
330
0
100
AcDbIdBuffer
330
36BA
330
3B0D
330
471A
330
4A5A
330
4A5C
330
5242
330
535A
330
5368
330
5369
330
536A
  0
IDBUFFER
  5
5BDA
330
0
100
AcDbIdBuffer
  0
IDBUFFER
  5
5BDB
330
0
100
AcDbIdBuffer
330
19BD
  0
IDBUFFER
  5
5BDC
330
0
100
AcDbIdBuffer
  0
IDBUFFER
  5
5BDD
330
0
100
AcDbIdBuffer
  0
ENDSEC
  0
EOF
