  0
SECTION
  2
HEADER
  9
$ACADVER
  1
AC1014
  9
$ACADMAINTVER
 70
     9
  9
$DWGCODEPAGE
  3
ANSI_932
  9
$INSBASE
 10
0.0
 20
0.0
 30
0.0
  9
$EXTMIN
 10
-106.4201507023226
 20
-50.41431812624109
 30
-0.00000001
  9
$EXTMAX
 10
26.88377447379648
 20
26.2021771126927
 30
0.00000001
  9
$LIMMIN
 10
-126.7209871326479
 20
-65.68949702214212
  9
$LIMMAX
 10
39.32370888998855
 20
35.34299441377442
  9
$ORTHOMODE
 70
     0
  9
$REGENMODE
 70
     1
  9
$FILLMODE
 70
     1
  9
$QTEXTMODE
 70
     0
  9
$MIRRTEXT
 70
     0
  9
$DRAGMODE
 70
     2
  9
$LTSCALE
 40
0.3
  9
$OSMODE
 70
    55
  9
$ATTMODE
 70
     1
  9
$TEXTSIZE
 40
2.5
  9
$TRACEWID
 40
1.0
  9
$TEXTSTYLE
  7
STANDARD
  9
$CLAYER
  8
AM_5
  9
$CELTYPE
  6
BYLAYER
  9
$CECOLOR
 62
   256
  9
$CELTSCALE
 40
1.0
  9
$DELOBJ
 70
     1
  9
$DISPSILH
 70
     0
  9
$DIMSCALE
 40
1.0
  9
$DIMASZ
 40
2.5
  9
$DIMEXO
 40
1.0
  9
$DIMDLI
 40
12.0
  9
$DIMRND
 40
0.0
  9
$DIMDLE
 40
0.0
  9
$DIMEXE
 40
1.0
  9
$DIMTP
 40
0.1
  9
$DIMTM
 40
0.1
  9
$DIMTXT
 40
3.2
  9
$DIMCEN
 40
0.0
  9
$DIMTSZ
 40
0.0
  9
$DIMTOL
 70
     0
  9
$DIMLIM
 70
     0
  9
$DIMTIH
 70
     0
  9
$DIMTOH
 70
     0
  9
$DIMSE1
 70
     0
  9
$DIMSE2
 70
     0
  9
$DIMTAD
 70
     3
  9
$DIMZIN
 70
     1
  9
$DIMBLK
  1
OPEN30
  9
$DIMASO
 70
     1
  9
$DIMSHO
 70
     1
  9
$DIMPOST
  1

  9
$DIMAPOST
  1
"
  9
$DIMALT
 70
     0
  9
$DIMALTD
 70
     2
  9
$DIMALTF
 40
0.0393701
  9
$DIMLFAC
 40
1.0
  9
$DIMTOFL
 70
     1
  9
$DIMTVP
 40
0.0
  9
$DIMTIX
 70
     0
  9
$DIMSOXD
 70
     0
  9
$DIMSAH
 70
     0
  9
$DIMBLK1
  1

  9
$DIMBLK2
  1

  9
$DIMSTYLE
  2
AM_JIS
  9
$DIMCLRD
 70
     3
  9
$DIMCLRE
 70
     3
  9
$DIMCLRT
 70
     2
  9
$DIMTFAC
 40
0.71
  9
$DIMGAP
 40
1.5
  9
$DIMJUST
 70
     0
  9
$DIMSD1
 70
     0
  9
$DIMSD2
 70
     0
  9
$DIMTOLJ
 70
     0
  9
$DIMTZIN
 70
     0
  9
$DIMALTZ
 70
     0
  9
$DIMALTTZ
 70
     0
  9
$DIMFIT
 70
     3
  9
$DIMUPT
 70
     0
  9
$DIMUNIT
 70
     2
  9
$DIMDEC
 70
     1
  9
$DIMTDEC
 70
     1
  9
$DIMALTU
 70
     2
  9
$DIMALTTD
 70
     2
  9
$DIMTXSTY
  7
ASAMI
  9
$DIMAUNIT
 70
     0
  9
$LUNITS
 70
     2
  9
$LUPREC
 70
     2
  9
$SKETCHINC
 40
1.0
  9
$FILLETRAD
 40
0.8
  9
$AUNITS
 70
     0
  9
$AUPREC
 70
     0
  9
$MENU
  1
.
  9
$ELEVATION
 40
0.0
  9
$PELEVATION
 40
0.0
  9
$THICKNESS
 40
0.0
  9
$LIMCHECK
 70
     0
  9
$BLIPMODE
 70
     0
  9
$CHAMFERA
 40
1.0
  9
$CHAMFERB
 40
1.0
  9
$CHAMFERC
 40
20.0
  9
$CHAMFERD
 40
0.0
  9
$SKPOLY
 70
     0
  9
$TDCREATE
 40
2452838.620506898
  9
$TDUPDATE
 40
2453151.617816099
  9
$TDINDWG
 40
1.6181968866
  9
$TDUSRTIMER
 40
1.6181968866
  9
$USRTIMER
 70
     1
  9
$ANGBASE
 50
0.0
  9
$ANGDIR
 70
     0
  9
$PDMODE
 70
     0
  9
$PDSIZE
 40
0.0
  9
$PLINEWID
 40
0.0
  9
$COORDS
 70
     1
  9
$SPLFRAME
 70
     0
  9
$SPLINETYPE
 70
     6
  9
$SPLINESEGS
 70
     8
  9
$ATTDIA
 70
     1
  9
$ATTREQ
 70
     1
  9
$HANDLING
 70
 12289
  9
$HANDSEED
  5
8E94
  9
$SURFTAB1
 70
     6
  9
$SURFTAB2
 70
     6
  9
$SURFTYPE
 70
     6
  9
$SURFU
 70
     6
  9
$SURFV
 70
     6
  9
$UCSNAME
  2

  9
$UCSORG
 10
-0.000000000017683
 20
-0.0000000000013101
 30
0.0
  9
$UCSXDIR
 10
1.0
 20
0.0
 30
0.0
  9
$UCSYDIR
 10
0.0
 20
1.0
 30
0.0
  9
$PUCSNAME
  2

  9
$PUCSORG
 10
0.0
 20
0.0
 30
0.0
  9
$PUCSXDIR
 10
1.0
 20
0.0
 30
0.0
  9
$PUCSYDIR
 10
0.0
 20
1.0
 30
0.0
  9
$USERI1
 70
     0
  9
$USERI2
 70
     0
  9
$USERI3
 70
     0
  9
$USERI4
 70
     0
  9
$USERI5
 70
     0
  9
$USERR1
 40
0.0
  9
$USERR2
 40
0.0
  9
$USERR3
 40
0.0
  9
$USERR4
 40
0.0
  9
$USERR5
 40
0.0
  9
$WORLDVIEW
 70
     1
  9
$SHADEDGE
 70
     3
  9
$SHADEDIF
 70
    70
  9
$TILEMODE
 70
     1
  9
$MAXACTVP
 70
    64
  9
$PINSBASE
 10
0.0
 20
0.0
 30
0.0
  9
$PLIMCHECK
 70
     0
  9
$PEXTMIN
 10
1.000000000000000E+20
 20
1.000000000000000E+20
 30
1.000000000000000E+20
  9
$PEXTMAX
 10
-1.000000000000000E+20
 20
-1.000000000000000E+20
 30
-1.000000000000000E+20
  9
$PLIMMIN
 10
0.0
 20
0.0
  9
$PLIMMAX
 10
210.0
 20
297.0
  9
$UNITMODE
 70
     0
  9
$VISRETAIN
 70
     1
  9
$PLINEGEN
 70
     0
  9
$PSLTSCALE
 70
     1
  9
$TREEDEPTH
 70
  3020
  9
$PICKSTYLE
 70
     0
  9
$CMLSTYLE
  2
STANDARD
  9
$CMLJUST
 70
     0
  9
$CMLSCALE
 40
20.0
  9
$PROXYGRAPHICS
 70
     1
  9
$MEASUREMENT
 70
     1
  0
ENDSEC
  0
SECTION
  2
CLASSES
  0
CLASS
  1
ACDBDICTIONARYWDFLT
  2
AcDbDictionaryWithDefault
  3
AutoCAD 2000
 90
        0
280
     0
281
     0
  0
CLASS
  1
ACDBPLACEHOLDER
  2
AcDbPlaceHolder
  3
AutoCAD 2000
 90
        0
280
     0
281
     0
  0
CLASS
  1
LAYOUT
  2
AcDbLayout
  3
AutoCAD 2000
 90
        0
280
     0
281
     0
  0
CLASS
  1
AMGSETTINGSOBJ
  2
AmgSettingsObj
  3
"AcadM|Product Description: AutoCAD Mechanical 2000|Company: Autodesk"
 90
        0
280
     0
281
     0
  0
CLASS
  1
ACME_DOCUMENT
  2
AcMeDbDoc
  3
AcMeServices
 90
        0
280
     0
281
     0
  0
CLASS
  1
ACMESCOPE
  2
AcMeScope
  3
AcMeServices
 90
        0
280
     0
281
     0
  0
CLASS
  1
ACMECOMMANDHISTORY
  2
AcMeCommandHistory
  3
AcMeServices
 90
        0
280
     0
281
     0
  0
CLASS
  1
DICTIONARYVAR
  2
AcDbDictionaryVar
  3
AutoCAD 2000
 90
        0
280
     0
281
     0
  0
CLASS
  1
ACIMSYSVARMAN
  2
AcImSysVarManager
  3
AcMeServices
 90
        0
280
     0
281
     0
  0
CLASS
  1
ACIMREALSYSVAR
  2
AcImRealSysVar
  3
AcMeServices
 90
        0
280
     0
281
     0
  0
CLASS
  1
ACIMINTSYSVAR
  2
AcImIntSysVar
  3
AcMeServices
 90
        0
280
     0
281
     0
  0
CLASS
  1
ACMEDRAWINGMAN
  2
AcMeDrawingMan
  3
AcMeServices
 90
        0
280
     0
281
     0
  0
CLASS
  1
ACMEVIEW
  2
AcMeView
  3
AcMeServices
 90
        0
280
     0
281
     0
  0
CLASS
  1
ACDBENTITYCACHE
  2
AcMeEntityCache
  3
AcMeServices
 90
        0
280
     0
281
     0
  0
CLASS
  1
GSMANAGER
  2
AcMeGSManager
  3
AcMeServices
 90
        0
280
     0
281
     0
  0
CLASS
  1
AmdtInternalReactor
  2
AmdtInternalReactor
  3
AcMeServices
 90
        0
280
     0
281
     0
  0
CLASS
  1
ACMESTATEMGR
  2
AcMeStateMgr
  3
AcMeServices
 90
        0
280
     0
281
     0
  0
CLASS
  1
ACME_DATABASE
  2
AcMeDbDatabase
  3
AcMeServices
 90
        0
280
     0
281
     0
  0
CLASS
  1
ACRFINSADJUSTERMGR
  2
AcRfInsAdjusterMgr
  3
AcMeServices
 90
        0
280
     0
281
     0
  0
CLASS
  1
ACMDATADICTIONARY
  2
AcmDataDictionary
  3
"AcmSymBB|Product Description: AutoCAD Mechanical 2000|Company: Autodesk"
 90
        0
280
     0
281
     0
  0
CLASS
  1
ACMDATAENTRYBLOCK
  2
AcmDataEntryBlock
  3
"AcmSymBB|Product Description: AutoCAD Mechanical 2000|Company: Autodesk"
 90
        0
280
     0
281
     0
  0
CLASS
  1
AMGOBJPROPCFG
  2
AmgObjPropCfg
  3
"AmgLay|Product Description: AutoCAD Mechanical 2000|Company: Autodesk"
 90
        1
280
     0
281
     0
  0
CLASS
  1
ACAMGFILTERDAT
  2
AcAmgFilterDat
  3
"AcadM|Product Description: AutoCAD Mechanical 2000|Company: Autodesk"
 90
        0
280
     0
281
     0
  0
CLASS
  1
LAYER_INDEX
  2
AcDbLayerIndex
  3
AutoCAD 2000
 90
        0
280
     0
281
     0
  0
CLASS
  1
IDBUFFER
  2
AcDbIdBuffer
  3
AutoCAD 2000
 90
        0
280
     0
281
     0
  0
CLASS
  1
ACIMSTRSYSVAR
  2
AcImStrSysVar
  3
AcMeServices
 90
        0
280
     0
281
     0
  0
CLASS
  1
ACMSTANDARDJIS
  2
AcmStandardJIS
  3
"AcmSymBB|Product Description: AutoCAD Mechanical 2000|Company: Autodesk"
 90
        0
280
     0
281
     0
  0
CLASS
  1
ACMSURFSTANDARDJIS
  2
AcmSurfTextStdJIS
  3
"AcmSymBB|Product Description: AutoCAD Mechanical 2000|Company: Autodesk"
 90
        0
280
     0
281
     0
  0
CLASS
  1
ACMFCFSTANDARDJIS
  2
AcmFCFStdJIS
  3
"AcmSymBB|Product Description: AutoCAD Mechanical 2000|Company: Autodesk"
 90
        0
280
     0
281
     0
  0
CLASS
  1
ACMWELDSTANDARDJIS
  2
AcmWeldingStdJIS
  3
"AcmSymBB|Product Description: AutoCAD Mechanical 2000|Company: Autodesk"
 90
        0
280
     0
281
     0
  0
CLASS
  1
ACMIDSTANDARDJIS
  2
AcmIdStdJIS
  3
"AcmSymBB|Product Description: AutoCAD Mechanical 2000|Company: Autodesk"
 90
        0
280
     0
281
     0
  0
CLASS
  1
ACMDATUMSTANDARDJIS
  2
AcmDatumStdJIS
  3
"AcmSymBB|Product Description: AutoCAD Mechanical 2000|Company: Autodesk"
 90
        0
280
     0
281
     0
  0
CLASS
  1
ACMBOMSTANDARDJIS
  2
AcmBOMStdJIS
  3
"AcmSymBB|Product Description: AutoCAD Mechanical 2000|Company: Autodesk"
 90
        0
280
     0
281
     0
  0
CLASS
  1
ACMSTANDARDANSI
  2
AcmStandardANSI
  3
"AcmSymBB|Product Description: AutoCAD Mechanical 2000|Company: Autodesk"
 90
        0
280
     0
281
     0
  0
CLASS
  1
ACMSURFSTANDARDANSI
  2
AcmSurfTextStdANSI
  3
"AcmSymBB|Product Description: AutoCAD Mechanical 2000|Company: Autodesk"
 90
        0
280
     0
281
     0
  0
CLASS
  1
ACMFCFSTANDARDANSI
  2
AcmFCFStdANSI
  3
"AcmSymBB|Product Description: AutoCAD Mechanical 2000|Company: Autodesk"
 90
        0
280
     0
281
     0
  0
CLASS
  1
ACMWELDSTANDARDANSI
  2
AcmWeldingStdANSI
  3
"AcmSymBB|Product Description: AutoCAD Mechanical 2000|Company: Autodesk"
 90
        0
280
     0
281
     0
  0
CLASS
  1
ACMIDSTANDARDANSI
  2
AcmIdStdANSI
  3
"AcmSymBB|Product Description: AutoCAD Mechanical 2000|Company: Autodesk"
 90
        0
280
     0
281
     0
  0
CLASS
  1
ACMDATUMSTANDARDANSI
  2
AcmDatumStdANSI
  3
"AcmSymBB|Product Description: AutoCAD Mechanical 2000|Company: Autodesk"
 90
        0
280
     0
281
     0
  0
CLASS
  1
ACMBOMSTANDARDANSI
  2
AcmBOMStdANSI
  3
"AcmSymBB|Product Description: AutoCAD Mechanical 2000|Company: Autodesk"
 90
        0
280
     0
281
     0
  0
CLASS
  1
ACMSTANDARDBSI
  2
AcmStandardBSI
  3
"AcmSymBB|Product Description: AutoCAD Mechanical 2000|Company: Autodesk"
 90
        0
280
     0
281
     0
  0
CLASS
  1
ACMSURFSTANDARDBSI
  2
AcmSurfTextStdBSI
  3
"AcmSymBB|Product Description: AutoCAD Mechanical 2000|Company: Autodesk"
 90
        0
280
     0
281
     0
  0
CLASS
  1
ACMFCFSTANDARDBSI
  2
AcmFCFStdBSI
  3
"AcmSymBB|Product Description: AutoCAD Mechanical 2000|Company: Autodesk"
 90
        0
280
     0
281
     0
  0
CLASS
  1
ACMWELDSTANDARDBSI
  2
AcmWeldingStdBSI
  3
"AcmSymBB|Product Description: AutoCAD Mechanical 2000|Company: Autodesk"
 90
        0
280
     0
281
     0
  0
CLASS
  1
ACMIDSTANDARDBSI
  2
AcmIdStdBSI
  3
"AcmSymBB|Product Description: AutoCAD Mechanical 2000|Company: Autodesk"
 90
        0
280
     0
281
     0
  0
CLASS
  1
ACMDATUMSTANDARDBSI
  2
AcmDatumStdBSI
  3
"AcmSymBB|Product Description: AutoCAD Mechanical 2000|Company: Autodesk"
 90
        0
280
     0
281
     0
  0
CLASS
  1
ACMBOMSTANDARDBSI
  2
AcmBOMStdBSI
  3
"AcmSymBB|Product Description: AutoCAD Mechanical 2000|Company: Autodesk"
 90
        0
280
     0
281
     0
  0
CLASS
  1
LONG_TRANSACTION
  2
AcDbLongTransaction
  3
AutoCAD 2000
 90
        0
280
     0
281
     0
  0
CLASS
  1
LWPOLYLINE
  2
AcDbPolyline
  3
AutoCAD 2000
 90
        0
280
     0
281
     1
  0
CLASS
  1
HATCH
  2
AcDbHatch
  3
AutoCAD 2000
 90
        0
280
     0
281
     1
  0
CLASS
  1
XRECORD
  2
AcDbXrecord
  3
AutoCAD 2000
 90
        0
280
     0
281
     0
  0
ENDSEC
  0
SECTION
  2
TABLES
  0
TABLE
  2
VPORT
  5
8
330
0
100
AcDbSymbolTable
 70
     3
  0
VPORT
  5
8E55
330
8
100
AcDbSymbolTableRecord
100
AcDbViewportTableRecord
  2
*ACTIVE
 70
     0
 10
0.0
 20
0.0
 11
1.0
 21
1.0
 12
-31.14874952579208
 22
-11.47684954511191
 13
0.0
 23
0.0
 14
2.5
 24
2.5
 15
10.0
 25
10.0
 16
0.0
 26
0.0
 36
1.0
 17
0.0
 27
0.0
 37
0.0
 40
146.2823381978549
 41
1.56570841889117
 42
50.0
 43
0.0
 44
0.0
 50
0.0
 51
0.0
 71
     0
 72
   100
 73
     1
 74
     3
 75
     0
 76
     0
 77
     0
 78
     0
  0
ENDTAB
  0
TABLE
  2
LTYPE
  5
5
330
0
100
AcDbSymbolTable
 70
    10
  0
LTYPE
  5
14
330
5
100
AcDbSymbolTableRecord
100
AcDbLinetypeTableRecord
  2
BYBLOCK
 70
     0
  3

 72
    65
 73
     0
 40
0.0
  0
LTYPE
  5
15
330
5
100
AcDbSymbolTableRecord
100
AcDbLinetypeTableRecord
  2
BYLAYER
 70
     0
  3

 72
    65
 73
     0
 40
0.0
  0
LTYPE
  5
16
330
5
100
AcDbSymbolTableRecord
100
AcDbLinetypeTableRecord
  2
CONTINUOUS
 70
     0
  3
Solid line
 72
    65
 73
     0
 40
0.0
  0
LTYPE
  5
4B
330
5
100
AcDbSymbolTableRecord
100
AcDbLinetypeTableRecord
  2
AM_ISO02W050
 70
     0
  3
__ __ __ __ __ __ __ __ __ __ __ __ __ __ __
 72
    65
 73
     2
 40
7.5
 49
6.0
 74
     0
 49
-1.5
 74
     0
  0
LTYPE
  5
4C
330
5
100
AcDbSymbolTableRecord
100
AcDbLinetypeTableRecord
  2
AM_ISO08W050
 70
     0
  3
____ . ____ . ____ . ____ . ____ . ____ . ____
 72
    65
 73
     4
 40
18.0
 49
12.0
 74
     0
 49
-1.5
 74
     0
 49
3.0
 74
     0
 49
-1.5
 74
     0
  0
LTYPE
  5
4D
330
5
100
AcDbSymbolTableRecord
100
AcDbLinetypeTableRecord
  2
AM_ISO09W050
 70
     0
  3
_____ . . _____ . . _____ . . ____ .. ____
 72
    65
 73
     6
 40
22.5
 49
12.0
 74
     0
 49
-1.5
 74
     0
 49
3.0
 74
     0
 49
-1.5
 74
     0
 49
3.0
 74
     0
 49
-1.5
 74
     0
  0
LTYPE
  5
4E
330
5
100
AcDbSymbolTableRecord
100
AcDbLinetypeTableRecord
  2
AMCONSTR
 70
     0
  3
_______________________
 72
    65
 73
     2
 40
9999.0
 49
9999.0
 74
     0
 49
0.0
 74
     0
  0
LTYPE
  5
4F
330
5
100
AcDbSymbolTableRecord
100
AcDbLinetypeTableRecord
  2
AM_ISO02W050X2
 70
     0
  3
 _ _ _ _ _ _ _ _ _ _ _ _
 72
    65
 73
     2
 40
3.75
 49
3.0
 74
     0
 49
-0.75
 74
     0
  0
LTYPE
  5
50
330
5
100
AcDbSymbolTableRecord
100
AcDbLinetypeTableRecord
  2
AM_ISO08W050X2
 70
     0
  3
__ . __ . __ . __ . __ . __
 72
    65
 73
     4
 40
9.0
 49
6.0
 74
     0
 49
-0.75
 74
     0
 49
1.5
 74
     0
 49
-0.75
 74
     0
  0
LTYPE
  5
53
330
5
100
AcDbSymbolTableRecord
100
AcDbLinetypeTableRecord
  2
AMZIGZAG
 70
     0
  3
/\/-/\/-/\/-/\/-/\/-/\/
 72
    65
 73
     2
 40
11.00009999999999
 49
0.0001
 74
     4
 75
   135
340
52
 46
0.04
 50
0.0
 44
0.0
 45
0.0
 49
-11.0
 74
     0
  0
LTYPE
  5
166
330
5
100
AcDbSymbolTableRecord
100
AcDbLinetypeTableRecord
  2
ACJISTGL
 70
     0
  3
_ _ _ _ _
 72
    65
 73
     2
 40
3.0
 49
2.0
 74
     0
 49
-1.0
 74
     0
  0
LTYPE
  5
26A
330
5
100
AcDbSymbolTableRecord
100
AcDbLinetypeTableRecord
  2
ACJISTGB
 70
     0
  3
__ . . __ . .
 72
    65
 73
     6
 40
9.0
 49
4.0
 74
     0
 49
-1.0
 74
     0
 49
1.0
 74
     0
 49
-1.0
 74
     0
 49
1.0
 74
     0
 49
-1.0
 74
     0
  0
ENDTAB
  0
TABLE
  2
LAYER
  5
2
330
0
100
AcDbSymbolTable
 70
     8
  0
LAYER
  5
10
330
2
100
AcDbSymbolTableRecord
100
AcDbLayerTableRecord
  2
0
 70
     0
 62
     7
  6
CONTINUOUS
  0
LAYER
  5
3F9
330
2
100
AcDbSymbolTableRecord
100
AcDbLayerTableRecord
  2
AM_0
 70
     0
 62
     7
  6
CONTINUOUS
  0
LAYER
  5
BD6
330
2
100
AcDbSymbolTableRecord
100
AcDbLayerTableRecord
  2
AM_11
 70
     0
 62
     3
  6
AM_ISO09W050
  0
LAYER
  5
BD7
330
2
100
AcDbSymbolTableRecord
100
AcDbLayerTableRecord
  2
AM_7
 70
     0
 62
     4
  6
AM_ISO08W050
  0
LAYER
  5
BD8
330
2
100
AcDbSymbolTableRecord
100
AcDbLayerTableRecord
  2
AM_5
 70
     0
 62
     3
  6
CONTINUOUS
  0
LAYER
  5
BD9
330
2
100
AcDbSymbolTableRecord
100
AcDbLayerTableRecord
  2
DEFPOINTS
 70
     0
 62
     7
  6
CONTINUOUS
  0
LAYER
  5
BDA
330
2
100
AcDbSymbolTableRecord
100
AcDbLayerTableRecord
  2
AM_6
 70
     0
 62
     2
  6
CONTINUOUS
  0
LAYER
  5
1E2E
330
2
100
AcDbSymbolTableRecord
100
AcDbLayerTableRecord
  2
AM_CL
 70
     0
 62
     1
  6
AMCONSTR
  0
ENDTAB
  0
TABLE
  2
STYLE
  5
3
330
0
100
AcDbSymbolTable
 70
     5
  0
STYLE
  5
11
330
3
100
AcDbSymbolTableRecord
100
AcDbTextStyleTableRecord
  2
STANDARD
 70
     0
 40
0.0
 41
1.0
 50
0.0
 71
     0
 42
2.5
  3
simplex.shx
  4
EXTFONT.SHX
  0
STYLE
  5
52
330
3
100
AcDbSymbolTableRecord
100
AcDbTextStyleTableRecord
  2

 70
     1
 40
0.0
 41
1.0
 50
0.0
 71
     0
 42
2.5
  3
ltypeshp.shx
  4

  0
STYLE
  5
6B
330
3
100
AcDbSymbolTableRecord
100
AcDbTextStyleTableRecord
  2
ASAMI
 70
     0
 40
0.0
 41
1.0
 50
0.0
 71
     0
 42
2.5
  3
simplex.shx
  4
EXTFONT.SHX
  0
STYLE
  5
262
330
3
100
AcDbSymbolTableRecord
100
AcDbTextStyleTableRecord
  2
ACJISTS
 70
     0
 40
1.0
 41
1.0
 50
0.0
 71
     0
 42
2.5
  3
simplex.shx
  4
bigfont.shx
  0
STYLE
  5
269
330
3
100
AcDbSymbolTableRecord
100
AcDbTextStyleTableRecord
  2
ACJISGDT
 70
     0
 40
0.0
 41
1.0
 50
0.0
 71
     0
 42
2.5
  3
amgdtans.shx
  4

  0
ENDTAB
  0
TABLE
  2
VIEW
  5
6
330
0
100
AcDbSymbolTable
 70
     0
  0
ENDTAB
  0
TABLE
  2
UCS
  5
7
330
0
100
AcDbSymbolTable
 70
     0
  0
ENDTAB
  0
TABLE
  2
APPID
  5
9
330
0
100
AcDbSymbolTable
 70
    14
  0
APPID
  5
12
330
9
100
AcDbSymbolTableRecord
100
AcDbRegAppTableRecord
  2
ACAD
 70
     0
  0
APPID
  5
30
330
9
100
AcDbSymbolTableRecord
100
AcDbRegAppTableRecord
  2
MCAD_NO_VIS
 70
     0
  0
APPID
  5
31
330
9
100
AcDbSymbolTableRecord
100
AcDbRegAppTableRecord
  2
ACAD_TEMP_GRAPHIC
 70
     0
  0
APPID
  5
2C2
330
9
100
AcDbSymbolTableRecord
100
AcDbRegAppTableRecord
  2
GENIUS_GENDTOL_13
 70
     0
  0
APPID
  5
339
330
9
100
AcDbSymbolTableRecord
100
AcDbRegAppTableRecord
  2
GENIUS_GENODEF_13
 70
     0
  0
APPID
  5
33A
330
9
100
AcDbSymbolTableRecord
100
AcDbRegAppTableRecord
  2
GENIUS_GENOBJ-N-RSBK_13
 70
     0
  0
APPID
  5
33B
330
9
100
AcDbSymbolTableRecord
100
AcDbRegAppTableRecord
  2
GENIUS_GENOBJ-N-LIB_13
 70
     0
  0
APPID
  5
33C
330
9
100
AcDbSymbolTableRecord
100
AcDbRegAppTableRecord
  2
GENIUS_GENSCALE_13
 70
     0
  0
APPID
  5
378
330
9
100
AcDbSymbolTableRecord
100
AcDbRegAppTableRecord
  2
GENIUS_GENDIMSH_14
 70
     0
  0
APPID
  5
BDB
330
9
100
AcDbSymbolTableRecord
100
AcDbRegAppTableRecord
  2
GENIUS_GENOBJ-N-CEN_13
 70
     0
  0
APPID
  5
BDC
330
9
100
AcDbSymbolTableRecord
100
AcDbRegAppTableRecord
  2
GENIUS_GENFIL_13
 70
     0
  0
APPID
  5
BDD
330
9
100
AcDbSymbolTableRecord
100
AcDbRegAppTableRecord
  2
GENIUS_GENOBJ-N-FIL_13
 70
     0
  0
APPID
  5
12AD
330
9
100
AcDbSymbolTableRecord
100
AcDbRegAppTableRecord
  2
GENIUS_GENOREF_13
 70
     0
  0
APPID
  5
62E6
330
9
100
AcDbSymbolTableRecord
100
AcDbRegAppTableRecord
  2
GENIUS_GENOBJ-N-CHA_13
 70
     0
  0
ENDTAB
  0
TABLE
  2
DIMSTYLE
  5
A
330
0
100
AcDbSymbolTable
 70
     9
  0
DIMSTYLE
105
58
102
{ACAD_REACTORS
330
63C1
330
640B
330
6418
330
6663
102
}
330
A
100
AcDbSymbolTableRecord
100
AcDbDimStyleTableRecord
  2
AM_JIS
 70
     0
  3

  4
"
  5
OPEN30
  6

  7

 40
1.0
 41
2.5
 42
1.0
 43
12.0
 44
1.0
 45
0.0
 46
0.0
 47
0.1
 48
0.1
140
3.2
141
0.0
142
0.0
143
0.0393701
144
1.0
145
0.0
146
0.71
147
1.5
 71
     0
 72
     0
 73
     0
 74
     0
 75
     0
 76
     0
 77
     3
 78
     1
170
     0
171
     2
172
     1
173
     0
174
     0
175
     0
176
     3
177
     3
178
     2
270
     2
271
     1
272
     1
273
     2
274
     2
340
6B
275
     0
280
     0
281
     0
282
     0
283
     0
284
     0
285
     0
286
     0
287
     3
288
     0
  0
DIMSTYLE
105
5F
330
A
100
AcDbSymbolTableRecord
100
AcDbDimStyleTableRecord
  2
AM_JIS$3
 70
     0
  3

  4
"
  5
OPEN30
  6

  7

 40
1.0
 41
2.5
 42
1.0
 43
10.0
 44
1.0
 45
0.0
 46
0.0
 47
0.1
 48
0.1
140
3.2
141
0.0
142
0.0
143
0.0393701
144
1.0
145
0.0
146
0.71
147
1.5
 71
     0
 72
     0
 73
     0
 74
     1
 75
     0
 76
     0
 77
     3
 78
     1
170
     0
171
     2
172
     0
173
     0
174
     0
175
     0
176
     3
177
     3
178
     2
270
     2
271
     2
272
     1
273
     2
274
     2
340
6B
275
     0
280
     0
281
     0
282
     0
283
     0
284
     0
285
     0
286
     0
287
     0
288
     1
  0
DIMSTYLE
105
60
330
A
100
AcDbSymbolTableRecord
100
AcDbDimStyleTableRecord
  2
AM_JIS$4
 70
     0
  3

  4
"
  5
OPEN30
  6

  7

 40
1.0
 41
2.5
 42
1.0
 43
10.0
 44
1.0
 45
0.0
 46
0.0
 47
0.1
 48
0.1
140
3.2
141
0.0
142
0.0
143
0.0393701
144
1.0
145
0.0
146
0.71
147
1.5
 71
     0
 72
     0
 73
     0
 74
     1
 75
     0
 76
     0
 77
     3
 78
     1
170
     0
171
     2
172
     0
173
     0
174
     0
175
     0
176
     3
177
     3
178
     2
270
     2
271
     2
272
     1
273
     2
274
     2
340
6B
275
     0
280
     0
281
     0
282
     0
283
     0
284
     0
285
     0
286
     0
287
     0
288
     1
  0
DIMSTYLE
105
61
330
A
100
AcDbSymbolTableRecord
100
AcDbDimStyleTableRecord
  2
AM_JIS$6
 70
     0
  3

  4
"
  5
OPEN30
  6

  7

 40
1.0
 41
2.5
 42
1.0
 43
10.0
 44
1.0
 45
0.0
 46
0.0
 47
0.1
 48
0.1
140
3.2
141
0.0
142
0.0
143
0.0393701
144
1.0
145
0.0
146
0.71
147
1.5
 71
     0
 72
     0
 73
     0
 74
     0
 75
     0
 76
     0
 77
     0
 78
     1
170
     0
171
     2
172
     1
173
     0
174
     0
175
     0
176
     3
177
     3
178
     2
270
     2
271
     2
272
     2
273
     2
274
     2
340
6B
275
     0
280
     0
281
     0
282
     0
283
     0
284
     0
285
     0
286
     0
287
     3
288
     0
  0
DIMSTYLE
105
62
330
A
100
AcDbSymbolTableRecord
100
AcDbDimStyleTableRecord
  2
AM_JIS$7
 70
     0
  3

  4
"
  5
OPEN30
  6

  7

 40
1.0
 41
2.5
 42
1.0
 43
10.0
 44
1.0
 45
0.0
 46
0.0
 47
0.1
 48
0.1
140
3.2
141
0.0
142
0.0
143
0.0393701
144
1.0
145
0.0
146
0.71
147
1.5
 71
     0
 72
     0
 73
     0
 74
     0
 75
     0
 76
     0
 77
     3
 78
     1
170
     0
171
     2
172
     1
173
     0
174
     0
175
     0
176
     3
177
     3
178
     2
270
     2
271
     2
272
     1
273
     2
274
     2
340
6B
275
     0
280
     0
281
     0
282
     0
283
     0
284
     0
285
     0
286
     0
287
     3
288
     0
  0
DIMSTYLE
105
63
330
A
100
AcDbSymbolTableRecord
100
AcDbDimStyleTableRecord
  2
AM_JIS$SF
 70
     0
  3

  4
"
  5
OPEN30
  6

  7

 40
1.0
 41
2.5
 42
1.0
 43
10.0
 44
1.0
 45
0.0
 46
0.0
 47
0.1
 48
0.1
140
3.2
141
0.0
142
0.0
143
0.0393701
144
1.0
145
0.0
146
0.71
147
1.5
 71
     0
 72
     0
 73
     0
 74
     0
 75
     1
 76
     1
 77
     3
 78
     8
170
     0
171
     2
172
     1
173
     0
174
     0
175
     0
176
   256
177
   256
178
     2
270
     2
271
     2
272
     2
273
     2
274
     2
340
6B
275
     0
280
     0
281
     0
282
     0
283
     0
284
     0
285
     0
286
     0
287
     3
288
     0
  0
DIMSTYLE
105
68
330
A
100
AcDbSymbolTableRecord
100
AcDbDimStyleTableRecord
  2
AM_JIS$SH
 70
     0
  3

  4
"
  5

  6
GENAXEH
  7
OPEN30
 40
1.0
 41
2.5
 42
1.0
 43
10.0
 44
1.0
 45
0.0
 46
0.0
 47
0.1
 48
0.1
140
3.2
141
0.0
142
0.0
143
0.0393701
144
2.0
145
0.0
146
0.71
147
1.5
 71
     0
 72
     0
 73
     0
 74
     0
 75
     1
 76
     1
 77
     3
 78
     8
170
     0
171
     2
172
     1
173
     1
174
     0
175
     0
176
   256
177
   256
178
     2
270
     2
271
     2
272
     2
273
     2
274
     2
340
6B
275
     0
280
     0
281
     0
282
     0
283
     0
284
     0
285
     0
286
     0
287
     3
288
     0
  0
DIMSTYLE
105
B34
102
{ACAD_REACTORS
330
63DB
102
}
330
A
100
AcDbSymbolTableRecord
100
AcDbDimStyleTableRecord
  2
AM_JIS$2
 70
     0
  3

  4
"
  5
OPEN30
  6

  7

 40
1.0
 41
2.5
 42
1.0
 43
12.0
 44
1.0
 45
0.0
 46
0.0
 47
0.1
 48
0.1
140
3.2
141
0.0
142
0.0
143
0.0393701
144
1.0
145
0.0
146
0.71
147
1.5
 71
     0
 72
     0
 73
     0
 74
     0
 75
     0
 76
     0
 77
     3
 78
     1
170
     0
171
     2
172
     1
173
     0
174
     0
175
     0
176
     3
177
     3
178
     2
270
     2
271
     1
272
     1
273
     2
274
     2
340
6B
275
     0
280
     0
281
     0
282
     0
283
     0
284
     0
285
     0
286
     0
287
     3
288
     0
  0
DIMSTYLE
105
62E5
330
A
100
AcDbSymbolTableRecord
100
AcDbDimStyleTableRecord
  2
ISO-25
 70
     0
  3

  4

  5

  6

  7

 40
1.0
 41
2.5
 42
0.625
 43
3.75
 44
1.25
 45
0.0
 46
0.0
 47
0.0
 48
0.0
140
2.5
141
2.5
142
0.0
143
0.03937007874016
144
1.0
145
0.0
146
1.0
147
0.625
 71
     0
 72
     0
 73
     0
 74
     0
 75
     0
 76
     0
 77
     1
 78
     8
170
     0
171
     3
172
     1
173
     0
174
     0
175
     0
176
     0
177
     0
178
     0
270
     2
271
     2
272
     2
273
     2
274
     3
340
11
275
     0
280
     0
281
     0
282
     0
283
     0
284
     8
285
     0
286
     0
287
     3
288
     0
  0
ENDTAB
  0
TABLE
  2
BLOCK_RECORD
  5
1
330
0
100
AcDbSymbolTable
 70
    10
  0
BLOCK_RECORD
  5
1F
102
{ACAD_XDICTIONARY
360
74
102
}
330
1
100
AcDbSymbolTableRecord
100
AcDbBlockTableRecord
  2
*MODEL_SPACE
  0
BLOCK_RECORD
  5
1B
102
{ACAD_XDICTIONARY
360
8E77
102
}
330
1
100
AcDbSymbolTableRecord
100
AcDbBlockTableRecord
  2
*PAPER_SPACE
  0
BLOCK_RECORD
  5
59
330
1
100
AcDbSymbolTableRecord
100
AcDbBlockTableRecord
  2
_OPEN30
  0
BLOCK_RECORD
  5
64
330
1
100
AcDbSymbolTableRecord
100
AcDbBlockTableRecord
  2
GENAXEH
  0
BLOCK_RECORD
  5
63C2
330
1
100
AcDbSymbolTableRecord
100
AcDbBlockTableRecord
  2
*D5
  0
BLOCK_RECORD
  5
63DC
330
1
100
AcDbSymbolTableRecord
100
AcDbBlockTableRecord
  2
*D6
  0
BLOCK_RECORD
  5
640C
330
1
100
AcDbSymbolTableRecord
100
AcDbBlockTableRecord
  2
*D7
  0
BLOCK_RECORD
  5
6419
330
1
100
AcDbSymbolTableRecord
100
AcDbBlockTableRecord
  2
*D8
  0
BLOCK_RECORD
  5
6664
330
1
100
AcDbSymbolTableRecord
100
AcDbBlockTableRecord
  2
*D9
  0
ENDTAB
  0
ENDSEC
  0
SECTION
  2
BLOCKS
  0
BLOCK
  5
20
330
1F
100
AcDbEntity
  8
0
100
AcDbBlockBegin
  2
*MODEL_SPACE
 70
     0
 10
0.0
 20
0.0
 30
0.0
  3
*MODEL_SPACE
  1

  0
ENDBLK
  5
21
330
1F
100
AcDbEntity
  8
0
100
AcDbBlockEnd
  0
BLOCK
  5
1C
330
1B
100
AcDbEntity
 67
     1
  8
0
100
AcDbBlockBegin
  2
*PAPER_SPACE
 70
     0
 10
0.0
 20
0.0
 30
0.0
  3
*PAPER_SPACE
  1

  0
ENDBLK
  5
1D
330
1B
100
AcDbEntity
 67
     1
  8
0
100
AcDbBlockEnd
  0
BLOCK
  5
5D
330
59
100
AcDbEntity
  8
0
100
AcDbBlockBegin
  2
_OPEN30
 70
     0
 10
0.0
 20
0.0
 30
0.0
  3
_OPEN30
  1

  0
LINE
  5
5A
330
59
100
AcDbEntity
  8
0
 62
     0
100
AcDbLine
 10
-1.0
 20
0.26794919
 30
0.0
 11
0.0
 21
0.0
 31
0.0
  0
LINE
  5
5B
330
59
100
AcDbEntity
  8
0
 62
     0
100
AcDbLine
 10
0.0
 20
0.0
 30
0.0
 11
-1.0
 21
-0.26794919
 31
0.0
  0
LINE
  5
5C
330
59
100
AcDbEntity
  8
0
 62
     0
100
AcDbLine
 10
0.0
 20
0.0
 30
0.0
 11
-1.0
 21
0.0
 31
0.0
  0
ENDBLK
  5
5E
330
59
100
AcDbEntity
  8
0
100
AcDbBlockEnd
  0
BLOCK
  5
66
330
64
100
AcDbEntity
  8
0
100
AcDbBlockBegin
  2
GENAXEH
 70
     0
 10
0.0
 20
0.0
 30
0.0
  3
GENAXEH
  1

  0
LINE
  5
65
330
64
100
AcDbEntity
  8
0
100
AcDbLine
 10
-1.0
 20
0.0
 30
0.0
 11
1.0
 21
0.0
 31
0.0
  0
ENDBLK
  5
67
330
64
100
AcDbEntity
  8
0
100
AcDbBlockEnd
  0
BLOCK
  5
63CE
330
63C2
100
AcDbEntity
  8
0
100
AcDbBlockBegin
  2
*D5
 70
     1
 10
0.0
 20
0.0
 30
0.0
  3
*D5
  1

  0
LINE
  5
8E80
330
63C2
100
AcDbEntity
  8
AM_5
 62
     3
100
AcDbLine
 10
-0.8380496830620698
 20
-5.049999999999505
 30
0.0
 11
17.7295368139521
 21
-5.049999999999509
 31
0.0
  0
LINE
  5
8E81
330
63C2
100
AcDbEntity
  8
AM_5
 62
     3
100
AcDbLine
 10
-0.8380496830620698
 20
5.050000000000479
 30
0.0
 11
17.7295368139521
 21
5.050000000000474
 31
0.0
  0
LINE
  5
8E82
330
63C2
100
AcDbEntity
  8
AM_5
 62
     3
100
AcDbLine
 10
16.72953681395211
 20
-2.549999999999509
 30
0.0
 11
16.72953681395211
 21
2.550000000000474
 31
0.0
  0
MTEXT
  5
8E83
330
63C2
100
AcDbEntity
  8
AM_5
 62
     2
100
AcDbMText
 10
13.6295368139521
 20
2.550000000000474
 30
0.0
 40
3.2
 41
0.0
 71
     5
 72
     1
  1
%%C10.1
  7
ASAMI
 11
0.0000000000000001
 21
1.0
 31
0.0
  0
INSERT
  5
8E84
330
63C2
100
AcDbEntity
  8
AM_5
 62
     3
100
AcDbBlockReference
  2
_OPEN30
 10
16.72953681395211
 20
-5.049999999999509
 30
0.0
 41
2.5
 42
2.5
 43
2.5
 50
270.0
  0
INSERT
  5
8E85
330
63C2
100
AcDbEntity
  8
AM_5
 62
     3
100
AcDbBlockReference
  2
_OPEN30
 10
16.72953681395211
 20
5.050000000000474
 30
0.0
 41
2.5
 42
2.5
 43
2.5
 50
90.0
  0
POINT
  5
8E86
330
63C2
100
AcDbEntity
  8
DEFPOINTS
 62
     0
100
AcDbPoint
 10
-1.838049683062069
 20
-5.049999999999505
 30
0.0
  0
POINT
  5
8E87
330
63C2
100
AcDbEntity
  8
DEFPOINTS
 62
     0
100
AcDbPoint
 10
-1.838049683062069
 20
5.050000000000479
 30
0.0
  0
POINT
  5
8E88
330
63C2
100
AcDbEntity
  8
DEFPOINTS
 62
     0
100
AcDbPoint
 10
16.72953681395211
 20
5.050000000000474
 30
0.0
  0
ENDBLK
  5
63CF
330
63C2
100
AcDbEntity
  8
0
100
AcDbBlockEnd
  0
BLOCK
  5
63E8
330
63DC
100
AcDbEntity
  8
0
100
AcDbBlockBegin
  2
*D6
 70
     1
 10
0.0
 20
0.0
 30
0.0
  3
*D6
  1

  0
LINE
  5
8E89
330
63DC
100
AcDbEntity
  8
AM_0
 62
     3
100
AcDbLine
 10
0.3420201433163783
 20
-0.9396926207858497
 30
0.0
 11
9.536812541985584
 21
-26.20217711269267
 31
0.0
  0
LINE
  5
8E8A
330
63DC
100
AcDbEntity
  8
AM_0
 62
     3
100
AcDbLine
 10
0.3420201433163787
 20
0.9396926207858815
 30
0.0
 11
9.536812541985593
 21
26.2021771126927
 31
0.0
  0
ARC
  5
8E8B
330
63DC
100
AcDbEntity
  8
AM_0
 62
     3
100
AcDbCircle
 10
-0.0000000000094078
 20
0.000000000000016
 30
0.0
 40
26.8837744738059
100
AcDbArc
 50
295.3300220632098
 51
64.6699779367901
  0
INSERT
  5
8E8C
330
63DC
100
AcDbEntity
  8
AM_0
 62
     3
100
AcDbBlockReference
  2
_OPEN30
 10
9.194792398659798
 20
-25.26248449190681
 30
0.0
 41
2.5
 42
2.5
 43
2.5
 50
202.6650110316085
  0
INSERT
  5
8E8D
330
63DC
100
AcDbEntity
  8
AM_0
 62
     3
100
AcDbBlockReference
  2
_OPEN30
 10
9.194792398659807
 20
25.26248449190684
 30
0.0
 41
2.5
 42
2.5
 43
2.5
 50
157.3349889683914
  0
MTEXT
  5
8E8E
330
63DC
100
AcDbEntity
  8
AM_0
 62
     2
100
AcDbMText
 10
23.78377447379649
 20
0.0000000000000098
 30
0.0
 40
3.2
 41
0.0
 71
     5
 72
     1
  1
140°
  7
ASAMI
 11
0.0000000000000001
 21
1.0
 31
0.0
  0
POINT
  5
8E8F
330
63DC
100
AcDbEntity
  8
DEFPOINTS
 62
     0
100
AcDbPoint
 10
24.68511473557637
 20
-10.64811910383345
 30
0.0
  0
POINT
  5
8E90
330
63DC
100
AcDbEntity
  8
DEFPOINTS
 62
     0
100
AcDbPoint
 10
-0.0000000000094078
 20
0.000000000000016
 30
0.0
  0
POINT
  5
8E91
330
63DC
100
AcDbEntity
  8
DEFPOINTS
 62
     0
100
AcDbPoint
 10
-1.145937534457349
 20
-3.148437499999981
 30
0.0
  0
POINT
  5
8E92
330
63DC
100
AcDbEntity
  8
DEFPOINTS
 62
     0
100
AcDbPoint
 10
-0.0000000000094078
 20
0.000000000000016
 30
0.0
  0
POINT
  5
8E93
330
63DC
100
AcDbEntity
  8
DEFPOINTS
 62
     0
100
AcDbPoint
 10
-1.145937534457349
 20
3.148437500000014
 30
0.0
  0
ENDBLK
  5
63E9
330
63DC
100
AcDbEntity
  8
0
100
AcDbBlockEnd
  0
BLOCK
  5
6416
330
640C
100
AcDbEntity
  8
0
100
AcDbBlockBegin
  2
*D7
 70
     1
 10
0.0
 20
0.0
 30
0.0
  3
*D7
  1

  0
LINE
  5
8DE2
330
640C
100
AcDbEntity
  8
AM_5
 62
     3
100
AcDbLine
 10
-0.0000000000086353
 20
-0.9999999999995209
 30
0.0
 11
-0.0000000000086364
 21
-19.11351933604255
 31
0.0
  0
LINE
  5
8DE3
330
640C
100
AcDbEntity
  8
AM_5
 62
     3
100
AcDbLine
 10
-43.00000000000844
 20
-6.049999999999504
 30
0.0
 11
-43.00000000000844
 21
-19.11351933604255
 31
0.0
  0
LINE
  5
8DE4
330
640C
100
AcDbEntity
  8
AM_5
 62
     3
100
AcDbLine
 10
-2.500000000008636
 20
-18.11351933604255
 30
0.0
 11
-40.50000000000844
 21
-18.11351933604255
 31
0.0
  0
INSERT
  5
8DE5
330
640C
100
AcDbEntity
  8
AM_5
 62
     3
100
AcDbBlockReference
  2
_OPEN30
 10
-0.0000000000086363
 20
-18.11351933604255
 30
0.0
 41
2.5
 42
2.5
 43
2.5
  0
INSERT
  5
8DE6
330
640C
100
AcDbEntity
  8
AM_5
 62
     3
100
AcDbBlockReference
  2
_OPEN30
 10
-43.00000000000844
 20
-18.11351933604255
 30
0.0
 41
2.5
 42
2.5
 43
2.5
 50
180.0
  0
MTEXT
  5
8DE7
330
640C
100
AcDbEntity
  8
AM_5
 62
     2
100
AcDbMText
 10
-21.50000000000853
 20
-15.01351933604255
 30
0.0
 40
3.2
 41
0.0
 71
     5
 72
     1
  1
43
  7
ASAMI
1001
ACAD
1000
MTEXTBEGIN
1070
    73
1070
     1
1070
    44
1040
1.0
1070
    74
1070
     0
1000
MTEXTEND
  0
POINT
  5
8DE8
330
640C
100
AcDbEntity
  8
DEFPOINTS
 62
     0
100
AcDbPoint
 10
-0.0000000000086352
 20
0.000000000000479
 30
0.0
  0
POINT
  5
8DE9
330
640C
100
AcDbEntity
  8
DEFPOINTS
 62
     0
100
AcDbPoint
 10
-43.00000000000844
 20
-5.049999999999504
 30
0.0
  0
POINT
  5
8DEA
330
640C
100
AcDbEntity
  8
DEFPOINTS
 62
     0
100
AcDbPoint
 10
-43.00000000000844
 20
-18.11351933604255
 30
0.0
  0
ENDBLK
  5
6417
330
640C
100
AcDbEntity
  8
0
100
AcDbBlockEnd
  0
BLOCK
  5
6423
330
6419
100
AcDbEntity
  8
0
100
AcDbBlockBegin
  2
*D8
 70
     1
 10
0.0
 20
0.0
 30
0.0
  3
*D8
  1

  0
LINE
  5
8DA1
330
6419
100
AcDbEntity
  8
AM_5
 62
     3
100
AcDbLine
 10
-0.0000000000084885
 20
-5.892187500000376
 30
0.0
 11
-0.0000000000084899
 21
-28.91431812624102
 31
0.0
  0
LINE
  5
8DA2
330
6419
100
AcDbEntity
  8
AM_5
 62
     3
100
AcDbLine
 10
-89.00000000000849
 20
-5.039999999999993
 30
0.0
 11
-89.00000000000849
 21
-28.91431812624102
 31
0.0
  0
LINE
  5
8DA3
330
6419
100
AcDbEntity
  8
AM_5
 62
     3
100
AcDbLine
 10
-2.500000000008489
 20
-27.91431812624102
 30
0.0
 11
-86.50000000000849
 21
-27.91431812624102
 31
0.0
  0
INSERT
  5
8DA4
330
6419
100
AcDbEntity
  8
AM_5
 62
     3
100
AcDbBlockReference
  2
_OPEN30
 10
-0.0000000000084898
 20
-27.91431812624102
 30
0.0
 41
2.5
 42
2.5
 43
2.5
  0
INSERT
  5
8DA5
330
6419
100
AcDbEntity
  8
AM_5
 62
     3
100
AcDbBlockReference
  2
_OPEN30
 10
-89.00000000000849
 20
-27.91431812624102
 30
0.0
 41
2.5
 42
2.5
 43
2.5
 50
180.0
  0
MTEXT
  5
8DA6
330
6419
100
AcDbEntity
  8
AM_5
 62
     2
100
AcDbMText
 10
-44.50000000000849
 20
-24.81431812624102
 30
0.0
 40
3.2
 41
0.0
 71
     5
 72
     1
  1
89
  7
ASAMI
1001
ACAD
1000
MTEXTBEGIN
1070
    73
1070
     1
1070
    44
1040
1.0
1070
    74
1070
     0
1000
MTEXTEND
  0
POINT
  5
8DA7
330
6419
100
AcDbEntity
  8
DEFPOINTS
 62
     0
100
AcDbPoint
 10
-0.0000000000084884
 20
-4.892187500000376
 30
0.0
  0
POINT
  5
8DA8
330
6419
100
AcDbEntity
  8
DEFPOINTS
 62
     0
100
AcDbPoint
 10
-89.00000000000849
 20
-4.039999999999993
 30
0.0
  0
POINT
  5
8DA9
330
6419
100
AcDbEntity
  8
DEFPOINTS
 62
     0
100
AcDbPoint
 10
-89.00000000000849
 20
-27.91431812624102
 30
0.0
  0
ENDBLK
  5
6424
330
6419
100
AcDbEntity
  8
0
100
AcDbBlockEnd
  0
BLOCK
  5
6670
330
6664
100
AcDbEntity
  8
0
100
AcDbBlockBegin
  2
*D9
 70
     1
 10
0.0
 20
0.0
 30
0.0
  3
*D9
  1

  0
LINE
  5
8E18
330
6664
100
AcDbEntity
  8
AM_5
 62
     3
100
AcDbLine
 10
-88.25862068954339
 20
-5.049999999999822
 30
0.0
 11
-102.7201507023226
 21
-5.049999999999817
 31
0.0
  0
LINE
  5
8E19
330
6664
100
AcDbEntity
  8
AM_5
 62
     3
100
AcDbLine
 10
-88.25862068966369
 20
5.050000000120515
 30
0.0
 11
-102.7201507023226
 21
5.05000000012052
 31
0.0
  0
LINE
  5
8E1A
330
6664
100
AcDbEntity
  8
AM_5
 62
     3
100
AcDbLine
 10
-101.7201507023226
 20
-2.549999999999818
 30
0.0
 11
-101.7201507023226
 21
2.550000000120519
 31
0.0
  0
INSERT
  5
8E1B
330
6664
100
AcDbEntity
  8
AM_5
 62
     3
100
AcDbBlockReference
  2
_OPEN30
 10
-101.7201507023226
 20
-5.049999999999818
 30
0.0
 41
2.5
 42
2.5
 43
2.5
 50
270.0
  0
INSERT
  5
8E1C
330
6664
100
AcDbEntity
  8
AM_5
 62
     3
100
AcDbBlockReference
  2
_OPEN30
 10
-101.7201507023226
 20
5.050000000120519
 30
0.0
 41
2.5
 42
2.5
 43
2.5
 50
90.0
  0
MTEXT
  5
8E1D
330
6664
100
AcDbEntity
  8
AM_5
 62
     2
100
AcDbMText
 10
-104.8201507023226
 20
0.0000000000603348
 30
0.0
 40
3.2
 41
0.0
 71
     5
 72
     1
  1
%%C10.1
  7
ASAMI
 11
0.0000000000000001
 21
1.0
 31
0.0
1001
ACAD
1000
MTEXTBEGIN
1070
    73
1070
     1
1070
    44
1040
1.0
1070
    74
1070
     0
1000
MTEXTEND
  0
POINT
  5
8E1E
330
6664
100
AcDbEntity
  8
DEFPOINTS
 62
     0
100
AcDbPoint
 10
-87.2586206895434
 20
-5.049999999999822
 30
0.0
  0
POINT
  5
8E1F
330
6664
100
AcDbEntity
  8
DEFPOINTS
 62
     0
100
AcDbPoint
 10
-87.25862068966369
 20
5.050000000120515
 30
0.0
  0
POINT
  5
8E20
330
6664
100
AcDbEntity
  8
DEFPOINTS
 62
     0
100
AcDbPoint
 10
-101.7201507023226
 20
5.050000000120519
 30
0.0
  0
ENDBLK
  5
6671
330
6664
100
AcDbEntity
  8
0
100
AcDbBlockEnd
  0
ENDSEC
  0
SECTION
  2
ENTITIES
  0
TEXT
  5
C58
330
1F
100
AcDbEntity
  8
AM_6
100
AcDbText
 10
-62.59523809524656
 20
-50.41431812624109
 30
0.0
 40
5.0
  1
MDS101SG
 50
0.0000000000002036
 72
     4
 11
-44.50000000000849
 21
-47.91431812624103
 31
0.0
100
AcDbText
  0
LINE
  5
631C
330
1F
100
AcDbEntity
  8
AM_0
100
AcDbLine
 10
-31.64021520030849
 20
-5.050000000000442
 30
0.0
 11
-88.8800000000085
 21
-5.050000000000001
 31
0.0
  0
LINE
  5
631D
330
1F
100
AcDbEntity
  8
AM_0
100
AcDbLine
 10
-31.64021520028411
 20
5.049999999999575
 30
0.0
 11
-88.8800000000085
 21
5.050000000000006
 31
0.0
  0
LINE
  5
6320
330
1F
100
AcDbEntity
  8
AM_7
100
AcDbLine
 10
-96.06343488668619
 20
0.0000000000004779
 30
0.0
 11
2.904736328115697
 21
0.0000000000004604
 31
0.0
1001
GENIUS_GENODEF_13
1002
{
1000
HIER
1070
     0
1002
}
1002
{
1000
MANEDIT
1070
     0
1002
}
1002
{
1000
NOSEL
1070
     0
1002
}
1002
{
1000
BEHIND
1070
     0
1002
}
1002
{
1000
REACTOR
1002
}
1001
GENIUS_GENOBJ-N-CEN_13
1002
{
1000
OWNER
1000
GEN
1002
}
  0
DIMENSION
  5
63C1
330
1F
100
AcDbEntity
  8
AM_5
100
AcDbDimension
  2
*D5
 10
16.72953681395211
 20
5.050000000000474
 30
0.0
 11
16.72953681395211
 21
2.550000000000474
 31
0.0
 70
   160
  1
%%C<>
  3
AM_JIS
100
AcDbAlignedDimension
 13
-1.838049683062069
 23
-5.049999999999505
 33
0.0
 14
-1.838049683062069
 24
5.050000000000479
 34
0.0
 50
90.0
100
AcDbRotatedDimension
1001
ACAD
1000
DSTYLE
1002
{
1070
   287
1070
     4
1070
   271
1070
     1
1070
   279
1070
     1
1002
}
  0
DIMENSION
  5
63DB
330
1F
100
AcDbEntity
  8
AM_0
100
AcDbDimension
  2
*D6
 10
-1.145937534457349
 20
3.148437500000014
 30
0.0
 11
23.78377447379649
 21
0.000000000000006
 31
0.0
 70
    34
  3
AM_JIS$2
100
AcDb2LineAngularDimension
 13
-1.145937534457349
 23
-3.148437499999981
 33
0.0
 14
-0.0000000000094078
 24
0.000000000000016
 34
0.0
 15
-0.0000000000094078
 25
0.000000000000016
 35
0.0
 16
24.68511473557637
 26
-10.64811910383345
 36
0.0
1001
ACAD
1000
DSTYLE
1002
{
1070
   271
1070
     0
1002
}
  0
DIMENSION
  5
640B
330
1F
100
AcDbEntity
  8
AM_5
100
AcDbDimension
  2
*D7
 10
-43.00000000000844
 20
-18.11351933604255
 30
0.0
 11
-21.50000000000853
 21
-15.01351933604255
 31
0.0
 70
    32
  3
AM_JIS
100
AcDbAlignedDimension
 13
-0.0000000000086352
 23
0.000000000000479
 33
0.0
 14
-43.00000000000844
 24
-5.049999999999504
 34
0.0
100
AcDbRotatedDimension
1001
ACAD
1000
DSTYLE
1002
{
1070
    78
1070
     9
1002
}
  0
DIMENSION
  5
6418
330
1F
100
AcDbEntity
  8
AM_5
100
AcDbDimension
  2
*D8
 10
-89.00000000000849
 20
-27.91431812624102
 30
0.0
 11
-44.50000000000849
 21
-24.81431812624102
 31
0.0
 70
    32
  3
AM_JIS
100
AcDbAlignedDimension
 13
-0.0000000000084884
 23
-4.892187500000376
 33
0.0
 14
-89.00000000000849
 24
-4.039999999999993
 34
0.0
100
AcDbRotatedDimension
1001
ACAD
1000
DSTYLE
1002
{
1070
    78
1070
     9
1002
}
  0
LINE
  5
665C
330
1F
100
AcDbEntity
  8
AM_0
100
AcDbLine
 10
-89.00000000000849
 20
1.727318849253211
 30
0.0
 11
-89.00000000000849
 21
3.308620689775689
 31
0.0
  0
LINE
  5
665E
330
1F
100
AcDbEntity
  8
AM_0
100
AcDbLine
 10
-89.00000000000849
 20
-1.72731884892326
 30
0.0
 11
-89.00000000000849
 21
-1.229150795718057
 31
0.0
  0
LINE
  5
6660
330
1F
100
AcDbEntity
  8
AM_0
100
AcDbLine
 10
-89.00000000000849
 20
1.229150795719037
 30
0.0
 11
-89.00000000000849
 21
4.040000000000012
 31
0.0
  0
LINE
  5
6661
330
1F
100
AcDbEntity
  8
AM_0
100
AcDbLine
 10
-89.00000000000849
 20
-4.039999999999993
 30
0.0
 11
-89.00000000000849
 21
1.229150795719037
 31
0.0
  0
DIMENSION
  5
6663
330
1F
100
AcDbEntity
  8
AM_5
100
AcDbDimension
  2
*D9
 10
-101.7201507023226
 20
5.050000000120519
 30
0.0
 11
-101.7201507023226
 21
0.0000000000603344
 31
0.0
 70
   160
  1
%%C<>
  3
AM_JIS
100
AcDbAlignedDimension
 13
-87.2586206895434
 23
-5.049999999999822
 33
0.0
 14
-87.25862068966369
 24
5.050000000120515
 34
0.0
 50
90.0
100
AcDbRotatedDimension
  0
LINE
  5
67B1
330
1F
100
AcDbEntity
  8
AM_0
100
AcDbLine
 10
-0.0000000000170297
 20
0.0000000000004853
 30
0.0
 11
-1.838049683062069
 21
5.050000000000477
 31
0.0
  0
LINE
  5
67B7
330
1F
100
AcDbEntity
  8
AM_0
100
AcDbLine
 10
-1.819100717257508
 20
-5.049999999999503
 30
0.0
 11
-0.0000000000086352
 21
0.000000000000479
 31
0.0
  0
LINE
  5
67B9
330
1F
100
AcDbEntity
  8
AM_0
100
AcDbLine
 10
-1.711596555510051
 20
-0.3859694651698195
 30
0.0
 11
-0.0000000000086352
 21
0.000000000000479
 31
0.0
  0
LINE
  5
67BA
330
1F
100
AcDbEntity
  8
AM_0
100
AcDbLine
 10
-0.0000000000086352
 20
0.000000000000479
 30
0.0
 11
-0.8641169225089001
 21
0.8769232972184585
 31
0.0
  0
LINE
  5
7571
330
1F
100
AcDbEntity
  8
AM_0
100
AcDbLine
 10
-0.8641169225089001
 20
0.8769232972184585
 30
0.0
 11
-0.3129156646460271
 21
0.8769232972184585
 31
0.0
  0
LINE
  5
87FB
330
1F
100
AcDbEntity
  8
AM_0
100
AcDbLine
 10
-87.9900000000085
 20
5.050000000241009
 30
0.0
 11
-87.99000000000848
 21
-5.04999999975899
 31
0.0
  0
SPLINE
  5
8C73
330
1F
100
AcDbEntity
  8
AM_0
100
AcDbSpline
210
0.0
220
0.0
230
1.0
 70
     8
 71
     3
 72
     9
 73
     5
 74
     0
 42
0.0000000001
 43
0.0000000001
 40
0.0
 40
0.0
 40
0.0
 40
0.0
 40
0.0988701324080829
 40
1.147440854899445
 40
1.147440854899445
 40
1.147440854899445
 40
1.147440854899445
 10
-0.8641169225089001
 20
0.8769232972184585
 30
0.0
 10
-0.85924015423129
 20
0.7491931465585694
 30
0.0
 10
-0.8026426457085745
 20
-0.7331836815082527
 30
0.0
 10
-2.562820623309875
 20
1.473118176731245
 30
0.0
 10
-3.453425028659954
 20
2.32652875314879
 30
0.0
  0
LINE
  5
8C98
330
1F
100
AcDbEntity
  8
AM_0
100
AcDbLine
 10
-87.9900000000085
 20
5.050000000000005
 30
0.0
 11
-89.00000000000849
 21
4.040000000000012
 31
0.0
1001
GENIUS_GENFIL_13
1070
     0
1040
1.0
1040
1.0
1040
20.0
1040
0.0
1002
{
1002
}
1001
GENIUS_GENODEF_13
1002
{
1000
HIER
1070
     0
1002
}
1002
{
1000
MANEDIT
1070
     0
1002
}
1002
{
1000
NOSEL
1070
     0
1002
}
1002
{
1000
BEHIND
1070
     0
1002
}
1002
{
1000
REACTOR
1002
}
1001
GENIUS_GENOBJ-N-CHA_13
1002
{
1000
OWNER
1000
GEN
1002
}
  0
LINE
  5
8C9A
330
1F
100
AcDbEntity
  8
AM_0
100
AcDbLine
 10
-87.9900000000085
 20
-5.050000000000002
 30
0.0
 11
-89.00000000000849
 21
-4.039999999999993
 31
0.0
1001
GENIUS_GENFIL_13
1070
     0
1040
1.0
1040
1.0
1040
20.0
1040
0.0
1002
{
1002
}
1001
GENIUS_GENODEF_13
1002
{
1000
HIER
1070
     0
1002
}
1002
{
1000
MANEDIT
1070
     0
1002
}
1002
{
1000
NOSEL
1070
     0
1002
}
1002
{
1000
BEHIND
1070
     0
1002
}
1002
{
1000
REACTOR
1002
}
1001
GENIUS_GENOBJ-N-CHA_13
1002
{
1000
OWNER
1000
GEN
1002
}
  0
SPLINE
  5
8D3D
330
1F
100
AcDbEntity
  8
AM_0
100
AcDbSpline
210
0.0
220
0.0
230
1.0
 70
     8
 71
     3
 72
     9
 73
     5
 74
     0
 42
0.0000000001
 43
0.0000000001
 40
0.0
 40
0.0
 40
0.0
 40
0.0
 40
0.1987770877846628
 40
5.759128114460802
 40
5.759128114460802
 40
5.759128114460802
 40
5.759128114460802
 10
-1.68156574530557
 20
4.620063914507321
 30
0.0
 10
-1.68156574530557
 20
4.620063914507321
 30
0.0
 10
-2.778303189650559
 20
4.504624613635993
 30
0.0
 10
-4.213441735944335
 20
4.150335930632981
 30
0.0
 10
-5.574046969412613
 20
3.602793690310499
 30
0.0
  0
SPLINE
  5
8D3E
330
1F
100
AcDbEntity
  8
AM_0
100
AcDbSpline
210
0.0
220
0.0
230
1.0
 70
     8
 71
     3
 72
     8
 73
     4
 74
     0
 42
0.0000000001
 43
0.0000000001
 40
0.0
 40
0.0
 40
0.0
 40
0.0
 40
6.247244990626095
 40
6.247244990626095
 40
6.247244990626095
 40
6.247244990626095
 10
-1.838049683062069
 20
5.050000000000477
 30
0.0
 10
-3.00487861574804
 20
5.050000000000479
 30
0.0
 10
-4.544713974060955
 20
4.580644519520456
 30
0.0
 10
-6.048315621840656
 20
3.844292383441176
 30
0.0
  0
LINE
  5
8D3F
330
1F
100
AcDbEntity
  8
AM_0
100
AcDbLine
 10
-1.819100717257508
 20
-5.049999999999503
 30
0.0
 11
-1.711787002990056
 21
-0.3958948252105973
 31
0.0
  0
LINE
  5
8D40
330
1F
100
AcDbEntity
  8
AM_0
100
AcDbLine
 10
-1.711787002990056
 20
-0.3958948252105973
 30
0.0
 11
-3.453425028659954
 21
2.32652875314879
 31
0.0
  0
SPLINE
  5
8D41
330
1F
100
AcDbEntity
  8
AM_0
100
AcDbSpline
210
0.0
220
0.0
230
1.0
 70
     8
 71
     3
 72
     8
 73
     4
 74
     0
 42
0.0000000001
 43
0.0000000001
 40
0.0
 40
0.0
 40
0.0
 40
0.0
 40
6.870645942600294
 40
6.870645942600294
 40
6.870645942600294
 40
6.870645942600294
 10
-22.34627943297301
 20
4.498403084196678
 30
0.0
 10
-20.58274428139579
 20
4.505829139610581
 30
0.0
 10
-18.81249700363928
 20
4.149979276520142
 30
0.0
 10
-17.08548673031132
 20
3.528316708660806
 30
0.0
  0
LINE
  5
8D42
330
1F
100
AcDbEntity
  8
AM_0
100
AcDbLine
 10
-10.69528350549331
 20
5.050000000000477
 30
0.0
 11
-22.34627943297185
 21
5.050000000000477
 31
0.0
  0
LINE
  5
8D43
330
1F
100
AcDbEntity
  8
AM_0
100
AcDbLine
 10
-10.69528350549668
 20
-5.049999999999505
 30
0.0
 11
-22.34627943297185
 21
-5.049999999999505
 31
0.0
  0
SPLINE
  5
8D44
330
1F
100
AcDbEntity
  8
AM_0
100
AcDbSpline
210
0.0
220
0.0
230
1.0
 70
     8
 71
     3
 72
     9
 73
     5
 74
     0
 42
0.0000000001
 43
0.0000000001
 40
1.521176736886217
 40
1.521176736886217
 40
1.521176736886217
 40
1.521176736886217
 40
14.48999654934396
 40
28.97999309868792
 40
28.97999309868792
 40
28.97999309868792
 40
28.97999309868792
 10
-1.814168168812471
 20
-4.836079538857604
 30
0.0
 10
-4.674519863879217
 20
-4.519845110375038
 30
0.0
 10
-11.07324167900029
 20
0.2650774448127044
 30
0.0
 10
-17.47196349412131
 20
5.050000000000479
 30
0.0
 10
-21.19122805274564
 20
5.050000000000479
 30
0.0
  0
LINE
  5
8D45
330
1F
100
AcDbEntity
  8
AM_5
  6
AM_ISO09W050
 62
     3
100
AcDbLine
 10
-1.819091146581818
 20
-5.049999999999503
 30
0.0
 11
-10.69528350549668
 21
-5.049999999999505
 31
0.0
  0
SPLINE
  5
8D46
330
1F
100
AcDbEntity
  8
AM_0
100
AcDbSpline
210
0.0
220
0.0
230
1.0
 70
     8
 71
     3
 72
     9
 73
     5
 74
     0
 42
0.0000000001
 43
0.0000000001
 40
0.0
 40
0.0
 40
0.0
 40
0.0
 40
4.057199033816302
 40
8.114398067632619
 40
8.114398067632619
 40
8.114398067632619
 40
8.114398067632619
 10
-1.819100717257508
 20
-5.049999999999503
 30
0.0
 10
-5.120612296807697
 20
-5.049999999999505
 30
0.0
 10
-11.87381358557816
 20
0.0000000000004853
 30
0.0
 10
-18.62701487434864
 20
5.050000000000479
 30
0.0
 10
-22.34627943297301
 20
5.050000000000479
 30
0.0
  0
SPLINE
  5
8D47
330
1F
100
AcDbEntity
  8
AM_0
100
AcDbSpline
210
0.0
220
0.0
230
1.0
 70
     8
 71
     3
 72
     8
 73
     4
 74
     0
 42
0.0000000001
 43
0.0000000001
 40
19.09542421355049
 40
19.09542421355049
 40
19.09542421355049
 40
19.09542421355049
 40
28.97999309868792
 40
28.97999309868792
 40
28.97999309868792
 40
28.97999309868792
 10
-3.45342502865995
 20
2.32652875314879
 30
0.0
 10
-5.780437442775186
 20
3.874993462261392
 30
0.0
 10
-8.158131298002199
 20
5.050000000000479
 30
0.0
 10
-10.69528350549787
 20
5.050000000000479
 30
0.0
  0
LINE
  5
8D48
330
1F
100
AcDbEntity
  8
AM_5
  6
AM_ISO09W050
 62
     3
100
AcDbLine
 10
-1.858523008739141
 20
5.050000000000479
 30
0.0
 11
-10.69528350549668
 21
5.050000000000477
 31
0.0
  0
SPLINE
  5
8D49
330
1F
100
AcDbEntity
  8
AM_0
100
AcDbSpline
210
0.0
220
0.0
230
1.0
 70
     8
 71
     3
 72
     8
 73
     4
 74
     0
 42
0.0000000001
 43
0.0000000001
 40
22.73274810806179
 40
22.73274810806179
 40
22.73274810806179
 40
22.73274810806179
 40
28.97999309868792
 40
28.97999309868792
 40
28.97999309868792
 40
28.97999309868792
 10
-6.048315621840566
 20
-3.84429238344031
 30
0.0
 10
-7.551917269620265
 20
-4.580644519519553
 30
0.0
 10
-9.091752627933175
 20
-5.049999999999505
 30
0.0
 10
-10.69528350549787
 20
-5.049999999999505
 30
0.0
  0
SPLINE
  5
8D4A
330
1F
100
AcDbEntity
  8
AM_0
100
AcDbSpline
210
0.0
220
0.0
230
1.0
 70
     8
 71
     3
 72
     8
 73
     4
 74
     0
 42
0.0000000001
 43
0.0000000001
 40
22.73274810806259
 40
22.73274810806259
 40
22.73274810806259
 40
22.73274810806259
 40
28.97999309868794
 40
28.97999309868794
 40
28.97999309868794
 40
28.97999309868794
 10
-26.99324731662962
 20
-3.844292383440567
 30
0.0
 10
-28.4968489644091
 20
-4.580644519519657
 30
0.0
 10
-30.03668432272183
 20
-5.049999999999505
 30
0.0
 10
-31.64021520028634
 20
-5.049999999999505
 30
0.0
  0
SPLINE
  5
8D4B
330
1F
100
AcDbEntity
  8
AM_0
100
AcDbSpline
210
0.0
220
0.0
230
1.0
 70
     8
 71
     3
 72
     8
 73
     4
 74
     0
 42
0.0000000001
 43
0.0000000001
 40
0.0
 40
0.0
 40
0.0
 40
0.0
 40
10.77533687840354
 40
10.77533687840354
 40
10.77533687840354
 40
10.77533687840354
 10
-31.64021520028634
 20
-5.049999999999505
 30
0.0
 10
-34.40600803002304
 20
-5.049999999999505
 30
0.0
 10
-36.98230770728134
 20
-3.653674941756117
 30
0.0
 10
-39.51002886562601
 20
-1.899387591132773
 30
0.0
  0
LINE
  5
8D4C
330
1F
100
AcDbEntity
  8
AM_0
100
AcDbLine
 10
-33.36974155226589
 20
1.262522974581357
 30
0.0
 11
-38.76422990031091
 21
5.050000000000501
 31
0.0
  0
LINE
  5
8D4D
330
1F
100
AcDbEntity
  8
AM_0
100
AcDbLine
 10
-43.00000000000844
 20
-5.049999999999505
 30
0.0
 11
-43.00000000000844
 21
5.050000000000501
 31
0.0
  0
SPLINE
  5
8D4E
330
1F
100
AcDbEntity
  8
AM_0
100
AcDbSpline
210
0.0
220
0.0
230
1.0
 70
     8
 71
     3
 72
    10
 73
     6
 74
     0
 42
0.0000000001
 43
0.0000000001
 40
0.0
 40
0.0
 40
0.0
 40
0.0
 40
1.805349240137826
 40
3.686331527232636
 40
4.976269099446192
 40
4.976269099446192
 40
4.976269099446192
 40
4.976269099446192
 10
-39.51001727064746
 20
-1.899395638269309
 30
0.0
 10
-40.97283822615728
 20
-0.8841703085831072
 30
0.0
 10
-45.56299586477554
 20
4.231857755730123
 30
0.0
 10
-37.76958529644595
 20
3.411823791519176
 30
0.0
 10
-35.55983246241516
 20
2.012452855609678
 30
0.0
 10
-34.52476122337812
 20
1.262500000000489
 30
0.0
  0
SPLINE
  5
8D4F
330
1F
100
AcDbEntity
  8
AM_0
100
AcDbSpline
210
0.0
220
0.0
230
1.0
 70
     8
 71
     3
 72
     9
 73
     5
 74
     0
 42
0.0000000001
 43
0.0000000001
 40
0.0
 40
0.0
 40
0.0
 40
0.0
 40
0.1987770877846628
 40
5.759128114445015
 40
5.759128114445015
 40
5.759128114445015
 40
5.759128114445015
 10
-22.19321426656545
 20
4.498403084190147
 30
0.0
 10
-22.24423598869952
 20
4.498403084190147
 30
0.0
 10
-23.72323488443073
 20
4.504624613623023
 30
0.0
 10
-25.1583734307207
 20
4.150335930621957
 30
0.0
 10
-26.51897866418531
 20
3.602793690302246
 30
0.0
  0
SPLINE
  5
8D50
330
1F
100
AcDbEntity
  8
AM_0
100
AcDbSpline
210
0.0
220
0.0
230
1.0
 70
     8
 71
     3
 72
     8
 73
     4
 74
     0
 42
0.0000000001
 43
0.0000000001
 40
0.0
 40
0.0
 40
0.0
 40
0.0
 40
6.247244990625308
 40
6.247244990625308
 40
6.247244990625308
 40
6.247244990625308
 10
-22.34627943297301
 20
5.050000000000479
 30
0.0
 10
-23.94981031053748
 20
5.050000000000479
 30
0.0
 10
-25.48964566885022
 20
4.580644519520585
 30
0.0
 10
-26.99324731662969
 20
3.844292383441511
 30
0.0
  0
SPLINE
  5
8D51
330
1F
100
AcDbEntity
  8
AM_0
100
AcDbSpline
210
0.0
220
0.0
230
1.0
 70
     8
 71
     3
 72
     9
 73
     5
 74
     0
 42
0.0000000001
 43
0.0000000001
 40
0.0
 40
0.0
 40
0.0
 40
0.0
 40
14.48999654934396
 40
16.92804852839734
 40
16.92804852839734
 40
16.92804852839734
 40
16.92804852839734
 10
-22.34627943297301
 20
-5.049999999999505
 30
0.0
 10
-26.06554399159732
 20
-5.049999999999505
 30
0.0
 10
-30.0102833415704
 20
-2.100149571212592
 30
0.0
 10
-33.95502269154343
 20
0.8497008575743492
 30
0.0
 10
-34.52479366866554
 20
1.262523507967843
 30
0.0
  0
SPLINE
  5
8D52
330
1F
100
AcDbEntity
  8
AM_0
100
AcDbSpline
210
0.0
220
0.0
230
1.0
 70
     8
 71
     3
 72
     9
 73
     5
 74
     0
 42
0.0000000001
 43
0.0000000001
 40
0.0
 40
0.0
 40
0.0
 40
0.0
 40
14.48999654934396
 40
16.9280474783711
 40
16.9280474783711
 40
16.9280474783711
 40
16.9280474783711
 10
-22.34627943297185
 20
-5.049999999999505
 30
0.0
 10
-26.06554399159619
 20
-5.049999999999505
 30
0.0
 10
-30.01028309688186
 20
-2.100149754188294
 30
0.0
 10
-33.95502220216757
 20
0.8497004916230473
 30
0.0
 10
-34.52479293249325
 20
1.262522974581407
 30
0.0
  0
SPLINE
  5
8D53
330
1F
100
AcDbEntity
  8
AM_0
100
AcDbSpline
210
0.0
220
0.0
230
1.0
 70
     8
 71
     3
 72
     9
 73
     5
 74
     0
 42
0.0000000001
 43
0.0000000001
 40
0.0
 40
0.0
 40
0.0
 40
0.0
 40
14.48999654934396
 40
16.9280474783711
 40
16.9280474783711
 40
16.9280474783711
 40
16.9280474783711
 10
-21.19122805274449
 20
-5.049999999999505
 30
0.0
 10
-24.91049261136883
 20
-5.049999999999505
 30
0.0
 10
-28.8552317166545
 20
-2.100149754188294
 30
0.0
 10
-32.79997082194021
 20
0.8497004916230473
 30
0.0
 10
-33.36974155226589
 20
1.262522974581407
 30
0.0
  0
SPLINE
  5
8D54
330
1F
100
AcDbEntity
  8
AM_0
100
AcDbSpline
210
0.0
220
0.0
230
1.0
 70
     8
 71
     3
 72
     9
 73
     5
 74
     0
 42
0.0000000001
 43
0.0000000001
 40
0.0
 40
0.0
 40
0.0
 40
0.0
 40
4.057199033816316
 40
8.114398067632626
 40
8.114398067632626
 40
8.114398067632626
 40
8.114398067632626
 10
-10.69528350549668
 20
-5.049999999999505
 30
0.0
 10
-14.41454806412105
 20
-5.049999999999505
 30
0.0
 10
-21.16774935289152
 20
0.0000000000004853
 30
0.0
 10
-27.92095064166201
 20
5.050000000000479
 30
0.0
 10
-31.64021520028634
 20
5.050000000000479
 30
0.0
  0
LINE
  5
8D55
330
1F
100
AcDbEntity
  8
AM_5
  6
AM_ISO09W050
 62
     3
100
AcDbLine
 10
-21.19122805274516
 20
-5.049999999999505
 30
0.0
 11
-31.64021520028542
 21
-5.049999999999505
 31
0.0
  0
LINE
  5
8D56
330
1F
100
AcDbEntity
  8
AM_5
  6
AM_ISO09W050
 62
     3
100
AcDbLine
 10
-22.34627943297301
 20
5.050000000000477
 30
0.0
 11
-31.64021520028579
 21
5.050000000000477
 31
0.0
  0
VIEWPORT
  5
E2
330
1B
100
AcDbEntity
 67
     1
  8
0
100
AcDbViewport
 10
158.659971393327
 20
148.5
 30
0.0
 40
581.809078125
 41
314.226
 68
     1
 69
     1
1001
ACAD
1000
MVIEW
1002
{
1070
    16
1010
0.0
1020
0.0
1030
0.0
1010
0.0
1020
0.0
1030
1.0
1040
0.0
1040
314.226
1040
158.659971393327
1040
148.5
1040
50.0
1040
0.0
1040
0.0
1070
     0
1070
   100
1070
     1
1070
     1
1070
     0
1070
     0
1070
     0
1070
     0
1040
0.0
1040
0.0
1040
0.0
1040
10.0
1040
10.0
1040
10.0
1040
10.0
1070
     0
1002
{
1002
}
1002
}
  0
ENDSEC
  0
SECTION
  2
OBJECTS
  0
DICTIONARY
  5
C
330
0
100
AcDbDictionary
  3
ACAD_GROUP
350
D
  3
ACAD_LAYOUT
350
1A
  3
ACAD_MLINESTYLE
350
17
  3
ACAD_PLOTSETTINGS
350
19
  3
ACAD_PLOTSTYLENAME
350
E
  3
ACDBVARIABLEDICTIONARY
350
34
  3
ACMDICTIONARY
350
43
  3
AMG
350
2B
  3
AMGSNAPSETTINGS
350
6E
  3
DWGPROPS
350
8E49
  3
ACDBHEADERROUNDTRIPXREC
350
8E56
  0
DICTIONARY
  5
74
330
1F
100
AcDbDictionary
280
     1
  3
ACAD_INDEX
360
8E4B
  3
ACAD_LAYOUTSELFREF
360
8E79
  0
DICTIONARY
  5
8E77
330
1B
100
AcDbDictionary
280
     1
  3
ACAD_LAYOUTSELFREF
360
8E78
  0
DICTIONARY
  5
D
102
{ACAD_REACTORS
330
C
102
}
330
C
100
AcDbDictionary
  0
DICTIONARY
  5
1A
102
{ACAD_REACTORS
330
C
102
}
330
C
100
AcDbDictionary
  0
DICTIONARY
  5
17
102
{ACAD_REACTORS
330
C
102
}
330
C
100
AcDbDictionary
  3
STANDARD
350
18
  0
DICTIONARY
  5
19
102
{ACAD_REACTORS
330
C
102
}
330
C
100
AcDbDictionary
  0
ACDBDICTIONARYWDFLT
  5
E
102
{ACAD_REACTORS
330
C
102
}
330
C
100
AcDbDictionary
281
     1
  3
Normal
350
F
100
AcDbDictionaryWithDefault
340
F
  0
DICTIONARY
  5
34
102
{ACAD_REACTORS
330
C
102
}
330
C
100
AcDbDictionary
  3
INDEXCTL
350
35
  3
SORTENTS
350
B5E
  0
DICTIONARY
  5
43
102
{ACAD_REACTORS
330
C
102
}
330
C
100
AcDbDictionary
  3
ACMSTDDICTIONARY
350
260
  0
DICTIONARY
  5
2B
102
{ACAD_REACTORS
330
C
102
}
330
C
100
AcDbDictionary
  3
ACMGSETTINGS
350
2C
  0
DICTIONARY
  5
6E
102
{ACAD_REACTORS
330
C
102
}
330
C
100
AcDbDictionary
  0
XRECORD
  5
8E49
102
{ACAD_REACTORS
330
C
102
}
330
C
100
AcDbXrecord
  1
DWGPROPS COOKIE
  2

  3

  4

  6

  7

  8

  9

300
AmdtFileType=82
301
=
302
=
303
=
304
=
305
=
306
=
307
=
308
=
309
=
 40
1.618075543981481
 41
2452838.620506898
 42
2452954.581763298
  1

 90
        1
  0
DICTIONARY
  5
8E56
102
{ACAD_REACTORS
330
C
102
}
330
C
100
AcDbDictionary
  3
TSTACKALIGN
350
8E57
  3
TSTACKSIZE
350
8E58
  3
HYPERLINKBASE
350
8E59
  3
STYLESHEET
350
8E5A
  3
LAYOUTDICT
350
8E5B
  3
PLOTSETDICT
350
8E5C
  3
PLOTSTYLNAMDICT
350
8E5D
  3
LWETCUNION
350
8E5E
  3
INSUNITS
350
8E5F
  3
CEPSNTYPE
350
8E60
  3
FINGERPRINTGUID
350
8E61
  3
VERSIONGUID
350
8E62
  3
PSVPSCALE
350
8E63
  3
DIMSTYLEDATA
350
8E64
  3
PUCSORTHOREF
350
8E65
  3
PUCSORTHOVIEW
350
8E66
  3
PUCSBASE
350
8E67
  3
PUCSORGTOP
350
8E68
  3
PUCSORGBOTTOM
350
8E69
  3
PUCSORGLEFT
350
8E6A
  3
PUCSORGRIGHT
350
8E6B
  3
PUCSORGFRONT
350
8E6C
  3
PUCSORGBACK
350
8E6D
  3
UCSORTHOREF
350
8E6E
  3
UCSORTHOVIEW
350
8E6F
  3
UCSBASE
350
8E70
  3
UCSORGTOP
350
8E71
  3
UCSORGBOTTOM
350
8E72
  3
UCSORGLEFT
350
8E73
  3
UCSORGRIGHT
350
8E74
  3
UCSORGFRONT
350
8E75
  3
UCSORGBACK
350
8E76
  0
DICTIONARY
  5
8E4B
102
{ACAD_REACTORS
330
74
102
}
330
74
100
AcDbDictionary
  3
*A1
350
8E4C
  0
XRECORD
  5
8E79
102
{ACAD_REACTORS
330
74
102
}
330
74
100
AcDbXrecord
340
1F
  0
XRECORD
  5
8E78
102
{ACAD_REACTORS
330
8E77
102
}
330
8E77
100
AcDbXrecord
340
1B
  0
MLINESTYLE
  5
18
102
{ACAD_REACTORS
330
17
102
}
330
17
100
AcDbMlineStyle
  2
STANDARD
 70
     0
  3

 62
   256
 51
90.0
 52
90.0
 71
     2
 49
0.5
 62
   256
  6
BYLAYER
 49
-0.5
 62
   256
  6
BYLAYER
  0
ACDBPLACEHOLDER
  5
F
102
{ACAD_REACTORS
330
E
102
}
330
E
100
AcDbPlaceHolder
280
     0
  0
DICTIONARYVAR
  5
35
102
{ACAD_REACTORS
330
34
102
}
330
34
100
DictionaryVariables
280
     0
  1
1
  0
DICTIONARYVAR
  5
B5E
102
{ACAD_REACTORS
330
34
102
}
330
34
100
DictionaryVariables
280
     0
  1
96
  0
DICTIONARY
  5
260
102
{ACAD_REACTORS
330
43
102
}
330
43
100
AcDbDictionary
  0
DICTIONARY
  5
2C
102
{ACAD_REACTORS
330
2B
102
}
330
2B
100
AcDbDictionary
  3
DWGSETTINGS
350
2D
  0
XRECORD
  5
8E57
102
{ACAD_REACTORS
330
8E56
102
}
330
8E56
100
AcDbXrecord
 90
        1
  0
XRECORD
  5
8E58
102
{ACAD_REACTORS
330
8E56
102
}
330
8E56
100
AcDbXrecord
 90
       70
  0
XRECORD
  5
8E59
102
{ACAD_REACTORS
330
8E56
102
}
330
8E56
100
AcDbXrecord
  1

  0
XRECORD
  5
8E5A
102
{ACAD_REACTORS
330
8E56
102
}
330
8E56
100
AcDbXrecord
  1
C:\Program Files\ACAD LT 2000\Plot Styles\ASAMI.ctb
  0
XRECORD
  5
8E5B
102
{ACAD_REACTORS
330
8E56
102
}
330
8E56
100
AcDbXrecord
340
1A
  0
XRECORD
  5
8E5C
102
{ACAD_REACTORS
330
8E56
102
}
330
8E56
100
AcDbXrecord
340
19
  0
XRECORD
  5
8E5D
102
{ACAD_REACTORS
330
8E56
102
}
330
8E56
100
AcDbXrecord
340
E
  0
XRECORD
  5
8E5E
102
{ACAD_REACTORS
330
8E56
102
}
330
8E56
100
AcDbXrecord
 90
    10781
  0
XRECORD
  5
8E5F
102
{ACAD_REACTORS
330
8E56
102
}
330
8E56
100
AcDbXrecord
 90
        4
  0
XRECORD
  5
8E60
102
{ACAD_REACTORS
330
8E56
102
}
330
8E56
100
AcDbXrecord
 90
        0
  0
XRECORD
  5
8E61
102
{ACAD_REACTORS
330
8E56
102
}
330
8E56
100
AcDbXrecord
  1
{AFB28963-8C59-40AE-9337-C84526B81ACE}
  0
XRECORD
  5
8E62
102
{ACAD_REACTORS
330
8E56
102
}
330
8E56
100
AcDbXrecord
  1
{CD3E4663-A740-4C05-A22D-01AA0C1F8B0C}
  0
XRECORD
  5
8E63
102
{ACAD_REACTORS
330
8E56
102
}
330
8E56
100
AcDbXrecord
 40
0.0
  0
XRECORD
  5
8E64
102
{ACAD_REACTORS
330
8E56
102
}
330
8E56
100
AcDbXrecord
1000
DSTYLE
1002
{
1070
    79
 70
     2
1070
   341
340
59
1070
   342
340
59
1070
   371
 70
    -1
1070
   372
 70
    -1
1002
}
  0
XRECORD
  5
8E65
102
{ACAD_REACTORS
330
8E56
102
}
330
8E56
100
AcDbXrecord
340
0
  0
XRECORD
  5
8E66
102
{ACAD_REACTORS
330
8E56
102
}
330
8E56
100
AcDbXrecord
 70
     0
  0
XRECORD
  5
8E67
102
{ACAD_REACTORS
330
8E56
102
}
330
8E56
100
AcDbXrecord
340
0
  0
XRECORD
  5
8E68
102
{ACAD_REACTORS
330
8E56
102
}
330
8E56
100
AcDbXrecord
 10
0.0
 20
0.0
 30
0.0
  0
XRECORD
  5
8E69
102
{ACAD_REACTORS
330
8E56
102
}
330
8E56
100
AcDbXrecord
 10
0.0
 20
0.0
 30
0.0
  0
XRECORD
  5
8E6A
102
{ACAD_REACTORS
330
8E56
102
}
330
8E56
100
AcDbXrecord
 10
0.0
 20
0.0
 30
0.0
  0
XRECORD
  5
8E6B
102
{ACAD_REACTORS
330
8E56
102
}
330
8E56
100
AcDbXrecord
 10
0.0
 20
0.0
 30
0.0
  0
XRECORD
  5
8E6C
102
{ACAD_REACTORS
330
8E56
102
}
330
8E56
100
AcDbXrecord
 10
0.0
 20
0.0
 30
0.0
  0
XRECORD
  5
8E6D
102
{ACAD_REACTORS
330
8E56
102
}
330
8E56
100
AcDbXrecord
 10
0.0
 20
0.0
 30
0.0
  0
XRECORD
  5
8E6E
102
{ACAD_REACTORS
330
8E56
102
}
330
8E56
100
AcDbXrecord
340
0
  0
XRECORD
  5
8E6F
102
{ACAD_REACTORS
330
8E56
102
}
330
8E56
100
AcDbXrecord
 70
     0
  0
XRECORD
  5
8E70
102
{ACAD_REACTORS
330
8E56
102
}
330
8E56
100
AcDbXrecord
340
0
  0
XRECORD
  5
8E71
102
{ACAD_REACTORS
330
8E56
102
}
330
8E56
100
AcDbXrecord
 10
0.0
 20
0.0
 30
0.0
  0
XRECORD
  5
8E72
102
{ACAD_REACTORS
330
8E56
102
}
330
8E56
100
AcDbXrecord
 10
0.0
 20
0.0
 30
0.0
  0
XRECORD
  5
8E73
102
{ACAD_REACTORS
330
8E56
102
}
330
8E56
100
AcDbXrecord
 10
0.0
 20
0.0
 30
0.0
  0
XRECORD
  5
8E74
102
{ACAD_REACTORS
330
8E56
102
}
330
8E56
100
AcDbXrecord
 10
0.0
 20
0.0
 30
0.0
  0
XRECORD
  5
8E75
102
{ACAD_REACTORS
330
8E56
102
}
330
8E56
100
AcDbXrecord
 10
0.0
 20
0.0
 30
0.0
  0
XRECORD
  5
8E76
102
{ACAD_REACTORS
330
8E56
102
}
330
8E56
100
AcDbXrecord
 10
0.0
 20
0.0
 30
0.0
  0
LAYER_INDEX
  5
8E4C
102
{ACAD_REACTORS
330
8E4B
102
}
330
8E4B
100
AcDbIndex
 40
2453151.617816099
100
AcDbLayerIndex
  8
0
360
8E4D
 90
        0
  8
AM_0
360
8E4E
 90
       38
  8
AM_11
360
8E4F
 90
        0
  8
AM_7
360
8E50
 90
        1
  8
AM_5
360
8E51
 90
        8
  8
Defpoints
360
8E52
 90
        0
  8
AM_6
360
8E53
 90
        1
  8
AM_CL
360
8E54
 90
        0
  0
XRECORD
  5
2D
102
{ACAD_REACTORS
330
2C
102
}
330
2C
100
AcDbXrecord
  1
VERSION
140
15.0
  1
PRODUCT
  2
AutoCAD Mechanical 2000
  0
IDBUFFER
  5
8E4D
330
0
100
AcDbIdBuffer
  0
IDBUFFER
  5
8E4E
330
0
100
AcDbIdBuffer
330
8D3D
330
8D3E
330
8D3F
330
8D40
330
8D41
330
8D42
330
8D43
330
8D44
330
8D46
330
8D47
330
8D49
330
8D4A
330
8D4B
330
8D4C
330
8D4D
330
8D4E
330
8D4F
330
8D50
330
8D51
330
8D52
330
8D53
330
8D54
330
631C
330
631D
330
63DB
330
665C
330
665E
330
6660
330
6661
330
67B1
330
67B7
330
67B9
330
67BA
330
7571
330
87FB
330
8C73
330
8C98
330
8C9A
  0
IDBUFFER
  5
8E4F
330
0
100
AcDbIdBuffer
  0
IDBUFFER
  5
8E50
330
0
100
AcDbIdBuffer
330
6320
  0
IDBUFFER
  5
8E51
330
0
100
AcDbIdBuffer
330
63C1
330
640B
330
6418
330
6663
330
8D45
330
8D48
330
8D55
330
8D56
  0
IDBUFFER
  5
8E52
330
0
100
AcDbIdBuffer
  0
IDBUFFER
  5
8E53
330
0
100
AcDbIdBuffer
330
C58
  0
IDBUFFER
  5
8E54
330
0
100
AcDbIdBuffer
  0
ENDSEC
  0
EOF
