  0
SECTION
  2
HEADER
  9
$ACADVER
  1
AC1014
  9
$ACADMAINTVER
 70
     9
  9
$DWGCODEPAGE
  3
ANSI_932
  9
$INSBASE
 10
0.0
 20
0.0
 30
0.0
  9
$EXTMIN
 10
-140.1575928616019
 20
-53.15592319162392
 30
-0.00000001
  9
$EXTMAX
 10
29.42936918853507
 20
28.59425368163996
 30
0.00000001
  9
$LIMMIN
 10
-126.521363819761
 20
-49.07582103022787
  9
$LIMMAX
 10
32.31779544235723
 20
34.023374006219
  9
$ORTHOMODE
 70
     0
  9
$REGENMODE
 70
     1
  9
$FILLMODE
 70
     1
  9
$QTEXTMODE
 70
     0
  9
$MIRRTEXT
 70
     0
  9
$DRAGMODE
 70
     2
  9
$LTSCALE
 40
0.5
  9
$OSMODE
 70
    55
  9
$ATTMODE
 70
     1
  9
$TEXTSIZE
 40
2.5
  9
$TRACEWID
 40
1.0
  9
$TEXTSTYLE
  7
STANDARD
  9
$CLAYER
  8
AM_0
  9
$CELTYPE
  6
BYLAYER
  9
$CECOLOR
 62
   256
  9
$CELTSCALE
 40
1.0
  9
$DELOBJ
 70
     1
  9
$DISPSILH
 70
     0
  9
$DIMSCALE
 40
1.0
  9
$DIMASZ
 40
2.5
  9
$DIMEXO
 40
1.0
  9
$DIMDLI
 40
12.0
  9
$DIMRND
 40
0.0
  9
$DIMDLE
 40
0.0
  9
$DIMEXE
 40
1.0
  9
$DIMTP
 40
0.1
  9
$DIMTM
 40
0.1
  9
$DIMTXT
 40
3.2
  9
$DIMCEN
 40
0.0
  9
$DIMTSZ
 40
0.0
  9
$DIMTOL
 70
     0
  9
$DIMLIM
 70
     0
  9
$DIMTIH
 70
     0
  9
$DIMTOH
 70
     0
  9
$DIMSE1
 70
     0
  9
$DIMSE2
 70
     0
  9
$DIMTAD
 70
     3
  9
$DIMZIN
 70
     1
  9
$DIMBLK
  1
OPEN30
  9
$DIMASO
 70
     1
  9
$DIMSHO
 70
     1
  9
$DIMPOST
  1

  9
$DIMAPOST
  1
"
  9
$DIMALT
 70
     0
  9
$DIMALTD
 70
     2
  9
$DIMALTF
 40
0.0393701
  9
$DIMLFAC
 40
1.0
  9
$DIMTOFL
 70
     1
  9
$DIMTVP
 40
0.0
  9
$DIMTIX
 70
     0
  9
$DIMSOXD
 70
     0
  9
$DIMSAH
 70
     0
  9
$DIMBLK1
  1

  9
$DIMBLK2
  1

  9
$DIMSTYLE
  2
AM_JIS
  9
$DIMCLRD
 70
     3
  9
$DIMCLRE
 70
     3
  9
$DIMCLRT
 70
     2
  9
$DIMTFAC
 40
0.71
  9
$DIMGAP
 40
1.5
  9
$DIMJUST
 70
     0
  9
$DIMSD1
 70
     0
  9
$DIMSD2
 70
     0
  9
$DIMTOLJ
 70
     0
  9
$DIMTZIN
 70
     0
  9
$DIMALTZ
 70
     0
  9
$DIMALTTZ
 70
     0
  9
$DIMFIT
 70
     3
  9
$DIMUPT
 70
     0
  9
$DIMUNIT
 70
     2
  9
$DIMDEC
 70
     1
  9
$DIMTDEC
 70
     1
  9
$DIMALTU
 70
     2
  9
$DIMALTTD
 70
     2
  9
$DIMTXSTY
  7
ASAMI
  9
$DIMAUNIT
 70
     0
  9
$LUNITS
 70
     2
  9
$LUPREC
 70
     2
  9
$SKETCHINC
 40
1.0
  9
$FILLETRAD
 40
0.8
  9
$AUNITS
 70
     0
  9
$AUPREC
 70
     0
  9
$MENU
  1
.
  9
$ELEVATION
 40
0.0
  9
$PELEVATION
 40
0.0
  9
$THICKNESS
 40
0.0
  9
$LIMCHECK
 70
     0
  9
$BLIPMODE
 70
     0
  9
$CHAMFERA
 40
1.0
  9
$CHAMFERB
 40
1.0
  9
$CHAMFERC
 40
20.0
  9
$CHAMFERD
 40
0.0
  9
$SKPOLY
 70
     0
  9
$TDCREATE
 40
2452838.620506898
  9
$TDUPDATE
 40
2453151.631805173
  9
$TDINDWG
 40
1.8496765625
  9
$TDUSRTIMER
 40
1.8496765625
  9
$USRTIMER
 70
     1
  9
$ANGBASE
 50
0.0
  9
$ANGDIR
 70
     0
  9
$PDMODE
 70
     0
  9
$PDSIZE
 40
0.0
  9
$PLINEWID
 40
0.0
  9
$COORDS
 70
     1
  9
$SPLFRAME
 70
     0
  9
$SPLINETYPE
 70
     6
  9
$SPLINESEGS
 70
     8
  9
$ATTDIA
 70
     1
  9
$ATTREQ
 70
     1
  9
$HANDLING
 70
 12289
  9
$HANDSEED
  5
B69A
  9
$SURFTAB1
 70
     6
  9
$SURFTAB2
 70
     6
  9
$SURFTYPE
 70
     6
  9
$SURFU
 70
     6
  9
$SURFV
 70
     6
  9
$UCSNAME
  2

  9
$UCSORG
 10
0.0
 20
0.0000000000000002
 30
0.0
  9
$UCSXDIR
 10
1.0
 20
0.0
 30
0.0
  9
$UCSYDIR
 10
0.0
 20
1.0
 30
0.0
  9
$PUCSNAME
  2

  9
$PUCSORG
 10
0.0
 20
0.0
 30
0.0
  9
$PUCSXDIR
 10
1.0
 20
0.0
 30
0.0
  9
$PUCSYDIR
 10
0.0
 20
1.0
 30
0.0
  9
$USERI1
 70
     0
  9
$USERI2
 70
     0
  9
$USERI3
 70
     0
  9
$USERI4
 70
     0
  9
$USERI5
 70
     0
  9
$USERR1
 40
0.0
  9
$USERR2
 40
0.0
  9
$USERR3
 40
0.0
  9
$USERR4
 40
0.0
  9
$USERR5
 40
0.0
  9
$WORLDVIEW
 70
     1
  9
$SHADEDGE
 70
     3
  9
$SHADEDIF
 70
    70
  9
$TILEMODE
 70
     1
  9
$MAXACTVP
 70
    64
  9
$PINSBASE
 10
0.0
 20
0.0
 30
0.0
  9
$PLIMCHECK
 70
     0
  9
$PEXTMIN
 10
1.000000000000000E+20
 20
1.000000000000000E+20
 30
1.000000000000000E+20
  9
$PEXTMAX
 10
-1.000000000000000E+20
 20
-1.000000000000000E+20
 30
-1.000000000000000E+20
  9
$PLIMMIN
 10
0.0
 20
0.0
  9
$PLIMMAX
 10
210.0
 20
297.0
  9
$UNITMODE
 70
     0
  9
$VISRETAIN
 70
     1
  9
$PLINEGEN
 70
     0
  9
$PSLTSCALE
 70
     1
  9
$TREEDEPTH
 70
  3020
  9
$PICKSTYLE
 70
     0
  9
$CMLSTYLE
  2
STANDARD
  9
$CMLJUST
 70
     0
  9
$CMLSCALE
 40
20.0
  9
$PROXYGRAPHICS
 70
     1
  9
$MEASUREMENT
 70
     1
  0
ENDSEC
  0
SECTION
  2
CLASSES
  0
CLASS
  1
ACDBDICTIONARYWDFLT
  2
AcDbDictionaryWithDefault
  3
AutoCAD 2000
 90
        0
280
     0
281
     0
  0
CLASS
  1
ACDBPLACEHOLDER
  2
AcDbPlaceHolder
  3
AutoCAD 2000
 90
        0
280
     0
281
     0
  0
CLASS
  1
LAYOUT
  2
AcDbLayout
  3
AutoCAD 2000
 90
        0
280
     0
281
     0
  0
CLASS
  1
AMGSETTINGSOBJ
  2
AmgSettingsObj
  3
"AcadM|Product Description: AutoCAD Mechanical 2000|Company: Autodesk"
 90
        0
280
     0
281
     0
  0
CLASS
  1
ACME_DOCUMENT
  2
AcMeDbDoc
  3
AcMeServices
 90
        0
280
     0
281
     0
  0
CLASS
  1
ACMESCOPE
  2
AcMeScope
  3
AcMeServices
 90
        0
280
     0
281
     0
  0
CLASS
  1
ACMECOMMANDHISTORY
  2
AcMeCommandHistory
  3
AcMeServices
 90
        0
280
     0
281
     0
  0
CLASS
  1
DICTIONARYVAR
  2
AcDbDictionaryVar
  3
AutoCAD 2000
 90
        0
280
     0
281
     0
  0
CLASS
  1
ACIMSYSVARMAN
  2
AcImSysVarManager
  3
AcMeServices
 90
        0
280
     0
281
     0
  0
CLASS
  1
ACIMREALSYSVAR
  2
AcImRealSysVar
  3
AcMeServices
 90
        0
280
     0
281
     0
  0
CLASS
  1
ACIMINTSYSVAR
  2
AcImIntSysVar
  3
AcMeServices
 90
        0
280
     0
281
     0
  0
CLASS
  1
ACMEDRAWINGMAN
  2
AcMeDrawingMan
  3
AcMeServices
 90
        0
280
     0
281
     0
  0
CLASS
  1
ACMEVIEW
  2
AcMeView
  3
AcMeServices
 90
        0
280
     0
281
     0
  0
CLASS
  1
ACDBENTITYCACHE
  2
AcMeEntityCache
  3
AcMeServices
 90
        0
280
     0
281
     0
  0
CLASS
  1
GSMANAGER
  2
AcMeGSManager
  3
AcMeServices
 90
        0
280
     0
281
     0
  0
CLASS
  1
AmdtInternalReactor
  2
AmdtInternalReactor
  3
AcMeServices
 90
        0
280
     0
281
     0
  0
CLASS
  1
ACMESTATEMGR
  2
AcMeStateMgr
  3
AcMeServices
 90
        0
280
     0
281
     0
  0
CLASS
  1
ACME_DATABASE
  2
AcMeDbDatabase
  3
AcMeServices
 90
        0
280
     0
281
     0
  0
CLASS
  1
ACRFINSADJUSTERMGR
  2
AcRfInsAdjusterMgr
  3
AcMeServices
 90
        0
280
     0
281
     0
  0
CLASS
  1
ACMDATADICTIONARY
  2
AcmDataDictionary
  3
"AcmSymBB|Product Description: AutoCAD Mechanical 2000|Company: Autodesk"
 90
        0
280
     0
281
     0
  0
CLASS
  1
ACMDATAENTRYBLOCK
  2
AcmDataEntryBlock
  3
"AcmSymBB|Product Description: AutoCAD Mechanical 2000|Company: Autodesk"
 90
        0
280
     0
281
     0
  0
CLASS
  1
AMGOBJPROPCFG
  2
AmgObjPropCfg
  3
"AmgLay|Product Description: AutoCAD Mechanical 2000|Company: Autodesk"
 90
        1
280
     0
281
     0
  0
CLASS
  1
ACAMGFILTERDAT
  2
AcAmgFilterDat
  3
"AcadM|Product Description: AutoCAD Mechanical 2000|Company: Autodesk"
 90
        0
280
     0
281
     0
  0
CLASS
  1
LAYER_INDEX
  2
AcDbLayerIndex
  3
AutoCAD 2000
 90
        0
280
     0
281
     0
  0
CLASS
  1
IDBUFFER
  2
AcDbIdBuffer
  3
AutoCAD 2000
 90
        0
280
     0
281
     0
  0
CLASS
  1
ACIMSTRSYSVAR
  2
AcImStrSysVar
  3
AcMeServices
 90
        0
280
     0
281
     0
  0
CLASS
  1
ACMSTANDARDJIS
  2
AcmStandardJIS
  3
"AcmSymBB|Product Description: AutoCAD Mechanical 2000|Company: Autodesk"
 90
        0
280
     0
281
     0
  0
CLASS
  1
ACMSURFSTANDARDJIS
  2
AcmSurfTextStdJIS
  3
"AcmSymBB|Product Description: AutoCAD Mechanical 2000|Company: Autodesk"
 90
        0
280
     0
281
     0
  0
CLASS
  1
ACMFCFSTANDARDJIS
  2
AcmFCFStdJIS
  3
"AcmSymBB|Product Description: AutoCAD Mechanical 2000|Company: Autodesk"
 90
        0
280
     0
281
     0
  0
CLASS
  1
ACMWELDSTANDARDJIS
  2
AcmWeldingStdJIS
  3
"AcmSymBB|Product Description: AutoCAD Mechanical 2000|Company: Autodesk"
 90
        0
280
     0
281
     0
  0
CLASS
  1
ACMIDSTANDARDJIS
  2
AcmIdStdJIS
  3
"AcmSymBB|Product Description: AutoCAD Mechanical 2000|Company: Autodesk"
 90
        0
280
     0
281
     0
  0
CLASS
  1
ACMDATUMSTANDARDJIS
  2
AcmDatumStdJIS
  3
"AcmSymBB|Product Description: AutoCAD Mechanical 2000|Company: Autodesk"
 90
        0
280
     0
281
     0
  0
CLASS
  1
ACMBOMSTANDARDJIS
  2
AcmBOMStdJIS
  3
"AcmSymBB|Product Description: AutoCAD Mechanical 2000|Company: Autodesk"
 90
        0
280
     0
281
     0
  0
CLASS
  1
ACMSTANDARDANSI
  2
AcmStandardANSI
  3
"AcmSymBB|Product Description: AutoCAD Mechanical 2000|Company: Autodesk"
 90
        0
280
     0
281
     0
  0
CLASS
  1
ACMSURFSTANDARDANSI
  2
AcmSurfTextStdANSI
  3
"AcmSymBB|Product Description: AutoCAD Mechanical 2000|Company: Autodesk"
 90
        0
280
     0
281
     0
  0
CLASS
  1
ACMFCFSTANDARDANSI
  2
AcmFCFStdANSI
  3
"AcmSymBB|Product Description: AutoCAD Mechanical 2000|Company: Autodesk"
 90
        0
280
     0
281
     0
  0
CLASS
  1
ACMWELDSTANDARDANSI
  2
AcmWeldingStdANSI
  3
"AcmSymBB|Product Description: AutoCAD Mechanical 2000|Company: Autodesk"
 90
        0
280
     0
281
     0
  0
CLASS
  1
ACMIDSTANDARDANSI
  2
AcmIdStdANSI
  3
"AcmSymBB|Product Description: AutoCAD Mechanical 2000|Company: Autodesk"
 90
        0
280
     0
281
     0
  0
CLASS
  1
ACMDATUMSTANDARDANSI
  2
AcmDatumStdANSI
  3
"AcmSymBB|Product Description: AutoCAD Mechanical 2000|Company: Autodesk"
 90
        0
280
     0
281
     0
  0
CLASS
  1
ACMBOMSTANDARDANSI
  2
AcmBOMStdANSI
  3
"AcmSymBB|Product Description: AutoCAD Mechanical 2000|Company: Autodesk"
 90
        0
280
     0
281
     0
  0
CLASS
  1
ACMSTANDARDBSI
  2
AcmStandardBSI
  3
"AcmSymBB|Product Description: AutoCAD Mechanical 2000|Company: Autodesk"
 90
        0
280
     0
281
     0
  0
CLASS
  1
ACMSURFSTANDARDBSI
  2
AcmSurfTextStdBSI
  3
"AcmSymBB|Product Description: AutoCAD Mechanical 2000|Company: Autodesk"
 90
        0
280
     0
281
     0
  0
CLASS
  1
ACMFCFSTANDARDBSI
  2
AcmFCFStdBSI
  3
"AcmSymBB|Product Description: AutoCAD Mechanical 2000|Company: Autodesk"
 90
        0
280
     0
281
     0
  0
CLASS
  1
ACMWELDSTANDARDBSI
  2
AcmWeldingStdBSI
  3
"AcmSymBB|Product Description: AutoCAD Mechanical 2000|Company: Autodesk"
 90
        0
280
     0
281
     0
  0
CLASS
  1
ACMIDSTANDARDBSI
  2
AcmIdStdBSI
  3
"AcmSymBB|Product Description: AutoCAD Mechanical 2000|Company: Autodesk"
 90
        0
280
     0
281
     0
  0
CLASS
  1
ACMDATUMSTANDARDBSI
  2
AcmDatumStdBSI
  3
"AcmSymBB|Product Description: AutoCAD Mechanical 2000|Company: Autodesk"
 90
        0
280
     0
281
     0
  0
CLASS
  1
ACMBOMSTANDARDBSI
  2
AcmBOMStdBSI
  3
"AcmSymBB|Product Description: AutoCAD Mechanical 2000|Company: Autodesk"
 90
        0
280
     0
281
     0
  0
CLASS
  1
LONG_TRANSACTION
  2
AcDbLongTransaction
  3
AutoCAD 2000
 90
        0
280
     0
281
     0
  0
CLASS
  1
LWPOLYLINE
  2
AcDbPolyline
  3
AutoCAD 2000
 90
        0
280
     0
281
     1
  0
CLASS
  1
HATCH
  2
AcDbHatch
  3
AutoCAD 2000
 90
        0
280
     0
281
     1
  0
CLASS
  1
XRECORD
  2
AcDbXrecord
  3
AutoCAD 2000
 90
        0
280
     0
281
     0
  0
ENDSEC
  0
SECTION
  2
TABLES
  0
TABLE
  2
VPORT
  5
8
330
0
100
AcDbSymbolTable
 70
     3
  0
VPORT
  5
B65B
330
8
100
AcDbSymbolTableRecord
100
AcDbViewportTableRecord
  2
*ACTIVE
 70
     0
 10
0.0
 20
0.0
 11
1.0
 21
1.0
 12
-24.27713186690942
 22
-16.78901634080378
 13
0.0
 23
0.0
 14
2.5
 24
2.5
 15
10.0
 25
10.0
 16
0.0
 26
0.0
 36
1.0
 17
0.0
 27
0.0
 37
0.0
 40
156.4011554077846
 41
1.56570841889117
 42
50.0
 43
0.0
 44
0.0
 50
0.0
 51
0.0
 71
     0
 72
   100
 73
     1
 74
     3
 75
     0
 76
     0
 77
     0
 78
     0
  0
ENDTAB
  0
TABLE
  2
LTYPE
  5
5
330
0
100
AcDbSymbolTable
 70
    10
  0
LTYPE
  5
14
330
5
100
AcDbSymbolTableRecord
100
AcDbLinetypeTableRecord
  2
BYBLOCK
 70
     0
  3

 72
    65
 73
     0
 40
0.0
  0
LTYPE
  5
15
330
5
100
AcDbSymbolTableRecord
100
AcDbLinetypeTableRecord
  2
BYLAYER
 70
     0
  3

 72
    65
 73
     0
 40
0.0
  0
LTYPE
  5
16
330
5
100
AcDbSymbolTableRecord
100
AcDbLinetypeTableRecord
  2
CONTINUOUS
 70
     0
  3
Solid line
 72
    65
 73
     0
 40
0.0
  0
LTYPE
  5
4B
330
5
100
AcDbSymbolTableRecord
100
AcDbLinetypeTableRecord
  2
AM_ISO02W050
 70
     0
  3
__ __ __ __ __ __ __ __ __ __ __ __ __ __ __
 72
    65
 73
     2
 40
7.5
 49
6.0
 74
     0
 49
-1.5
 74
     0
  0
LTYPE
  5
4C
330
5
100
AcDbSymbolTableRecord
100
AcDbLinetypeTableRecord
  2
AM_ISO08W050
 70
     0
  3
____ . ____ . ____ . ____ . ____ . ____ . ____
 72
    65
 73
     4
 40
18.0
 49
12.0
 74
     0
 49
-1.5
 74
     0
 49
3.0
 74
     0
 49
-1.5
 74
     0
  0
LTYPE
  5
4D
330
5
100
AcDbSymbolTableRecord
100
AcDbLinetypeTableRecord
  2
AM_ISO09W050
 70
     0
  3
_____ . . _____ . . _____ . . ____ .. ____
 72
    65
 73
     6
 40
22.5
 49
12.0
 74
     0
 49
-1.5
 74
     0
 49
3.0
 74
     0
 49
-1.5
 74
     0
 49
3.0
 74
     0
 49
-1.5
 74
     0
  0
LTYPE
  5
4E
330
5
100
AcDbSymbolTableRecord
100
AcDbLinetypeTableRecord
  2
AMCONSTR
 70
     0
  3
_______________________
 72
    65
 73
     2
 40
9999.0
 49
9999.0
 74
     0
 49
0.0
 74
     0
  0
LTYPE
  5
4F
330
5
100
AcDbSymbolTableRecord
100
AcDbLinetypeTableRecord
  2
AM_ISO02W050X2
 70
     0
  3
 _ _ _ _ _ _ _ _ _ _ _ _
 72
    65
 73
     2
 40
3.75
 49
3.0
 74
     0
 49
-0.75
 74
     0
  0
LTYPE
  5
50
330
5
100
AcDbSymbolTableRecord
100
AcDbLinetypeTableRecord
  2
AM_ISO08W050X2
 70
     0
  3
__ . __ . __ . __ . __ . __
 72
    65
 73
     4
 40
9.0
 49
6.0
 74
     0
 49
-0.75
 74
     0
 49
1.5
 74
     0
 49
-0.75
 74
     0
  0
LTYPE
  5
53
330
5
100
AcDbSymbolTableRecord
100
AcDbLinetypeTableRecord
  2
AMZIGZAG
 70
     0
  3
/\/-/\/-/\/-/\/-/\/-/\/
 72
    65
 73
     2
 40
11.00009999999999
 49
0.0001
 74
     4
 75
   135
340
52
 46
0.04
 50
0.0
 44
0.0
 45
0.0
 49
-11.0
 74
     0
  0
LTYPE
  5
166
330
5
100
AcDbSymbolTableRecord
100
AcDbLinetypeTableRecord
  2
ACJISTGL
 70
     0
  3
_ _ _ _ _
 72
    65
 73
     2
 40
3.0
 49
2.0
 74
     0
 49
-1.0
 74
     0
  0
LTYPE
  5
26A
330
5
100
AcDbSymbolTableRecord
100
AcDbLinetypeTableRecord
  2
ACJISTGB
 70
     0
  3
__ . . __ . .
 72
    65
 73
     6
 40
9.0
 49
4.0
 74
     0
 49
-1.0
 74
     0
 49
1.0
 74
     0
 49
-1.0
 74
     0
 49
1.0
 74
     0
 49
-1.0
 74
     0
  0
ENDTAB
  0
TABLE
  2
LAYER
  5
2
330
0
100
AcDbSymbolTable
 70
     8
  0
LAYER
  5
10
330
2
100
AcDbSymbolTableRecord
100
AcDbLayerTableRecord
  2
0
 70
     0
 62
     7
  6
CONTINUOUS
  0
LAYER
  5
3F9
330
2
100
AcDbSymbolTableRecord
100
AcDbLayerTableRecord
  2
AM_0
 70
     0
 62
     7
  6
CONTINUOUS
  0
LAYER
  5
BD6
330
2
100
AcDbSymbolTableRecord
100
AcDbLayerTableRecord
  2
AM_11
 70
     0
 62
     3
  6
AM_ISO09W050
  0
LAYER
  5
BD7
330
2
100
AcDbSymbolTableRecord
100
AcDbLayerTableRecord
  2
AM_7
 70
     0
 62
     4
  6
AM_ISO08W050
  0
LAYER
  5
BD8
330
2
100
AcDbSymbolTableRecord
100
AcDbLayerTableRecord
  2
AM_5
 70
     0
 62
     3
  6
CONTINUOUS
  0
LAYER
  5
BD9
330
2
100
AcDbSymbolTableRecord
100
AcDbLayerTableRecord
  2
DEFPOINTS
 70
     0
 62
     7
  6
CONTINUOUS
  0
LAYER
  5
BDA
330
2
100
AcDbSymbolTableRecord
100
AcDbLayerTableRecord
  2
AM_6
 70
     0
 62
     2
  6
CONTINUOUS
  0
LAYER
  5
1E2E
330
2
100
AcDbSymbolTableRecord
100
AcDbLayerTableRecord
  2
AM_CL
 70
     0
 62
     1
  6
AMCONSTR
  0
ENDTAB
  0
TABLE
  2
STYLE
  5
3
330
0
100
AcDbSymbolTable
 70
     5
  0
STYLE
  5
11
330
3
100
AcDbSymbolTableRecord
100
AcDbTextStyleTableRecord
  2
STANDARD
 70
     0
 40
0.0
 41
1.0
 50
0.0
 71
     0
 42
2.5
  3
simplex.shx
  4
EXTFONT.SHX
  0
STYLE
  5
52
330
3
100
AcDbSymbolTableRecord
100
AcDbTextStyleTableRecord
  2

 70
     1
 40
0.0
 41
1.0
 50
0.0
 71
     0
 42
2.5
  3
ltypeshp.shx
  4

  0
STYLE
  5
6B
330
3
100
AcDbSymbolTableRecord
100
AcDbTextStyleTableRecord
  2
ASAMI
 70
     0
 40
0.0
 41
1.0
 50
0.0
 71
     0
 42
2.5
  3
simplex.shx
  4
EXTFONT.SHX
  0
STYLE
  5
262
330
3
100
AcDbSymbolTableRecord
100
AcDbTextStyleTableRecord
  2
ACJISTS
 70
     0
 40
1.0
 41
1.0
 50
0.0
 71
     0
 42
2.5
  3
simplex.shx
  4
bigfont.shx
  0
STYLE
  5
269
330
3
100
AcDbSymbolTableRecord
100
AcDbTextStyleTableRecord
  2
ACJISGDT
 70
     0
 40
0.0
 41
1.0
 50
0.0
 71
     0
 42
2.5
  3
amgdtans.shx
  4

  0
ENDTAB
  0
TABLE
  2
VIEW
  5
6
330
0
100
AcDbSymbolTable
 70
     0
  0
ENDTAB
  0
TABLE
  2
UCS
  5
7
330
0
100
AcDbSymbolTable
 70
     0
  0
ENDTAB
  0
TABLE
  2
APPID
  5
9
330
0
100
AcDbSymbolTable
 70
    14
  0
APPID
  5
12
330
9
100
AcDbSymbolTableRecord
100
AcDbRegAppTableRecord
  2
ACAD
 70
     0
  0
APPID
  5
30
330
9
100
AcDbSymbolTableRecord
100
AcDbRegAppTableRecord
  2
MCAD_NO_VIS
 70
     0
  0
APPID
  5
31
330
9
100
AcDbSymbolTableRecord
100
AcDbRegAppTableRecord
  2
ACAD_TEMP_GRAPHIC
 70
     0
  0
APPID
  5
2C2
330
9
100
AcDbSymbolTableRecord
100
AcDbRegAppTableRecord
  2
GENIUS_GENDTOL_13
 70
     0
  0
APPID
  5
339
330
9
100
AcDbSymbolTableRecord
100
AcDbRegAppTableRecord
  2
GENIUS_GENODEF_13
 70
     0
  0
APPID
  5
33A
330
9
100
AcDbSymbolTableRecord
100
AcDbRegAppTableRecord
  2
GENIUS_GENOBJ-N-RSBK_13
 70
     0
  0
APPID
  5
33B
330
9
100
AcDbSymbolTableRecord
100
AcDbRegAppTableRecord
  2
GENIUS_GENOBJ-N-LIB_13
 70
     0
  0
APPID
  5
33C
330
9
100
AcDbSymbolTableRecord
100
AcDbRegAppTableRecord
  2
GENIUS_GENSCALE_13
 70
     0
  0
APPID
  5
378
330
9
100
AcDbSymbolTableRecord
100
AcDbRegAppTableRecord
  2
GENIUS_GENDIMSH_14
 70
     0
  0
APPID
  5
BDB
330
9
100
AcDbSymbolTableRecord
100
AcDbRegAppTableRecord
  2
GENIUS_GENOBJ-N-CEN_13
 70
     0
  0
APPID
  5
BDC
330
9
100
AcDbSymbolTableRecord
100
AcDbRegAppTableRecord
  2
GENIUS_GENFIL_13
 70
     0
  0
APPID
  5
BDD
330
9
100
AcDbSymbolTableRecord
100
AcDbRegAppTableRecord
  2
GENIUS_GENOBJ-N-FIL_13
 70
     0
  0
APPID
  5
12AD
330
9
100
AcDbSymbolTableRecord
100
AcDbRegAppTableRecord
  2
GENIUS_GENOREF_13
 70
     0
  0
APPID
  5
62E6
330
9
100
AcDbSymbolTableRecord
100
AcDbRegAppTableRecord
  2
GENIUS_GENOBJ-N-CHA_13
 70
     0
  0
ENDTAB
  0
TABLE
  2
DIMSTYLE
  5
A
330
0
100
AcDbSymbolTable
 70
     9
  0
DIMSTYLE
105
58
102
{ACAD_REACTORS
330
634F
330
63C1
330
640B
330
6418
102
}
330
A
100
AcDbSymbolTableRecord
100
AcDbDimStyleTableRecord
  2
AM_JIS
 70
     0
  3

  4
"
  5
OPEN30
  6

  7

 40
1.0
 41
2.5
 42
1.0
 43
12.0
 44
1.0
 45
0.0
 46
0.0
 47
0.1
 48
0.1
140
3.2
141
0.0
142
0.0
143
0.0393701
144
1.0
145
0.0
146
0.71
147
1.5
 71
     0
 72
     0
 73
     0
 74
     0
 75
     0
 76
     0
 77
     3
 78
     1
170
     0
171
     2
172
     1
173
     0
174
     0
175
     0
176
     3
177
     3
178
     2
270
     2
271
     1
272
     1
273
     2
274
     2
340
6B
275
     0
280
     0
281
     0
282
     0
283
     0
284
     0
285
     0
286
     0
287
     3
288
     0
  0
DIMSTYLE
105
5F
330
A
100
AcDbSymbolTableRecord
100
AcDbDimStyleTableRecord
  2
AM_JIS$3
 70
     0
  3

  4
"
  5
OPEN30
  6

  7

 40
1.0
 41
2.5
 42
1.0
 43
10.0
 44
1.0
 45
0.0
 46
0.0
 47
0.1
 48
0.1
140
3.2
141
0.0
142
0.0
143
0.0393701
144
1.0
145
0.0
146
0.71
147
1.5
 71
     0
 72
     0
 73
     0
 74
     1
 75
     0
 76
     0
 77
     3
 78
     1
170
     0
171
     2
172
     0
173
     0
174
     0
175
     0
176
     3
177
     3
178
     2
270
     2
271
     2
272
     1
273
     2
274
     2
340
6B
275
     0
280
     0
281
     0
282
     0
283
     0
284
     0
285
     0
286
     0
287
     0
288
     1
  0
DIMSTYLE
105
60
330
A
100
AcDbSymbolTableRecord
100
AcDbDimStyleTableRecord
  2
AM_JIS$4
 70
     0
  3

  4
"
  5
OPEN30
  6

  7

 40
1.0
 41
2.5
 42
1.0
 43
10.0
 44
1.0
 45
0.0
 46
0.0
 47
0.1
 48
0.1
140
3.2
141
0.0
142
0.0
143
0.0393701
144
1.0
145
0.0
146
0.71
147
1.5
 71
     0
 72
     0
 73
     0
 74
     1
 75
     0
 76
     0
 77
     3
 78
     1
170
     0
171
     2
172
     0
173
     0
174
     0
175
     0
176
     3
177
     3
178
     2
270
     2
271
     2
272
     1
273
     2
274
     2
340
6B
275
     0
280
     0
281
     0
282
     0
283
     0
284
     0
285
     0
286
     0
287
     0
288
     1
  0
DIMSTYLE
105
61
330
A
100
AcDbSymbolTableRecord
100
AcDbDimStyleTableRecord
  2
AM_JIS$6
 70
     0
  3

  4
"
  5
OPEN30
  6

  7

 40
1.0
 41
2.5
 42
1.0
 43
10.0
 44
1.0
 45
0.0
 46
0.0
 47
0.1
 48
0.1
140
3.2
141
0.0
142
0.0
143
0.0393701
144
1.0
145
0.0
146
0.71
147
1.5
 71
     0
 72
     0
 73
     0
 74
     0
 75
     0
 76
     0
 77
     0
 78
     1
170
     0
171
     2
172
     1
173
     0
174
     0
175
     0
176
     3
177
     3
178
     2
270
     2
271
     2
272
     2
273
     2
274
     2
340
6B
275
     0
280
     0
281
     0
282
     0
283
     0
284
     0
285
     0
286
     0
287
     3
288
     0
  0
DIMSTYLE
105
62
330
A
100
AcDbSymbolTableRecord
100
AcDbDimStyleTableRecord
  2
AM_JIS$7
 70
     0
  3

  4
"
  5
OPEN30
  6

  7

 40
1.0
 41
2.5
 42
1.0
 43
10.0
 44
1.0
 45
0.0
 46
0.0
 47
0.1
 48
0.1
140
3.2
141
0.0
142
0.0
143
0.0393701
144
1.0
145
0.0
146
0.71
147
1.5
 71
     0
 72
     0
 73
     0
 74
     0
 75
     0
 76
     0
 77
     3
 78
     1
170
     0
171
     2
172
     1
173
     0
174
     0
175
     0
176
     3
177
     3
178
     2
270
     2
271
     2
272
     1
273
     2
274
     2
340
6B
275
     0
280
     0
281
     0
282
     0
283
     0
284
     0
285
     0
286
     0
287
     3
288
     0
  0
DIMSTYLE
105
63
330
A
100
AcDbSymbolTableRecord
100
AcDbDimStyleTableRecord
  2
AM_JIS$SF
 70
     0
  3

  4
"
  5
OPEN30
  6

  7

 40
1.0
 41
2.5
 42
1.0
 43
10.0
 44
1.0
 45
0.0
 46
0.0
 47
0.1
 48
0.1
140
3.2
141
0.0
142
0.0
143
0.0393701
144
1.0
145
0.0
146
0.71
147
1.5
 71
     0
 72
     0
 73
     0
 74
     0
 75
     1
 76
     1
 77
     3
 78
     8
170
     0
171
     2
172
     1
173
     0
174
     0
175
     0
176
   256
177
   256
178
     2
270
     2
271
     2
272
     2
273
     2
274
     2
340
6B
275
     0
280
     0
281
     0
282
     0
283
     0
284
     0
285
     0
286
     0
287
     3
288
     0
  0
DIMSTYLE
105
68
330
A
100
AcDbSymbolTableRecord
100
AcDbDimStyleTableRecord
  2
AM_JIS$SH
 70
     0
  3

  4
"
  5

  6
GENAXEH
  7
OPEN30
 40
1.0
 41
2.5
 42
1.0
 43
10.0
 44
1.0
 45
0.0
 46
0.0
 47
0.1
 48
0.1
140
3.2
141
0.0
142
0.0
143
0.0393701
144
2.0
145
0.0
146
0.71
147
1.5
 71
     0
 72
     0
 73
     0
 74
     0
 75
     1
 76
     1
 77
     3
 78
     8
170
     0
171
     2
172
     1
173
     1
174
     0
175
     0
176
   256
177
   256
178
     2
270
     2
271
     2
272
     2
273
     2
274
     2
340
6B
275
     0
280
     0
281
     0
282
     0
283
     0
284
     0
285
     0
286
     0
287
     3
288
     0
  0
DIMSTYLE
105
B34
102
{ACAD_REACTORS
330
63DB
102
}
330
A
100
AcDbSymbolTableRecord
100
AcDbDimStyleTableRecord
  2
AM_JIS$2
 70
     0
  3

  4
"
  5
OPEN30
  6

  7

 40
1.0
 41
2.5
 42
1.0
 43
12.0
 44
1.0
 45
0.0
 46
0.0
 47
0.1
 48
0.1
140
3.2
141
0.0
142
0.0
143
0.0393701
144
1.0
145
0.0
146
0.71
147
1.5
 71
     0
 72
     0
 73
     0
 74
     0
 75
     0
 76
     0
 77
     3
 78
     1
170
     0
171
     2
172
     1
173
     0
174
     0
175
     0
176
     3
177
     3
178
     2
270
     2
271
     1
272
     1
273
     2
274
     2
340
6B
275
     0
280
     0
281
     0
282
     0
283
     0
284
     0
285
     0
286
     0
287
     3
288
     0
  0
DIMSTYLE
105
62E5
330
A
100
AcDbSymbolTableRecord
100
AcDbDimStyleTableRecord
  2
ISO-25
 70
     0
  3

  4

  5

  6

  7

 40
1.0
 41
2.5
 42
0.625
 43
3.75
 44
1.25
 45
0.0
 46
0.0
 47
0.0
 48
0.0
140
2.5
141
2.5
142
0.0
143
0.03937007874016
144
1.0
145
0.0
146
1.0
147
0.625
 71
     0
 72
     0
 73
     0
 74
     0
 75
     0
 76
     0
 77
     1
 78
     8
170
     0
171
     3
172
     1
173
     0
174
     0
175
     0
176
     0
177
     0
178
     0
270
     2
271
     2
272
     2
273
     2
274
     3
340
11
275
     0
280
     0
281
     0
282
     0
283
     0
284
     8
285
     0
286
     0
287
     3
288
     0
  0
ENDTAB
  0
TABLE
  2
BLOCK_RECORD
  5
1
330
0
100
AcDbSymbolTable
 70
    10
  0
BLOCK_RECORD
  5
1F
102
{ACAD_XDICTIONARY
360
74
102
}
330
1
100
AcDbSymbolTableRecord
100
AcDbBlockTableRecord
  2
*MODEL_SPACE
  0
BLOCK_RECORD
  5
1B
102
{ACAD_XDICTIONARY
360
B67D
102
}
330
1
100
AcDbSymbolTableRecord
100
AcDbBlockTableRecord
  2
*PAPER_SPACE
  0
BLOCK_RECORD
  5
59
330
1
100
AcDbSymbolTableRecord
100
AcDbBlockTableRecord
  2
_OPEN30
  0
BLOCK_RECORD
  5
64
330
1
100
AcDbSymbolTableRecord
100
AcDbBlockTableRecord
  2
GENAXEH
  0
BLOCK_RECORD
  5
6350
330
1
100
AcDbSymbolTableRecord
100
AcDbBlockTableRecord
  2
*D5
  0
BLOCK_RECORD
  5
63C2
330
1
100
AcDbSymbolTableRecord
100
AcDbBlockTableRecord
  2
*D6
  0
BLOCK_RECORD
  5
63DC
330
1
100
AcDbSymbolTableRecord
100
AcDbBlockTableRecord
  2
*D7
  0
BLOCK_RECORD
  5
640C
330
1
100
AcDbSymbolTableRecord
100
AcDbBlockTableRecord
  2
*D8
  0
BLOCK_RECORD
  5
6419
330
1
100
AcDbSymbolTableRecord
100
AcDbBlockTableRecord
  2
*D9
  0
ENDTAB
  0
ENDSEC
  0
SECTION
  2
BLOCKS
  0
BLOCK
  5
20
330
1F
100
AcDbEntity
  8
0
100
AcDbBlockBegin
  2
*MODEL_SPACE
 70
     0
 10
0.0
 20
0.0
 30
0.0
  3
*MODEL_SPACE
  1

  0
ENDBLK
  5
21
330
1F
100
AcDbEntity
  8
0
100
AcDbBlockEnd
  0
BLOCK
  5
1C
330
1B
100
AcDbEntity
 67
     1
  8
0
100
AcDbBlockBegin
  2
*PAPER_SPACE
 70
     0
 10
0.0
 20
0.0
 30
0.0
  3
*PAPER_SPACE
  1

  0
ENDBLK
  5
1D
330
1B
100
AcDbEntity
 67
     1
  8
0
100
AcDbBlockEnd
  0
BLOCK
  5
5D
330
59
100
AcDbEntity
  8
0
100
AcDbBlockBegin
  2
_OPEN30
 70
     0
 10
0.0
 20
0.0
 30
0.0
  3
_OPEN30
  1

  0
LINE
  5
5A
330
59
100
AcDbEntity
  8
0
 62
     0
100
AcDbLine
 10
-1.0
 20
0.26794919
 30
0.0
 11
0.0
 21
0.0
 31
0.0
  0
LINE
  5
5B
330
59
100
AcDbEntity
  8
0
 62
     0
100
AcDbLine
 10
0.0
 20
0.0
 30
0.0
 11
-1.0
 21
-0.26794919
 31
0.0
  0
LINE
  5
5C
330
59
100
AcDbEntity
  8
0
 62
     0
100
AcDbLine
 10
0.0
 20
0.0
 30
0.0
 11
-1.0
 21
0.0
 31
0.0
  0
ENDBLK
  5
5E
330
59
100
AcDbEntity
  8
0
100
AcDbBlockEnd
  0
BLOCK
  5
66
330
64
100
AcDbEntity
  8
0
100
AcDbBlockBegin
  2
GENAXEH
 70
     0
 10
0.0
 20
0.0
 30
0.0
  3
GENAXEH
  1

  0
LINE
  5
65
330
64
100
AcDbEntity
  8
0
100
AcDbLine
 10
-1.0
 20
0.0
 30
0.0
 11
1.0
 21
0.0
 31
0.0
  0
ENDBLK
  5
67
330
64
100
AcDbEntity
  8
0
100
AcDbBlockEnd
  0
BLOCK
  5
635A
330
6350
100
AcDbEntity
  8
0
100
AcDbBlockBegin
  2
*D5
 70
     1
 10
0.0
 20
0.0
 30
0.0
  3
*D5
  1

  0
LINE
  5
B625
330
6350
100
AcDbEntity
  8
AM_5
 62
     3
100
AcDbLine
 10
-122.9510273588142
 20
-5.799999999863148
 30
0.0
 11
-136.4575928616019
 21
-5.799999999863144
 31
0.0
  0
LINE
  5
B626
330
6350
100
AcDbEntity
  8
AM_5
 62
     3
100
AcDbLine
 10
-122.9510273588142
 20
5.800000000136846
 30
0.0
 11
-136.4575928616019
 21
5.80000000013685
 31
0.0
  0
LINE
  5
B627
330
6350
100
AcDbEntity
  8
AM_5
 62
     3
100
AcDbLine
 10
-135.4575928616019
 20
-3.299999999863144
 30
0.0
 11
-135.4575928616019
 21
3.30000000013685
 31
0.0
  0
INSERT
  5
B628
330
6350
100
AcDbEntity
  8
AM_5
 62
     3
100
AcDbBlockReference
  2
_OPEN30
 10
-135.4575928616019
 20
-5.799999999863144
 30
0.0
 41
2.5
 42
2.5
 43
2.5
 50
270.0
  0
INSERT
  5
B629
330
6350
100
AcDbEntity
  8
AM_5
 62
     3
100
AcDbBlockReference
  2
_OPEN30
 10
-135.4575928616019
 20
5.80000000013685
 30
0.0
 41
2.5
 42
2.5
 43
2.5
 50
90.0
  0
MTEXT
  5
B62A
330
6350
100
AcDbEntity
  8
AM_5
 62
     2
100
AcDbMText
 10
-138.5575928616019
 20
0.0000000001368312
 30
0.0
 40
3.2
 41
0.0
 71
     5
 72
     1
  1
%%C11.6
  7
ASAMI
 11
0.0000000000000001
 21
1.0
 31
0.0
1001
ACAD
1000
MTEXTBEGIN
1070
    73
1070
     1
1070
    44
1040
1.0
1070
    74
1070
     0
1000
MTEXTEND
  0
POINT
  5
B62B
330
6350
100
AcDbEntity
  8
DEFPOINTS
 62
     0
100
AcDbPoint
 10
-121.9510273588142
 20
-5.799999999863149
 30
0.0
  0
POINT
  5
B62C
330
6350
100
AcDbEntity
  8
DEFPOINTS
 62
     0
100
AcDbPoint
 10
-121.9510273588142
 20
5.800000000136845
 30
0.0
  0
POINT
  5
B62D
330
6350
100
AcDbEntity
  8
DEFPOINTS
 62
     0
100
AcDbPoint
 10
-135.4575928616019
 20
5.80000000013685
 30
0.0
  0
ENDBLK
  5
635B
330
6350
100
AcDbEntity
  8
0
100
AcDbBlockEnd
  0
BLOCK
  5
63CE
330
63C2
100
AcDbEntity
  8
0
100
AcDbBlockBegin
  2
*D6
 70
     1
 10
0.0
 20
0.0
 30
0.0
  3
*D6
  1

  0
LINE
  5
B686
330
63C2
100
AcDbEntity
  8
AM_5
 62
     3
100
AcDbLine
 10
-1.111133940857174
 20
-5.800000000014999
 30
0.0
 11
17.38185203070885
 21
-5.800000000015003
 31
0.0
  0
LINE
  5
B687
330
63C2
100
AcDbEntity
  8
AM_5
 62
     3
100
AcDbLine
 10
-1.115399906720953
 20
5.799999999999992
 30
0.0
 11
17.38185203070885
 21
5.799999999999988
 31
0.0
  0
LINE
  5
B688
330
63C2
100
AcDbEntity
  8
AM_5
 62
     3
100
AcDbLine
 10
16.38185203070884
 20
-3.300000000015003
 30
0.0
 11
16.38185203070884
 21
3.299999999999988
 31
0.0
  0
MTEXT
  5
B689
330
63C2
100
AcDbEntity
  8
AM_5
 62
     2
100
AcDbMText
 10
13.28185203070884
 20
-0.0000000000075065
 30
0.0
 40
3.2
 41
0.0
 71
     5
 72
     1
  1
%%C11.6
  7
ASAMI
 11
0.0000000000000001
 21
1.0
 31
0.0
  0
INSERT
  5
B68A
330
63C2
100
AcDbEntity
  8
AM_5
 62
     3
100
AcDbBlockReference
  2
_OPEN30
 10
16.38185203070884
 20
-5.800000000015003
 30
0.0
 41
2.5
 42
2.5
 43
2.5
 50
270.0
  0
INSERT
  5
B68B
330
63C2
100
AcDbEntity
  8
AM_5
 62
     3
100
AcDbBlockReference
  2
_OPEN30
 10
16.38185203070884
 20
5.799999999999988
 30
0.0
 41
2.5
 42
2.5
 43
2.5
 50
90.0
  0
POINT
  5
B68C
330
63C2
100
AcDbEntity
  8
DEFPOINTS
 62
     0
100
AcDbPoint
 10
-2.111133940857174
 20
-5.800000000014998
 30
0.0
  0
POINT
  5
B68D
330
63C2
100
AcDbEntity
  8
DEFPOINTS
 62
     0
100
AcDbPoint
 10
-2.115399906720953
 20
5.799999999999993
 30
0.0
  0
POINT
  5
B68E
330
63C2
100
AcDbEntity
  8
DEFPOINTS
 62
     0
100
AcDbPoint
 10
16.38185203070884
 20
5.799999999999988
 30
0.0
  0
ENDBLK
  5
63CF
330
63C2
100
AcDbEntity
  8
0
100
AcDbBlockEnd
  0
BLOCK
  5
63E8
330
63DC
100
AcDbEntity
  8
0
100
AcDbBlockBegin
  2
*D7
 70
     1
 10
0.0
 20
0.0
 30
0.0
  3
*D7
  1

  0
LINE
  5
B68F
330
63DC
100
AcDbEntity
  8
AM_0
 62
     3
100
AcDbLine
 10
0.3420201433206588
 20
-0.9396926207858657
 30
0.0
 11
10.40745721117263
 21
-28.59425368163997
 31
0.0
  0
LINE
  5
B690
330
63DC
100
AcDbEntity
  8
AM_0
 62
     3
100
AcDbLine
 10
0.3420201433206592
 20
0.9396926207858655
 30
0.0
 11
10.40745721117265
 21
28.59425368163996
 31
0.0
  0
ARC
  5
B691
330
63DC
100
AcDbEntity
  8
AM_0
 62
     3
100
AcDbCircle
 10
-0.0000000000051273
 20
0.0
 30
0.0
 40
29.42936918854016
100
AcDbArc
 50
294.8686926429307
 51
65.13130735706922
  0
INSERT
  5
B692
330
63DC
100
AcDbEntity
  8
AM_0
 62
     3
100
AcDbBlockReference
  2
_OPEN30
 10
10.06543706784685
 20
-27.65456106085411
 30
0.0
 41
2.5
 42
2.5
 43
2.5
 50
202.4343463214689
  0
INSERT
  5
B693
330
63DC
100
AcDbEntity
  8
AM_0
 62
     3
100
AcDbBlockReference
  2
_OPEN30
 10
10.06543706784686
 20
27.6545610608541
 30
0.0
 41
2.5
 42
2.5
 43
2.5
 50
157.565653678531
  0
MTEXT
  5
B694
330
63DC
100
AcDbEntity
  8
AM_0
 62
     2
100
AcDbMText
 10
26.32936918853503
 20
-0.0000000000000068
 30
0.0
 40
3.2
 41
0.0
 71
     5
 72
     1
  1
140°
  7
ASAMI
 11
0.0000000000000001
 21
1.0
 31
0.0
  0
POINT
  5
B695
330
63DC
100
AcDbEntity
  8
DEFPOINTS
 62
     0
100
AcDbPoint
 10
27.02252080423899
 20
-11.65637766287583
 30
0.0
  0
POINT
  5
B696
330
63DC
100
AcDbEntity
  8
DEFPOINTS
 62
     0
100
AcDbPoint
 10
-0.0000000000051273
 20
0.0
 30
0.0
  0
POINT
  5
B697
330
63DC
100
AcDbEntity
  8
DEFPOINTS
 62
     0
100
AcDbPoint
 10
-0.5459553514046434
 20
-1.5
 30
0.0
  0
POINT
  5
B698
330
63DC
100
AcDbEntity
  8
DEFPOINTS
 62
     0
100
AcDbPoint
 10
-0.0000000000051273
 20
0.0
 30
0.0
  0
POINT
  5
B699
330
63DC
100
AcDbEntity
  8
DEFPOINTS
 62
     0
100
AcDbPoint
 10
-0.5459553514046434
 20
1.5
 30
0.0
  0
ENDBLK
  5
63E9
330
63DC
100
AcDbEntity
  8
0
100
AcDbBlockEnd
  0
BLOCK
  5
6416
330
640C
100
AcDbEntity
  8
0
100
AcDbBlockBegin
  2
*D8
 70
     1
 10
0.0
 20
0.0
 30
0.0
  3
*D8
  1

  0
LINE
  5
B615
330
640C
100
AcDbEntity
  8
AM_5
 62
     3
100
AcDbLine
 10
-2.111027358814341
 20
-9.23420508600215
 30
0.0
 11
-2.111027358814342
 21
-20.54790615368557
 31
0.0
  0
LINE
  5
B616
330
640C
100
AcDbEntity
  8
AM_5
 62
     3
100
AcDbLine
 10
-75.11102735881454
 20
-6.800000000000809
 30
0.0
 11
-75.11102735881454
 21
-20.54790615368557
 31
0.0
  0
LINE
  5
B617
330
640C
100
AcDbEntity
  8
AM_5
 62
     3
100
AcDbLine
 10
-4.611027358814341
 20
-19.54790615368557
 30
0.0
 11
-72.61102735881454
 21
-19.54790615368557
 31
0.0
  0
INSERT
  5
B618
330
640C
100
AcDbEntity
  8
AM_5
 62
     3
100
AcDbBlockReference
  2
_OPEN30
 10
-2.111027358814342
 20
-19.54790615368557
 30
0.0
 41
2.5
 42
2.5
 43
2.5
  0
INSERT
  5
B619
330
640C
100
AcDbEntity
  8
AM_5
 62
     3
100
AcDbBlockReference
  2
_OPEN30
 10
-75.11102735881454
 20
-19.54790615368557
 30
0.0
 41
2.5
 42
2.5
 43
2.5
 50
180.0
  0
MTEXT
  5
B61A
330
640C
100
AcDbEntity
  8
AM_5
 62
     2
100
AcDbMText
 10
-38.61102735881443
 20
-16.44790615368556
 30
0.0
 40
3.2
 41
0.0
 71
     5
 72
     1
  1
73
  7
ASAMI
1001
ACAD
1000
MTEXTBEGIN
1070
    73
1070
     1
1070
    44
1040
1.0
1070
    74
1070
     0
1000
MTEXTEND
  0
POINT
  5
B61B
330
640C
100
AcDbEntity
  8
DEFPOINTS
 62
     0
100
AcDbPoint
 10
-2.111027358814341
 20
-8.23420508600215
 30
0.0
  0
POINT
  5
B61C
330
640C
100
AcDbEntity
  8
DEFPOINTS
 62
     0
100
AcDbPoint
 10
-75.11102735881454
 20
-5.800000000000809
 30
0.0
  0
POINT
  5
B61D
330
640C
100
AcDbEntity
  8
DEFPOINTS
 62
     0
100
AcDbPoint
 10
-75.11102735881454
 20
-19.54790615368557
 30
0.0
  0
ENDBLK
  5
6417
330
640C
100
AcDbEntity
  8
0
100
AcDbBlockEnd
  0
BLOCK
  5
6423
330
6419
100
AcDbEntity
  8
0
100
AcDbBlockBegin
  2
*D9
 70
     1
 10
0.0
 20
0.0
 30
0.0
  3
*D9
  1

  0
LINE
  5
B5A8
330
6419
100
AcDbEntity
  8
AM_5
 62
     3
100
AcDbLine
 10
-2.11102735881434
 20
-6.802864418185803
 30
0.0
 11
-2.111027358814342
 21
-31.9224964367684
 31
0.0
  0
LINE
  5
B5A9
330
6419
100
AcDbEntity
  8
AM_5
 62
     3
100
AcDbLine
 10
-123.1110273588142
 20
-5.745454545454975
 30
0.0
 11
-123.1110273588142
 21
-31.9224964367684
 31
0.0
  0
LINE
  5
B5AA
330
6419
100
AcDbEntity
  8
AM_5
 62
     3
100
AcDbLine
 10
-4.611027358814341
 20
-30.9224964367684
 30
0.0
 11
-120.6110273588142
 21
-30.9224964367684
 31
0.0
  0
INSERT
  5
B5AB
330
6419
100
AcDbEntity
  8
AM_5
 62
     3
100
AcDbBlockReference
  2
_OPEN30
 10
-2.111027358814342
 20
-30.9224964367684
 30
0.0
 41
2.5
 42
2.5
 43
2.5
  0
INSERT
  5
B5AC
330
6419
100
AcDbEntity
  8
AM_5
 62
     3
100
AcDbBlockReference
  2
_OPEN30
 10
-123.1110273588142
 20
-30.9224964367684
 30
0.0
 41
2.5
 42
2.5
 43
2.5
 50
180.0
  0
MTEXT
  5
B5AD
330
6419
100
AcDbEntity
  8
AM_5
 62
     2
100
AcDbMText
 10
-62.61102735881429
 20
-27.8224964367684
 30
0.0
 40
3.2
 41
0.0
 71
     5
 72
     1
  1
121
  7
ASAMI
1001
ACAD
1000
MTEXTBEGIN
1070
    73
1070
     1
1070
    44
1040
1.0
1070
    74
1070
     0
1000
MTEXTEND
  0
POINT
  5
B5AE
330
6419
100
AcDbEntity
  8
DEFPOINTS
 62
     0
100
AcDbPoint
 10
-2.11102735881434
 20
-5.802864418185803
 30
0.0
  0
POINT
  5
B5AF
330
6419
100
AcDbEntity
  8
DEFPOINTS
 62
     0
100
AcDbPoint
 10
-123.1110273588142
 20
-4.745454545454975
 30
0.0
  0
POINT
  5
B5B0
330
6419
100
AcDbEntity
  8
DEFPOINTS
 62
     0
100
AcDbPoint
 10
-123.1110273588142
 20
-30.9224964367684
 30
0.0
  0
ENDBLK
  5
6424
330
6419
100
AcDbEntity
  8
0
100
AcDbBlockEnd
  0
ENDSEC
  0
SECTION
  2
ENTITIES
  0
TEXT
  5
C58
330
1F
100
AcDbEntity
  8
AM_6
100
AcDbText
 10
-79.54520979948132
 20
-53.15592319162392
 30
0.0
 40
5.0
  1
MDS116MK
 50
0.0000000000002036
 72
     4
 11
-61.09282884710037
 21
-50.65592319162385
 31
0.0
100
AcDbText
  0
LINE
  5
631C
330
1F
100
AcDbEntity
  8
AM_0
100
AcDbLine
 10
-61.10268426987059
 20
-5.800000000000919
 30
0.0
 11
-122.0564819042688
 21
-5.800000000000442
 31
0.0
  0
LINE
  5
631D
330
1F
100
AcDbEntity
  8
AM_0
100
AcDbLine
 10
-58.88427900158269
 20
5.799999999999088
 30
0.0
 11
-121.9510273588142
 21
5.79999999999956
 31
0.0
  0
LINE
  5
6320
330
1F
100
AcDbEntity
  8
AM_7
100
AcDbLine
 10
-126.7862730362704
 20
0.0000000000000226
 30
0.0
 11
3.479999999979315
 21
-0.0000000000000005
 31
0.0
1001
GENIUS_GENODEF_13
1002
{
1000
HIER
1070
     0
1002
}
1002
{
1000
MANEDIT
1070
     0
1002
}
1002
{
1000
NOSEL
1070
     0
1002
}
1002
{
1000
BEHIND
1070
     0
1002
}
1002
{
1000
REACTOR
1002
}
1001
GENIUS_GENOBJ-N-CEN_13
1002
{
1000
OWNER
1000
GEN
1002
}
  0
LINE
  5
6343
330
1F
100
AcDbEntity
  8
AM_0
100
AcDbLine
 10
-123.1110273588142
 20
-1.411697943597514
 30
0.0
 11
-123.1110273588142
 21
1.41169794359756
 31
0.0
  0
LINE
  5
6348
330
1F
100
AcDbEntity
  8
AM_0
100
AcDbLine
 10
-123.1110273588142
 20
1.983851351617009
 30
0.0
 11
-123.1110273588142
 21
4.745454545454108
 31
0.0
  0
LINE
  5
6349
330
1F
100
AcDbEntity
  8
AM_0
100
AcDbLine
 10
-123.1110273588142
 20
1.41169794359756
 30
0.0
 11
-123.1110273588142
 21
1.983851351617009
 31
0.0
  0
LINE
  5
634B
330
1F
100
AcDbEntity
  8
AM_0
100
AcDbLine
 10
-123.1110273588142
 20
-4.745454545454984
 30
0.0
 11
-123.1110273588142
 21
-1.983851351239136
 31
0.0
  0
LINE
  5
634C
330
1F
100
AcDbEntity
  8
AM_0
100
AcDbLine
 10
-123.1110273588142
 20
-1.983851351239136
 30
0.0
 11
-123.1110273588142
 21
-1.411697943597514
 31
0.0
  0
DIMENSION
  5
634F
330
1F
100
AcDbEntity
  8
AM_5
100
AcDbDimension
  2
*D5
 10
-135.4575928616019
 20
5.80000000013685
 30
0.0
 11
-135.4575928616019
 21
0.0000000001368308
 31
0.0
 70
   160
  1
%%C<>
  3
AM_JIS
100
AcDbAlignedDimension
 13
-121.9510273588142
 23
-5.799999999863149
 33
0.0
 14
-121.9510273588142
 24
5.800000000136845
 34
0.0
 50
90.0
100
AcDbRotatedDimension
  0
DIMENSION
  5
63C1
330
1F
100
AcDbEntity
  8
AM_5
100
AcDbDimension
  2
*D6
 10
16.38185203070884
 20
5.799999999999988
 30
0.0
 11
16.38185203070884
 21
-0.0000000000075069
 31
0.0
 70
   160
  1
%%C<>
  3
AM_JIS
100
AcDbAlignedDimension
 13
-2.111133940857174
 23
-5.800000000014998
 33
0.0
 14
-2.115399906720953
 24
5.799999999999993
 34
0.0
 50
90.0
100
AcDbRotatedDimension
1001
ACAD
1000
DSTYLE
1002
{
1070
   287
1070
     4
1070
   271
1070
     1
1070
   279
1070
     1
1002
}
  0
DIMENSION
  5
63DB
330
1F
100
AcDbEntity
  8
AM_0
100
AcDbDimension
  2
*D7
 10
-0.5459553514046434
 20
1.5
 30
0.0
 11
26.32936918853503
 21
-0.0000000000000111
 31
0.0
 70
    34
  3
AM_JIS$2
100
AcDb2LineAngularDimension
 13
-0.5459553514046434
 23
-1.5
 33
0.0
 14
-0.0000000000051273
 24
0.0
 34
0.0
 15
-0.0000000000051273
 25
0.0
 35
0.0
 16
27.02252080423899
 26
-11.65637766287583
 36
0.0
1001
ACAD
1000
DSTYLE
1002
{
1070
   271
1070
     0
1002
}
  0
DIMENSION
  5
640B
330
1F
100
AcDbEntity
  8
AM_5
100
AcDbDimension
  2
*D8
 10
-75.11102735881454
 20
-19.54790615368557
 30
0.0
 11
-38.61102735881443
 21
-16.44790615368556
 31
0.0
 70
    32
  3
AM_JIS
100
AcDbAlignedDimension
 13
-2.111027358814341
 23
-8.23420508600215
 33
0.0
 14
-75.11102735881454
 24
-5.800000000000809
 34
0.0
100
AcDbRotatedDimension
1001
ACAD
1000
DSTYLE
1002
{
1070
    78
1070
     9
1070
   271
1070
     3
1002
}
  0
DIMENSION
  5
6418
330
1F
100
AcDbEntity
  8
AM_5
100
AcDbDimension
  2
*D9
 10
-123.1110273588142
 20
-30.9224964367684
 30
0.0
 11
-62.61102735881429
 21
-27.8224964367684
 31
0.0
 70
    32
  3
AM_JIS
100
AcDbAlignedDimension
 13
-2.11102735881434
 23
-5.802864418185803
 33
0.0
 14
-123.1110273588142
 24
-4.745454545454975
 34
0.0
100
AcDbRotatedDimension
1001
ACAD
1000
DSTYLE
1002
{
1070
    78
1070
     9
1002
}
  0
LINE
  5
647F
330
1F
100
AcDbEntity
  8
AM_0
100
AcDbLine
 10
-122.0564819042688
 20
5.799999999999566
 30
0.0
 11
-122.0564819042688
 21
-5.800000000000422
 31
0.0
  0
LINE
  5
6CBA
330
1F
100
AcDbEntity
  8
AM_0
100
AcDbLine
 10
-2.111027358814341
 20
-5.800000000014998
 30
0.0
 11
-0.0000000000695591
 21
-0.0000000000150013
 31
0.0
  0
LINE
  5
6CBE
330
1F
100
AcDbEntity
  8
AM_0
100
AcDbLine
 10
-0.0000000000695591
 20
-0.0000000000150013
 30
0.0
 11
-2.111027358819164
 21
5.799999999998245
 31
0.0
  0
LINE
  5
6CC0
330
1F
100
AcDbEntity
  8
AM_0
100
AcDbLine
 10
-0.0000000000695591
 20
-0.0000000000150013
 30
0.0
 11
-1.028539119286644
 21
1.007159430453225
 31
0.0
  0
LINE
  5
6CC1
330
1F
100
AcDbEntity
  8
AM_0
100
AcDbLine
 10
-1.913292199229339
 20
-0.4546910863959939
 30
0.0
 11
-0.0000000000695591
 21
-0.0000000000150013
 31
0.0
  0
LINE
  5
AD7C
330
1F
100
AcDbEntity
  8
AM_0
100
AcDbLine
 10
-1.028539119286644
 20
1.007159430453225
 30
0.0
 11
-0.366576053920631
 21
1.007159430453214
 31
0.0
  0
LINE
  5
B156
330
1F
100
AcDbEntity
  8
AM_0
100
AcDbLine
 10
-122.0564819042688
 20
5.799999999999556
 30
0.0
 11
-123.1110273588142
 21
4.745454545454108
 31
0.0
1001
GENIUS_GENFIL_13
1070
     0
1040
1.0
1040
1.0
1040
20.0
1040
0.0
1002
{
1002
}
1001
GENIUS_GENODEF_13
1002
{
1000
HIER
1070
     0
1002
}
1002
{
1000
MANEDIT
1070
     0
1002
}
1002
{
1000
NOSEL
1070
     0
1002
}
1002
{
1000
BEHIND
1070
     0
1002
}
1002
{
1000
REACTOR
1002
}
1001
GENIUS_GENOBJ-N-CHA_13
1002
{
1000
OWNER
1000
GEN
1002
}
  0
LINE
  5
B158
330
1F
100
AcDbEntity
  8
AM_0
100
AcDbLine
 10
-122.0564819042688
 20
-5.800000000000447
 30
0.0
 11
-123.1110273588142
 21
-4.745454545454984
 31
0.0
1001
GENIUS_GENFIL_13
1070
     0
1040
1.0
1040
1.0
1040
20.0
1040
0.0
1002
{
1002
}
1001
GENIUS_GENODEF_13
1002
{
1000
HIER
1070
     0
1002
}
1002
{
1000
MANEDIT
1070
     0
1002
}
1002
{
1000
NOSEL
1070
     0
1002
}
1002
{
1000
BEHIND
1070
     0
1002
}
1002
{
1000
REACTOR
1002
}
1001
GENIUS_GENOBJ-N-CHA_13
1002
{
1000
OWNER
1000
GEN
1002
}
  0
SPLINE
  5
B5F0
330
1F
100
AcDbEntity
  8
AM_0
100
AcDbSpline
210
0.0
220
0.0
230
1.0
 70
     8
 71
     3
 72
     9
 73
     5
 74
     0
 42
0.0000000001
 43
0.0000000001
 40
0.0
 40
0.0
 40
0.0
 40
0.0
 40
0.1987770877846628
 40
5.759128114460802
 40
5.759128114460802
 40
5.759128114460802
 40
5.759128114460802
 10
-1.879596155897681
 20
5.164147995814494
 30
0.0
 10
-1.879596155897681
 20
5.164147995814494
 30
0.0
 10
-3.105354702731662
 20
5.173628269110949
 30
0.0
 10
-4.709432418349283
 20
4.766722454968843
 30
0.0
 10
-6.230203036904202
 20
4.13786206014308
 30
0.0
  0
SPLINE
  5
B5F1
330
1F
100
AcDbEntity
  8
AM_0
100
AcDbSpline
210
0.0
220
0.0
230
1.0
 70
     8
 71
     3
 72
     8
 73
     4
 74
     0
 42
0.0000000001
 43
0.0000000001
 40
0.0
 40
0.0
 40
0.0
 40
0.0
 40
6.247244990626095
 40
6.247244990626095
 40
6.247244990626095
 40
6.247244990626095
 10
-2.111027358819164
 20
5.799999999984994
 30
0.0
 10
-3.358601744871328
 20
5.799999999985002
 30
0.0
 10
-5.079700791627924
 20
5.260938260027715
 30
0.0
 10
-6.760300830277885
 20
4.415226895817847
 30
0.0
  0
LINE
  5
B5F2
330
1F
100
AcDbEntity
  8
AM_5
  6
AM_ISO09W050
 62
     3
 48
0.5
100
AcDbLine
 10
-2.111027358819164
 20
5.799999999984994
 30
0.0
 11
-11.95429248119795
 21
5.799999999984996
 31
0.0
  0
SPLINE
  5
B5F3
330
1F
100
AcDbEntity
  8
AM_0
100
AcDbSpline
210
0.0
220
0.0
230
1.0
 70
     8
 71
     3
 72
     8
 73
     4
 74
     0
 42
0.0000000001
 43
0.0000000001
 40
0.0
 40
0.0
 40
0.0
 40
0.0
 40
6.870645942600294
 40
6.870645942600294
 40
6.870645942600294
 40
6.870645942600294
 10
-24.97680029431537
 20
5.166482750150919
 30
0.0
 10
-23.00566834704875
 20
5.175011685081762
 30
0.0
 10
-21.02703414708584
 20
4.766312832423454
 30
0.0
 10
-19.09672665082193
 20
4.052324140624592
 30
0.0
  0
LINE
  5
B5F4
330
1F
100
AcDbEntity
  8
AM_0
100
AcDbLine
 10
-11.95429248119795
 20
5.799999999984996
 30
0.0
 11
-24.9768002943141
 21
5.799999999984996
 31
0.0
  0
SPLINE
  5
B5F5
330
1F
100
AcDbEntity
  8
AM_0
100
AcDbSpline
210
0.0
220
0.0
230
1.0
 70
     8
 71
     3
 72
     9
 73
     5
 74
     0
 42
0.0000000001
 43
0.0000000001
 40
0.0
 40
0.0
 40
0.0
 40
0.0
 40
0.0353107615743204
 40
0.4098003053212364
 40
0.4098003053212364
 40
0.4098003053212364
 40
0.4098003053212364
 10
-1.028539119286644
 20
1.007159430453225
 30
0.0
 10
-1.022734410666352
 20
0.8604594554378422
 30
0.0
 10
-0.9553676573355701
 20
-0.842072347094432
 30
0.0
 10
-3.16934780656568
 20
1.562800373941617
 30
0.0
 10
-3.859949372408978
 20
2.672052825383092
 30
0.0
  0
LINE
  5
B5F6
330
1F
100
AcDbEntity
  8
AM_0
100
AcDbLine
 10
-1.913292199229339
 20
-0.4546910863959938
 30
0.0
 11
-3.859949372408978
 21
2.672052825383079
 31
0.0
  0
SPLINE
  5
B5F7
330
1F
100
AcDbEntity
  8
AM_0
100
AcDbSpline
210
0.0
220
0.0
230
1.0
 70
     8
 71
     3
 72
     8
 73
     4
 74
     0
 42
0.0000000001
 43
0.0000000001
 40
22.73274810806179
 40
22.73274810806179
 40
22.73274810806179
 40
22.73274810806179
 40
28.97999309868792
 40
28.97999309868792
 40
28.97999309868792
 40
28.97999309868792
 10
-6.821307206605013
 20
-4.445782519004723
 30
0.0
 10
-8.440900868927748
 20
-5.260938260057782
 30
0.0
 10
-10.16199991568432
 20
-5.800000000014981
 30
0.0
 10
-11.95429248119931
 20
-5.800000000014981
 30
0.0
  0
LINE
  5
B5F8
330
1F
100
AcDbEntity
  8
AM_5
  6
AM_ISO09W050
 62
     3
 48
0.5
100
AcDbLine
 10
-2.111027358814341
 20
-5.800000000015009
 30
0.0
 11
-11.95429248119795
 21
-5.800000000014998
 31
0.0
  0
LINE
  5
B5F9
330
1F
100
AcDbEntity
  8
AM_0
100
AcDbLine
 10
-2.111027358814341
 20
-5.800000000014998
 30
0.0
 11
-1.913292199229339
 21
-0.4546910863959931
 31
0.0
  0
LINE
  5
B5FA
330
1F
100
AcDbEntity
  8
AM_0
100
AcDbLine
 10
-11.95429248119795
 20
-5.800000000014998
 30
0.0
 11
-26.26782002491237
 21
-5.800000000014998
 31
0.0
  0
SPLINE
  5
B5FB
330
1F
100
AcDbEntity
  8
AM_0
100
AcDbSpline
210
0.0
220
0.0
230
1.0
 70
     8
 71
     3
 72
     9
 73
     5
 74
     0
 42
0.0000000001
 43
0.0000000001
 40
1.521176736886217
 40
1.521176736886217
 40
1.521176736886217
 40
1.521176736886217
 40
14.48999654934396
 40
28.97999309868792
 40
28.97999309868792
 40
28.97999309868792
 40
28.97999309868792
 10
-2.100138139219323
 20
-5.5056353423296
 30
0.0
 10
-5.224786947770192
 20
-5.191109235693861
 30
0.0
 10
-12.37674248445265
 20
0.3044453821455616
 30
0.0
 10
-19.52869802113502
 20
5.799999999985002
 30
0.0
 10
-23.68578056371098
 20
5.799999999985002
 30
0.0
  0
SPLINE
  5
B5FC
330
1F
100
AcDbEntity
  8
AM_0
100
AcDbSpline
210
0.0
220
0.0
230
1.0
 70
     8
 71
     3
 72
     9
 73
     5
 74
     0
 42
0.0000000001
 43
0.0000000001
 40
0.0
 40
0.0
 40
0.0
 40
0.0
 40
1.448999654934392
 40
2.897999309868792
 40
2.897999309868792
 40
2.897999309868792
 40
2.897999309868792
 10
-2.111027358814341
 20
-5.800000000014998
 30
0.0
 10
-5.723391721932379
 20
-5.800000000014981
 30
0.0
 10
-13.27155473683586
 20
-0.0000000000151544
 30
0.0
 10
-20.81971775173932
 20
5.799999999985002
 30
0.0
 10
-24.97680029431537
 20
5.799999999985002
 30
0.0
  0
SPLINE
  5
B5FD
330
1F
100
AcDbEntity
  8
AM_0
100
AcDbSpline
210
0.0
220
0.0
230
1.0
 70
     8
 71
     3
 72
     8
 73
     4
 74
     0
 42
0.0000000001
 43
0.0000000001
 40
19.09542421355049
 40
19.09542421355049
 40
19.09542421355049
 40
19.09542421355049
 40
28.97999309868792
 40
28.97999309868792
 40
28.97999309868792
 40
28.97999309868792
 10
-3.859949372408978
 20
2.672052825383092
 30
0.0
 10
-6.460889028783977
 20
4.450487540799498
 30
0.0
 10
-9.118476156925904
 20
5.799999999985002
 30
0.0
 10
-11.95429248119931
 20
5.799999999985002
 30
0.0
  0
SPLINE
  5
B5FE
330
1F
100
AcDbEntity
  8
AM_0
100
AcDbSpline
210
0.0
220
0.0
230
1.0
 70
     8
 71
     3
 72
     8
 73
     4
 74
     0
 42
0.0000000001
 43
0.0000000001
 40
0.0
 40
0.0
 40
0.0
 40
0.0
 40
6.870645942600294
 40
6.870645942600294
 40
6.870645942600294
 40
6.870645942600294
 10
-49.6139868668173
 20
5.166482750150919
 30
0.0
 10
-47.64540717277134
 20
5.175011685081762
 30
0.0
 10
-45.66933494006597
 20
4.766312832423454
 30
0.0
 10
-43.74152683686956
 20
4.052324140624592
 30
0.0
  0
LINE
  5
B5FF
330
1F
100
AcDbEntity
  8
AM_0
100
AcDbLine
 10
-35.31899270781117
 20
5.799999999984996
 30
0.0
 11
-50.39988609736909
 21
5.799999999984996
 31
0.0
  0
SPLINE
  5
B600
330
1F
100
AcDbEntity
  8
AM_0
100
AcDbSpline
210
0.0
220
0.0
230
1.0
 70
     8
 71
     3
 72
     8
 73
     4
 74
     0
 42
0.0000000001
 43
0.0000000001
 40
22.73274810806179
 40
22.73274810806179
 40
22.73274810806179
 40
22.73274810806179
 40
28.97999309868792
 40
28.97999309868792
 40
28.97999309868792
 40
28.97999309868792
 10
-31.42107441809351
 20
-4.41522689584799
 30
0.0
 10
-33.09949838889208
 20
-5.260938260057782
 30
0.0
 10
-34.81836892903287
 20
-5.800000000014981
 30
0.0
 10
-36.60834080542354
 20
-5.800000000014981
 30
0.0
  0
LINE
  5
B601
330
1F
100
AcDbEntity
  8
AM_0
100
AcDbLine
 10
-35.87845528979801
 20
-5.800000000014998
 30
0.0
 11
-51.71140211239165
 21
-5.800000000014998
 31
0.0
  0
LINE
  5
B602
330
1F
100
AcDbEntity
  8
AM_5
  6
AM_ISO09W050
 62
     3
 48
0.5
100
AcDbLine
 10
-24.9444599331941
 20
5.799999999984996
 30
0.0
 11
-35.31899270785213
 21
5.799999999984996
 31
0.0
  0
SPLINE
  5
B603
330
1F
100
AcDbEntity
  8
AM_0
100
AcDbSpline
210
0.0
220
0.0
230
1.0
 70
     8
 71
     3
 72
     9
 73
     5
 74
     0
 42
0.0000000001
 43
0.0000000001
 40
0.0
 40
0.0
 40
0.0
 40
0.0
 40
0.1987770877846628
 40
5.759128114445015
 40
5.759128114445015
 40
5.759128114445015
 40
5.759128114445015
 10
-24.77359802653677
 20
5.166482750143431
 30
0.0
 10
-24.83055199542059
 20
5.166482750143431
 30
0.0
 10
-26.48151267576141
 20
5.173628269096035
 30
0.0
 10
-28.08351340585307
 20
4.766722454956242
 30
0.0
 10
-29.60231490624598
 20
4.137862060133524
 30
0.0
  0
SPLINE
  5
B604
330
1F
100
AcDbEntity
  8
AM_0
100
AcDbSpline
210
0.0
220
0.0
230
1.0
 70
     8
 71
     3
 72
     8
 73
     4
 74
     0
 42
0.0000000001
 43
0.0000000001
 40
0.0
 40
0.0
 40
0.0
 40
0.0
 40
6.247244990625308
 40
6.247244990625308
 40
6.247244990625308
 40
6.247244990625308
 10
-24.94445993319413
 20
5.799999999985002
 30
0.0
 10
-26.73443180958452
 20
5.799999999985002
 30
0.0
 10
-28.45330234972508
 20
5.26093826002788
 30
0.0
 10
-30.13172632052345
 20
4.415226895818251
 30
0.0
  0
SPLINE
  5
B605
330
1F
100
AcDbEntity
  8
AM_0
100
AcDbSpline
210
0.0
220
0.0
230
1.0
 70
     8
 71
     3
 72
     9
 73
     5
 74
     0
 42
0.0000000001
 43
0.0000000001
 40
0.0
 40
0.0
 40
0.0
 40
0.0
 40
1.448999654934399
 40
2.897999309868795
 40
2.897999309868795
 40
2.897999309868795
 40
2.897999309868795
 10
-11.95429248119801
 20
-5.800000000014981
 30
0.0
 10
-16.11137502377402
 20
-5.800000000014981
 30
0.0
 10
-23.65953803867754
 20
-0.0000000000151544
 30
0.0
 10
-31.20770105358102
 20
5.799999999985002
 30
0.0
 10
-35.36478359615701
 20
5.799999999985002
 30
0.0
  0
SPLINE
  5
B606
330
1F
100
AcDbEntity
  8
AM_0
100
AcDbSpline
210
0.0
220
0.0
230
1.0
 70
     8
 71
     3
 72
     9
 73
     5
 74
     0
 42
0.0000000001
 43
0.0000000001
 40
1.521176736886217
 40
1.521176736886217
 40
1.521176736886217
 40
1.521176736886217
 40
14.48999654934396
 40
28.97999309868792
 40
28.97999309868792
 40
28.97999309868792
 40
28.97999309868792
 10
-26.23380803076328
 20
-5.800000000014981
 30
0.0
 10
-29.88754874355785
 20
-5.191109235693861
 30
0.0
 10
-37.03024381364513
 20
0.3044453821455616
 30
0.0
 10
-44.17293888373233
 20
5.799999999985002
 30
0.0
 10
-48.32463876924043
 20
5.799999999985002
 30
0.0
  0
SPLINE
  5
B607
330
1F
100
AcDbEntity
  8
AM_0
100
AcDbSpline
210
0.0
220
0.0
230
1.0
 70
     8
 71
     3
 72
     9
 73
     5
 74
     0
 42
0.0000000001
 43
0.0000000001
 40
0.0
 40
0.0
 40
0.0
 40
0.0
 40
1.448999654934392
 40
2.897999309868792
 40
2.897999309868792
 40
2.897999309868792
 40
2.897999309868792
 10
-26.37825492570146
 20
-5.798831891250829
 30
0.0
 10
-30.38550791627171
 20
-5.800000000014981
 30
0.0
 10
-37.9238974487904
 20
-0.0000000000151544
 30
0.0
 10
-45.46228698130909
 20
5.799999999985002
 30
0.0
 10
-49.6139868668173
 20
5.799999999985002
 30
0.0
  0
LINE
  5
B608
330
1F
100
AcDbEntity
  8
AM_5
  6
AM_ISO09W050
 62
     3
 48
0.5
100
AcDbLine
 10
-26.23380803076328
 20
-5.800000000014998
 30
0.0
 11
-36.30035527573418
 21
-5.800000000014998
 31
0.0
  0
SPLINE
  5
B609
330
1F
100
AcDbEntity
  8
AM_0
100
AcDbSpline
210
0.0
220
0.0
230
1.0
 70
     8
 71
     3
 72
     8
 73
     4
 74
     0
 42
0.0000000001
 43
0.0000000001
 40
2.893239258405414
 40
2.893239258405414
 40
2.893239258405414
 40
2.893239258405414
 40
2.897999309868792
 40
2.897999309868792
 40
2.897999309868792
 40
2.897999309868792
 10
-75.41863382595585
 20
5.799906210509414
 30
0.0
 10
-75.43248007731325
 20
5.799968699109816
 30
0.0
 10
-75.44633050813263
 20
5.79999999481412
 30
0.0
 10
-75.46018513218907
 20
5.79999999481412
 30
0.0
  0
SPLINE
  5
B60A
330
1F
100
AcDbEntity
  8
AM_0
100
AcDbSpline
210
0.0
220
0.0
230
1.0
 70
     8
 71
     3
 72
     8
 73
     4
 74
     0
 42
0.0000000001
 43
0.0000000001
 40
22.73274810806179
 40
22.73274810806179
 40
22.73274810806179
 40
22.73274810806179
 40
28.97999309868792
 40
28.97999309868792
 40
28.97999309868792
 40
28.97999309868792
 10
-56.97909193448825
 20
-4.415226901018878
 30
0.0
 10
-58.68410260372606
 20
-5.260938265228674
 30
0.0
 10
-60.43020052711568
 20
-5.800000005185874
 30
0.0
 10
-62.24852605152386
 20
-5.800000005185874
 30
0.0
  0
SPLINE
  5
B60B
330
1F
100
AcDbEntity
  8
AM_0
100
AcDbSpline
210
0.0
220
0.0
230
1.0
 70
     8
 71
     3
 72
     8
 73
     4
 74
     0
 42
0.0000000001
 43
0.0000000001
 40
0.0
 40
0.0
 40
0.0
 40
0.0
 40
10.77533687840354
 40
10.77533687840354
 40
10.77533687840354
 40
10.77533687840354
 10
-62.24852605835865
 20
-5.800000000014981
 30
0.0
 10
-65.38479974531959
 20
-5.800000000014981
 30
0.0
 10
-68.30619747281339
 20
-4.196299933121609
 30
0.0
 10
-71.17250953771431
 20
-2.181474857158126
 30
0.0
  0
SPLINE
  5
B60C
330
1F
100
AcDbEntity
  8
AM_0
100
AcDbSpline
210
0.0
220
0.0
230
1.0
 70
     8
 71
     3
 72
    10
 73
     6
 74
     0
 42
0.0000000001
 43
0.0000000001
 40
0.0
 40
0.0
 40
0.0
 40
0.0
 40
0.6447675857635071
 40
1.316546974011651
 40
1.777238964087921
 40
1.777238964087921
 40
1.777238964087921
 40
1.777238964087921
 10
-71.1724963895762
 20
-2.181484099413961
 30
0.0
 10
-72.83126374994175
 20
-1.015482730665487
 30
0.0
 10
-78.00158899769424
 20
4.72716237518901
 30
0.0
 10
-69.19893172271232
 20
3.918530295194543
 30
0.0
 10
-66.69318017344757
 20
2.311331992565836
 30
0.0
 10
-65.51963789278573
 20
1.450130506044157
 30
0.0
  0
LINE
  5
B60D
330
1F
100
AcDbEntity
  8
AM_0
100
AcDbLine
 10
-75.11102735881454
 20
-5.800000000000755
 30
0.0
 11
-75.11102735881441
 21
5.799999999999261
 31
0.0
  0
LINE
  5
B60E
330
1F
100
AcDbEntity
  8
AM_5
  6
AM_ISO09W050
 62
     3
 48
0.5
100
AcDbLine
 10
-51.7096578174527
 20
-5.800000005185885
 30
0.0
 11
-62.24852605152386
 21
-5.800000005185885
 31
0.0
  0
SPLINE
  5
B60F
330
1F
100
AcDbEntity
  8
AM_0
100
AcDbSpline
210
0.0
220
0.0
230
1.0
 70
     8
 71
     3
 72
     9
 73
     5
 74
     0
 42
0.0000000001
 43
0.0000000001
 40
0.0
 40
0.0
 40
0.0
 40
0.0
 40
1.448999654934392
 40
1.692872608825329
 40
1.692872608825329
 40
1.692872608825329
 40
1.692872608825329
 10
-51.7096578174527
 20
-5.800000005185874
 30
0.0
 10
-55.92712177377173
 20
-5.800000005185874
 30
0.0
 10
-60.40044214815236
 20
-2.411917372539698
 30
0.0
 10
-64.87376252253297
 20
0.9761652601064778
 30
0.0
 10
-65.52003550600613
 20
1.450422290207519
 30
0.0
  0
SPLINE
  5
B610
330
1F
100
AcDbEntity
  8
AM_0
100
AcDbSpline
210
0.0
220
0.0
230
1.0
 70
     8
 71
     3
 72
     9
 73
     5
 74
     0
 42
0.0000000001
 43
0.0000000001
 40
1.521176736886217
 40
1.521176736886217
 40
1.521176736886217
 40
1.521176736886217
 40
14.48999654934396
 40
28.97999309868792
 40
28.97999309868792
 40
28.97999309868792
 40
28.97999309868792
 10
-51.7096578174527
 20
-5.800000005185874
 30
0.0
 10
-55.42127479047496
 20
-5.191109240864745
 30
0.0
 10
-62.67711211971477
 20
0.3044453769746746
 30
0.0
 10
-69.9329494489545
 20
5.79999999481412
 30
0.0
 10
-74.15041340527352
 20
5.79999999481412
 30
0.0
  0
LINE
  5
B611
330
1F
100
AcDbEntity
  8
AM_5
  6
AM_ISO09W050
 62
     3
 48
0.5
100
AcDbLine
 10
-50.39988609736909
 20
5.799999999984996
 30
0.0
 11
-59.98851964147595
 21
5.799999999984996
 31
0.0
  0
SPLINE
  5
B612
330
1F
100
AcDbEntity
  8
AM_0
100
AcDbSpline
210
0.0
220
0.0
230
1.0
 70
     8
 71
     3
 72
     9
 73
     5
 74
     0
 42
0.0000000001
 43
0.0000000001
 40
0.0
 40
0.0
 40
0.0
 40
0.0
 40
1.448999654934399
 40
2.897999309868795
 40
2.897999309868795
 40
2.897999309868795
 40
2.897999309868795
 10
-36.60834080542219
 20
-5.800000000014981
 30
0.0
 10
-40.76004069093031
 20
-5.800000000014981
 30
0.0
 10
-48.29843022344908
 20
-0.0000000000151544
 30
0.0
 10
-55.83681975596783
 20
5.799999999985002
 30
0.0
 10
-59.98851964147593
 20
5.799999999985002
 30
0.0
  0
SPLINE
  5
B613
330
1F
100
AcDbEntity
  8
AM_0
100
AcDbSpline
210
0.0
220
0.0
230
1.0
 70
     8
 71
     3
 72
     8
 73
     4
 74
     0
 42
0.0000000001
 43
0.0000000001
 40
0.0
 40
0.0
 40
0.0
 40
0.0
 40
6.247244990625308
 40
6.247244990625308
 40
6.247244990625308
 40
6.247244990625308
 10
-49.6139868668173
 20
5.799999999985002
 30
0.0
 10
-51.40395874320771
 20
5.799999999985002
 30
0.0
 10
-53.12282928334823
 20
5.26093826002788
 30
0.0
 10
-54.80125325414658
 20
4.415226895818251
 30
0.0
  0
SPLINE
  5
B614
330
1F
100
AcDbEntity
  8
AM_0
100
AcDbSpline
210
0.0
220
0.0
230
1.0
 70
     8
 71
     3
 72
     9
 73
     5
 74
     0
 42
0.0000000001
 43
0.0000000001
 40
0.0
 40
0.0
 40
0.0
 40
0.0
 40
0.1987770877846628
 40
5.759128114445015
 40
5.759128114445015
 40
5.759128114445015
 40
5.759128114445015
 10
-49.44312496015996
 20
5.166482750143431
 30
0.0
 10
-49.50007892904367
 20
5.166482750143431
 30
0.0
 10
-51.15103960938455
 20
5.173628269096035
 30
0.0
 10
-52.75304033947625
 20
4.766722454956242
 30
0.0
 10
-54.27184183986915
 20
4.137862060133524
 30
0.0
  0
VIEWPORT
  5
E2
330
1B
100
AcDbEntity
 67
     1
  8
0
100
AcDbViewport
 10
158.659971393327
 20
148.5
 30
0.0
 40
581.809078125
 41
314.226
 68
     1
 69
     1
1001
ACAD
1000
MVIEW
1002
{
1070
    16
1010
0.0
1020
0.0
1030
0.0
1010
0.0
1020
0.0
1030
1.0
1040
0.0
1040
314.226
1040
158.659971393327
1040
148.5
1040
50.0
1040
0.0
1040
0.0
1070
     0
1070
   100
1070
     1
1070
     1
1070
     0
1070
     0
1070
     0
1070
     0
1040
0.0
1040
0.0
1040
0.0
1040
10.0
1040
10.0
1040
10.0
1040
10.0
1070
     0
1002
{
1002
}
1002
}
  0
ENDSEC
  0
SECTION
  2
OBJECTS
  0
DICTIONARY
  5
C
330
0
100
AcDbDictionary
  3
ACAD_GROUP
350
D
  3
ACAD_LAYOUT
350
1A
  3
ACAD_MLINESTYLE
350
17
  3
ACAD_PLOTSETTINGS
350
19
  3
ACAD_PLOTSTYLENAME
350
E
  3
ACDBVARIABLEDICTIONARY
350
34
  3
ACMDICTIONARY
350
43
  3
AMG
350
2B
  3
AMGSNAPSETTINGS
350
6E
  3
DWGPROPS
350
B64F
  3
ACDBHEADERROUNDTRIPXREC
350
B65C
  0
DICTIONARY
  5
74
330
1F
100
AcDbDictionary
280
     1
  3
ACAD_INDEX
360
B651
  3
ACAD_LAYOUTSELFREF
360
B67F
  0
DICTIONARY
  5
B67D
330
1B
100
AcDbDictionary
280
     1
  3
ACAD_LAYOUTSELFREF
360
B67E
  0
DICTIONARY
  5
D
102
{ACAD_REACTORS
330
C
102
}
330
C
100
AcDbDictionary
  0
DICTIONARY
  5
1A
102
{ACAD_REACTORS
330
C
102
}
330
C
100
AcDbDictionary
  0
DICTIONARY
  5
17
102
{ACAD_REACTORS
330
C
102
}
330
C
100
AcDbDictionary
  3
STANDARD
350
18
  0
DICTIONARY
  5
19
102
{ACAD_REACTORS
330
C
102
}
330
C
100
AcDbDictionary
  0
ACDBDICTIONARYWDFLT
  5
E
102
{ACAD_REACTORS
330
C
102
}
330
C
100
AcDbDictionary
281
     1
  3
Normal
350
F
100
AcDbDictionaryWithDefault
340
F
  0
DICTIONARY
  5
34
102
{ACAD_REACTORS
330
C
102
}
330
C
100
AcDbDictionary
  3
INDEXCTL
350
35
  3
SORTENTS
350
B5E
  0
DICTIONARY
  5
43
102
{ACAD_REACTORS
330
C
102
}
330
C
100
AcDbDictionary
  3
ACMSTDDICTIONARY
350
260
  0
DICTIONARY
  5
2B
102
{ACAD_REACTORS
330
C
102
}
330
C
100
AcDbDictionary
  3
ACMGSETTINGS
350
2C
  0
DICTIONARY
  5
6E
102
{ACAD_REACTORS
330
C
102
}
330
C
100
AcDbDictionary
  0
XRECORD
  5
B64F
102
{ACAD_REACTORS
330
C
102
}
330
C
100
AcDbXrecord
  1
DWGPROPS COOKIE
  2

  3

  4

  6

  7

  8

  9

300
AmdtFileType=82
301
=
302
=
303
=
304
=
305
=
306
=
307
=
308
=
309
=
 40
1.849549618055555
 41
2452838.620506898
 42
2452950.811812211
  1

 90
        1
  0
DICTIONARY
  5
B65C
102
{ACAD_REACTORS
330
C
102
}
330
C
100
AcDbDictionary
  3
TSTACKALIGN
350
B65D
  3
TSTACKSIZE
350
B65E
  3
HYPERLINKBASE
350
B65F
  3
STYLESHEET
350
B660
  3
LAYOUTDICT
350
B661
  3
PLOTSETDICT
350
B662
  3
PLOTSTYLNAMDICT
350
B663
  3
LWETCUNION
350
B664
  3
INSUNITS
350
B665
  3
CEPSNTYPE
350
B666
  3
FINGERPRINTGUID
350
B667
  3
VERSIONGUID
350
B668
  3
PSVPSCALE
350
B669
  3
DIMSTYLEDATA
350
B66A
  3
PUCSORTHOREF
350
B66B
  3
PUCSORTHOVIEW
350
B66C
  3
PUCSBASE
350
B66D
  3
PUCSORGTOP
350
B66E
  3
PUCSORGBOTTOM
350
B66F
  3
PUCSORGLEFT
350
B670
  3
PUCSORGRIGHT
350
B671
  3
PUCSORGFRONT
350
B672
  3
PUCSORGBACK
350
B673
  3
UCSORTHOREF
350
B674
  3
UCSORTHOVIEW
350
B675
  3
UCSBASE
350
B676
  3
UCSORGTOP
350
B677
  3
UCSORGBOTTOM
350
B678
  3
UCSORGLEFT
350
B679
  3
UCSORGRIGHT
350
B67A
  3
UCSORGFRONT
350
B67B
  3
UCSORGBACK
350
B67C
  0
DICTIONARY
  5
B651
102
{ACAD_REACTORS
330
74
102
}
330
74
100
AcDbDictionary
  3
*A1
350
B652
  0
XRECORD
  5
B67F
102
{ACAD_REACTORS
330
74
102
}
330
74
100
AcDbXrecord
340
1F
  0
XRECORD
  5
B67E
102
{ACAD_REACTORS
330
B67D
102
}
330
B67D
100
AcDbXrecord
340
1B
  0
MLINESTYLE
  5
18
102
{ACAD_REACTORS
330
17
102
}
330
17
100
AcDbMlineStyle
  2
STANDARD
 70
     0
  3

 62
   256
 51
90.0
 52
90.0
 71
     2
 49
0.5
 62
   256
  6
BYLAYER
 49
-0.5
 62
   256
  6
BYLAYER
  0
ACDBPLACEHOLDER
  5
F
102
{ACAD_REACTORS
330
E
102
}
330
E
100
AcDbPlaceHolder
280
     0
  0
DICTIONARYVAR
  5
35
102
{ACAD_REACTORS
330
34
102
}
330
34
100
DictionaryVariables
280
     0
  1
1
  0
DICTIONARYVAR
  5
B5E
102
{ACAD_REACTORS
330
34
102
}
330
34
100
DictionaryVariables
280
     0
  1
96
  0
DICTIONARY
  5
260
102
{ACAD_REACTORS
330
43
102
}
330
43
100
AcDbDictionary
  0
DICTIONARY
  5
2C
102
{ACAD_REACTORS
330
2B
102
}
330
2B
100
AcDbDictionary
  3
DWGSETTINGS
350
2D
  0
XRECORD
  5
B65D
102
{ACAD_REACTORS
330
B65C
102
}
330
B65C
100
AcDbXrecord
 90
        1
  0
XRECORD
  5
B65E
102
{ACAD_REACTORS
330
B65C
102
}
330
B65C
100
AcDbXrecord
 90
       70
  0
XRECORD
  5
B65F
102
{ACAD_REACTORS
330
B65C
102
}
330
B65C
100
AcDbXrecord
  1

  0
XRECORD
  5
B660
102
{ACAD_REACTORS
330
B65C
102
}
330
B65C
100
AcDbXrecord
  1
ASAMI.ctb
  0
XRECORD
  5
B661
102
{ACAD_REACTORS
330
B65C
102
}
330
B65C
100
AcDbXrecord
340
1A
  0
XRECORD
  5
B662
102
{ACAD_REACTORS
330
B65C
102
}
330
B65C
100
AcDbXrecord
340
19
  0
XRECORD
  5
B663
102
{ACAD_REACTORS
330
B65C
102
}
330
B65C
100
AcDbXrecord
340
E
  0
XRECORD
  5
B664
102
{ACAD_REACTORS
330
B65C
102
}
330
B65C
100
AcDbXrecord
 90
    10781
  0
XRECORD
  5
B665
102
{ACAD_REACTORS
330
B65C
102
}
330
B65C
100
AcDbXrecord
 90
        4
  0
XRECORD
  5
B666
102
{ACAD_REACTORS
330
B65C
102
}
330
B65C
100
AcDbXrecord
 90
        0
  0
XRECORD
  5
B667
102
{ACAD_REACTORS
330
B65C
102
}
330
B65C
100
AcDbXrecord
  1
{AFB28963-8C59-40AE-9337-C84526B81ACE}
  0
XRECORD
  5
B668
102
{ACAD_REACTORS
330
B65C
102
}
330
B65C
100
AcDbXrecord
  1
{B8C75455-9BA2-46BE-98D1-111BC642BD08}
  0
XRECORD
  5
B669
102
{ACAD_REACTORS
330
B65C
102
}
330
B65C
100
AcDbXrecord
 40
0.0
  0
XRECORD
  5
B66A
102
{ACAD_REACTORS
330
B65C
102
}
330
B65C
100
AcDbXrecord
1000
DSTYLE
1002
{
1070
    79
 70
     2
1070
   341
340
59
1070
   342
340
59
1070
   371
 70
    -1
1070
   372
 70
    -1
1002
}
  0
XRECORD
  5
B66B
102
{ACAD_REACTORS
330
B65C
102
}
330
B65C
100
AcDbXrecord
340
0
  0
XRECORD
  5
B66C
102
{ACAD_REACTORS
330
B65C
102
}
330
B65C
100
AcDbXrecord
 70
     0
  0
XRECORD
  5
B66D
102
{ACAD_REACTORS
330
B65C
102
}
330
B65C
100
AcDbXrecord
340
0
  0
XRECORD
  5
B66E
102
{ACAD_REACTORS
330
B65C
102
}
330
B65C
100
AcDbXrecord
 10
0.0
 20
0.0
 30
0.0
  0
XRECORD
  5
B66F
102
{ACAD_REACTORS
330
B65C
102
}
330
B65C
100
AcDbXrecord
 10
0.0
 20
0.0
 30
0.0
  0
XRECORD
  5
B670
102
{ACAD_REACTORS
330
B65C
102
}
330
B65C
100
AcDbXrecord
 10
0.0
 20
0.0
 30
0.0
  0
XRECORD
  5
B671
102
{ACAD_REACTORS
330
B65C
102
}
330
B65C
100
AcDbXrecord
 10
0.0
 20
0.0
 30
0.0
  0
XRECORD
  5
B672
102
{ACAD_REACTORS
330
B65C
102
}
330
B65C
100
AcDbXrecord
 10
0.0
 20
0.0
 30
0.0
  0
XRECORD
  5
B673
102
{ACAD_REACTORS
330
B65C
102
}
330
B65C
100
AcDbXrecord
 10
0.0
 20
0.0
 30
0.0
  0
XRECORD
  5
B674
102
{ACAD_REACTORS
330
B65C
102
}
330
B65C
100
AcDbXrecord
340
0
  0
XRECORD
  5
B675
102
{ACAD_REACTORS
330
B65C
102
}
330
B65C
100
AcDbXrecord
 70
     0
  0
XRECORD
  5
B676
102
{ACAD_REACTORS
330
B65C
102
}
330
B65C
100
AcDbXrecord
340
0
  0
XRECORD
  5
B677
102
{ACAD_REACTORS
330
B65C
102
}
330
B65C
100
AcDbXrecord
 10
0.0
 20
0.0
 30
0.0
  0
XRECORD
  5
B678
102
{ACAD_REACTORS
330
B65C
102
}
330
B65C
100
AcDbXrecord
 10
0.0
 20
0.0
 30
0.0
  0
XRECORD
  5
B679
102
{ACAD_REACTORS
330
B65C
102
}
330
B65C
100
AcDbXrecord
 10
0.0
 20
0.0
 30
0.0
  0
XRECORD
  5
B67A
102
{ACAD_REACTORS
330
B65C
102
}
330
B65C
100
AcDbXrecord
 10
0.0
 20
0.0
 30
0.0
  0
XRECORD
  5
B67B
102
{ACAD_REACTORS
330
B65C
102
}
330
B65C
100
AcDbXrecord
 10
0.0
 20
0.0
 30
0.0
  0
XRECORD
  5
B67C
102
{ACAD_REACTORS
330
B65C
102
}
330
B65C
100
AcDbXrecord
 10
0.0
 20
0.0
 30
0.0
  0
LAYER_INDEX
  5
B652
102
{ACAD_REACTORS
330
B651
102
}
330
B651
100
AcDbIndex
 40
2453151.631805173
100
AcDbLayerIndex
  8
0
360
B653
 90
        0
  8
AM_0
360
B654
 90
       47
  8
AM_11
360
B655
 90
        0
  8
AM_7
360
B656
 90
        1
  8
AM_5
360
B657
 90
       10
  8
Defpoints
360
B658
 90
        0
  8
AM_6
360
B659
 90
        1
  8
AM_CL
360
B65A
 90
        0
  0
XRECORD
  5
2D
102
{ACAD_REACTORS
330
2C
102
}
330
2C
100
AcDbXrecord
  1
VERSION
140
15.0
  1
PRODUCT
  2
AutoCAD Mechanical 2000
  0
IDBUFFER
  5
B653
330
0
100
AcDbIdBuffer
  0
IDBUFFER
  5
B654
330
0
100
AcDbIdBuffer
330
B5F0
330
B5F1
330
B5F3
330
B5F4
330
B5F5
330
B5F6
330
B5F7
330
B5F9
330
B5FA
330
B5FB
330
B5FC
330
B5FD
330
B5FE
330
B5FF
330
B600
330
B601
330
B603
330
B604
330
B605
330
B606
330
B607
330
B609
330
B60A
330
B60B
330
B60C
330
B60D
330
B60F
330
B610
330
B612
330
B613
330
B614
330
631C
330
631D
330
6343
330
6348
330
6349
330
634B
330
634C
330
63DB
330
647F
330
6CBA
330
6CBE
330
6CC0
330
6CC1
330
AD7C
330
B156
330
B158
  0
IDBUFFER
  5
B655
330
0
100
AcDbIdBuffer
  0
IDBUFFER
  5
B656
330
0
100
AcDbIdBuffer
330
6320
  0
IDBUFFER
  5
B657
330
0
100
AcDbIdBuffer
330
634F
330
63C1
330
640B
330
6418
330
B5F2
330
B5F8
330
B602
330
B608
330
B60E
330
B611
  0
IDBUFFER
  5
B658
330
0
100
AcDbIdBuffer
  0
IDBUFFER
  5
B659
330
0
100
AcDbIdBuffer
330
C58
  0
IDBUFFER
  5
B65A
330
0
100
AcDbIdBuffer
  0
ENDSEC
  0
EOF
