  0
SECTION
  2
HEADER
  9
$ACADVER
  1
AC1014
  9
$ACADMAINTVER
 70
     9
  9
$DWGCODEPAGE
  3
ANSI_932
  9
$INSBASE
 10
0.0
 20
0.0
 30
0.0
  9
$EXTMIN
 10
-121.6871082532284
 20
-55.66552648662282
 30
-0.00000001
  9
$EXTMAX
 10
33.33245828767015
 20
32.35374314956757
 30
0.00000001
  9
$LIMMIN
 10
-143.3308377445678
 20
-81.76620194661314
  9
$LIMMAX
 10
65.52005360328076
 20
51.1169658940155
  9
$ORTHOMODE
 70
     0
  9
$REGENMODE
 70
     1
  9
$FILLMODE
 70
     1
  9
$QTEXTMODE
 70
     0
  9
$MIRRTEXT
 70
     0
  9
$DRAGMODE
 70
     2
  9
$LTSCALE
 40
0.3
  9
$OSMODE
 70
    55
  9
$ATTMODE
 70
     1
  9
$TEXTSIZE
 40
2.5
  9
$TRACEWID
 40
1.0
  9
$TEXTSTYLE
  7
STANDARD
  9
$CLAYER
  8
AM_5
  9
$CELTYPE
  6
BYLAYER
  9
$CECOLOR
 62
   256
  9
$CELTSCALE
 40
1.0
  9
$DELOBJ
 70
     1
  9
$DISPSILH
 70
     0
  9
$DIMSCALE
 40
1.0
  9
$DIMASZ
 40
2.5
  9
$DIMEXO
 40
1.0
  9
$DIMDLI
 40
12.0
  9
$DIMRND
 40
0.0
  9
$DIMDLE
 40
0.0
  9
$DIMEXE
 40
1.0
  9
$DIMTP
 40
0.1
  9
$DIMTM
 40
0.1
  9
$DIMTXT
 40
3.2
  9
$DIMCEN
 40
0.0
  9
$DIMTSZ
 40
0.0
  9
$DIMTOL
 70
     0
  9
$DIMLIM
 70
     0
  9
$DIMTIH
 70
     0
  9
$DIMTOH
 70
     0
  9
$DIMSE1
 70
     0
  9
$DIMSE2
 70
     0
  9
$DIMTAD
 70
     3
  9
$DIMZIN
 70
     1
  9
$DIMBLK
  1
OPEN30
  9
$DIMASO
 70
     1
  9
$DIMSHO
 70
     1
  9
$DIMPOST
  1

  9
$DIMAPOST
  1
"
  9
$DIMALT
 70
     0
  9
$DIMALTD
 70
     2
  9
$DIMALTF
 40
0.0393701
  9
$DIMLFAC
 40
1.0
  9
$DIMTOFL
 70
     1
  9
$DIMTVP
 40
0.0
  9
$DIMTIX
 70
     0
  9
$DIMSOXD
 70
     0
  9
$DIMSAH
 70
     0
  9
$DIMBLK1
  1

  9
$DIMBLK2
  1

  9
$DIMSTYLE
  2
AM_JIS
  9
$DIMCLRD
 70
     3
  9
$DIMCLRE
 70
     3
  9
$DIMCLRT
 70
     2
  9
$DIMTFAC
 40
0.71
  9
$DIMGAP
 40
1.5
  9
$DIMJUST
 70
     0
  9
$DIMSD1
 70
     0
  9
$DIMSD2
 70
     0
  9
$DIMTOLJ
 70
     0
  9
$DIMTZIN
 70
     0
  9
$DIMALTZ
 70
     0
  9
$DIMALTTZ
 70
     0
  9
$DIMFIT
 70
     3
  9
$DIMUPT
 70
     0
  9
$DIMUNIT
 70
     2
  9
$DIMDEC
 70
     1
  9
$DIMTDEC
 70
     1
  9
$DIMALTU
 70
     2
  9
$DIMALTTD
 70
     2
  9
$DIMTXSTY
  7
ASAMI
  9
$DIMAUNIT
 70
     0
  9
$LUNITS
 70
     2
  9
$LUPREC
 70
     2
  9
$SKETCHINC
 40
1.0
  9
$FILLETRAD
 40
0.8
  9
$AUNITS
 70
     0
  9
$AUPREC
 70
     0
  9
$MENU
  1
.
  9
$ELEVATION
 40
0.0
  9
$PELEVATION
 40
0.0
  9
$THICKNESS
 40
0.0
  9
$LIMCHECK
 70
     0
  9
$BLIPMODE
 70
     0
  9
$CHAMFERA
 40
1.0
  9
$CHAMFERB
 40
1.0
  9
$CHAMFERC
 40
20.0
  9
$CHAMFERD
 40
0.0
  9
$SKPOLY
 70
     0
  9
$TDCREATE
 40
2452838.620506898
  9
$TDUPDATE
 40
2453151.606913507
  9
$TDINDWG
 40
1.6456298727
  9
$TDUSRTIMER
 40
1.6456298727
  9
$USRTIMER
 70
     1
  9
$ANGBASE
 50
0.0
  9
$ANGDIR
 70
     0
  9
$PDMODE
 70
     0
  9
$PDSIZE
 40
0.0
  9
$PLINEWID
 40
0.0
  9
$COORDS
 70
     1
  9
$SPLFRAME
 70
     0
  9
$SPLINETYPE
 70
     6
  9
$SPLINESEGS
 70
     8
  9
$ATTDIA
 70
     1
  9
$ATTREQ
 70
     1
  9
$HANDLING
 70
 12289
  9
$HANDSEED
  5
9315
  9
$SURFTAB1
 70
     6
  9
$SURFTAB2
 70
     6
  9
$SURFTYPE
 70
     6
  9
$SURFU
 70
     6
  9
$SURFV
 70
     6
  9
$UCSNAME
  2

  9
$UCSORG
 10
-0.000000000017683
 20
-0.0000000000013101
 30
0.0
  9
$UCSXDIR
 10
1.0
 20
0.0
 30
0.0
  9
$UCSYDIR
 10
0.0
 20
1.0
 30
0.0
  9
$PUCSNAME
  2

  9
$PUCSORG
 10
0.0
 20
0.0
 30
0.0
  9
$PUCSXDIR
 10
1.0
 20
0.0
 30
0.0
  9
$PUCSYDIR
 10
0.0
 20
1.0
 30
0.0
  9
$USERI1
 70
     0
  9
$USERI2
 70
     0
  9
$USERI3
 70
     0
  9
$USERI4
 70
     0
  9
$USERI5
 70
     0
  9
$USERR1
 40
0.0
  9
$USERR2
 40
0.0
  9
$USERR3
 40
0.0
  9
$USERR4
 40
0.0
  9
$USERR5
 40
0.0
  9
$WORLDVIEW
 70
     1
  9
$SHADEDGE
 70
     3
  9
$SHADEDIF
 70
    70
  9
$TILEMODE
 70
     1
  9
$MAXACTVP
 70
    64
  9
$PINSBASE
 10
0.0
 20
0.0
 30
0.0
  9
$PLIMCHECK
 70
     0
  9
$PEXTMIN
 10
1.000000000000000E+20
 20
1.000000000000000E+20
 30
1.000000000000000E+20
  9
$PEXTMAX
 10
-1.000000000000000E+20
 20
-1.000000000000000E+20
 30
-1.000000000000000E+20
  9
$PLIMMIN
 10
0.0
 20
0.0
  9
$PLIMMAX
 10
210.0
 20
297.0
  9
$UNITMODE
 70
     0
  9
$VISRETAIN
 70
     1
  9
$PLINEGEN
 70
     0
  9
$PSLTSCALE
 70
     1
  9
$TREEDEPTH
 70
  3020
  9
$PICKSTYLE
 70
     0
  9
$CMLSTYLE
  2
STANDARD
  9
$CMLJUST
 70
     0
  9
$CMLSCALE
 40
20.0
  9
$PROXYGRAPHICS
 70
     1
  9
$MEASUREMENT
 70
     1
  0
ENDSEC
  0
SECTION
  2
CLASSES
  0
CLASS
  1
ACDBDICTIONARYWDFLT
  2
AcDbDictionaryWithDefault
  3
AutoCAD 2000
 90
        0
280
     0
281
     0
  0
CLASS
  1
ACDBPLACEHOLDER
  2
AcDbPlaceHolder
  3
AutoCAD 2000
 90
        0
280
     0
281
     0
  0
CLASS
  1
LAYOUT
  2
AcDbLayout
  3
AutoCAD 2000
 90
        0
280
     0
281
     0
  0
CLASS
  1
AMGSETTINGSOBJ
  2
AmgSettingsObj
  3
"AcadM|Product Description: AutoCAD Mechanical 2000|Company: Autodesk"
 90
        0
280
     0
281
     0
  0
CLASS
  1
ACME_DOCUMENT
  2
AcMeDbDoc
  3
AcMeServices
 90
        0
280
     0
281
     0
  0
CLASS
  1
ACMESCOPE
  2
AcMeScope
  3
AcMeServices
 90
        0
280
     0
281
     0
  0
CLASS
  1
ACMECOMMANDHISTORY
  2
AcMeCommandHistory
  3
AcMeServices
 90
        0
280
     0
281
     0
  0
CLASS
  1
DICTIONARYVAR
  2
AcDbDictionaryVar
  3
AutoCAD 2000
 90
        0
280
     0
281
     0
  0
CLASS
  1
ACIMSYSVARMAN
  2
AcImSysVarManager
  3
AcMeServices
 90
        0
280
     0
281
     0
  0
CLASS
  1
ACIMREALSYSVAR
  2
AcImRealSysVar
  3
AcMeServices
 90
        0
280
     0
281
     0
  0
CLASS
  1
ACIMINTSYSVAR
  2
AcImIntSysVar
  3
AcMeServices
 90
        0
280
     0
281
     0
  0
CLASS
  1
ACMEDRAWINGMAN
  2
AcMeDrawingMan
  3
AcMeServices
 90
        0
280
     0
281
     0
  0
CLASS
  1
ACMEVIEW
  2
AcMeView
  3
AcMeServices
 90
        0
280
     0
281
     0
  0
CLASS
  1
ACDBENTITYCACHE
  2
AcMeEntityCache
  3
AcMeServices
 90
        0
280
     0
281
     0
  0
CLASS
  1
GSMANAGER
  2
AcMeGSManager
  3
AcMeServices
 90
        0
280
     0
281
     0
  0
CLASS
  1
AmdtInternalReactor
  2
AmdtInternalReactor
  3
AcMeServices
 90
        0
280
     0
281
     0
  0
CLASS
  1
ACMESTATEMGR
  2
AcMeStateMgr
  3
AcMeServices
 90
        0
280
     0
281
     0
  0
CLASS
  1
ACME_DATABASE
  2
AcMeDbDatabase
  3
AcMeServices
 90
        0
280
     0
281
     0
  0
CLASS
  1
ACRFINSADJUSTERMGR
  2
AcRfInsAdjusterMgr
  3
AcMeServices
 90
        0
280
     0
281
     0
  0
CLASS
  1
ACMDATADICTIONARY
  2
AcmDataDictionary
  3
"AcmSymBB|Product Description: AutoCAD Mechanical 2000|Company: Autodesk"
 90
        0
280
     0
281
     0
  0
CLASS
  1
ACMDATAENTRYBLOCK
  2
AcmDataEntryBlock
  3
"AcmSymBB|Product Description: AutoCAD Mechanical 2000|Company: Autodesk"
 90
        0
280
     0
281
     0
  0
CLASS
  1
AMGOBJPROPCFG
  2
AmgObjPropCfg
  3
"AmgLay|Product Description: AutoCAD Mechanical 2000|Company: Autodesk"
 90
        1
280
     0
281
     0
  0
CLASS
  1
ACAMGFILTERDAT
  2
AcAmgFilterDat
  3
"AcadM|Product Description: AutoCAD Mechanical 2000|Company: Autodesk"
 90
        0
280
     0
281
     0
  0
CLASS
  1
LAYER_INDEX
  2
AcDbLayerIndex
  3
AutoCAD 2000
 90
        0
280
     0
281
     0
  0
CLASS
  1
IDBUFFER
  2
AcDbIdBuffer
  3
AutoCAD 2000
 90
        0
280
     0
281
     0
  0
CLASS
  1
ACIMSTRSYSVAR
  2
AcImStrSysVar
  3
AcMeServices
 90
        0
280
     0
281
     0
  0
CLASS
  1
ACMSTANDARDJIS
  2
AcmStandardJIS
  3
"AcmSymBB|Product Description: AutoCAD Mechanical 2000|Company: Autodesk"
 90
        0
280
     0
281
     0
  0
CLASS
  1
ACMSURFSTANDARDJIS
  2
AcmSurfTextStdJIS
  3
"AcmSymBB|Product Description: AutoCAD Mechanical 2000|Company: Autodesk"
 90
        0
280
     0
281
     0
  0
CLASS
  1
ACMFCFSTANDARDJIS
  2
AcmFCFStdJIS
  3
"AcmSymBB|Product Description: AutoCAD Mechanical 2000|Company: Autodesk"
 90
        0
280
     0
281
     0
  0
CLASS
  1
ACMWELDSTANDARDJIS
  2
AcmWeldingStdJIS
  3
"AcmSymBB|Product Description: AutoCAD Mechanical 2000|Company: Autodesk"
 90
        0
280
     0
281
     0
  0
CLASS
  1
ACMIDSTANDARDJIS
  2
AcmIdStdJIS
  3
"AcmSymBB|Product Description: AutoCAD Mechanical 2000|Company: Autodesk"
 90
        0
280
     0
281
     0
  0
CLASS
  1
ACMDATUMSTANDARDJIS
  2
AcmDatumStdJIS
  3
"AcmSymBB|Product Description: AutoCAD Mechanical 2000|Company: Autodesk"
 90
        0
280
     0
281
     0
  0
CLASS
  1
ACMBOMSTANDARDJIS
  2
AcmBOMStdJIS
  3
"AcmSymBB|Product Description: AutoCAD Mechanical 2000|Company: Autodesk"
 90
        0
280
     0
281
     0
  0
CLASS
  1
ACMSTANDARDANSI
  2
AcmStandardANSI
  3
"AcmSymBB|Product Description: AutoCAD Mechanical 2000|Company: Autodesk"
 90
        0
280
     0
281
     0
  0
CLASS
  1
ACMSURFSTANDARDANSI
  2
AcmSurfTextStdANSI
  3
"AcmSymBB|Product Description: AutoCAD Mechanical 2000|Company: Autodesk"
 90
        0
280
     0
281
     0
  0
CLASS
  1
ACMFCFSTANDARDANSI
  2
AcmFCFStdANSI
  3
"AcmSymBB|Product Description: AutoCAD Mechanical 2000|Company: Autodesk"
 90
        0
280
     0
281
     0
  0
CLASS
  1
ACMWELDSTANDARDANSI
  2
AcmWeldingStdANSI
  3
"AcmSymBB|Product Description: AutoCAD Mechanical 2000|Company: Autodesk"
 90
        0
280
     0
281
     0
  0
CLASS
  1
ACMIDSTANDARDANSI
  2
AcmIdStdANSI
  3
"AcmSymBB|Product Description: AutoCAD Mechanical 2000|Company: Autodesk"
 90
        0
280
     0
281
     0
  0
CLASS
  1
ACMDATUMSTANDARDANSI
  2
AcmDatumStdANSI
  3
"AcmSymBB|Product Description: AutoCAD Mechanical 2000|Company: Autodesk"
 90
        0
280
     0
281
     0
  0
CLASS
  1
ACMBOMSTANDARDANSI
  2
AcmBOMStdANSI
  3
"AcmSymBB|Product Description: AutoCAD Mechanical 2000|Company: Autodesk"
 90
        0
280
     0
281
     0
  0
CLASS
  1
ACMSTANDARDBSI
  2
AcmStandardBSI
  3
"AcmSymBB|Product Description: AutoCAD Mechanical 2000|Company: Autodesk"
 90
        0
280
     0
281
     0
  0
CLASS
  1
ACMSURFSTANDARDBSI
  2
AcmSurfTextStdBSI
  3
"AcmSymBB|Product Description: AutoCAD Mechanical 2000|Company: Autodesk"
 90
        0
280
     0
281
     0
  0
CLASS
  1
ACMFCFSTANDARDBSI
  2
AcmFCFStdBSI
  3
"AcmSymBB|Product Description: AutoCAD Mechanical 2000|Company: Autodesk"
 90
        0
280
     0
281
     0
  0
CLASS
  1
ACMWELDSTANDARDBSI
  2
AcmWeldingStdBSI
  3
"AcmSymBB|Product Description: AutoCAD Mechanical 2000|Company: Autodesk"
 90
        0
280
     0
281
     0
  0
CLASS
  1
ACMIDSTANDARDBSI
  2
AcmIdStdBSI
  3
"AcmSymBB|Product Description: AutoCAD Mechanical 2000|Company: Autodesk"
 90
        0
280
     0
281
     0
  0
CLASS
  1
ACMDATUMSTANDARDBSI
  2
AcmDatumStdBSI
  3
"AcmSymBB|Product Description: AutoCAD Mechanical 2000|Company: Autodesk"
 90
        0
280
     0
281
     0
  0
CLASS
  1
ACMBOMSTANDARDBSI
  2
AcmBOMStdBSI
  3
"AcmSymBB|Product Description: AutoCAD Mechanical 2000|Company: Autodesk"
 90
        0
280
     0
281
     0
  0
CLASS
  1
LONG_TRANSACTION
  2
AcDbLongTransaction
  3
AutoCAD 2000
 90
        0
280
     0
281
     0
  0
CLASS
  1
LWPOLYLINE
  2
AcDbPolyline
  3
AutoCAD 2000
 90
        0
280
     0
281
     1
  0
CLASS
  1
HATCH
  2
AcDbHatch
  3
AutoCAD 2000
 90
        0
280
     0
281
     1
  0
CLASS
  1
XRECORD
  2
AcDbXrecord
  3
AutoCAD 2000
 90
        0
280
     0
281
     0
  0
ENDSEC
  0
SECTION
  2
TABLES
  0
TABLE
  2
VPORT
  5
8
330
0
100
AcDbSymbolTable
 70
     3
  0
VPORT
  5
92D6
330
8
100
AcDbSymbolTableRecord
100
AcDbViewportTableRecord
  2
*ACTIVE
 70
     0
 10
0.0
 20
0.0
 11
1.0
 21
1.0
 12
12.26082213658287
 22
23.84910347714443
 13
0.0
 23
0.0
 14
2.5
 24
2.5
 15
10.0
 25
10.0
 16
0.0
 26
0.0
 36
1.0
 17
0.0
 27
0.0
 37
0.0
 40
207.5240578752693
 41
1.56570841889117
 42
50.0
 43
0.0
 44
0.0
 50
0.0
 51
0.0
 71
     0
 72
   100
 73
     1
 74
     3
 75
     0
 76
     0
 77
     0
 78
     0
  0
ENDTAB
  0
TABLE
  2
LTYPE
  5
5
330
0
100
AcDbSymbolTable
 70
    10
  0
LTYPE
  5
14
330
5
100
AcDbSymbolTableRecord
100
AcDbLinetypeTableRecord
  2
BYBLOCK
 70
     0
  3

 72
    65
 73
     0
 40
0.0
  0
LTYPE
  5
15
330
5
100
AcDbSymbolTableRecord
100
AcDbLinetypeTableRecord
  2
BYLAYER
 70
     0
  3

 72
    65
 73
     0
 40
0.0
  0
LTYPE
  5
16
330
5
100
AcDbSymbolTableRecord
100
AcDbLinetypeTableRecord
  2
CONTINUOUS
 70
     0
  3
Solid line
 72
    65
 73
     0
 40
0.0
  0
LTYPE
  5
4B
330
5
100
AcDbSymbolTableRecord
100
AcDbLinetypeTableRecord
  2
AM_ISO02W050
 70
     0
  3
__ __ __ __ __ __ __ __ __ __ __ __ __ __ __
 72
    65
 73
     2
 40
7.5
 49
6.0
 74
     0
 49
-1.5
 74
     0
  0
LTYPE
  5
4C
330
5
100
AcDbSymbolTableRecord
100
AcDbLinetypeTableRecord
  2
AM_ISO08W050
 70
     0
  3
____ . ____ . ____ . ____ . ____ . ____ . ____
 72
    65
 73
     4
 40
18.0
 49
12.0
 74
     0
 49
-1.5
 74
     0
 49
3.0
 74
     0
 49
-1.5
 74
     0
  0
LTYPE
  5
4D
330
5
100
AcDbSymbolTableRecord
100
AcDbLinetypeTableRecord
  2
AM_ISO09W050
 70
     0
  3
_____ . . _____ . . _____ . . ____ .. ____
 72
    65
 73
     6
 40
22.5
 49
12.0
 74
     0
 49
-1.5
 74
     0
 49
3.0
 74
     0
 49
-1.5
 74
     0
 49
3.0
 74
     0
 49
-1.5
 74
     0
  0
LTYPE
  5
4E
330
5
100
AcDbSymbolTableRecord
100
AcDbLinetypeTableRecord
  2
AMCONSTR
 70
     0
  3
_______________________
 72
    65
 73
     2
 40
9999.0
 49
9999.0
 74
     0
 49
0.0
 74
     0
  0
LTYPE
  5
4F
330
5
100
AcDbSymbolTableRecord
100
AcDbLinetypeTableRecord
  2
AM_ISO02W050X2
 70
     0
  3
 _ _ _ _ _ _ _ _ _ _ _ _
 72
    65
 73
     2
 40
3.75
 49
3.0
 74
     0
 49
-0.75
 74
     0
  0
LTYPE
  5
50
330
5
100
AcDbSymbolTableRecord
100
AcDbLinetypeTableRecord
  2
AM_ISO08W050X2
 70
     0
  3
__ . __ . __ . __ . __ . __
 72
    65
 73
     4
 40
9.0
 49
6.0
 74
     0
 49
-0.75
 74
     0
 49
1.5
 74
     0
 49
-0.75
 74
     0
  0
LTYPE
  5
53
330
5
100
AcDbSymbolTableRecord
100
AcDbLinetypeTableRecord
  2
AMZIGZAG
 70
     0
  3
/\/-/\/-/\/-/\/-/\/-/\/
 72
    65
 73
     2
 40
11.00009999999999
 49
0.0001
 74
     4
 75
   135
340
52
 46
0.04
 50
0.0
 44
0.0
 45
0.0
 49
-11.0
 74
     0
  0
LTYPE
  5
166
330
5
100
AcDbSymbolTableRecord
100
AcDbLinetypeTableRecord
  2
ACJISTGL
 70
     0
  3
_ _ _ _ _
 72
    65
 73
     2
 40
3.0
 49
2.0
 74
     0
 49
-1.0
 74
     0
  0
LTYPE
  5
26A
330
5
100
AcDbSymbolTableRecord
100
AcDbLinetypeTableRecord
  2
ACJISTGB
 70
     0
  3
__ . . __ . .
 72
    65
 73
     6
 40
9.0
 49
4.0
 74
     0
 49
-1.0
 74
     0
 49
1.0
 74
     0
 49
-1.0
 74
     0
 49
1.0
 74
     0
 49
-1.0
 74
     0
  0
ENDTAB
  0
TABLE
  2
LAYER
  5
2
330
0
100
AcDbSymbolTable
 70
     8
  0
LAYER
  5
10
330
2
100
AcDbSymbolTableRecord
100
AcDbLayerTableRecord
  2
0
 70
     0
 62
     7
  6
CONTINUOUS
  0
LAYER
  5
3F9
330
2
100
AcDbSymbolTableRecord
100
AcDbLayerTableRecord
  2
AM_0
 70
     0
 62
     7
  6
CONTINUOUS
  0
LAYER
  5
BD6
330
2
100
AcDbSymbolTableRecord
100
AcDbLayerTableRecord
  2
AM_11
 70
     0
 62
     3
  6
AM_ISO09W050
  0
LAYER
  5
BD7
330
2
100
AcDbSymbolTableRecord
100
AcDbLayerTableRecord
  2
AM_7
 70
     0
 62
     4
  6
AM_ISO08W050
  0
LAYER
  5
BD8
330
2
100
AcDbSymbolTableRecord
100
AcDbLayerTableRecord
  2
AM_5
 70
     0
 62
     3
  6
CONTINUOUS
  0
LAYER
  5
BD9
330
2
100
AcDbSymbolTableRecord
100
AcDbLayerTableRecord
  2
DEFPOINTS
 70
     0
 62
     7
  6
CONTINUOUS
  0
LAYER
  5
BDA
330
2
100
AcDbSymbolTableRecord
100
AcDbLayerTableRecord
  2
AM_6
 70
     0
 62
     2
  6
CONTINUOUS
  0
LAYER
  5
1E2E
330
2
100
AcDbSymbolTableRecord
100
AcDbLayerTableRecord
  2
AM_CL
 70
     0
 62
     1
  6
AMCONSTR
  0
ENDTAB
  0
TABLE
  2
STYLE
  5
3
330
0
100
AcDbSymbolTable
 70
     5
  0
STYLE
  5
11
330
3
100
AcDbSymbolTableRecord
100
AcDbTextStyleTableRecord
  2
STANDARD
 70
     0
 40
0.0
 41
1.0
 50
0.0
 71
     0
 42
2.5
  3
simplex.shx
  4
EXTFONT.SHX
  0
STYLE
  5
52
330
3
100
AcDbSymbolTableRecord
100
AcDbTextStyleTableRecord
  2

 70
     1
 40
0.0
 41
1.0
 50
0.0
 71
     0
 42
2.5
  3
ltypeshp.shx
  4

  0
STYLE
  5
6B
330
3
100
AcDbSymbolTableRecord
100
AcDbTextStyleTableRecord
  2
ASAMI
 70
     0
 40
0.0
 41
1.0
 50
0.0
 71
     0
 42
2.5
  3
simplex.shx
  4
EXTFONT.SHX
  0
STYLE
  5
262
330
3
100
AcDbSymbolTableRecord
100
AcDbTextStyleTableRecord
  2
ACJISTS
 70
     0
 40
1.0
 41
1.0
 50
0.0
 71
     0
 42
2.5
  3
simplex.shx
  4
bigfont.shx
  0
STYLE
  5
269
330
3
100
AcDbSymbolTableRecord
100
AcDbTextStyleTableRecord
  2
ACJISGDT
 70
     0
 40
0.0
 41
1.0
 50
0.0
 71
     0
 42
2.5
  3
amgdtans.shx
  4

  0
ENDTAB
  0
TABLE
  2
VIEW
  5
6
330
0
100
AcDbSymbolTable
 70
     0
  0
ENDTAB
  0
TABLE
  2
UCS
  5
7
330
0
100
AcDbSymbolTable
 70
     0
  0
ENDTAB
  0
TABLE
  2
APPID
  5
9
330
0
100
AcDbSymbolTable
 70
    14
  0
APPID
  5
12
330
9
100
AcDbSymbolTableRecord
100
AcDbRegAppTableRecord
  2
ACAD
 70
     0
  0
APPID
  5
30
330
9
100
AcDbSymbolTableRecord
100
AcDbRegAppTableRecord
  2
MCAD_NO_VIS
 70
     0
  0
APPID
  5
31
330
9
100
AcDbSymbolTableRecord
100
AcDbRegAppTableRecord
  2
ACAD_TEMP_GRAPHIC
 70
     0
  0
APPID
  5
2C2
330
9
100
AcDbSymbolTableRecord
100
AcDbRegAppTableRecord
  2
GENIUS_GENDTOL_13
 70
     0
  0
APPID
  5
339
330
9
100
AcDbSymbolTableRecord
100
AcDbRegAppTableRecord
  2
GENIUS_GENODEF_13
 70
     0
  0
APPID
  5
33A
330
9
100
AcDbSymbolTableRecord
100
AcDbRegAppTableRecord
  2
GENIUS_GENOBJ-N-RSBK_13
 70
     0
  0
APPID
  5
33B
330
9
100
AcDbSymbolTableRecord
100
AcDbRegAppTableRecord
  2
GENIUS_GENOBJ-N-LIB_13
 70
     0
  0
APPID
  5
33C
330
9
100
AcDbSymbolTableRecord
100
AcDbRegAppTableRecord
  2
GENIUS_GENSCALE_13
 70
     0
  0
APPID
  5
378
330
9
100
AcDbSymbolTableRecord
100
AcDbRegAppTableRecord
  2
GENIUS_GENDIMSH_14
 70
     0
  0
APPID
  5
BDB
330
9
100
AcDbSymbolTableRecord
100
AcDbRegAppTableRecord
  2
GENIUS_GENOBJ-N-CEN_13
 70
     0
  0
APPID
  5
BDC
330
9
100
AcDbSymbolTableRecord
100
AcDbRegAppTableRecord
  2
GENIUS_GENFIL_13
 70
     0
  0
APPID
  5
BDD
330
9
100
AcDbSymbolTableRecord
100
AcDbRegAppTableRecord
  2
GENIUS_GENOBJ-N-FIL_13
 70
     0
  0
APPID
  5
12AD
330
9
100
AcDbSymbolTableRecord
100
AcDbRegAppTableRecord
  2
GENIUS_GENOREF_13
 70
     0
  0
APPID
  5
62E6
330
9
100
AcDbSymbolTableRecord
100
AcDbRegAppTableRecord
  2
GENIUS_GENOBJ-N-CHA_13
 70
     0
  0
ENDTAB
  0
TABLE
  2
DIMSTYLE
  5
A
330
0
100
AcDbSymbolTable
 70
     9
  0
DIMSTYLE
105
58
102
{ACAD_REACTORS
330
63C1
330
640B
330
6418
330
6663
102
}
330
A
100
AcDbSymbolTableRecord
100
AcDbDimStyleTableRecord
  2
AM_JIS
 70
     0
  3

  4
"
  5
OPEN30
  6

  7

 40
1.0
 41
2.5
 42
1.0
 43
12.0
 44
1.0
 45
0.0
 46
0.0
 47
0.1
 48
0.1
140
3.2
141
0.0
142
0.0
143
0.0393701
144
1.0
145
0.0
146
0.71
147
1.5
 71
     0
 72
     0
 73
     0
 74
     0
 75
     0
 76
     0
 77
     3
 78
     1
170
     0
171
     2
172
     1
173
     0
174
     0
175
     0
176
     3
177
     3
178
     2
270
     2
271
     1
272
     1
273
     2
274
     2
340
6B
275
     0
280
     0
281
     0
282
     0
283
     0
284
     0
285
     0
286
     0
287
     3
288
     0
  0
DIMSTYLE
105
5F
330
A
100
AcDbSymbolTableRecord
100
AcDbDimStyleTableRecord
  2
AM_JIS$3
 70
     0
  3

  4
"
  5
OPEN30
  6

  7

 40
1.0
 41
2.5
 42
1.0
 43
10.0
 44
1.0
 45
0.0
 46
0.0
 47
0.1
 48
0.1
140
3.2
141
0.0
142
0.0
143
0.0393701
144
1.0
145
0.0
146
0.71
147
1.5
 71
     0
 72
     0
 73
     0
 74
     1
 75
     0
 76
     0
 77
     3
 78
     1
170
     0
171
     2
172
     0
173
     0
174
     0
175
     0
176
     3
177
     3
178
     2
270
     2
271
     2
272
     1
273
     2
274
     2
340
6B
275
     0
280
     0
281
     0
282
     0
283
     0
284
     0
285
     0
286
     0
287
     0
288
     1
  0
DIMSTYLE
105
60
330
A
100
AcDbSymbolTableRecord
100
AcDbDimStyleTableRecord
  2
AM_JIS$4
 70
     0
  3

  4
"
  5
OPEN30
  6

  7

 40
1.0
 41
2.5
 42
1.0
 43
10.0
 44
1.0
 45
0.0
 46
0.0
 47
0.1
 48
0.1
140
3.2
141
0.0
142
0.0
143
0.0393701
144
1.0
145
0.0
146
0.71
147
1.5
 71
     0
 72
     0
 73
     0
 74
     1
 75
     0
 76
     0
 77
     3
 78
     1
170
     0
171
     2
172
     0
173
     0
174
     0
175
     0
176
     3
177
     3
178
     2
270
     2
271
     2
272
     1
273
     2
274
     2
340
6B
275
     0
280
     0
281
     0
282
     0
283
     0
284
     0
285
     0
286
     0
287
     0
288
     1
  0
DIMSTYLE
105
61
330
A
100
AcDbSymbolTableRecord
100
AcDbDimStyleTableRecord
  2
AM_JIS$6
 70
     0
  3

  4
"
  5
OPEN30
  6

  7

 40
1.0
 41
2.5
 42
1.0
 43
10.0
 44
1.0
 45
0.0
 46
0.0
 47
0.1
 48
0.1
140
3.2
141
0.0
142
0.0
143
0.0393701
144
1.0
145
0.0
146
0.71
147
1.5
 71
     0
 72
     0
 73
     0
 74
     0
 75
     0
 76
     0
 77
     0
 78
     1
170
     0
171
     2
172
     1
173
     0
174
     0
175
     0
176
     3
177
     3
178
     2
270
     2
271
     2
272
     2
273
     2
274
     2
340
6B
275
     0
280
     0
281
     0
282
     0
283
     0
284
     0
285
     0
286
     0
287
     3
288
     0
  0
DIMSTYLE
105
62
330
A
100
AcDbSymbolTableRecord
100
AcDbDimStyleTableRecord
  2
AM_JIS$7
 70
     0
  3

  4
"
  5
OPEN30
  6

  7

 40
1.0
 41
2.5
 42
1.0
 43
10.0
 44
1.0
 45
0.0
 46
0.0
 47
0.1
 48
0.1
140
3.2
141
0.0
142
0.0
143
0.0393701
144
1.0
145
0.0
146
0.71
147
1.5
 71
     0
 72
     0
 73
     0
 74
     0
 75
     0
 76
     0
 77
     3
 78
     1
170
     0
171
     2
172
     1
173
     0
174
     0
175
     0
176
     3
177
     3
178
     2
270
     2
271
     2
272
     1
273
     2
274
     2
340
6B
275
     0
280
     0
281
     0
282
     0
283
     0
284
     0
285
     0
286
     0
287
     3
288
     0
  0
DIMSTYLE
105
63
330
A
100
AcDbSymbolTableRecord
100
AcDbDimStyleTableRecord
  2
AM_JIS$SF
 70
     0
  3

  4
"
  5
OPEN30
  6

  7

 40
1.0
 41
2.5
 42
1.0
 43
10.0
 44
1.0
 45
0.0
 46
0.0
 47
0.1
 48
0.1
140
3.2
141
0.0
142
0.0
143
0.0393701
144
1.0
145
0.0
146
0.71
147
1.5
 71
     0
 72
     0
 73
     0
 74
     0
 75
     1
 76
     1
 77
     3
 78
     8
170
     0
171
     2
172
     1
173
     0
174
     0
175
     0
176
   256
177
   256
178
     2
270
     2
271
     2
272
     2
273
     2
274
     2
340
6B
275
     0
280
     0
281
     0
282
     0
283
     0
284
     0
285
     0
286
     0
287
     3
288
     0
  0
DIMSTYLE
105
68
330
A
100
AcDbSymbolTableRecord
100
AcDbDimStyleTableRecord
  2
AM_JIS$SH
 70
     0
  3

  4
"
  5

  6
GENAXEH
  7
OPEN30
 40
1.0
 41
2.5
 42
1.0
 43
10.0
 44
1.0
 45
0.0
 46
0.0
 47
0.1
 48
0.1
140
3.2
141
0.0
142
0.0
143
0.0393701
144
2.0
145
0.0
146
0.71
147
1.5
 71
     0
 72
     0
 73
     0
 74
     0
 75
     1
 76
     1
 77
     3
 78
     8
170
     0
171
     2
172
     1
173
     1
174
     0
175
     0
176
   256
177
   256
178
     2
270
     2
271
     2
272
     2
273
     2
274
     2
340
6B
275
     0
280
     0
281
     0
282
     0
283
     0
284
     0
285
     0
286
     0
287
     3
288
     0
  0
DIMSTYLE
105
B34
102
{ACAD_REACTORS
330
63DB
102
}
330
A
100
AcDbSymbolTableRecord
100
AcDbDimStyleTableRecord
  2
AM_JIS$2
 70
     0
  3

  4
"
  5
OPEN30
  6

  7

 40
1.0
 41
2.5
 42
1.0
 43
12.0
 44
1.0
 45
0.0
 46
0.0
 47
0.1
 48
0.1
140
3.2
141
0.0
142
0.0
143
0.0393701
144
1.0
145
0.0
146
0.71
147
1.5
 71
     0
 72
     0
 73
     0
 74
     0
 75
     0
 76
     0
 77
     3
 78
     1
170
     0
171
     2
172
     1
173
     0
174
     0
175
     0
176
     3
177
     3
178
     2
270
     2
271
     1
272
     1
273
     2
274
     2
340
6B
275
     0
280
     0
281
     0
282
     0
283
     0
284
     0
285
     0
286
     0
287
     3
288
     0
  0
DIMSTYLE
105
62E5
330
A
100
AcDbSymbolTableRecord
100
AcDbDimStyleTableRecord
  2
ISO-25
 70
     0
  3

  4

  5

  6

  7

 40
1.0
 41
2.5
 42
0.625
 43
3.75
 44
1.25
 45
0.0
 46
0.0
 47
0.0
 48
0.0
140
2.5
141
2.5
142
0.0
143
0.03937007874016
144
1.0
145
0.0
146
1.0
147
0.625
 71
     0
 72
     0
 73
     0
 74
     0
 75
     0
 76
     0
 77
     1
 78
     8
170
     0
171
     3
172
     1
173
     0
174
     0
175
     0
176
     0
177
     0
178
     0
270
     2
271
     2
272
     2
273
     2
274
     3
340
11
275
     0
280
     0
281
     0
282
     0
283
     0
284
     8
285
     0
286
     0
287
     3
288
     0
  0
ENDTAB
  0
TABLE
  2
BLOCK_RECORD
  5
1
330
0
100
AcDbSymbolTable
 70
    10
  0
BLOCK_RECORD
  5
1F
102
{ACAD_XDICTIONARY
360
74
102
}
330
1
100
AcDbSymbolTableRecord
100
AcDbBlockTableRecord
  2
*MODEL_SPACE
  0
BLOCK_RECORD
  5
1B
102
{ACAD_XDICTIONARY
360
92F8
102
}
330
1
100
AcDbSymbolTableRecord
100
AcDbBlockTableRecord
  2
*PAPER_SPACE
  0
BLOCK_RECORD
  5
59
330
1
100
AcDbSymbolTableRecord
100
AcDbBlockTableRecord
  2
_OPEN30
  0
BLOCK_RECORD
  5
64
330
1
100
AcDbSymbolTableRecord
100
AcDbBlockTableRecord
  2
GENAXEH
  0
BLOCK_RECORD
  5
63C2
330
1
100
AcDbSymbolTableRecord
100
AcDbBlockTableRecord
  2
*D5
  0
BLOCK_RECORD
  5
63DC
330
1
100
AcDbSymbolTableRecord
100
AcDbBlockTableRecord
  2
*D6
  0
BLOCK_RECORD
  5
640C
330
1
100
AcDbSymbolTableRecord
100
AcDbBlockTableRecord
  2
*D7
  0
BLOCK_RECORD
  5
6419
330
1
100
AcDbSymbolTableRecord
100
AcDbBlockTableRecord
  2
*D8
  0
BLOCK_RECORD
  5
6664
330
1
100
AcDbSymbolTableRecord
100
AcDbBlockTableRecord
  2
*D9
  0
ENDTAB
  0
ENDSEC
  0
SECTION
  2
BLOCKS
  0
BLOCK
  5
20
330
1F
100
AcDbEntity
  8
0
100
AcDbBlockBegin
  2
*MODEL_SPACE
 70
     0
 10
0.0
 20
0.0
 30
0.0
  3
*MODEL_SPACE
  1

  0
ENDBLK
  5
21
330
1F
100
AcDbEntity
  8
0
100
AcDbBlockEnd
  0
BLOCK
  5
1C
330
1B
100
AcDbEntity
 67
     1
  8
0
100
AcDbBlockBegin
  2
*PAPER_SPACE
 70
     0
 10
0.0
 20
0.0
 30
0.0
  3
*PAPER_SPACE
  1

  0
ENDBLK
  5
1D
330
1B
100
AcDbEntity
 67
     1
  8
0
100
AcDbBlockEnd
  0
BLOCK
  5
5D
330
59
100
AcDbEntity
  8
0
100
AcDbBlockBegin
  2
_OPEN30
 70
     0
 10
0.0
 20
0.0
 30
0.0
  3
_OPEN30
  1

  0
LINE
  5
5A
330
59
100
AcDbEntity
  8
0
 62
     0
100
AcDbLine
 10
-1.0
 20
0.26794919
 30
0.0
 11
0.0
 21
0.0
 31
0.0
  0
LINE
  5
5B
330
59
100
AcDbEntity
  8
0
 62
     0
100
AcDbLine
 10
0.0
 20
0.0
 30
0.0
 11
-1.0
 21
-0.26794919
 31
0.0
  0
LINE
  5
5C
330
59
100
AcDbEntity
  8
0
 62
     0
100
AcDbLine
 10
0.0
 20
0.0
 30
0.0
 11
-1.0
 21
0.0
 31
0.0
  0
ENDBLK
  5
5E
330
59
100
AcDbEntity
  8
0
100
AcDbBlockEnd
  0
BLOCK
  5
66
330
64
100
AcDbEntity
  8
0
100
AcDbBlockBegin
  2
GENAXEH
 70
     0
 10
0.0
 20
0.0
 30
0.0
  3
GENAXEH
  1

  0
LINE
  5
65
330
64
100
AcDbEntity
  8
0
100
AcDbLine
 10
-1.0
 20
0.0
 30
0.0
 11
1.0
 21
0.0
 31
0.0
  0
ENDBLK
  5
67
330
64
100
AcDbEntity
  8
0
100
AcDbBlockEnd
  0
BLOCK
  5
63CE
330
63C2
100
AcDbEntity
  8
0
100
AcDbBlockBegin
  2
*D5
 70
     1
 10
0.0
 20
0.0
 30
0.0
  3
*D5
  1

  0
LINE
  5
9301
330
63C2
100
AcDbEntity
  8
AM_5
 62
     3
100
AcDbLine
 10
-1.165622893901663
 20
-5.949999999999185
 30
0.0
 11
16.56715091153516
 21
-5.94999999999919
 31
0.0
  0
LINE
  5
9302
330
63C2
100
AcDbEntity
  8
AM_5
 62
     3
100
AcDbLine
 10
-1.165622893901663
 20
5.950000000000796
 30
0.0
 11
16.56715091153516
 21
5.950000000000792
 31
0.0
  0
LINE
  5
9303
330
63C2
100
AcDbEntity
  8
AM_5
 62
     3
100
AcDbLine
 10
15.56715091153516
 20
-3.44999999999919
 30
0.0
 11
15.56715091153516
 21
3.450000000000792
 31
0.0
  0
MTEXT
  5
9304
330
63C2
100
AcDbEntity
  8
AM_5
 62
     2
100
AcDbMText
 10
12.46715091153516
 20
0.0000000000008015
 30
0.0
 40
3.2
 41
0.0
 71
     5
 72
     1
  1
%%C11.9
  7
ASAMI
 11
0.0000000000000001
 21
1.0
 31
0.0
  0
INSERT
  5
9305
330
63C2
100
AcDbEntity
  8
AM_5
 62
     3
100
AcDbBlockReference
  2
_OPEN30
 10
15.56715091153516
 20
-5.94999999999919
 30
0.0
 41
2.5
 42
2.5
 43
2.5
 50
270.0
  0
INSERT
  5
9306
330
63C2
100
AcDbEntity
  8
AM_5
 62
     3
100
AcDbBlockReference
  2
_OPEN30
 10
15.56715091153517
 20
5.950000000000792
 30
0.0
 41
2.5
 42
2.5
 43
2.5
 50
90.0
  0
POINT
  5
9307
330
63C2
100
AcDbEntity
  8
DEFPOINTS
 62
     0
100
AcDbPoint
 10
-2.165622893901663
 20
-5.949999999999184
 30
0.0
  0
POINT
  5
9308
330
63C2
100
AcDbEntity
  8
DEFPOINTS
 62
     0
100
AcDbPoint
 10
-2.165622893901663
 20
5.950000000000797
 30
0.0
  0
POINT
  5
9309
330
63C2
100
AcDbEntity
  8
DEFPOINTS
 62
     0
100
AcDbPoint
 10
15.56715091153517
 20
5.950000000000792
 30
0.0
  0
ENDBLK
  5
63CF
330
63C2
100
AcDbEntity
  8
0
100
AcDbBlockEnd
  0
BLOCK
  5
63E8
330
63DC
100
AcDbEntity
  8
0
100
AcDbBlockBegin
  2
*D6
 70
     1
 10
0.0
 20
0.0
 30
0.0
  3
*D6
  1

  0
LINE
  5
930A
330
63DC
100
AcDbEntity
  8
AM_0
 62
     3
100
AcDbLine
 10
0.3420201433163783
 20
-0.9396926207858497
 30
0.0
 11
11.77579947353181
 21
-32.35374314956753
 31
0.0
  0
LINE
  5
930B
330
63DC
100
AcDbEntity
  8
AM_0
 62
     3
100
AcDbLine
 10
0.3420201433163787
 20
0.9396926207858815
 30
0.0
 11
11.77579947353182
 21
32.35374314956757
 31
0.0
  0
ARC
  5
930C
330
63DC
100
AcDbEntity
  8
AM_0
 62
     3
100
AcDbCircle
 10
-0.0000000000094078
 20
0.000000000000016
 30
0.0
 40
33.43013431616617
100
AcDbArc
 50
294.2857395082615
 51
65.71426049173847
  0
INSERT
  5
930D
330
63DC
100
AcDbEntity
  8
AM_0
 62
     3
100
AcDbBlockReference
  2
_OPEN30
 10
11.43377933020602
 20
-31.41405052878167
 30
0.0
 41
2.5
 42
2.5
 43
2.5
 50
202.1428697541343
  0
INSERT
  5
930E
330
63DC
100
AcDbEntity
  8
AM_0
 62
     3
100
AcDbBlockReference
  2
_OPEN30
 10
11.43377933020603
 20
31.4140505287817
 30
0.0
 41
2.5
 42
2.5
 43
2.5
 50
157.8571302458657
  0
MTEXT
  5
930F
330
63DC
100
AcDbEntity
  8
AM_0
 62
     2
100
AcDbMText
 10
30.33013431615676
 20
0.0000000000000082
 30
0.0
 40
3.2
 41
0.0
 71
     5
 72
     1
  1
140°
  7
ASAMI
 11
0.0000000000000001
 21
1.0
 31
0.0
  0
POINT
  5
9310
330
63DC
100
AcDbEntity
  8
DEFPOINTS
 62
     0
100
AcDbPoint
 10
30.69608778426589
 20
-13.24099977860339
 30
0.0
  0
POINT
  5
9311
330
63DC
100
AcDbEntity
  8
DEFPOINTS
 62
     0
100
AcDbPoint
 10
-0.0000000000094078
 20
0.000000000000016
 30
0.0
  0
POINT
  5
9312
330
63DC
100
AcDbEntity
  8
DEFPOINTS
 62
     0
100
AcDbPoint
 10
-1.145937534457349
 20
-3.148437499999981
 30
0.0
  0
POINT
  5
9313
330
63DC
100
AcDbEntity
  8
DEFPOINTS
 62
     0
100
AcDbPoint
 10
-0.0000000000094078
 20
0.000000000000016
 30
0.0
  0
POINT
  5
9314
330
63DC
100
AcDbEntity
  8
DEFPOINTS
 62
     0
100
AcDbPoint
 10
-1.145937534457349
 20
3.148437500000014
 30
0.0
  0
ENDBLK
  5
63E9
330
63DC
100
AcDbEntity
  8
0
100
AcDbBlockEnd
  0
BLOCK
  5
6416
330
640C
100
AcDbEntity
  8
0
100
AcDbBlockBegin
  2
*D7
 70
     1
 10
0.0
 20
0.0
 30
0.0
  3
*D7
  1

  0
LINE
  5
91B4
330
640C
100
AcDbEntity
  8
AM_5
 62
     3
100
AcDbLine
 10
-0.0000000000069332
 20
-0.9999999999991844
 30
0.0
 11
-0.0000000000069346
 21
-22.52101307252555
 31
0.0
  0
LINE
  5
91B5
330
640C
100
AcDbEntity
  8
AM_5
 62
     3
100
AcDbLine
 10
-50.99999999999031
 20
-6.999999999999166
 30
0.0
 11
-50.99999999999031
 21
-22.52101307252555
 31
0.0
  0
LINE
  5
91B6
330
640C
100
AcDbEntity
  8
AM_5
 62
     3
100
AcDbLine
 10
-2.500000000006934
 20
-21.52101307252555
 30
0.0
 11
-48.49999999999031
 21
-21.52101307252555
 31
0.0
  0
INSERT
  5
91B7
330
640C
100
AcDbEntity
  8
AM_5
 62
     3
100
AcDbBlockReference
  2
_OPEN30
 10
-0.0000000000069345
 20
-21.52101307252555
 30
0.0
 41
2.5
 42
2.5
 43
2.5
  0
INSERT
  5
91B8
330
640C
100
AcDbEntity
  8
AM_5
 62
     3
100
AcDbBlockReference
  2
_OPEN30
 10
-50.99999999999031
 20
-21.52101307252555
 30
0.0
 41
2.5
 42
2.5
 43
2.5
 50
180.0
  0
MTEXT
  5
91B9
330
640C
100
AcDbEntity
  8
AM_5
 62
     2
100
AcDbMText
 10
-25.49999999999862
 20
-18.42101307252555
 30
0.0
 40
3.2
 41
0.0
 71
     5
 72
     1
  1
51
  7
ASAMI
1001
ACAD
1000
MTEXTBEGIN
1070
    73
1070
     1
1070
    44
1040
1.0
1070
    74
1070
     0
1000
MTEXTEND
  0
POINT
  5
91BA
330
640C
100
AcDbEntity
  8
DEFPOINTS
 62
     0
100
AcDbPoint
 10
-0.0000000000069332
 20
0.0000000000008156
 30
0.0
  0
POINT
  5
91BB
330
640C
100
AcDbEntity
  8
DEFPOINTS
 62
     0
100
AcDbPoint
 10
-50.99999999999031
 20
-5.999999999999166
 30
0.0
  0
POINT
  5
91BC
330
640C
100
AcDbEntity
  8
DEFPOINTS
 62
     0
100
AcDbPoint
 10
-50.99999999999031
 20
-21.52101307252555
 30
0.0
  0
ENDBLK
  5
6417
330
640C
100
AcDbEntity
  8
0
100
AcDbBlockEnd
  0
BLOCK
  5
6423
330
6419
100
AcDbEntity
  8
0
100
AcDbBlockBegin
  2
*D8
 70
     1
 10
0.0
 20
0.0
 30
0.0
  3
*D8
  1

  0
LINE
  5
915B
330
6419
100
AcDbEntity
  8
AM_5
 62
     3
100
AcDbLine
 10
-0.0000000000067588
 20
-6.812500000000202
 30
0.0
 11
-0.0000000000067605
 21
-34.16552648662276
 31
0.0
  0
LINE
  5
915C
330
6419
100
AcDbEntity
  8
AM_5
 62
     3
100
AcDbLine
 10
-102.0000000000067
 20
-5.799999999999751
 30
0.0
 11
-102.0000000000067
 21
-34.16552648662276
 31
0.0
  0
LINE
  5
915D
330
6419
100
AcDbEntity
  8
AM_5
 62
     3
100
AcDbLine
 10
-2.50000000000676
 20
-33.16552648662276
 30
0.0
 11
-99.50000000000679
 21
-33.16552648662276
 31
0.0
  0
INSERT
  5
915E
330
6419
100
AcDbEntity
  8
AM_5
 62
     3
100
AcDbBlockReference
  2
_OPEN30
 10
-0.0000000000067604
 20
-33.16552648662276
 30
0.0
 41
2.5
 42
2.5
 43
2.5
  0
INSERT
  5
915F
330
6419
100
AcDbEntity
  8
AM_5
 62
     3
100
AcDbBlockReference
  2
_OPEN30
 10
-102.0000000000067
 20
-33.16552648662276
 30
0.0
 41
2.5
 42
2.5
 43
2.5
 50
180.0
  0
MTEXT
  5
9160
330
6419
100
AcDbEntity
  8
AM_5
 62
     2
100
AcDbMText
 10
-51.00000000000678
 20
-30.06552648662276
 30
0.0
 40
3.2
 41
0.0
 71
     5
 72
     1
  1
102
  7
ASAMI
1001
ACAD
1000
MTEXTBEGIN
1070
    73
1070
     1
1070
    44
1040
1.0
1070
    74
1070
     0
1000
MTEXTEND
  0
POINT
  5
9161
330
6419
100
AcDbEntity
  8
DEFPOINTS
 62
     0
100
AcDbPoint
 10
-0.0000000000067588
 20
-5.812500000000202
 30
0.0
  0
POINT
  5
9162
330
6419
100
AcDbEntity
  8
DEFPOINTS
 62
     0
100
AcDbPoint
 10
-102.0000000000067
 20
-4.799999999999751
 30
0.0
  0
POINT
  5
9163
330
6419
100
AcDbEntity
  8
DEFPOINTS
 62
     0
100
AcDbPoint
 10
-102.0000000000067
 20
-33.16552648662276
 30
0.0
  0
ENDBLK
  5
6424
330
6419
100
AcDbEntity
  8
0
100
AcDbBlockEnd
  0
BLOCK
  5
6670
330
6664
100
AcDbEntity
  8
0
100
AcDbBlockBegin
  2
*D9
 70
     1
 10
0.0
 20
0.0
 30
0.0
  3
*D9
  1

  0
LINE
  5
92A2
330
6664
100
AcDbEntity
  8
AM_5
 62
     3
100
AcDbLine
 10
-101.9830584706297
 20
-5.94999999999956
 30
0.0
 11
-117.9871082532284
 21
-5.949999999999556
 31
0.0
  0
LINE
  5
92A3
330
6664
100
AcDbEntity
  8
AM_5
 62
     3
100
AcDbLine
 10
-101.8100000000067
 20
5.950000000000185
 30
0.0
 11
-117.9871082532284
 21
5.95000000000019
 31
0.0
  0
LINE
  5
92A4
330
6664
100
AcDbEntity
  8
AM_5
 62
     3
100
AcDbLine
 10
-116.9871082532284
 20
-3.449999999999556
 30
0.0
 11
-116.9871082532284
 21
3.45000000000019
 31
0.0
  0
INSERT
  5
92A5
330
6664
100
AcDbEntity
  8
AM_5
 62
     3
100
AcDbBlockReference
  2
_OPEN30
 10
-116.9871082532284
 20
-5.949999999999556
 30
0.0
 41
2.5
 42
2.5
 43
2.5
 50
270.0
  0
INSERT
  5
92A6
330
6664
100
AcDbEntity
  8
AM_5
 62
     3
100
AcDbBlockReference
  2
_OPEN30
 10
-116.9871082532284
 20
5.95000000000019
 30
0.0
 41
2.5
 42
2.5
 43
2.5
 50
90.0
  0
MTEXT
  5
92A7
330
6664
100
AcDbEntity
  8
AM_5
 62
     2
100
AcDbMText
 10
-120.0871082532284
 20
0.0000000000002989
 30
0.0
 40
3.2
 41
0.0
 71
     5
 72
     1
  1
%%C11.9
  7
ASAMI
 11
0.0000000000000001
 21
1.0
 31
0.0
1001
ACAD
1000
MTEXTBEGIN
1070
    73
1070
     1
1070
    44
1040
1.0
1070
    74
1070
     0
1000
MTEXTEND
  0
POINT
  5
92A8
330
6664
100
AcDbEntity
  8
DEFPOINTS
 62
     0
100
AcDbPoint
 10
-100.9830584706297
 20
-5.94999999999956
 30
0.0
  0
POINT
  5
92A9
330
6664
100
AcDbEntity
  8
DEFPOINTS
 62
     0
100
AcDbPoint
 10
-100.8100000000067
 20
5.950000000000185
 30
0.0
  0
POINT
  5
92AA
330
6664
100
AcDbEntity
  8
DEFPOINTS
 62
     0
100
AcDbPoint
 10
-116.9871082532284
 20
5.95000000000019
 30
0.0
  0
ENDBLK
  5
6671
330
6664
100
AcDbEntity
  8
0
100
AcDbBlockEnd
  0
ENDSEC
  0
SECTION
  2
ENTITIES
  0
TEXT
  5
C58
330
1F
100
AcDbEntity
  8
AM_6
100
AcDbText
 10
-68.97619047619723
 20
-55.66552648662282
 30
0.0
 40
5.0
  1
MDS119SK
 50
0.0000000000002036
 72
     4
 11
-51.00000000000678
 21
-53.16552648662276
 31
0.0
100
AcDbText
  0
LINE
  5
631C
330
1F
100
AcDbEntity
  8
AM_0
100
AcDbLine
 10
-35.85891056031588
 20
-5.950000000000298
 30
0.0
 11
-100.8100000000067
 21
-5.949999999999798
 31
0.0
  0
LINE
  5
631D
330
1F
100
AcDbEntity
  8
AM_0
100
AcDbLine
 10
-35.85891056032034
 20
5.949999999999722
 30
0.0
 11
-100.8100000000067
 21
5.950000000000213
 31
0.0
  0
LINE
  5
6320
330
1F
100
AcDbEntity
  8
AM_7
100
AcDbLine
 10
-108.7604042468976
 20
0.0000000000007958
 30
0.0
 11
3.422412109367189
 21
0.0000000000007759
 31
0.0
1001
GENIUS_GENODEF_13
1002
{
1000
HIER
1070
     0
1002
}
1002
{
1000
MANEDIT
1070
     0
1002
}
1002
{
1000
NOSEL
1070
     0
1002
}
1002
{
1000
BEHIND
1070
     0
1002
}
1002
{
1000
REACTOR
1002
}
1001
GENIUS_GENOBJ-N-CEN_13
1002
{
1000
OWNER
1000
GEN
1002
}
  0
DIMENSION
  5
63C1
330
1F
100
AcDbEntity
  8
AM_5
100
AcDbDimension
  2
*D5
 10
15.56715091153517
 20
5.950000000000792
 30
0.0
 11
15.56715091153516
 21
0.0000000000008011
 31
0.0
 70
   160
  1
%%C<>
  3
AM_JIS
100
AcDbAlignedDimension
 13
-2.165622893901663
 23
-5.949999999999184
 33
0.0
 14
-2.165622893901663
 24
5.950000000000797
 34
0.0
 50
90.0
100
AcDbRotatedDimension
1001
ACAD
1000
DSTYLE
1002
{
1070
   287
1070
     4
1070
   271
1070
     1
1070
   279
1070
     1
1002
}
  0
DIMENSION
  5
63DB
330
1F
100
AcDbEntity
  8
AM_0
100
AcDbDimension
  2
*D6
 10
-1.145937534457349
 20
3.148437500000014
 30
0.0
 11
30.33013431615676
 21
0.0000000000000033
 31
0.0
 70
    34
  3
AM_JIS$2
100
AcDb2LineAngularDimension
 13
-1.145937534457349
 23
-3.148437499999981
 33
0.0
 14
-0.0000000000094078
 24
0.000000000000016
 34
0.0
 15
-0.0000000000094078
 25
0.000000000000016
 35
0.0
 16
30.69608778426589
 26
-13.24099977860339
 36
0.0
1001
ACAD
1000
DSTYLE
1002
{
1070
   271
1070
     0
1002
}
  0
DIMENSION
  5
640B
330
1F
100
AcDbEntity
  8
AM_5
100
AcDbDimension
  2
*D7
 10
-50.99999999999031
 20
-21.52101307252555
 30
0.0
 11
-25.49999999999862
 21
-18.42101307252555
 31
0.0
 70
    32
  3
AM_JIS
100
AcDbAlignedDimension
 13
-0.0000000000069332
 23
0.0000000000008156
 33
0.0
 14
-50.99999999999031
 24
-5.999999999999166
 34
0.0
100
AcDbRotatedDimension
1001
ACAD
1000
DSTYLE
1002
{
1070
    78
1070
     9
1002
}
  0
DIMENSION
  5
6418
330
1F
100
AcDbEntity
  8
AM_5
100
AcDbDimension
  2
*D8
 10
-102.0000000000067
 20
-33.16552648662276
 30
0.0
 11
-51.00000000000678
 21
-30.06552648662276
 31
0.0
 70
    32
  3
AM_JIS
100
AcDbAlignedDimension
 13
-0.0000000000067588
 23
-5.812500000000202
 33
0.0
 14
-102.0000000000067
 24
-4.799999999999751
 34
0.0
100
AcDbRotatedDimension
1001
ACAD
1000
DSTYLE
1002
{
1070
    78
1070
     9
1002
}
  0
LINE
  5
665C
330
1F
100
AcDbEntity
  8
AM_0
100
AcDbLine
 10
-102.0000000000067
 20
2.035157852090646
 30
0.0
 11
-102.0000000000067
 21
3.89827586221119
 31
0.0
  0
LINE
  5
665E
330
1F
100
AcDbEntity
  8
AM_0
100
AcDbLine
 10
-102.0000000000067
 20
-2.035157851701435
 30
0.0
 11
-102.0000000000067
 21
-1.448207373172531
 31
0.0
  0
LINE
  5
6660
330
1F
100
AcDbEntity
  8
AM_0
100
AcDbLine
 10
-102.0000000000067
 20
1.448207373174145
 30
0.0
 11
-102.0000000000068
 21
4.760000000000245
 31
0.0
  0
LINE
  5
6661
330
1F
100
AcDbEntity
  8
AM_0
100
AcDbLine
 10
-102.0000000000068
 20
-4.759999999999762
 30
0.0
 11
-102.0000000000067
 21
1.448207373174145
 31
0.0
  0
DIMENSION
  5
6663
330
1F
100
AcDbEntity
  8
AM_5
100
AcDbDimension
  2
*D9
 10
-116.9871082532284
 20
5.95000000000019
 30
0.0
 11
-116.9871082532284
 21
0.0000000000002985
 31
0.0
 70
   160
  1
%%C<>
  3
AM_JIS
100
AcDbAlignedDimension
 13
-100.9830584706297
 23
-5.94999999999956
 33
0.0
 14
-100.8100000000067
 24
5.950000000000185
 34
0.0
 50
90.0
100
AcDbRotatedDimension
  0
LINE
  5
67B1
330
1F
100
AcDbEntity
  8
AM_0
100
AcDbLine
 10
-0.0000000000169133
 20
0.0000000000008052
 30
0.0
 11
-2.165622893901663
 21
5.950000000000797
 31
0.0
  0
LINE
  5
67B7
330
1F
100
AcDbEntity
  8
AM_0
100
AcDbLine
 10
-2.143296884686388
 20
-5.949999999999182
 30
0.0
 11
-0.0000000000070228
 21
0.0000000000007979
 31
0.0
  0
LINE
  5
67B9
330
1F
100
AcDbEntity
  8
AM_0
100
AcDbLine
 10
-2.030259003542202
 20
-0.4664503386142328
 30
0.0
 11
-0.0000000000070228
 21
0.0000000000007979
 31
0.0
  0
LINE
  5
67BA
330
1F
100
AcDbEntity
  8
AM_0
100
AcDbLine
 10
-0.0000000000070228
 20
0.0000000000007979
 30
0.0
 11
-1.056599946649069
 21
1.033373239110401
 31
0.0
  0
LINE
  5
7571
330
1F
100
AcDbEntity
  8
AM_0
100
AcDbLine
 10
-1.056599946649069
 20
1.033373239110401
 30
0.0
 11
-0.3686828127976133
 21
1.033206657119011
 31
0.0
  0
LINE
  5
87FB
330
1F
100
AcDbEntity
  8
AM_0
100
AcDbLine
 10
-100.8100000000068
 20
5.950000000284192
 30
0.0
 11
-100.8100000000067
 21
-5.949999999715808
 31
0.0
  0
LINE
  5
8C98
330
1F
100
AcDbEntity
  8
AM_0
100
AcDbLine
 10
-100.8100000000068
 20
5.950000000000236
 30
0.0
 11
-102.0000000000068
 21
4.760000000000245
 31
0.0
1001
GENIUS_GENFIL_13
1070
     0
1040
1.0
1040
1.0
1040
20.0
1040
0.0
1002
{
1002
}
1001
GENIUS_GENODEF_13
1002
{
1000
HIER
1070
     0
1002
}
1002
{
1000
MANEDIT
1070
     0
1002
}
1002
{
1000
NOSEL
1070
     0
1002
}
1002
{
1000
BEHIND
1070
     0
1002
}
1002
{
1000
REACTOR
1002
}
1001
GENIUS_GENOBJ-N-CHA_13
1002
{
1000
OWNER
1000
GEN
1002
}
  0
LINE
  5
8C9A
330
1F
100
AcDbEntity
  8
AM_0
100
AcDbLine
 10
-100.8100000000068
 20
-5.949999999999773
 30
0.0
 11
-102.0000000000068
 21
-4.759999999999762
 31
0.0
1001
GENIUS_GENFIL_13
1070
     0
1040
1.0
1040
1.0
1040
20.0
1040
0.0
1002
{
1002
}
1001
GENIUS_GENODEF_13
1002
{
1000
HIER
1070
     0
1002
}
1002
{
1000
MANEDIT
1070
     0
1002
}
1002
{
1000
NOSEL
1070
     0
1002
}
1002
{
1000
BEHIND
1070
     0
1002
}
1002
{
1000
REACTOR
1002
}
1001
GENIUS_GENOBJ-N-CHA_13
1002
{
1000
OWNER
1000
GEN
1002
}
  0
SPLINE
  5
9199
330
1F
100
AcDbEntity
  8
AM_0
100
AcDbSpline
210
0.0
220
0.0
230
1.0
 70
     8
 71
     3
 72
     9
 73
     5
 74
     0
 42
0.0000000001
 43
0.0000000001
 40
0.0
 40
0.0
 40
0.0
 40
0.0
 40
0.0988701324080829
 40
1.147440854899445
 40
1.147440854899445
 40
1.147440854899445
 40
1.147440854899445
 10
-1.056593346154642
 20
1.033206657119011
 30
0.0
 10
-1.05063030946521
 20
0.8827127172326074
 30
0.0
 10
-0.9814260740700413
 20
-0.8638500801926584
 30
0.0
 10
-3.13367224671602
 20
1.735654089416256
 30
0.0
 10
-4.095922708405632
 20
2.741157639848808
 30
0.0
  0
LINE
  5
9278
330
1F
100
AcDbEntity
  8
AM_0
100
AcDbLine
 10
-2.030259003542202
 20
-0.4664503386142328
 30
0.0
 11
-4.095922708405632
 21
2.741157639848808
 31
0.0
  0
LINE
  5
9279
330
1F
100
AcDbEntity
  8
AM_0
100
AcDbLine
 10
-2.143296884686388
 20
-5.949999999999182
 30
0.0
 11
-2.030259003542202
 21
-0.4664503386142328
 31
0.0
  0
LINE
  5
927A
330
1F
100
AcDbEntity
  8
AM_5
  6
AM_ISO09W050
 62
     3
100
AcDbLine
 10
-26.50372676932565
 20
5.950000000000797
 30
0.0
 11
-37.52676686543617
 21
5.950000000000797
 31
0.0
  0
LINE
  5
927B
330
1F
100
AcDbEntity
  8
AM_0
100
AcDbLine
 10
-12.68510369255321
 20
5.950000000000797
 30
0.0
 11
-26.50372676932427
 21
5.950000000000797
 31
0.0
  0
SPLINE
  5
927C
330
1F
100
AcDbEntity
  8
AM_0
100
AcDbSpline
210
0.0
220
0.0
230
1.0
 70
     8
 71
     3
 72
     8
 73
     4
 74
     0
 42
0.0000000001
 43
0.0000000001
 40
22.73274810806179
 40
22.73274810806179
 40
22.73274810806179
 40
22.73274810806179
 40
28.97999309868792
 40
28.97999309868792
 40
28.97999309868792
 40
28.97999309868792
 10
-7.220455883552792
 20
-4.55213942453563
 30
0.0
 10
-8.95692513372861
 20
-5.396997008146569
 30
0.0
 10
-10.78324148893617
 20
-5.949999999999184
 30
0.0
 10
-12.68510369255861
 20
-5.949999999999184
 30
0.0
  0
SPLINE
  5
927D
330
1F
100
AcDbEntity
  8
AM_0
100
AcDbSpline
210
0.0
220
0.0
230
1.0
 70
     8
 71
     3
 72
     9
 73
     5
 74
     0
 42
0.0000000001
 43
0.0000000001
 40
0.0
 40
0.0
 40
0.0
 40
0.0
 40
0.1987770877846628
 40
5.759128114445015
 40
5.759128114445015
 40
5.759128114445015
 40
5.759128114445015
 10
-26.3221843626563
 20
5.300098683352979
 30
0.0
 10
-26.38269849821063
 20
5.300098683352979
 30
0.0
 10
-28.13685997919342
 20
5.307429000209538
 30
0.0
 10
-29.83900104572267
 20
4.889999759841945
 30
0.0
 10
-31.45274213657537
 20
4.244875734118721
 30
0.0
  0
LINE
  5
927E
330
1F
100
AcDbEntity
  8
AM_5
  6
AM_ISO09W050
 62
     3
100
AcDbLine
 10
-25.13378210905598
 20
-5.949999999999184
 30
0.0
 11
-37.52676686543576
 21
-5.949999999999184
 31
0.0
  0
SPLINE
  5
927F
330
1F
100
AcDbEntity
  8
AM_0
100
AcDbSpline
210
0.0
220
0.0
230
1.0
 70
     8
 71
     3
 72
     8
 73
     4
 74
     0
 42
0.0000000001
 43
0.0000000001
 40
22.73274810806259
 40
22.73274810806259
 40
22.73274810806259
 40
22.73274810806259
 40
28.97999309868794
 40
28.97999309868794
 40
28.97999309868794
 40
28.97999309868794
 10
-32.01524681738119
 20
-4.529413798310931
 30
0.0
 10
-33.79858830660725
 20
-5.396997008146691
 30
0.0
 10
-35.6249046618146
 20
-5.949999999999184
 30
0.0
 10
-37.52676686543682
 20
-5.949999999999184
 30
0.0
  0
SPLINE
  5
9280
330
1F
100
AcDbEntity
  8
AM_0
100
AcDbSpline
210
0.0
220
0.0
230
1.0
 70
     8
 71
     3
 72
     8
 73
     4
 74
     0
 42
0.0000000001
 43
0.0000000001
 40
0.0
 40
0.0
 40
0.0
 40
0.0
 40
6.870645942600294
 40
6.870645942600294
 40
6.870645942600294
 40
6.870645942600294
 10
-26.50372676932565
 20
5.300098683360676
 30
0.0
 10
-24.41209205466517
 20
5.308848194194877
 30
0.0
 10
-22.31249644616414
 20
4.889579543622976
 30
0.0
 10
-20.26418193593882
 20
4.157125627036233
 30
0.0
  0
LINE
  5
9281
330
1F
100
AcDbEntity
  8
AM_0
100
AcDbLine
 10
-12.68510369255721
 20
-5.949999999999184
 30
0.0
 11
-26.50372676932427
 21
-5.949999999999184
 31
0.0
  0
SPLINE
  5
9282
330
1F
100
AcDbEntity
  8
AM_0
100
AcDbSpline
210
0.0
220
0.0
230
1.0
 70
     8
 71
     3
 72
     9
 73
     5
 74
     0
 42
0.0000000001
 43
0.0000000001
 40
0.0
 40
0.0
 40
0.0
 40
0.0
 40
4.057199033816316
 40
8.114398067632626
 40
8.114398067632626
 40
8.114398067632626
 40
8.114398067632626
 10
-12.68510369255721
 20
-5.949999999999184
 30
0.0
 10
-17.09632444813309
 20
-5.949999999999184
 30
0.0
 10
-25.10593527899702
 20
0.0000000000008052
 30
0.0
 10
-33.11554610986098
 20
5.950000000000797
 30
0.0
 10
-37.52676686543682
 20
5.950000000000797
 30
0.0
  0
SPLINE
  5
9283
330
1F
100
AcDbEntity
  8
AM_0
100
AcDbSpline
210
0.0
220
0.0
230
1.0
 70
     8
 71
     3
 72
     8
 73
     4
 74
     0
 42
0.0000000001
 43
0.0000000001
 40
0.0
 40
0.0
 40
0.0
 40
0.0
 40
6.247244990625308
 40
6.247244990625308
 40
6.247244990625308
 40
6.247244990625308
 10
-26.50372676932565
 20
5.950000000000797
 30
0.0
 10
-28.40558897294782
 20
5.950000000000797
 30
0.0
 10
-30.23190532815519
 20
5.396997008148249
 30
0.0
 10
-32.01524681738125
 20
4.529413798312509
 30
0.0
  0
SPLINE
  5
9284
330
1F
100
AcDbEntity
  8
AM_0
100
AcDbSpline
210
0.0
220
0.0
230
1.0
 70
     8
 71
     3
 72
     9
 73
     5
 74
     0
 42
0.0000000001
 43
0.0000000001
 40
0.0
 40
0.0
 40
0.0
 40
0.0
 40
4.057199033816302
 40
8.114398067632619
 40
8.114398067632619
 40
8.114398067632619
 40
8.114398067632619
 10
-2.143296884686388
 20
-5.949999999999182
 30
0.0
 10
-6.07328435202189
 20
-5.949999999999184
 30
0.0
 10
-14.08289518288581
 20
0.0000000000008052
 30
0.0
 10
-22.09250601374975
 20
5.950000000000797
 30
0.0
 10
-26.50372676932565
 20
5.950000000000797
 30
0.0
  0
SPLINE
  5
9285
330
1F
100
AcDbEntity
  8
AM_0
100
AcDbSpline
210
0.0
220
0.0
230
1.0
 70
     8
 71
     3
 72
     9
 73
     5
 74
     0
 42
0.0000000001
 43
0.0000000001
 40
1.521176736886217
 40
1.521176736886217
 40
1.521176736886217
 40
1.521176736886217
 40
14.48999654934396
 40
28.97999309868792
 40
28.97999309868792
 40
28.97999309868792
 40
28.97999309868792
 10
-2.137782037470146
 20
-5.682470758658937
 30
0.0
 10
-5.544197978083682
 20
-5.325362060738675
 30
0.0
 10
-13.13337966578223
 20
0.3123189696310437
 30
0.0
 10
-20.72256135348071
 20
5.950000000000797
 30
0.0
 10
-25.13378210905655
 20
5.950000000000797
 30
0.0
  0
LINE
  5
9286
330
1F
100
AcDbEntity
  8
AM_5
  6
AM_ISO09W050
 62
     3
100
AcDbLine
 10
-2.143296884686389
 20
-5.949999999999182
 30
0.0
 11
-12.68510369255721
 21
-5.949999999999184
 31
0.0
  0
LINE
  5
9287
330
1F
100
AcDbEntity
  8
AM_5
  6
AM_ISO09W050
 62
     3
100
AcDbLine
 10
-2.177405673206983
 20
5.950000000000799
 30
0.0
 11
-12.68510369255721
 21
5.950000000000797
 31
0.0
  0
SPLINE
  5
9288
330
1F
100
AcDbEntity
  8
AM_0
100
AcDbSpline
210
0.0
220
0.0
230
1.0
 70
     8
 71
     3
 72
     8
 73
     4
 74
     0
 42
0.0000000001
 43
0.0000000001
 40
19.09542421355049
 40
19.09542421355049
 40
19.09542421355049
 40
19.09542421355049
 40
28.97999309868792
 40
28.97999309868792
 40
28.97999309868792
 40
28.97999309868792
 10
-4.095922708405625
 20
2.741157639848808
 30
0.0
 10
-6.855867664680677
 20
4.565586356526031
 30
0.0
 10
-9.6759231673906
 20
5.950000000000797
 30
0.0
 10
-12.68510369255861
 20
5.950000000000797
 30
0.0
  0
SPLINE
  5
9289
330
1F
100
AcDbEntity
  8
AM_0
100
AcDbSpline
210
0.0
220
0.0
230
1.0
 70
     8
 71
     3
 72
     8
 73
     4
 74
     0
 42
0.0000000001
 43
0.0000000001
 40
0.0
 40
0.0
 40
0.0
 40
0.0
 40
6.247244990626095
 40
6.247244990626095
 40
6.247244990626095
 40
6.247244990626095
 10
-2.165622893901663
 20
5.950000000000797
 30
0.0
 10
-3.563925800068469
 20
5.950000000000797
 30
0.0
 10
-5.390242155276041
 20
5.396997008148098
 30
0.0
 10
-7.17358364450238
 20
4.529413798312114
 30
0.0
  0
SPLINE
  5
928A
330
1F
100
AcDbEntity
  8
AM_0
100
AcDbSpline
210
0.0
220
0.0
230
1.0
 70
     8
 71
     3
 72
     9
 73
     5
 74
     0
 42
0.0000000001
 43
0.0000000001
 40
0.0
 40
0.0
 40
0.0
 40
0.0
 40
0.1987770877846628
 40
5.759128114460802
 40
5.759128114460802
 40
5.759128114460802
 40
5.759128114460802
 10
-1.987457969098803
 20
5.460495892166298
 30
0.0
 10
-1.987457969098803
 20
5.460495892166298
 30
0.0
 10
-3.295196806325057
 20
5.307429000224819
 30
0.0
 10
-4.997337872858819
 20
4.889999759854934
 30
0.0
 10
-6.611078963715867
 20
4.244875734128445
 30
0.0
  0
SPLINE
  5
928B
330
1F
100
AcDbEntity
  8
AM_0
100
AcDbSpline
210
0.0
220
0.0
230
1.0
 70
     8
 71
     3
 72
    10
 73
     6
 74
     0
 42
0.0000000001
 43
0.0000000001
 40
0.0
 40
0.0
 40
0.0
 40
0.0
 40
1.805349240137826
 40
3.686331527232636
 40
4.976269099446192
 40
4.976269099446192
 40
4.976269099446192
 40
4.976269099446192
 10
-46.86071815818676
 20
-2.237901791624003
 30
0.0
 10
-48.59569184960468
 20
-1.041745215063031
 30
0.0
 10
-54.03983230470776
 20
4.986050227048596
 30
0.0
 10
-44.79648488646026
 20
4.019871595948569
 30
0.0
 10
-42.17561524609929
 20
2.371107819975993
 30
0.0
 10
-40.94797261375353
 20
1.487500000000811
 30
0.0
  0
LINE
  5
928C
330
1F
100
AcDbEntity
  8
AM_0
100
AcDbLine
 10
-39.57806556196985
 20
1.487527069061436
 30
0.0
 11
-45.97617964918334
 21
5.950000000000825
 31
0.0
  0
LINE
  5
928D
330
1F
100
AcDbEntity
  8
AM_0
100
AcDbLine
 10
-50.99999999998527
 20
-5.949999999999184
 30
0.0
 11
-50.99999999998527
 21
5.950000000000825
 31
0.0
  0
SPLINE
  5
928E
330
1F
100
AcDbEntity
  8
AM_0
100
AcDbSpline
210
0.0
220
0.0
230
1.0
 70
     8
 71
     3
 72
     8
 73
     4
 74
     0
 42
0.0000000001
 43
0.0000000001
 40
0.0
 40
0.0
 40
0.0
 40
0.0
 40
10.77533687840354
 40
10.77533687840354
 40
10.77533687840354
 40
10.77533687840354
 10
-37.52676686543682
 20
-5.949999999999184
 30
0.0
 10
-40.80712580303012
 20
-5.949999999999184
 30
0.0
 10
-43.86273704814915
 20
-4.304824931375787
 30
0.0
 10
-46.86073191037063
 20
-2.237892310344321
 30
0.0
  0
SPLINE
  5
928F
330
1F
100
AcDbEntity
  8
AM_0
100
AcDbSpline
210
0.0
220
0.0
230
1.0
 70
     8
 71
     3
 72
     9
 73
     5
 74
     0
 42
0.0000000001
 43
0.0000000001
 40
0.0
 40
0.0
 40
0.0
 40
0.0
 40
14.48999654934396
 40
16.92804852839734
 40
16.92804852839734
 40
16.92804852839734
 40
16.92804852839734
 10
-26.50372676932565
 20
-5.949999999999184
 30
0.0
 10
-30.91494752490146
 20
-5.949999999999184
 30
0.0
 10
-35.5935918702164
 20
-2.474433653210643
 30
0.0
 10
-40.27223621553128
 20
1.001132693577932
 30
0.0
 10
-40.94801109537349
 20
1.487527697506901
 30
0.0
  0
SPLINE
  5
9290
330
1F
100
AcDbEntity
  8
AM_0
100
AcDbSpline
210
0.0
220
0.0
230
1.0
 70
     8
 71
     3
 72
     9
 73
     5
 74
     0
 42
0.0000000001
 43
0.0000000001
 40
0.0
 40
0.0
 40
0.0
 40
0.0
 40
14.48999654934396
 40
16.9280474783711
 40
16.9280474783711
 40
16.9280474783711
 40
16.9280474783711
 10
-26.50372676932427
 20
-5.949999999999184
 30
0.0
 10
-30.91494752490012
 20
-5.949999999999184
 30
0.0
 10
-35.59359158000443
 20
-2.474433868795876
 30
0.0
 10
-40.27223563510874
 20
1.001132262407586
 30
0.0
 10
-40.94801022223893
 20
1.487527069061497
 30
0.0
  0
SPLINE
  5
9291
330
1F
100
AcDbEntity
  8
AM_0
100
AcDbSpline
210
0.0
220
0.0
230
1.0
 70
     8
 71
     3
 72
     9
 73
     5
 74
     0
 42
0.0000000001
 43
0.0000000001
 40
0.0
 40
0.0
 40
0.0
 40
0.0
 40
14.48999654934396
 40
16.9280474783711
 40
16.9280474783711
 40
16.9280474783711
 40
16.9280474783711
 10
-25.13378210905519
 20
-5.949999999999184
 30
0.0
 10
-29.54500286463105
 20
-5.949999999999184
 30
0.0
 10
-34.22364691973533
 20
-2.474433868795876
 30
0.0
 10
-38.90229097483967
 20
1.001132262407586
 30
0.0
 10
-39.57806556196983
 20
1.487527069061497
 30
0.0
  0
VIEWPORT
  5
E2
330
1B
100
AcDbEntity
 67
     1
  8
0
100
AcDbViewport
 10
158.659971393327
 20
148.5
 30
0.0
 40
581.809078125
 41
314.226
 68
     1
 69
     1
1001
ACAD
1000
MVIEW
1002
{
1070
    16
1010
0.0
1020
0.0
1030
0.0
1010
0.0
1020
0.0
1030
1.0
1040
0.0
1040
314.226
1040
158.659971393327
1040
148.5
1040
50.0
1040
0.0
1040
0.0
1070
     0
1070
   100
1070
     1
1070
     1
1070
     0
1070
     0
1070
     0
1070
     0
1040
0.0
1040
0.0
1040
0.0
1040
10.0
1040
10.0
1040
10.0
1040
10.0
1070
     0
1002
{
1002
}
1002
}
  0
ENDSEC
  0
SECTION
  2
OBJECTS
  0
DICTIONARY
  5
C
330
0
100
AcDbDictionary
  3
ACAD_GROUP
350
D
  3
ACAD_LAYOUT
350
1A
  3
ACAD_MLINESTYLE
350
17
  3
ACAD_PLOTSETTINGS
350
19
  3
ACAD_PLOTSTYLENAME
350
E
  3
ACDBVARIABLEDICTIONARY
350
34
  3
ACMDICTIONARY
350
43
  3
AMG
350
2B
  3
AMGSNAPSETTINGS
350
6E
  3
DWGPROPS
350
92CA
  3
ACDBHEADERROUNDTRIPXREC
350
92D7
  0
DICTIONARY
  5
74
330
1F
100
AcDbDictionary
280
     1
  3
ACAD_INDEX
360
92CC
  3
ACAD_LAYOUTSELFREF
360
92FA
  0
DICTIONARY
  5
92F8
330
1B
100
AcDbDictionary
280
     1
  3
ACAD_LAYOUTSELFREF
360
92F9
  0
DICTIONARY
  5
D
102
{ACAD_REACTORS
330
C
102
}
330
C
100
AcDbDictionary
  0
DICTIONARY
  5
1A
102
{ACAD_REACTORS
330
C
102
}
330
C
100
AcDbDictionary
  0
DICTIONARY
  5
17
102
{ACAD_REACTORS
330
C
102
}
330
C
100
AcDbDictionary
  3
STANDARD
350
18
  0
DICTIONARY
  5
19
102
{ACAD_REACTORS
330
C
102
}
330
C
100
AcDbDictionary
  0
ACDBDICTIONARYWDFLT
  5
E
102
{ACAD_REACTORS
330
C
102
}
330
C
100
AcDbDictionary
281
     1
  3
Normal
350
F
100
AcDbDictionaryWithDefault
340
F
  0
DICTIONARY
  5
34
102
{ACAD_REACTORS
330
C
102
}
330
C
100
AcDbDictionary
  3
INDEXCTL
350
35
  3
SORTENTS
350
B5E
  0
DICTIONARY
  5
43
102
{ACAD_REACTORS
330
C
102
}
330
C
100
AcDbDictionary
  3
ACMSTDDICTIONARY
350
260
  0
DICTIONARY
  5
2B
102
{ACAD_REACTORS
330
C
102
}
330
C
100
AcDbDictionary
  3
ACMGSETTINGS
350
2C
  0
DICTIONARY
  5
6E
102
{ACAD_REACTORS
330
C
102
}
330
C
100
AcDbDictionary
  0
XRECORD
  5
92CA
102
{ACAD_REACTORS
330
C
102
}
330
C
100
AcDbXrecord
  1
DWGPROPS COOKIE
  2

  3

  4

  6

  7

  8

  9

300
AmdtFileType=82
301
=
302
=
303
=
304
=
305
=
306
=
307
=
308
=
309
=
 40
1.645517384259259
 41
2452838.620506898
 42
2452954.498095648
  1

 90
        1
  0
DICTIONARY
  5
92D7
102
{ACAD_REACTORS
330
C
102
}
330
C
100
AcDbDictionary
  3
TSTACKALIGN
350
92D8
  3
TSTACKSIZE
350
92D9
  3
HYPERLINKBASE
350
92DA
  3
STYLESHEET
350
92DB
  3
LAYOUTDICT
350
92DC
  3
PLOTSETDICT
350
92DD
  3
PLOTSTYLNAMDICT
350
92DE
  3
LWETCUNION
350
92DF
  3
INSUNITS
350
92E0
  3
CEPSNTYPE
350
92E1
  3
FINGERPRINTGUID
350
92E2
  3
VERSIONGUID
350
92E3
  3
PSVPSCALE
350
92E4
  3
DIMSTYLEDATA
350
92E5
  3
PUCSORTHOREF
350
92E6
  3
PUCSORTHOVIEW
350
92E7
  3
PUCSBASE
350
92E8
  3
PUCSORGTOP
350
92E9
  3
PUCSORGBOTTOM
350
92EA
  3
PUCSORGLEFT
350
92EB
  3
PUCSORGRIGHT
350
92EC
  3
PUCSORGFRONT
350
92ED
  3
PUCSORGBACK
350
92EE
  3
UCSORTHOREF
350
92EF
  3
UCSORTHOVIEW
350
92F0
  3
UCSBASE
350
92F1
  3
UCSORGTOP
350
92F2
  3
UCSORGBOTTOM
350
92F3
  3
UCSORGLEFT
350
92F4
  3
UCSORGRIGHT
350
92F5
  3
UCSORGFRONT
350
92F6
  3
UCSORGBACK
350
92F7
  0
DICTIONARY
  5
92CC
102
{ACAD_REACTORS
330
74
102
}
330
74
100
AcDbDictionary
  3
*A1
350
92CD
  0
XRECORD
  5
92FA
102
{ACAD_REACTORS
330
74
102
}
330
74
100
AcDbXrecord
340
1F
  0
XRECORD
  5
92F9
102
{ACAD_REACTORS
330
92F8
102
}
330
92F8
100
AcDbXrecord
340
1B
  0
MLINESTYLE
  5
18
102
{ACAD_REACTORS
330
17
102
}
330
17
100
AcDbMlineStyle
  2
STANDARD
 70
     0
  3

 62
   256
 51
90.0
 52
90.0
 71
     2
 49
0.5
 62
   256
  6
BYLAYER
 49
-0.5
 62
   256
  6
BYLAYER
  0
ACDBPLACEHOLDER
  5
F
102
{ACAD_REACTORS
330
E
102
}
330
E
100
AcDbPlaceHolder
280
     0
  0
DICTIONARYVAR
  5
35
102
{ACAD_REACTORS
330
34
102
}
330
34
100
DictionaryVariables
280
     0
  1
1
  0
DICTIONARYVAR
  5
B5E
102
{ACAD_REACTORS
330
34
102
}
330
34
100
DictionaryVariables
280
     0
  1
96
  0
DICTIONARY
  5
260
102
{ACAD_REACTORS
330
43
102
}
330
43
100
AcDbDictionary
  0
DICTIONARY
  5
2C
102
{ACAD_REACTORS
330
2B
102
}
330
2B
100
AcDbDictionary
  3
DWGSETTINGS
350
2D
  0
XRECORD
  5
92D8
102
{ACAD_REACTORS
330
92D7
102
}
330
92D7
100
AcDbXrecord
 90
        1
  0
XRECORD
  5
92D9
102
{ACAD_REACTORS
330
92D7
102
}
330
92D7
100
AcDbXrecord
 90
       70
  0
XRECORD
  5
92DA
102
{ACAD_REACTORS
330
92D7
102
}
330
92D7
100
AcDbXrecord
  1

  0
XRECORD
  5
92DB
102
{ACAD_REACTORS
330
92D7
102
}
330
92D7
100
AcDbXrecord
  1
ASAMI.ctb
  0
XRECORD
  5
92DC
102
{ACAD_REACTORS
330
92D7
102
}
330
92D7
100
AcDbXrecord
340
1A
  0
XRECORD
  5
92DD
102
{ACAD_REACTORS
330
92D7
102
}
330
92D7
100
AcDbXrecord
340
19
  0
XRECORD
  5
92DE
102
{ACAD_REACTORS
330
92D7
102
}
330
92D7
100
AcDbXrecord
340
E
  0
XRECORD
  5
92DF
102
{ACAD_REACTORS
330
92D7
102
}
330
92D7
100
AcDbXrecord
 90
    10781
  0
XRECORD
  5
92E0
102
{ACAD_REACTORS
330
92D7
102
}
330
92D7
100
AcDbXrecord
 90
        4
  0
XRECORD
  5
92E1
102
{ACAD_REACTORS
330
92D7
102
}
330
92D7
100
AcDbXrecord
 90
        0
  0
XRECORD
  5
92E2
102
{ACAD_REACTORS
330
92D7
102
}
330
92D7
100
AcDbXrecord
  1
{AFB28963-8C59-40AE-9337-C84526B81ACE}
  0
XRECORD
  5
92E3
102
{ACAD_REACTORS
330
92D7
102
}
330
92D7
100
AcDbXrecord
  1
{54CE6334-3222-46E6-91BB-0DAE64EC2FB4}
  0
XRECORD
  5
92E4
102
{ACAD_REACTORS
330
92D7
102
}
330
92D7
100
AcDbXrecord
 40
0.0
  0
XRECORD
  5
92E5
102
{ACAD_REACTORS
330
92D7
102
}
330
92D7
100
AcDbXrecord
1000
DSTYLE
1002
{
1070
    79
 70
     2
1070
   341
340
59
1070
   342
340
59
1070
   371
 70
    -1
1070
   372
 70
    -1
1002
}
  0
XRECORD
  5
92E6
102
{ACAD_REACTORS
330
92D7
102
}
330
92D7
100
AcDbXrecord
340
0
  0
XRECORD
  5
92E7
102
{ACAD_REACTORS
330
92D7
102
}
330
92D7
100
AcDbXrecord
 70
     0
  0
XRECORD
  5
92E8
102
{ACAD_REACTORS
330
92D7
102
}
330
92D7
100
AcDbXrecord
340
0
  0
XRECORD
  5
92E9
102
{ACAD_REACTORS
330
92D7
102
}
330
92D7
100
AcDbXrecord
 10
0.0
 20
0.0
 30
0.0
  0
XRECORD
  5
92EA
102
{ACAD_REACTORS
330
92D7
102
}
330
92D7
100
AcDbXrecord
 10
0.0
 20
0.0
 30
0.0
  0
XRECORD
  5
92EB
102
{ACAD_REACTORS
330
92D7
102
}
330
92D7
100
AcDbXrecord
 10
0.0
 20
0.0
 30
0.0
  0
XRECORD
  5
92EC
102
{ACAD_REACTORS
330
92D7
102
}
330
92D7
100
AcDbXrecord
 10
0.0
 20
0.0
 30
0.0
  0
XRECORD
  5
92ED
102
{ACAD_REACTORS
330
92D7
102
}
330
92D7
100
AcDbXrecord
 10
0.0
 20
0.0
 30
0.0
  0
XRECORD
  5
92EE
102
{ACAD_REACTORS
330
92D7
102
}
330
92D7
100
AcDbXrecord
 10
0.0
 20
0.0
 30
0.0
  0
XRECORD
  5
92EF
102
{ACAD_REACTORS
330
92D7
102
}
330
92D7
100
AcDbXrecord
340
0
  0
XRECORD
  5
92F0
102
{ACAD_REACTORS
330
92D7
102
}
330
92D7
100
AcDbXrecord
 70
     0
  0
XRECORD
  5
92F1
102
{ACAD_REACTORS
330
92D7
102
}
330
92D7
100
AcDbXrecord
340
0
  0
XRECORD
  5
92F2
102
{ACAD_REACTORS
330
92D7
102
}
330
92D7
100
AcDbXrecord
 10
0.0
 20
0.0
 30
0.0
  0
XRECORD
  5
92F3
102
{ACAD_REACTORS
330
92D7
102
}
330
92D7
100
AcDbXrecord
 10
0.0
 20
0.0
 30
0.0
  0
XRECORD
  5
92F4
102
{ACAD_REACTORS
330
92D7
102
}
330
92D7
100
AcDbXrecord
 10
0.0
 20
0.0
 30
0.0
  0
XRECORD
  5
92F5
102
{ACAD_REACTORS
330
92D7
102
}
330
92D7
100
AcDbXrecord
 10
0.0
 20
0.0
 30
0.0
  0
XRECORD
  5
92F6
102
{ACAD_REACTORS
330
92D7
102
}
330
92D7
100
AcDbXrecord
 10
0.0
 20
0.0
 30
0.0
  0
XRECORD
  5
92F7
102
{ACAD_REACTORS
330
92D7
102
}
330
92D7
100
AcDbXrecord
 10
0.0
 20
0.0
 30
0.0
  0
LAYER_INDEX
  5
92CD
102
{ACAD_REACTORS
330
92CC
102
}
330
92CC
100
AcDbIndex
 40
2453151.606913507
100
AcDbLayerIndex
  8
0
360
92CE
 90
        0
  8
AM_0
360
92CF
 90
       38
  8
AM_11
360
92D0
 90
        0
  8
AM_7
360
92D1
 90
        1
  8
AM_5
360
92D2
 90
        8
  8
Defpoints
360
92D3
 90
        0
  8
AM_6
360
92D4
 90
        1
  8
AM_CL
360
92D5
 90
        0
  0
XRECORD
  5
2D
102
{ACAD_REACTORS
330
2C
102
}
330
2C
100
AcDbXrecord
  1
VERSION
140
15.0
  1
PRODUCT
  2
AutoCAD Mechanical 2000
  0
IDBUFFER
  5
92CE
330
0
100
AcDbIdBuffer
  0
IDBUFFER
  5
92CF
330
0
100
AcDbIdBuffer
330
9278
330
9279
330
927B
330
927C
330
927D
330
927F
330
9280
330
9281
330
9282
330
9283
330
9284
330
9285
330
9288
330
9289
330
928A
330
928B
330
928C
330
928D
330
928E
330
928F
330
9290
330
9291
330
631C
330
631D
330
63DB
330
665C
330
665E
330
6660
330
6661
330
67B1
330
67B7
330
67B9
330
67BA
330
7571
330
87FB
330
8C98
330
8C9A
330
9199
  0
IDBUFFER
  5
92D0
330
0
100
AcDbIdBuffer
  0
IDBUFFER
  5
92D1
330
0
100
AcDbIdBuffer
330
6320
  0
IDBUFFER
  5
92D2
330
0
100
AcDbIdBuffer
330
63C1
330
640B
330
6418
330
6663
330
927A
330
927E
330
9286
330
9287
  0
IDBUFFER
  5
92D3
330
0
100
AcDbIdBuffer
  0
IDBUFFER
  5
92D4
330
0
100
AcDbIdBuffer
330
C58
  0
IDBUFFER
  5
92D5
330
0
100
AcDbIdBuffer
  0
ENDSEC
  0
EOF
