  0
SECTION
  2
HEADER
  9
$ACADVER
  1
AC1014
  9
$ACADMAINTVER
 70
     9
  9
$DWGCODEPAGE
  3
ANSI_932
  9
$INSBASE
 10
0.0
 20
0.0
 30
0.0
  9
$EXTMIN
 10
-128.7021816318114
 20
-59.81121729745051
 30
-0.00000001
  9
$EXTMAX
 10
30.8789902006898
 20
30.04059945573675
 30
0.00000001
  9
$LIMMIN
 10
-145.3501682235506
 20
-76.70142011157214
  9
$LIMMAX
 10
48.38418050515304
 20
43.7550962949677
  9
$ORTHOMODE
 70
     0
  9
$REGENMODE
 70
     1
  9
$FILLMODE
 70
     1
  9
$QTEXTMODE
 70
     0
  9
$MIRRTEXT
 70
     0
  9
$DRAGMODE
 70
     2
  9
$LTSCALE
 40
0.3
  9
$OSMODE
 70
    55
  9
$ATTMODE
 70
     1
  9
$TEXTSIZE
 40
2.5
  9
$TRACEWID
 40
1.0
  9
$TEXTSTYLE
  7
STANDARD
  9
$CLAYER
  8
AM_5
  9
$CELTYPE
  6
BYLAYER
  9
$CECOLOR
 62
   256
  9
$CELTSCALE
 40
1.0
  9
$DELOBJ
 70
     1
  9
$DISPSILH
 70
     0
  9
$DIMSCALE
 40
1.0
  9
$DIMASZ
 40
2.5
  9
$DIMEXO
 40
1.0
  9
$DIMDLI
 40
12.0
  9
$DIMRND
 40
0.0
  9
$DIMDLE
 40
0.0
  9
$DIMEXE
 40
1.0
  9
$DIMTP
 40
0.1
  9
$DIMTM
 40
0.1
  9
$DIMTXT
 40
3.2
  9
$DIMCEN
 40
0.0
  9
$DIMTSZ
 40
0.0
  9
$DIMTOL
 70
     0
  9
$DIMLIM
 70
     0
  9
$DIMTIH
 70
     0
  9
$DIMTOH
 70
     0
  9
$DIMSE1
 70
     0
  9
$DIMSE2
 70
     0
  9
$DIMTAD
 70
     3
  9
$DIMZIN
 70
     1
  9
$DIMBLK
  1
OPEN30
  9
$DIMASO
 70
     1
  9
$DIMSHO
 70
     1
  9
$DIMPOST
  1

  9
$DIMAPOST
  1
"
  9
$DIMALT
 70
     0
  9
$DIMALTD
 70
     2
  9
$DIMALTF
 40
0.0393701
  9
$DIMLFAC
 40
1.0
  9
$DIMTOFL
 70
     1
  9
$DIMTVP
 40
0.0
  9
$DIMTIX
 70
     0
  9
$DIMSOXD
 70
     0
  9
$DIMSAH
 70
     0
  9
$DIMBLK1
  1

  9
$DIMBLK2
  1

  9
$DIMSTYLE
  2
AM_JIS
  9
$DIMCLRD
 70
     3
  9
$DIMCLRE
 70
     3
  9
$DIMCLRT
 70
     2
  9
$DIMTFAC
 40
0.71
  9
$DIMGAP
 40
1.5
  9
$DIMJUST
 70
     0
  9
$DIMSD1
 70
     0
  9
$DIMSD2
 70
     0
  9
$DIMTOLJ
 70
     0
  9
$DIMTZIN
 70
     0
  9
$DIMALTZ
 70
     0
  9
$DIMALTTZ
 70
     0
  9
$DIMFIT
 70
     3
  9
$DIMUPT
 70
     0
  9
$DIMUNIT
 70
     2
  9
$DIMDEC
 70
     1
  9
$DIMTDEC
 70
     1
  9
$DIMALTU
 70
     2
  9
$DIMALTTD
 70
     2
  9
$DIMTXSTY
  7
ASAMI
  9
$DIMAUNIT
 70
     0
  9
$LUNITS
 70
     2
  9
$LUPREC
 70
     2
  9
$SKETCHINC
 40
1.0
  9
$FILLETRAD
 40
0.8
  9
$AUNITS
 70
     0
  9
$AUPREC
 70
     0
  9
$MENU
  1
.
  9
$ELEVATION
 40
0.0
  9
$PELEVATION
 40
0.0
  9
$THICKNESS
 40
0.0
  9
$LIMCHECK
 70
     0
  9
$BLIPMODE
 70
     0
  9
$CHAMFERA
 40
1.0
  9
$CHAMFERB
 40
1.0
  9
$CHAMFERC
 40
20.0
  9
$CHAMFERD
 40
0.0
  9
$SKPOLY
 70
     0
  9
$TDCREATE
 40
2452838.620506898
  9
$TDUPDATE
 40
2453151.607789514
  9
$TDINDWG
 40
1.6618287847
  9
$TDUSRTIMER
 40
1.6618287847
  9
$USRTIMER
 70
     1
  9
$ANGBASE
 50
0.0
  9
$ANGDIR
 70
     0
  9
$PDMODE
 70
     0
  9
$PDSIZE
 40
0.0
  9
$PLINEWID
 40
0.0
  9
$COORDS
 70
     1
  9
$SPLFRAME
 70
     0
  9
$SPLINETYPE
 70
     6
  9
$SPLINESEGS
 70
     8
  9
$ATTDIA
 70
     1
  9
$ATTREQ
 70
     1
  9
$HANDLING
 70
 12289
  9
$HANDSEED
  5
94D2
  9
$SURFTAB1
 70
     6
  9
$SURFTAB2
 70
     6
  9
$SURFTYPE
 70
     6
  9
$SURFU
 70
     6
  9
$SURFV
 70
     6
  9
$UCSNAME
  2

  9
$UCSORG
 10
-0.000000000017683
 20
-0.0000000000013101
 30
0.0
  9
$UCSXDIR
 10
1.0
 20
0.0
 30
0.0
  9
$UCSYDIR
 10
0.0
 20
1.0
 30
0.0
  9
$PUCSNAME
  2

  9
$PUCSORG
 10
0.0
 20
0.0
 30
0.0
  9
$PUCSXDIR
 10
1.0
 20
0.0
 30
0.0
  9
$PUCSYDIR
 10
0.0
 20
1.0
 30
0.0
  9
$USERI1
 70
     0
  9
$USERI2
 70
     0
  9
$USERI3
 70
     0
  9
$USERI4
 70
     0
  9
$USERI5
 70
     0
  9
$USERR1
 40
0.0
  9
$USERR2
 40
0.0
  9
$USERR3
 40
0.0
  9
$USERR4
 40
0.0
  9
$USERR5
 40
0.0
  9
$WORLDVIEW
 70
     1
  9
$SHADEDGE
 70
     3
  9
$SHADEDIF
 70
    70
  9
$TILEMODE
 70
     1
  9
$MAXACTVP
 70
    64
  9
$PINSBASE
 10
0.0
 20
0.0
 30
0.0
  9
$PLIMCHECK
 70
     0
  9
$PEXTMIN
 10
1.000000000000000E+20
 20
1.000000000000000E+20
 30
1.000000000000000E+20
  9
$PEXTMAX
 10
-1.000000000000000E+20
 20
-1.000000000000000E+20
 30
-1.000000000000000E+20
  9
$PLIMMIN
 10
0.0
 20
0.0
  9
$PLIMMAX
 10
210.0
 20
297.0
  9
$UNITMODE
 70
     0
  9
$VISRETAIN
 70
     1
  9
$PLINEGEN
 70
     0
  9
$PSLTSCALE
 70
     1
  9
$TREEDEPTH
 70
  3020
  9
$PICKSTYLE
 70
     0
  9
$CMLSTYLE
  2
STANDARD
  9
$CMLJUST
 70
     0
  9
$CMLSCALE
 40
20.0
  9
$PROXYGRAPHICS
 70
     1
  9
$MEASUREMENT
 70
     1
  0
ENDSEC
  0
SECTION
  2
CLASSES
  0
CLASS
  1
ACDBDICTIONARYWDFLT
  2
AcDbDictionaryWithDefault
  3
AutoCAD 2000
 90
        0
280
     0
281
     0
  0
CLASS
  1
ACDBPLACEHOLDER
  2
AcDbPlaceHolder
  3
AutoCAD 2000
 90
        0
280
     0
281
     0
  0
CLASS
  1
LAYOUT
  2
AcDbLayout
  3
AutoCAD 2000
 90
        0
280
     0
281
     0
  0
CLASS
  1
AMGSETTINGSOBJ
  2
AmgSettingsObj
  3
"AcadM|Product Description: AutoCAD Mechanical 2000|Company: Autodesk"
 90
        0
280
     0
281
     0
  0
CLASS
  1
ACME_DOCUMENT
  2
AcMeDbDoc
  3
AcMeServices
 90
        0
280
     0
281
     0
  0
CLASS
  1
ACMESCOPE
  2
AcMeScope
  3
AcMeServices
 90
        0
280
     0
281
     0
  0
CLASS
  1
ACMECOMMANDHISTORY
  2
AcMeCommandHistory
  3
AcMeServices
 90
        0
280
     0
281
     0
  0
CLASS
  1
DICTIONARYVAR
  2
AcDbDictionaryVar
  3
AutoCAD 2000
 90
        0
280
     0
281
     0
  0
CLASS
  1
ACIMSYSVARMAN
  2
AcImSysVarManager
  3
AcMeServices
 90
        0
280
     0
281
     0
  0
CLASS
  1
ACIMREALSYSVAR
  2
AcImRealSysVar
  3
AcMeServices
 90
        0
280
     0
281
     0
  0
CLASS
  1
ACIMINTSYSVAR
  2
AcImIntSysVar
  3
AcMeServices
 90
        0
280
     0
281
     0
  0
CLASS
  1
ACMEDRAWINGMAN
  2
AcMeDrawingMan
  3
AcMeServices
 90
        0
280
     0
281
     0
  0
CLASS
  1
ACMEVIEW
  2
AcMeView
  3
AcMeServices
 90
        0
280
     0
281
     0
  0
CLASS
  1
ACDBENTITYCACHE
  2
AcMeEntityCache
  3
AcMeServices
 90
        0
280
     0
281
     0
  0
CLASS
  1
GSMANAGER
  2
AcMeGSManager
  3
AcMeServices
 90
        0
280
     0
281
     0
  0
CLASS
  1
AmdtInternalReactor
  2
AmdtInternalReactor
  3
AcMeServices
 90
        0
280
     0
281
     0
  0
CLASS
  1
ACMESTATEMGR
  2
AcMeStateMgr
  3
AcMeServices
 90
        0
280
     0
281
     0
  0
CLASS
  1
ACME_DATABASE
  2
AcMeDbDatabase
  3
AcMeServices
 90
        0
280
     0
281
     0
  0
CLASS
  1
ACRFINSADJUSTERMGR
  2
AcRfInsAdjusterMgr
  3
AcMeServices
 90
        0
280
     0
281
     0
  0
CLASS
  1
ACMDATADICTIONARY
  2
AcmDataDictionary
  3
"AcmSymBB|Product Description: AutoCAD Mechanical 2000|Company: Autodesk"
 90
        0
280
     0
281
     0
  0
CLASS
  1
ACMDATAENTRYBLOCK
  2
AcmDataEntryBlock
  3
"AcmSymBB|Product Description: AutoCAD Mechanical 2000|Company: Autodesk"
 90
        0
280
     0
281
     0
  0
CLASS
  1
AMGOBJPROPCFG
  2
AmgObjPropCfg
  3
"AmgLay|Product Description: AutoCAD Mechanical 2000|Company: Autodesk"
 90
        1
280
     0
281
     0
  0
CLASS
  1
ACAMGFILTERDAT
  2
AcAmgFilterDat
  3
"AcadM|Product Description: AutoCAD Mechanical 2000|Company: Autodesk"
 90
        0
280
     0
281
     0
  0
CLASS
  1
LAYER_INDEX
  2
AcDbLayerIndex
  3
AutoCAD 2000
 90
        0
280
     0
281
     0
  0
CLASS
  1
IDBUFFER
  2
AcDbIdBuffer
  3
AutoCAD 2000
 90
        0
280
     0
281
     0
  0
CLASS
  1
ACIMSTRSYSVAR
  2
AcImStrSysVar
  3
AcMeServices
 90
        0
280
     0
281
     0
  0
CLASS
  1
ACMSTANDARDJIS
  2
AcmStandardJIS
  3
"AcmSymBB|Product Description: AutoCAD Mechanical 2000|Company: Autodesk"
 90
        0
280
     0
281
     0
  0
CLASS
  1
ACMSURFSTANDARDJIS
  2
AcmSurfTextStdJIS
  3
"AcmSymBB|Product Description: AutoCAD Mechanical 2000|Company: Autodesk"
 90
        0
280
     0
281
     0
  0
CLASS
  1
ACMFCFSTANDARDJIS
  2
AcmFCFStdJIS
  3
"AcmSymBB|Product Description: AutoCAD Mechanical 2000|Company: Autodesk"
 90
        0
280
     0
281
     0
  0
CLASS
  1
ACMWELDSTANDARDJIS
  2
AcmWeldingStdJIS
  3
"AcmSymBB|Product Description: AutoCAD Mechanical 2000|Company: Autodesk"
 90
        0
280
     0
281
     0
  0
CLASS
  1
ACMIDSTANDARDJIS
  2
AcmIdStdJIS
  3
"AcmSymBB|Product Description: AutoCAD Mechanical 2000|Company: Autodesk"
 90
        0
280
     0
281
     0
  0
CLASS
  1
ACMDATUMSTANDARDJIS
  2
AcmDatumStdJIS
  3
"AcmSymBB|Product Description: AutoCAD Mechanical 2000|Company: Autodesk"
 90
        0
280
     0
281
     0
  0
CLASS
  1
ACMBOMSTANDARDJIS
  2
AcmBOMStdJIS
  3
"AcmSymBB|Product Description: AutoCAD Mechanical 2000|Company: Autodesk"
 90
        0
280
     0
281
     0
  0
CLASS
  1
ACMSTANDARDANSI
  2
AcmStandardANSI
  3
"AcmSymBB|Product Description: AutoCAD Mechanical 2000|Company: Autodesk"
 90
        0
280
     0
281
     0
  0
CLASS
  1
ACMSURFSTANDARDANSI
  2
AcmSurfTextStdANSI
  3
"AcmSymBB|Product Description: AutoCAD Mechanical 2000|Company: Autodesk"
 90
        0
280
     0
281
     0
  0
CLASS
  1
ACMFCFSTANDARDANSI
  2
AcmFCFStdANSI
  3
"AcmSymBB|Product Description: AutoCAD Mechanical 2000|Company: Autodesk"
 90
        0
280
     0
281
     0
  0
CLASS
  1
ACMWELDSTANDARDANSI
  2
AcmWeldingStdANSI
  3
"AcmSymBB|Product Description: AutoCAD Mechanical 2000|Company: Autodesk"
 90
        0
280
     0
281
     0
  0
CLASS
  1
ACMIDSTANDARDANSI
  2
AcmIdStdANSI
  3
"AcmSymBB|Product Description: AutoCAD Mechanical 2000|Company: Autodesk"
 90
        0
280
     0
281
     0
  0
CLASS
  1
ACMDATUMSTANDARDANSI
  2
AcmDatumStdANSI
  3
"AcmSymBB|Product Description: AutoCAD Mechanical 2000|Company: Autodesk"
 90
        0
280
     0
281
     0
  0
CLASS
  1
ACMBOMSTANDARDANSI
  2
AcmBOMStdANSI
  3
"AcmSymBB|Product Description: AutoCAD Mechanical 2000|Company: Autodesk"
 90
        0
280
     0
281
     0
  0
CLASS
  1
ACMSTANDARDBSI
  2
AcmStandardBSI
  3
"AcmSymBB|Product Description: AutoCAD Mechanical 2000|Company: Autodesk"
 90
        0
280
     0
281
     0
  0
CLASS
  1
ACMSURFSTANDARDBSI
  2
AcmSurfTextStdBSI
  3
"AcmSymBB|Product Description: AutoCAD Mechanical 2000|Company: Autodesk"
 90
        0
280
     0
281
     0
  0
CLASS
  1
ACMFCFSTANDARDBSI
  2
AcmFCFStdBSI
  3
"AcmSymBB|Product Description: AutoCAD Mechanical 2000|Company: Autodesk"
 90
        0
280
     0
281
     0
  0
CLASS
  1
ACMWELDSTANDARDBSI
  2
AcmWeldingStdBSI
  3
"AcmSymBB|Product Description: AutoCAD Mechanical 2000|Company: Autodesk"
 90
        0
280
     0
281
     0
  0
CLASS
  1
ACMIDSTANDARDBSI
  2
AcmIdStdBSI
  3
"AcmSymBB|Product Description: AutoCAD Mechanical 2000|Company: Autodesk"
 90
        0
280
     0
281
     0
  0
CLASS
  1
ACMDATUMSTANDARDBSI
  2
AcmDatumStdBSI
  3
"AcmSymBB|Product Description: AutoCAD Mechanical 2000|Company: Autodesk"
 90
        0
280
     0
281
     0
  0
CLASS
  1
ACMBOMSTANDARDBSI
  2
AcmBOMStdBSI
  3
"AcmSymBB|Product Description: AutoCAD Mechanical 2000|Company: Autodesk"
 90
        0
280
     0
281
     0
  0
CLASS
  1
LONG_TRANSACTION
  2
AcDbLongTransaction
  3
AutoCAD 2000
 90
        0
280
     0
281
     0
  0
CLASS
  1
LWPOLYLINE
  2
AcDbPolyline
  3
AutoCAD 2000
 90
        0
280
     0
281
     1
  0
CLASS
  1
HATCH
  2
AcDbHatch
  3
AutoCAD 2000
 90
        0
280
     0
281
     1
  0
CLASS
  1
XRECORD
  2
AcDbXrecord
  3
AutoCAD 2000
 90
        0
280
     0
281
     0
  0
ENDSEC
  0
SECTION
  2
TABLES
  0
TABLE
  2
VPORT
  5
8
330
0
100
AcDbSymbolTable
 70
     3
  0
VPORT
  5
9493
330
8
100
AcDbSymbolTableRecord
100
AcDbViewportTableRecord
  2
*ACTIVE
 70
     0
 10
0.0
 20
0.0
 11
1.0
 21
1.0
 12
-31.7246997895985
 22
-3.284758457597746
 13
0.0
 23
0.0
 14
2.5
 24
2.5
 15
10.0
 25
10.0
 16
0.0
 26
0.0
 36
1.0
 17
0.0
 27
0.0
 37
0.0
 40
190.9353210369674
 41
1.56570841889117
 42
50.0
 43
0.0
 44
0.0
 50
0.0
 51
0.0
 71
     0
 72
   100
 73
     1
 74
     3
 75
     0
 76
     0
 77
     0
 78
     0
  0
ENDTAB
  0
TABLE
  2
LTYPE
  5
5
330
0
100
AcDbSymbolTable
 70
    10
  0
LTYPE
  5
14
330
5
100
AcDbSymbolTableRecord
100
AcDbLinetypeTableRecord
  2
BYBLOCK
 70
     0
  3

 72
    65
 73
     0
 40
0.0
  0
LTYPE
  5
15
330
5
100
AcDbSymbolTableRecord
100
AcDbLinetypeTableRecord
  2
BYLAYER
 70
     0
  3

 72
    65
 73
     0
 40
0.0
  0
LTYPE
  5
16
330
5
100
AcDbSymbolTableRecord
100
AcDbLinetypeTableRecord
  2
CONTINUOUS
 70
     0
  3
Solid line
 72
    65
 73
     0
 40
0.0
  0
LTYPE
  5
4B
330
5
100
AcDbSymbolTableRecord
100
AcDbLinetypeTableRecord
  2
AM_ISO02W050
 70
     0
  3
__ __ __ __ __ __ __ __ __ __ __ __ __ __ __
 72
    65
 73
     2
 40
7.5
 49
6.0
 74
     0
 49
-1.5
 74
     0
  0
LTYPE
  5
4C
330
5
100
AcDbSymbolTableRecord
100
AcDbLinetypeTableRecord
  2
AM_ISO08W050
 70
     0
  3
____ . ____ . ____ . ____ . ____ . ____ . ____
 72
    65
 73
     4
 40
18.0
 49
12.0
 74
     0
 49
-1.5
 74
     0
 49
3.0
 74
     0
 49
-1.5
 74
     0
  0
LTYPE
  5
4D
330
5
100
AcDbSymbolTableRecord
100
AcDbLinetypeTableRecord
  2
AM_ISO09W050
 70
     0
  3
_____ . . _____ . . _____ . . ____ .. ____
 72
    65
 73
     6
 40
22.5
 49
12.0
 74
     0
 49
-1.5
 74
     0
 49
3.0
 74
     0
 49
-1.5
 74
     0
 49
3.0
 74
     0
 49
-1.5
 74
     0
  0
LTYPE
  5
4E
330
5
100
AcDbSymbolTableRecord
100
AcDbLinetypeTableRecord
  2
AMCONSTR
 70
     0
  3
_______________________
 72
    65
 73
     2
 40
9999.0
 49
9999.0
 74
     0
 49
0.0
 74
     0
  0
LTYPE
  5
4F
330
5
100
AcDbSymbolTableRecord
100
AcDbLinetypeTableRecord
  2
AM_ISO02W050X2
 70
     0
  3
 _ _ _ _ _ _ _ _ _ _ _ _
 72
    65
 73
     2
 40
3.75
 49
3.0
 74
     0
 49
-0.75
 74
     0
  0
LTYPE
  5
50
330
5
100
AcDbSymbolTableRecord
100
AcDbLinetypeTableRecord
  2
AM_ISO08W050X2
 70
     0
  3
__ . __ . __ . __ . __ . __
 72
    65
 73
     4
 40
9.0
 49
6.0
 74
     0
 49
-0.75
 74
     0
 49
1.5
 74
     0
 49
-0.75
 74
     0
  0
LTYPE
  5
53
330
5
100
AcDbSymbolTableRecord
100
AcDbLinetypeTableRecord
  2
AMZIGZAG
 70
     0
  3
/\/-/\/-/\/-/\/-/\/-/\/
 72
    65
 73
     2
 40
11.00009999999999
 49
0.0001
 74
     4
 75
   135
340
52
 46
0.04
 50
0.0
 44
0.0
 45
0.0
 49
-11.0
 74
     0
  0
LTYPE
  5
166
330
5
100
AcDbSymbolTableRecord
100
AcDbLinetypeTableRecord
  2
ACJISTGL
 70
     0
  3
_ _ _ _ _
 72
    65
 73
     2
 40
3.0
 49
2.0
 74
     0
 49
-1.0
 74
     0
  0
LTYPE
  5
26A
330
5
100
AcDbSymbolTableRecord
100
AcDbLinetypeTableRecord
  2
ACJISTGB
 70
     0
  3
__ . . __ . .
 72
    65
 73
     6
 40
9.0
 49
4.0
 74
     0
 49
-1.0
 74
     0
 49
1.0
 74
     0
 49
-1.0
 74
     0
 49
1.0
 74
     0
 49
-1.0
 74
     0
  0
ENDTAB
  0
TABLE
  2
LAYER
  5
2
330
0
100
AcDbSymbolTable
 70
     8
  0
LAYER
  5
10
330
2
100
AcDbSymbolTableRecord
100
AcDbLayerTableRecord
  2
0
 70
     0
 62
     7
  6
CONTINUOUS
  0
LAYER
  5
3F9
330
2
100
AcDbSymbolTableRecord
100
AcDbLayerTableRecord
  2
AM_0
 70
     0
 62
     7
  6
CONTINUOUS
  0
LAYER
  5
BD6
330
2
100
AcDbSymbolTableRecord
100
AcDbLayerTableRecord
  2
AM_11
 70
     0
 62
     3
  6
AM_ISO09W050
  0
LAYER
  5
BD7
330
2
100
AcDbSymbolTableRecord
100
AcDbLayerTableRecord
  2
AM_7
 70
     0
 62
     4
  6
AM_ISO08W050
  0
LAYER
  5
BD8
330
2
100
AcDbSymbolTableRecord
100
AcDbLayerTableRecord
  2
AM_5
 70
     0
 62
     3
  6
CONTINUOUS
  0
LAYER
  5
BD9
330
2
100
AcDbSymbolTableRecord
100
AcDbLayerTableRecord
  2
DEFPOINTS
 70
     0
 62
     7
  6
CONTINUOUS
  0
LAYER
  5
BDA
330
2
100
AcDbSymbolTableRecord
100
AcDbLayerTableRecord
  2
AM_6
 70
     0
 62
     2
  6
CONTINUOUS
  0
LAYER
  5
1E2E
330
2
100
AcDbSymbolTableRecord
100
AcDbLayerTableRecord
  2
AM_CL
 70
     0
 62
     1
  6
AMCONSTR
  0
ENDTAB
  0
TABLE
  2
STYLE
  5
3
330
0
100
AcDbSymbolTable
 70
     5
  0
STYLE
  5
11
330
3
100
AcDbSymbolTableRecord
100
AcDbTextStyleTableRecord
  2
STANDARD
 70
     0
 40
0.0
 41
1.0
 50
0.0
 71
     0
 42
2.5
  3
simplex.shx
  4
EXTFONT.SHX
  0
STYLE
  5
52
330
3
100
AcDbSymbolTableRecord
100
AcDbTextStyleTableRecord
  2

 70
     1
 40
0.0
 41
1.0
 50
0.0
 71
     0
 42
2.5
  3
ltypeshp.shx
  4

  0
STYLE
  5
6B
330
3
100
AcDbSymbolTableRecord
100
AcDbTextStyleTableRecord
  2
ASAMI
 70
     0
 40
0.0
 41
1.0
 50
0.0
 71
     0
 42
2.5
  3
simplex.shx
  4
EXTFONT.SHX
  0
STYLE
  5
262
330
3
100
AcDbSymbolTableRecord
100
AcDbTextStyleTableRecord
  2
ACJISTS
 70
     0
 40
1.0
 41
1.0
 50
0.0
 71
     0
 42
2.5
  3
simplex.shx
  4
bigfont.shx
  0
STYLE
  5
269
330
3
100
AcDbSymbolTableRecord
100
AcDbTextStyleTableRecord
  2
ACJISGDT
 70
     0
 40
0.0
 41
1.0
 50
0.0
 71
     0
 42
2.5
  3
amgdtans.shx
  4

  0
ENDTAB
  0
TABLE
  2
VIEW
  5
6
330
0
100
AcDbSymbolTable
 70
     0
  0
ENDTAB
  0
TABLE
  2
UCS
  5
7
330
0
100
AcDbSymbolTable
 70
     0
  0
ENDTAB
  0
TABLE
  2
APPID
  5
9
330
0
100
AcDbSymbolTable
 70
    14
  0
APPID
  5
12
330
9
100
AcDbSymbolTableRecord
100
AcDbRegAppTableRecord
  2
ACAD
 70
     0
  0
APPID
  5
30
330
9
100
AcDbSymbolTableRecord
100
AcDbRegAppTableRecord
  2
MCAD_NO_VIS
 70
     0
  0
APPID
  5
31
330
9
100
AcDbSymbolTableRecord
100
AcDbRegAppTableRecord
  2
ACAD_TEMP_GRAPHIC
 70
     0
  0
APPID
  5
2C2
330
9
100
AcDbSymbolTableRecord
100
AcDbRegAppTableRecord
  2
GENIUS_GENDTOL_13
 70
     0
  0
APPID
  5
339
330
9
100
AcDbSymbolTableRecord
100
AcDbRegAppTableRecord
  2
GENIUS_GENODEF_13
 70
     0
  0
APPID
  5
33A
330
9
100
AcDbSymbolTableRecord
100
AcDbRegAppTableRecord
  2
GENIUS_GENOBJ-N-RSBK_13
 70
     0
  0
APPID
  5
33B
330
9
100
AcDbSymbolTableRecord
100
AcDbRegAppTableRecord
  2
GENIUS_GENOBJ-N-LIB_13
 70
     0
  0
APPID
  5
33C
330
9
100
AcDbSymbolTableRecord
100
AcDbRegAppTableRecord
  2
GENIUS_GENSCALE_13
 70
     0
  0
APPID
  5
378
330
9
100
AcDbSymbolTableRecord
100
AcDbRegAppTableRecord
  2
GENIUS_GENDIMSH_14
 70
     0
  0
APPID
  5
BDB
330
9
100
AcDbSymbolTableRecord
100
AcDbRegAppTableRecord
  2
GENIUS_GENOBJ-N-CEN_13
 70
     0
  0
APPID
  5
BDC
330
9
100
AcDbSymbolTableRecord
100
AcDbRegAppTableRecord
  2
GENIUS_GENFIL_13
 70
     0
  0
APPID
  5
BDD
330
9
100
AcDbSymbolTableRecord
100
AcDbRegAppTableRecord
  2
GENIUS_GENOBJ-N-FIL_13
 70
     0
  0
APPID
  5
12AD
330
9
100
AcDbSymbolTableRecord
100
AcDbRegAppTableRecord
  2
GENIUS_GENOREF_13
 70
     0
  0
APPID
  5
62E6
330
9
100
AcDbSymbolTableRecord
100
AcDbRegAppTableRecord
  2
GENIUS_GENOBJ-N-CHA_13
 70
     0
  0
ENDTAB
  0
TABLE
  2
DIMSTYLE
  5
A
330
0
100
AcDbSymbolTable
 70
     9
  0
DIMSTYLE
105
58
102
{ACAD_REACTORS
330
63C1
330
640B
330
6418
330
6663
102
}
330
A
100
AcDbSymbolTableRecord
100
AcDbDimStyleTableRecord
  2
AM_JIS
 70
     0
  3

  4
"
  5
OPEN30
  6

  7

 40
1.0
 41
2.5
 42
1.0
 43
12.0
 44
1.0
 45
0.0
 46
0.0
 47
0.1
 48
0.1
140
3.2
141
0.0
142
0.0
143
0.0393701
144
1.0
145
0.0
146
0.71
147
1.5
 71
     0
 72
     0
 73
     0
 74
     0
 75
     0
 76
     0
 77
     3
 78
     1
170
     0
171
     2
172
     1
173
     0
174
     0
175
     0
176
     3
177
     3
178
     2
270
     2
271
     1
272
     1
273
     2
274
     2
340
6B
275
     0
280
     0
281
     0
282
     0
283
     0
284
     0
285
     0
286
     0
287
     3
288
     0
  0
DIMSTYLE
105
5F
330
A
100
AcDbSymbolTableRecord
100
AcDbDimStyleTableRecord
  2
AM_JIS$3
 70
     0
  3

  4
"
  5
OPEN30
  6

  7

 40
1.0
 41
2.5
 42
1.0
 43
10.0
 44
1.0
 45
0.0
 46
0.0
 47
0.1
 48
0.1
140
3.2
141
0.0
142
0.0
143
0.0393701
144
1.0
145
0.0
146
0.71
147
1.5
 71
     0
 72
     0
 73
     0
 74
     1
 75
     0
 76
     0
 77
     3
 78
     1
170
     0
171
     2
172
     0
173
     0
174
     0
175
     0
176
     3
177
     3
178
     2
270
     2
271
     2
272
     1
273
     2
274
     2
340
6B
275
     0
280
     0
281
     0
282
     0
283
     0
284
     0
285
     0
286
     0
287
     0
288
     1
  0
DIMSTYLE
105
60
330
A
100
AcDbSymbolTableRecord
100
AcDbDimStyleTableRecord
  2
AM_JIS$4
 70
     0
  3

  4
"
  5
OPEN30
  6

  7

 40
1.0
 41
2.5
 42
1.0
 43
10.0
 44
1.0
 45
0.0
 46
0.0
 47
0.1
 48
0.1
140
3.2
141
0.0
142
0.0
143
0.0393701
144
1.0
145
0.0
146
0.71
147
1.5
 71
     0
 72
     0
 73
     0
 74
     1
 75
     0
 76
     0
 77
     3
 78
     1
170
     0
171
     2
172
     0
173
     0
174
     0
175
     0
176
     3
177
     3
178
     2
270
     2
271
     2
272
     1
273
     2
274
     2
340
6B
275
     0
280
     0
281
     0
282
     0
283
     0
284
     0
285
     0
286
     0
287
     0
288
     1
  0
DIMSTYLE
105
61
330
A
100
AcDbSymbolTableRecord
100
AcDbDimStyleTableRecord
  2
AM_JIS$6
 70
     0
  3

  4
"
  5
OPEN30
  6

  7

 40
1.0
 41
2.5
 42
1.0
 43
10.0
 44
1.0
 45
0.0
 46
0.0
 47
0.1
 48
0.1
140
3.2
141
0.0
142
0.0
143
0.0393701
144
1.0
145
0.0
146
0.71
147
1.5
 71
     0
 72
     0
 73
     0
 74
     0
 75
     0
 76
     0
 77
     0
 78
     1
170
     0
171
     2
172
     1
173
     0
174
     0
175
     0
176
     3
177
     3
178
     2
270
     2
271
     2
272
     2
273
     2
274
     2
340
6B
275
     0
280
     0
281
     0
282
     0
283
     0
284
     0
285
     0
286
     0
287
     3
288
     0
  0
DIMSTYLE
105
62
330
A
100
AcDbSymbolTableRecord
100
AcDbDimStyleTableRecord
  2
AM_JIS$7
 70
     0
  3

  4
"
  5
OPEN30
  6

  7

 40
1.0
 41
2.5
 42
1.0
 43
10.0
 44
1.0
 45
0.0
 46
0.0
 47
0.1
 48
0.1
140
3.2
141
0.0
142
0.0
143
0.0393701
144
1.0
145
0.0
146
0.71
147
1.5
 71
     0
 72
     0
 73
     0
 74
     0
 75
     0
 76
     0
 77
     3
 78
     1
170
     0
171
     2
172
     1
173
     0
174
     0
175
     0
176
     3
177
     3
178
     2
270
     2
271
     2
272
     1
273
     2
274
     2
340
6B
275
     0
280
     0
281
     0
282
     0
283
     0
284
     0
285
     0
286
     0
287
     3
288
     0
  0
DIMSTYLE
105
63
330
A
100
AcDbSymbolTableRecord
100
AcDbDimStyleTableRecord
  2
AM_JIS$SF
 70
     0
  3

  4
"
  5
OPEN30
  6

  7

 40
1.0
 41
2.5
 42
1.0
 43
10.0
 44
1.0
 45
0.0
 46
0.0
 47
0.1
 48
0.1
140
3.2
141
0.0
142
0.0
143
0.0393701
144
1.0
145
0.0
146
0.71
147
1.5
 71
     0
 72
     0
 73
     0
 74
     0
 75
     1
 76
     1
 77
     3
 78
     8
170
     0
171
     2
172
     1
173
     0
174
     0
175
     0
176
   256
177
   256
178
     2
270
     2
271
     2
272
     2
273
     2
274
     2
340
6B
275
     0
280
     0
281
     0
282
     0
283
     0
284
     0
285
     0
286
     0
287
     3
288
     0
  0
DIMSTYLE
105
68
330
A
100
AcDbSymbolTableRecord
100
AcDbDimStyleTableRecord
  2
AM_JIS$SH
 70
     0
  3

  4
"
  5

  6
GENAXEH
  7
OPEN30
 40
1.0
 41
2.5
 42
1.0
 43
10.0
 44
1.0
 45
0.0
 46
0.0
 47
0.1
 48
0.1
140
3.2
141
0.0
142
0.0
143
0.0393701
144
2.0
145
0.0
146
0.71
147
1.5
 71
     0
 72
     0
 73
     0
 74
     0
 75
     1
 76
     1
 77
     3
 78
     8
170
     0
171
     2
172
     1
173
     1
174
     0
175
     0
176
   256
177
   256
178
     2
270
     2
271
     2
272
     2
273
     2
274
     2
340
6B
275
     0
280
     0
281
     0
282
     0
283
     0
284
     0
285
     0
286
     0
287
     3
288
     0
  0
DIMSTYLE
105
B34
102
{ACAD_REACTORS
330
63DB
102
}
330
A
100
AcDbSymbolTableRecord
100
AcDbDimStyleTableRecord
  2
AM_JIS$2
 70
     0
  3

  4
"
  5
OPEN30
  6

  7

 40
1.0
 41
2.5
 42
1.0
 43
12.0
 44
1.0
 45
0.0
 46
0.0
 47
0.1
 48
0.1
140
3.2
141
0.0
142
0.0
143
0.0393701
144
1.0
145
0.0
146
0.71
147
1.5
 71
     0
 72
     0
 73
     0
 74
     0
 75
     0
 76
     0
 77
     3
 78
     1
170
     0
171
     2
172
     1
173
     0
174
     0
175
     0
176
     3
177
     3
178
     2
270
     2
271
     1
272
     1
273
     2
274
     2
340
6B
275
     0
280
     0
281
     0
282
     0
283
     0
284
     0
285
     0
286
     0
287
     3
288
     0
  0
DIMSTYLE
105
62E5
330
A
100
AcDbSymbolTableRecord
100
AcDbDimStyleTableRecord
  2
ISO-25
 70
     0
  3

  4

  5

  6

  7

 40
1.0
 41
2.5
 42
0.625
 43
3.75
 44
1.25
 45
0.0
 46
0.0
 47
0.0
 48
0.0
140
2.5
141
2.5
142
0.0
143
0.03937007874016
144
1.0
145
0.0
146
1.0
147
0.625
 71
     0
 72
     0
 73
     0
 74
     0
 75
     0
 76
     0
 77
     1
 78
     8
170
     0
171
     3
172
     1
173
     0
174
     0
175
     0
176
     0
177
     0
178
     0
270
     2
271
     2
272
     2
273
     2
274
     3
340
11
275
     0
280
     0
281
     0
282
     0
283
     0
284
     8
285
     0
286
     0
287
     3
288
     0
  0
ENDTAB
  0
TABLE
  2
BLOCK_RECORD
  5
1
330
0
100
AcDbSymbolTable
 70
    10
  0
BLOCK_RECORD
  5
1F
102
{ACAD_XDICTIONARY
360
74
102
}
330
1
100
AcDbSymbolTableRecord
100
AcDbBlockTableRecord
  2
*MODEL_SPACE
  0
BLOCK_RECORD
  5
1B
102
{ACAD_XDICTIONARY
360
94B5
102
}
330
1
100
AcDbSymbolTableRecord
100
AcDbBlockTableRecord
  2
*PAPER_SPACE
  0
BLOCK_RECORD
  5
59
330
1
100
AcDbSymbolTableRecord
100
AcDbBlockTableRecord
  2
_OPEN30
  0
BLOCK_RECORD
  5
64
330
1
100
AcDbSymbolTableRecord
100
AcDbBlockTableRecord
  2
GENAXEH
  0
BLOCK_RECORD
  5
63C2
330
1
100
AcDbSymbolTableRecord
100
AcDbBlockTableRecord
  2
*D5
  0
BLOCK_RECORD
  5
63DC
330
1
100
AcDbSymbolTableRecord
100
AcDbBlockTableRecord
  2
*D6
  0
BLOCK_RECORD
  5
640C
330
1
100
AcDbSymbolTableRecord
100
AcDbBlockTableRecord
  2
*D7
  0
BLOCK_RECORD
  5
6419
330
1
100
AcDbSymbolTableRecord
100
AcDbBlockTableRecord
  2
*D8
  0
BLOCK_RECORD
  5
6664
330
1
100
AcDbSymbolTableRecord
100
AcDbBlockTableRecord
  2
*D9
  0
ENDTAB
  0
ENDSEC
  0
SECTION
  2
BLOCKS
  0
BLOCK
  5
20
330
1F
100
AcDbEntity
  8
0
100
AcDbBlockBegin
  2
*MODEL_SPACE
 70
     0
 10
0.0
 20
0.0
 30
0.0
  3
*MODEL_SPACE
  1

  0
ENDBLK
  5
21
330
1F
100
AcDbEntity
  8
0
100
AcDbBlockEnd
  0
BLOCK
  5
1C
330
1B
100
AcDbEntity
 67
     1
  8
0
100
AcDbBlockBegin
  2
*PAPER_SPACE
 70
     0
 10
0.0
 20
0.0
 30
0.0
  3
*PAPER_SPACE
  1

  0
ENDBLK
  5
1D
330
1B
100
AcDbEntity
 67
     1
  8
0
100
AcDbBlockEnd
  0
BLOCK
  5
5D
330
59
100
AcDbEntity
  8
0
100
AcDbBlockBegin
  2
_OPEN30
 70
     0
 10
0.0
 20
0.0
 30
0.0
  3
_OPEN30
  1

  0
LINE
  5
5A
330
59
100
AcDbEntity
  8
0
 62
     0
100
AcDbLine
 10
-1.0
 20
0.26794919
 30
0.0
 11
0.0
 21
0.0
 31
0.0
  0
LINE
  5
5B
330
59
100
AcDbEntity
  8
0
 62
     0
100
AcDbLine
 10
0.0
 20
0.0
 30
0.0
 11
-1.0
 21
-0.26794919
 31
0.0
  0
LINE
  5
5C
330
59
100
AcDbEntity
  8
0
 62
     0
100
AcDbLine
 10
0.0
 20
0.0
 30
0.0
 11
-1.0
 21
0.0
 31
0.0
  0
ENDBLK
  5
5E
330
59
100
AcDbEntity
  8
0
100
AcDbBlockEnd
  0
BLOCK
  5
66
330
64
100
AcDbEntity
  8
0
100
AcDbBlockBegin
  2
GENAXEH
 70
     0
 10
0.0
 20
0.0
 30
0.0
  3
GENAXEH
  1

  0
LINE
  5
65
330
64
100
AcDbEntity
  8
0
100
AcDbLine
 10
-1.0
 20
0.0
 30
0.0
 11
1.0
 21
0.0
 31
0.0
  0
ENDBLK
  5
67
330
64
100
AcDbEntity
  8
0
100
AcDbBlockEnd
  0
BLOCK
  5
63CE
330
63C2
100
AcDbEntity
  8
0
100
AcDbBlockBegin
  2
*D5
 70
     1
 10
0.0
 20
0.0
 30
0.0
  3
*D5
  1

  0
LINE
  5
94BE
330
63C2
100
AcDbEntity
  8
AM_5
 62
     3
100
AcDbLine
 10
-1.456799081314636
 20
-6.7499999999989
 30
0.0
 11
18.66021321897084
 21
-6.749999999998905
 31
0.0
  0
LINE
  5
94BF
330
63C2
100
AcDbEntity
  8
AM_5
 62
     3
100
AcDbLine
 10
-1.456799081314635
 20
6.75000000000108
 30
0.0
 11
18.66021321897084
 21
6.750000000001074
 31
0.0
  0
LINE
  5
94C0
330
63C2
100
AcDbEntity
  8
AM_5
 62
     3
100
AcDbLine
 10
17.66021321897084
 20
-4.249999999998904
 30
0.0
 11
17.66021321897084
 21
4.250000000001075
 31
0.0
  0
MTEXT
  5
94C1
330
63C2
100
AcDbEntity
  8
AM_5
 62
     2
100
AcDbMText
 10
14.56021321897084
 20
0.0000000000010848
 30
0.0
 40
3.2
 41
0.0
 71
     5
 72
     1
  1
%%C13.5
  7
ASAMI
 11
0.0000000000000001
 21
1.0
 31
0.0
  0
INSERT
  5
94C2
330
63C2
100
AcDbEntity
  8
AM_5
 62
     3
100
AcDbBlockReference
  2
_OPEN30
 10
17.66021321897084
 20
-6.749999999998904
 30
0.0
 41
2.5
 42
2.5
 43
2.5
 50
270.0
  0
INSERT
  5
94C3
330
63C2
100
AcDbEntity
  8
AM_5
 62
     3
100
AcDbBlockReference
  2
_OPEN30
 10
17.66021321897084
 20
6.750000000001075
 30
0.0
 41
2.5
 42
2.5
 43
2.5
 50
90.0
  0
POINT
  5
94C4
330
63C2
100
AcDbEntity
  8
DEFPOINTS
 62
     0
100
AcDbPoint
 10
-2.456799081314636
 20
-6.749999999998899
 30
0.0
  0
POINT
  5
94C5
330
63C2
100
AcDbEntity
  8
DEFPOINTS
 62
     0
100
AcDbPoint
 10
-2.456799081314636
 20
6.75000000000108
 30
0.0
  0
POINT
  5
94C6
330
63C2
100
AcDbEntity
  8
DEFPOINTS
 62
     0
100
AcDbPoint
 10
17.66021321897084
 20
6.750000000001075
 30
0.0
  0
ENDBLK
  5
63CF
330
63C2
100
AcDbEntity
  8
0
100
AcDbBlockEnd
  0
BLOCK
  5
63E8
330
63DC
100
AcDbEntity
  8
0
100
AcDbBlockBegin
  2
*D6
 70
     1
 10
0.0
 20
0.0
 30
0.0
  3
*D6
  1

  0
LINE
  5
94C7
330
63DC
100
AcDbEntity
  8
AM_0
 62
     3
100
AcDbLine
 10
0.3420201433163783
 20
-0.9396926207858497
 30
0.0
 11
10.93388402139649
 21
-30.04059945573672
 31
0.0
  0
LINE
  5
94C8
330
63DC
100
AcDbEntity
  8
AM_0
 62
     3
100
AcDbLine
 10
0.3420201433163787
 20
0.9396926207858815
 30
0.0
 11
10.9338840213965
 21
30.04059945573675
 31
0.0
  0
ARC
  5
94C9
330
63DC
100
AcDbEntity
  8
AM_0
 62
     3
100
AcDbCircle
 10
-0.0000000000094078
 20
0.000000000000016
 30
0.0
 40
30.96853821264847
100
AcDbArc
 50
294.6265784650385
 51
65.37342153496147
  0
INSERT
  5
94CA
330
63DC
100
AcDbEntity
  8
AM_0
 62
     3
100
AcDbBlockReference
  2
_OPEN30
 10
10.5918638780707
 20
-29.10090683495085
 30
0.0
 41
2.5
 42
2.5
 43
2.5
 50
202.3132892325229
  0
INSERT
  5
94CB
330
63DC
100
AcDbEntity
  8
AM_0
 62
     3
100
AcDbBlockReference
  2
_OPEN30
 10
10.59186387807071
 20
29.10090683495088
 30
0.0
 41
2.5
 42
2.5
 43
2.5
 50
157.6867107674772
  0
MTEXT
  5
94CC
330
63DC
100
AcDbEntity
  8
AM_0
 62
     2
100
AcDbMText
 10
27.86853821263906
 20
0.0000000000000088
 30
0.0
 40
3.2
 41
0.0
 71
     5
 72
     1
  1
140°
  7
ASAMI
 11
0.0000000000000001
 21
1.0
 31
0.0
  0
POINT
  5
94CD
330
63DC
100
AcDbEntity
  8
DEFPOINTS
 62
     0
100
AcDbPoint
 10
28.43581059338218
 20
-12.2660113698393
 30
0.0
  0
POINT
  5
94CE
330
63DC
100
AcDbEntity
  8
DEFPOINTS
 62
     0
100
AcDbPoint
 10
-0.0000000000094078
 20
0.000000000000016
 30
0.0
  0
POINT
  5
94CF
330
63DC
100
AcDbEntity
  8
DEFPOINTS
 62
     0
100
AcDbPoint
 10
-1.145937534457349
 20
-3.148437499999981
 30
0.0
  0
POINT
  5
94D0
330
63DC
100
AcDbEntity
  8
DEFPOINTS
 62
     0
100
AcDbPoint
 10
-0.0000000000094078
 20
0.000000000000016
 30
0.0
  0
POINT
  5
94D1
330
63DC
100
AcDbEntity
  8
DEFPOINTS
 62
     0
100
AcDbPoint
 10
-1.145937534457349
 20
3.148437500000014
 30
0.0
  0
ENDBLK
  5
63E9
330
63DC
100
AcDbEntity
  8
0
100
AcDbBlockEnd
  0
BLOCK
  5
6416
330
640C
100
AcDbEntity
  8
0
100
AcDbBlockBegin
  2
*D7
 70
     1
 10
0.0
 20
0.0
 30
0.0
  3
*D7
  1

  0
LINE
  5
93F4
330
640C
100
AcDbEntity
  8
AM_5
 62
     3
100
AcDbLine
 10
-0.0000000000055895
 20
-0.9999999999989185
 30
0.0
 11
-0.000000000005591
 21
-25.21113970659109
 31
0.0
  0
LINE
  5
93F5
330
640C
100
AcDbEntity
  8
AM_5
 62
     3
100
AcDbLine
 10
-53.99999999998792
 20
-7.75000000000006
 30
0.0
 11
-53.99999999998792
 21
-25.21113970659109
 31
0.0
  0
LINE
  5
93F6
330
640C
100
AcDbEntity
  8
AM_5
 62
     3
100
AcDbLine
 10
-2.500000000005591
 20
-24.21113970659109
 30
0.0
 11
-51.49999999998792
 21
-24.21113970659109
 31
0.0
  0
INSERT
  5
93F7
330
640C
100
AcDbEntity
  8
AM_5
 62
     3
100
AcDbBlockReference
  2
_OPEN30
 10
-0.0000000000055909
 20
-24.21113970659109
 30
0.0
 41
2.5
 42
2.5
 43
2.5
  0
INSERT
  5
93F8
330
640C
100
AcDbEntity
  8
AM_5
 62
     3
100
AcDbBlockReference
  2
_OPEN30
 10
-53.99999999998792
 20
-24.21113970659109
 30
0.0
 41
2.5
 42
2.5
 43
2.5
 50
180.0
  0
MTEXT
  5
93F9
330
640C
100
AcDbEntity
  8
AM_5
 62
     2
100
AcDbMText
 10
-26.99999999999675
 20
-21.11113970659109
 30
0.0
 40
3.2
 41
0.0
 71
     5
 72
     1
  1
54
  7
ASAMI
1001
ACAD
1000
MTEXTBEGIN
1070
    73
1070
     1
1070
    44
1040
1.0
1070
    74
1070
     0
1000
MTEXTEND
  0
POINT
  5
93FA
330
640C
100
AcDbEntity
  8
DEFPOINTS
 62
     0
100
AcDbPoint
 10
-0.0000000000055895
 20
0.0000000000010813
 30
0.0
  0
POINT
  5
93FB
330
640C
100
AcDbEntity
  8
DEFPOINTS
 62
     0
100
AcDbPoint
 10
-53.99999999998792
 20
-6.75000000000006
 30
0.0
  0
POINT
  5
93FC
330
640C
100
AcDbEntity
  8
DEFPOINTS
 62
     0
100
AcDbPoint
 10
-53.99999999998792
 20
-24.21113970659109
 30
0.0
  0
ENDBLK
  5
6417
330
640C
100
AcDbEntity
  8
0
100
AcDbBlockEnd
  0
BLOCK
  5
6423
330
6419
100
AcDbEntity
  8
0
100
AcDbBlockBegin
  2
*D8
 70
     1
 10
0.0
 20
0.0
 30
0.0
  3
*D8
  1

  0
LINE
  5
939B
330
6419
100
AcDbEntity
  8
AM_5
 62
     3
100
AcDbLine
 10
-0.0000000000053933
 20
-7.539062500000064
 30
0.0
 11
-0.0000000000053952
 21
-38.31121729745044
 31
0.0
  0
LINE
  5
939C
330
6419
100
AcDbEntity
  8
AM_5
 62
     3
100
AcDbLine
 10
-107.0000000000054
 20
-6.399999999999558
 30
0.0
 11
-107.0000000000054
 21
-38.31121729745044
 31
0.0
  0
LINE
  5
939D
330
6419
100
AcDbEntity
  8
AM_5
 62
     3
100
AcDbLine
 10
-2.500000000005395
 20
-37.31121729745044
 30
0.0
 11
-104.5000000000054
 21
-37.31121729745044
 31
0.0
  0
INSERT
  5
939E
330
6419
100
AcDbEntity
  8
AM_5
 62
     3
100
AcDbBlockReference
  2
_OPEN30
 10
-0.0000000000053951
 20
-37.31121729745044
 30
0.0
 41
2.5
 42
2.5
 43
2.5
  0
INSERT
  5
939F
330
6419
100
AcDbEntity
  8
AM_5
 62
     3
100
AcDbBlockReference
  2
_OPEN30
 10
-107.0000000000054
 20
-37.31121729745044
 30
0.0
 41
2.5
 42
2.5
 43
2.5
 50
180.0
  0
MTEXT
  5
93A0
330
6419
100
AcDbEntity
  8
AM_5
 62
     2
100
AcDbMText
 10
-53.50000000000541
 20
-34.21121729745044
 30
0.0
 40
3.2
 41
0.0
 71
     5
 72
     1
  1
107
  7
ASAMI
1001
ACAD
1000
MTEXTBEGIN
1070
    73
1070
     1
1070
    44
1040
1.0
1070
    74
1070
     0
1000
MTEXTEND
  0
POINT
  5
93A1
330
6419
100
AcDbEntity
  8
DEFPOINTS
 62
     0
100
AcDbPoint
 10
-0.0000000000053932
 20
-6.539062500000064
 30
0.0
  0
POINT
  5
93A2
330
6419
100
AcDbEntity
  8
DEFPOINTS
 62
     0
100
AcDbPoint
 10
-107.0000000000054
 20
-5.399999999999558
 30
0.0
  0
POINT
  5
93A3
330
6419
100
AcDbEntity
  8
DEFPOINTS
 62
     0
100
AcDbPoint
 10
-107.0000000000054
 20
-37.31121729745044
 30
0.0
  0
ENDBLK
  5
6424
330
6419
100
AcDbEntity
  8
0
100
AcDbBlockEnd
  0
BLOCK
  5
6670
330
6664
100
AcDbEntity
  8
0
100
AcDbBlockBegin
  2
*D9
 70
     1
 10
0.0
 20
0.0
 30
0.0
  3
*D9
  1

  0
LINE
  5
9458
330
6664
100
AcDbEntity
  8
AM_5
 62
     3
100
AcDbLine
 10
-106.8463268364263
 20
-6.74999999999933
 30
0.0
 11
-125.0021816318114
 21
-6.749999999999325
 31
0.0
  0
LINE
  5
9459
330
6664
100
AcDbEntity
  8
AM_5
 62
     3
100
AcDbLine
 10
-106.6500000000053
 20
6.750000000000383
 30
0.0
 11
-125.0021816318114
 21
6.750000000000388
 31
0.0
  0
LINE
  5
945A
330
6664
100
AcDbEntity
  8
AM_5
 62
     3
100
AcDbLine
 10
-124.0021816318114
 20
-4.249999999999325
 30
0.0
 11
-124.0021816318114
 21
4.250000000000388
 31
0.0
  0
INSERT
  5
945B
330
6664
100
AcDbEntity
  8
AM_5
 62
     3
100
AcDbBlockReference
  2
_OPEN30
 10
-124.0021816318114
 20
-6.749999999999325
 30
0.0
 41
2.5
 42
2.5
 43
2.5
 50
270.0
  0
INSERT
  5
945C
330
6664
100
AcDbEntity
  8
AM_5
 62
     3
100
AcDbBlockReference
  2
_OPEN30
 10
-124.0021816318114
 20
6.750000000000388
 30
0.0
 41
2.5
 42
2.5
 43
2.5
 50
90.0
  0
MTEXT
  5
945D
330
6664
100
AcDbEntity
  8
AM_5
 62
     2
100
AcDbMText
 10
-127.1021816318114
 20
0.0000000000005116
 30
0.0
 40
3.2
 41
0.0
 71
     5
 72
     1
  1
%%C13.5
  7
ASAMI
 11
0.0000000000000001
 21
1.0
 31
0.0
1001
ACAD
1000
MTEXTBEGIN
1070
    73
1070
     1
1070
    44
1040
1.0
1070
    74
1070
     0
1000
MTEXTEND
  0
POINT
  5
945E
330
6664
100
AcDbEntity
  8
DEFPOINTS
 62
     0
100
AcDbPoint
 10
-105.8463268364263
 20
-6.749999999999331
 30
0.0
  0
POINT
  5
945F
330
6664
100
AcDbEntity
  8
DEFPOINTS
 62
     0
100
AcDbPoint
 10
-105.6500000000053
 20
6.750000000000382
 30
0.0
  0
POINT
  5
9460
330
6664
100
AcDbEntity
  8
DEFPOINTS
 62
     0
100
AcDbPoint
 10
-124.0021816318114
 20
6.750000000000388
 30
0.0
  0
ENDBLK
  5
6671
330
6664
100
AcDbEntity
  8
0
100
AcDbBlockEnd
  0
ENDSEC
  0
SECTION
  2
ENTITIES
  0
TEXT
  5
C58
330
1F
100
AcDbEntity
  8
AM_6
100
AcDbText
 10
-71.95238095238635
 20
-59.81121729745051
 30
0.0
 40
5.0
  1
MDS135SK
 50
0.0000000000002036
 72
     4
 11
-53.50000000000541
 21
-57.31121729745044
 31
0.0
100
AcDbText
  0
LINE
  5
631C
330
1F
100
AcDbEntity
  8
AM_0
100
AcDbLine
 10
-40.20725021298334
 20
-6.750000000000166
 30
0.0
 11
-105.6500000000053
 21
-6.749999999999663
 31
0.0
  0
LINE
  5
631D
330
1F
100
AcDbEntity
  8
AM_0
100
AcDbLine
 10
-39.73422373987657
 20
6.749999999999853
 30
0.0
 11
-105.6500000000053
 21
6.750000000000352
 31
0.0
  0
LINE
  5
6320
330
1F
100
AcDbEntity
  8
AM_7
100
AcDbLine
 10
-117.233997882936
 20
0.0000000000010778
 30
0.0
 11
3.882568359368516
 21
0.0000000000010564
 31
0.0
1001
GENIUS_GENODEF_13
1002
{
1000
HIER
1070
     0
1002
}
1002
{
1000
MANEDIT
1070
     0
1002
}
1002
{
1000
NOSEL
1070
     0
1002
}
1002
{
1000
BEHIND
1070
     0
1002
}
1002
{
1000
REACTOR
1002
}
1001
GENIUS_GENOBJ-N-CEN_13
1002
{
1000
OWNER
1000
GEN
1002
}
  0
DIMENSION
  5
63C1
330
1F
100
AcDbEntity
  8
AM_5
100
AcDbDimension
  2
*D5
 10
17.66021321897084
 20
6.750000000001075
 30
0.0
 11
17.66021321897084
 21
0.0000000000010845
 31
0.0
 70
   160
  1
%%C<>
  3
AM_JIS
100
AcDbAlignedDimension
 13
-2.456799081314636
 23
-6.749999999998899
 33
0.0
 14
-2.456799081314636
 24
6.75000000000108
 34
0.0
 50
90.0
100
AcDbRotatedDimension
1001
ACAD
1000
DSTYLE
1002
{
1070
   287
1070
     4
1070
   271
1070
     1
1070
   279
1070
     1
1002
}
  0
DIMENSION
  5
63DB
330
1F
100
AcDbEntity
  8
AM_0
100
AcDbDimension
  2
*D6
 10
-1.145937534457349
 20
3.148437500000014
 30
0.0
 11
27.86853821263906
 21
0.0000000000000043
 31
0.0
 70
    34
  3
AM_JIS$2
100
AcDb2LineAngularDimension
 13
-1.145937534457349
 23
-3.148437499999981
 33
0.0
 14
-0.0000000000094078
 24
0.000000000000016
 34
0.0
 15
-0.0000000000094078
 25
0.000000000000016
 35
0.0
 16
28.43581059338218
 26
-12.2660113698393
 36
0.0
1001
ACAD
1000
DSTYLE
1002
{
1070
   271
1070
     0
1002
}
  0
DIMENSION
  5
640B
330
1F
100
AcDbEntity
  8
AM_5
100
AcDbDimension
  2
*D7
 10
-53.99999999998792
 20
-24.21113970659109
 30
0.0
 11
-26.99999999999675
 21
-21.11113970659109
 31
0.0
 70
    32
  3
AM_JIS
100
AcDbAlignedDimension
 13
-0.0000000000055895
 23
0.0000000000010813
 33
0.0
 14
-53.99999999998792
 24
-6.75000000000006
 34
0.0
100
AcDbRotatedDimension
1001
ACAD
1000
DSTYLE
1002
{
1070
    78
1070
     9
1002
}
  0
DIMENSION
  5
6418
330
1F
100
AcDbEntity
  8
AM_5
100
AcDbDimension
  2
*D8
 10
-107.0000000000054
 20
-37.31121729745044
 30
0.0
 11
-53.50000000000541
 21
-34.21121729745044
 31
0.0
 70
    32
  3
AM_JIS
100
AcDbAlignedDimension
 13
-0.0000000000053932
 23
-6.539062500000064
 33
0.0
 14
-107.0000000000054
 24
-5.399999999999558
 34
0.0
100
AcDbRotatedDimension
1001
ACAD
1000
DSTYLE
1002
{
1070
    78
1070
     9
1002
}
  0
LINE
  5
665C
330
1F
100
AcDbEntity
  8
AM_0
100
AcDbLine
 10
-107.0000000000054
 20
2.308792521279476
 30
0.0
 11
-107.0000000000054
 21
4.422413793264968
 31
0.0
  0
LINE
  5
665E
330
1F
100
AcDbEntity
  8
AM_0
100
AcDbLine
 10
-107.0000000000054
 20
-2.30879252083759
 30
0.0
 11
-107.0000000000054
 21
-1.642924330909842
 31
0.0
  0
LINE
  5
6660
330
1F
100
AcDbEntity
  8
AM_0
100
AcDbLine
 10
-107.0000000000054
 20
1.642924330912017
 30
0.0
 11
-107.0000000000054
 21
5.40000000000045
 31
0.0
  0
LINE
  5
6661
330
1F
100
AcDbEntity
  8
AM_0
100
AcDbLine
 10
-107.0000000000054
 20
-5.399999999999558
 30
0.0
 11
-107.0000000000054
 21
1.642924330912017
 31
0.0
  0
DIMENSION
  5
6663
330
1F
100
AcDbEntity
  8
AM_5
100
AcDbDimension
  2
*D9
 10
-124.0021816318114
 20
6.750000000000388
 30
0.0
 11
-124.0021816318114
 21
0.0000000000005112
 31
0.0
 70
   160
  1
%%C<>
  3
AM_JIS
100
AcDbAlignedDimension
 13
-105.8463268364263
 23
-6.749999999999331
 33
0.0
 14
-105.6500000000053
 24
6.750000000000382
 34
0.0
 50
90.0
100
AcDbRotatedDimension
  0
LINE
  5
67B1
330
1F
100
AcDbEntity
  8
AM_0
100
AcDbLine
 10
-0.0000000000168098
 20
0.0000000000010896
 30
0.0
 11
-2.456799081314636
 21
6.75000000000108
 31
0.0
  0
LINE
  5
67B7
330
1F
100
AcDbEntity
  8
AM_0
100
AcDbLine
 10
-2.431471255734282
 20
-6.749999999998895
 30
0.0
 11
-0.0000000000055895
 21
0.0000000000010813
 31
0.0
  0
LINE
  5
67B9
330
1F
100
AcDbEntity
  8
AM_0
100
AcDbLine
 10
-2.149686003749707
 20
-0.5291663505285751
 30
0.0
 11
-0.0000000000055895
 21
0.0000000000010813
 31
0.0
  0
LINE
  5
67BA
330
1F
100
AcDbEntity
  8
AM_0
100
AcDbLine
 10
-0.0000000000055895
 20
0.0000000000010813
 30
0.0
 11
-1.184583466647641
 21
1.172865518955548
 31
0.0
  0
LINE
  5
7571
330
1F
100
AcDbEntity
  8
AM_0
100
AcDbLine
 10
-1.184583466647641
 20
1.172865518955548
 30
0.0
 11
-0.4182536111545788
 21
1.172125199252836
 31
0.0
  0
LINE
  5
87FB
330
1F
100
AcDbEntity
  8
AM_0
100
AcDbLine
 10
-105.6500000000053
 20
6.750000000322574
 30
0.0
 11
-105.6500000000053
 21
-6.749999999677426
 31
0.0
  0
LINE
  5
8C98
330
1F
100
AcDbEntity
  8
AM_0
100
AcDbLine
 10
-105.6500000000053
 20
6.75000000000044
 30
0.0
 11
-107.0000000000054
 21
5.40000000000045
 31
0.0
1001
GENIUS_GENFIL_13
1070
     0
1040
1.0
1040
1.0
1040
20.0
1040
0.0
1002
{
1002
}
1001
GENIUS_GENODEF_13
1002
{
1000
HIER
1070
     0
1002
}
1002
{
1000
MANEDIT
1070
     0
1002
}
1002
{
1000
NOSEL
1070
     0
1002
}
1002
{
1000
BEHIND
1070
     0
1002
}
1002
{
1000
REACTOR
1002
}
1001
GENIUS_GENOBJ-N-CHA_13
1002
{
1000
OWNER
1000
GEN
1002
}
  0
LINE
  5
8C9A
330
1F
100
AcDbEntity
  8
AM_0
100
AcDbLine
 10
-105.6500000000053
 20
-6.749999999999571
 30
0.0
 11
-107.0000000000054
 21
-5.399999999999558
 31
0.0
1001
GENIUS_GENFIL_13
1070
     0
1040
1.0
1040
1.0
1040
20.0
1040
0.0
1002
{
1002
}
1001
GENIUS_GENODEF_13
1002
{
1000
HIER
1070
     0
1002
}
1002
{
1000
MANEDIT
1070
     0
1002
}
1002
{
1000
NOSEL
1070
     0
1002
}
1002
{
1000
BEHIND
1070
     0
1002
}
1002
{
1000
REACTOR
1002
}
1001
GENIUS_GENOBJ-N-CHA_13
1002
{
1000
OWNER
1000
GEN
1002
}
  0
SPLINE
  5
93D9
330
1F
100
AcDbEntity
  8
AM_0
100
AcDbSpline
210
0.0
220
0.0
230
1.0
 70
     8
 71
     3
 72
     9
 73
     5
 74
     0
 42
0.0000000001
 43
0.0000000001
 40
0.0
 40
0.0
 40
0.0
 40
0.0
 40
0.0988701324080829
 40
1.147440854899445
 40
1.147440854899445
 40
1.147440854899445
 40
1.147440854899445
 10
-1.184554478039353
 20
1.172125199252836
 30
0.0
 10
-1.177869274276808
 20
1.001396780053974
 30
0.0
 10
-1.100283903107163
 20
-0.9799979901343524
 30
0.0
 10
-3.513182726418818
 20
1.969019345136264
 30
0.0
 10
-4.336859338311162
 20
3.109716650248824
 30
0.0
  0
LINE
  5
93DA
330
1F
100
AcDbEntity
  8
AM_0
100
AcDbLine
 10
-2.149686003749707
 20
-0.5291663505285753
 30
0.0
 11
-4.336859338311171
 21
3.109716650248824
 31
0.0
  0
LINE
  5
93DB
330
1F
100
AcDbEntity
  8
AM_0
100
AcDbLine
 10
-2.431471255734282
 20
-6.749999999998895
 30
0.0
 11
-2.149686003749707
 21
-0.5291663505285751
 31
0.0
  0
LINE
  5
93DC
330
1F
100
AcDbEntity
  8
AM_0
100
AcDbLine
 10
-13.43128626270349
 20
6.75000000000108
 30
0.0
 11
-28.06276952046232
 21
6.75000000000108
 31
0.0
  0
SPLINE
  5
93DD
330
1F
100
AcDbEntity
  8
AM_0
100
AcDbSpline
210
0.0
220
0.0
230
1.0
 70
     8
 71
     3
 72
     8
 73
     4
 74
     0
 42
0.0000000001
 43
0.0000000001
 40
22.73274810806179
 40
22.73274810806179
 40
22.73274810806179
 40
22.73274810806179
 40
28.97999309868792
 40
28.97999309868792
 40
28.97999309868792
 40
28.97999309868792
 10
-7.645188582584914
 20
-5.164191784136884
 30
0.0
 10
-9.483803082771228
 20
-6.122643664703915
 30
0.0
 10
-11.41754981181469
 20
-6.749999999998899
 30
0.0
 10
-13.43128626270921
 20
-6.749999999998899
 30
0.0
  0
LINE
  5
93DE
330
1F
100
AcDbEntity
  8
AM_0
100
AcDbLine
 10
-13.43128626270773
 20
-6.749999999998899
 30
0.0
 11
-28.06276952046232
 21
-6.749999999998899
 31
0.0
  0
SPLINE
  5
93DF
330
1F
100
AcDbEntity
  8
AM_0
100
AcDbSpline
210
0.0
220
0.0
230
1.0
 70
     8
 71
     3
 72
     8
 73
     4
 74
     0
 42
0.0000000001
 43
0.0000000001
 40
0.0
 40
0.0
 40
0.0
 40
0.0
 40
6.870645942600294
 40
6.870645942600294
 40
6.870645942600294
 40
6.870645942600294
 10
-28.06276952046378
 20
6.012716993728673
 30
0.0
 10
-25.84809746964662
 20
6.022642909380919
 30
0.0
 10
-23.62499623711593
 20
5.547002003269938
 30
0.0
 10
-21.45619263805364
 20
4.716066887814388
 30
0.0
  0
SPLINE
  5
93E0
330
1F
100
AcDbEntity
  8
AM_0
100
AcDbSpline
210
0.0
220
0.0
230
1.0
 70
     8
 71
     3
 72
     8
 73
     4
 74
     0
 42
0.0000000001
 43
0.0000000001
 40
0.0
 40
0.0
 40
0.0
 40
0.0
 40
6.247244990625308
 40
6.247244990625308
 40
6.247244990625308
 40
6.247244990625308
 10
-28.06276952046378
 20
6.75000000000108
 30
0.0
 10
-30.07650597135801
 20
6.75000000000108
 30
0.0
 10
-32.01025270040126
 20
6.122643664706172
 30
0.0
 10
-33.8984966301702
 20
5.138410611531172
 30
0.0
  0
SPLINE
  5
93E1
330
1F
100
AcDbEntity
  8
AM_0
100
AcDbSpline
210
0.0
220
0.0
230
1.0
 70
     8
 71
     3
 72
     9
 73
     5
 74
     0
 42
0.0000000001
 43
0.0000000001
 40
0.0
 40
0.0
 40
0.0
 40
0.0
 40
0.1987770877846628
 40
5.759128114445015
 40
5.759128114445015
 40
5.759128114445015
 40
5.759128114445015
 10
-27.87054814869621
 20
6.012716993719942
 30
0.0
 10
-27.93462193928315
 20
6.012716993719942
 30
0.0
 10
-29.79196938973568
 20
6.02103289939755
 30
0.0
 10
-31.59423640135504
 20
5.5474787191486
 30
0.0
 10
-33.30290343872862
 20
4.815615328622254
 30
0.0
  0
SPLINE
  5
93E2
330
1F
100
AcDbEntity
  8
AM_0
100
AcDbSpline
210
0.0
220
0.0
230
1.0
 70
     8
 71
     3
 72
     9
 73
     5
 74
     0
 42
0.0000000001
 43
0.0000000001
 40
0.0
 40
0.0
 40
0.0
 40
0.0
 40
4.057199033816302
 40
8.114398067632619
 40
8.114398067632619
 40
8.114398067632619
 40
8.114398067632619
 10
-2.431471255734282
 20
-6.749999999998895
 30
0.0
 10
-6.430536372728562
 20
-6.749999999998899
 30
0.0
 10
-14.91130078187931
 20
0.0000000000010896
 30
0.0
 10
-23.39206519103008
 20
6.75000000000108
 30
0.0
 10
-28.06276952046378
 20
6.75000000000108
 30
0.0
  0
SPLINE
  5
93E3
330
1F
100
AcDbEntity
  8
AM_0
100
AcDbSpline
210
0.0
220
0.0
230
1.0
 70
     8
 71
     3
 72
     9
 73
     5
 74
     0
 42
0.0000000001
 43
0.0000000001
 40
1.521176736886217
 40
1.521176736886217
 40
1.521176736886217
 40
1.521176736886217
 40
14.48999654934396
 40
28.97999309868792
 40
28.97999309868792
 40
28.97999309868792
 40
28.97999309868792
 10
-2.416986442234541
 20
-6.430225935916867
 30
0.0
 10
-5.870327270911588
 20
-6.041377127728574
 30
0.0
 10
-13.90593141082838
 20
0.3543114361362341
 30
0.0
 10
-21.94153555074509
 20
6.75000000000108
 30
0.0
 10
-26.61223988017873
 20
6.75000000000108
 30
0.0
  0
LINE
  5
93E4
330
1F
100
AcDbEntity
  8
AM_5
  6
AM_ISO09W050
 62
     3
100
AcDbLine
 10
-2.431471255734283
 20
-6.749999999998895
 30
0.0
 11
-13.43128626270773
 21
-6.749999999998899
 31
0.0
  0
LINE
  5
93E5
330
1F
100
AcDbEntity
  8
AM_5
  6
AM_ISO09W050
 62
     3
100
AcDbLine
 10
-2.456764304052974
 20
6.750000000001082
 30
0.0
 11
-13.43128626270773
 21
6.75000000000108
 31
0.0
  0
SPLINE
  5
93E6
330
1F
100
AcDbEntity
  8
AM_0
100
AcDbSpline
210
0.0
220
0.0
230
1.0
 70
     8
 71
     3
 72
     8
 73
     4
 74
     0
 42
0.0000000001
 43
0.0000000001
 40
19.09542421355049
 40
19.09542421355049
 40
19.09542421355049
 40
19.09542421355049
 40
28.97999309868792
 40
28.97999309868792
 40
28.97999309868792
 40
28.97999309868792
 10
-4.336859338311163
 20
3.109716650248824
 30
0.0
 10
-7.259153997896758
 20
5.179446706983489
 30
0.0
 10
-10.24509511841339
 20
6.75000000000108
 30
0.0
 10
-13.43128626270921
 20
6.75000000000108
 30
0.0
  0
SPLINE
  5
93E7
330
1F
100
AcDbEntity
  8
AM_0
100
AcDbSpline
210
0.0
220
0.0
230
1.0
 70
     8
 71
     3
 72
     8
 73
     4
 74
     0
 42
0.0000000001
 43
0.0000000001
 40
0.0
 40
0.0
 40
0.0
 40
0.0
 40
6.247244990626095
 40
6.247244990626095
 40
6.247244990626095
 40
6.247244990626095
 10
-2.456764304052973
 20
6.749904450259954
 30
0.0
 10
-3.77356849418942
 20
6.75000000000108
 30
0.0
 10
-5.707315223232895
 20
6.122643664706001
 30
0.0
 10
-7.595559153002121
 20
5.138410611530724
 30
0.0
  0
SPLINE
  5
93E8
330
1F
100
AcDbEntity
  8
AM_0
100
AcDbSpline
210
0.0
220
0.0
230
1.0
 70
     8
 71
     3
 72
     9
 73
     5
 74
     0
 42
0.0000000001
 43
0.0000000001
 40
0.0
 40
0.0
 40
0.0
 40
0.0
 40
0.1987770877846628
 40
5.759128114460802
 40
5.759128114460802
 40
5.759128114460802
 40
5.759128114460802
 10
-2.255190284787702
 20
6.196084383980126
 30
0.0
 10
-2.255190284787702
 20
6.196084383980126
 30
0.0
 10
-3.489031912578726
 20
6.021032899414886
 30
0.0
 10
-5.29129892420286
 20
5.547478719163336
 30
0.0
 10
-6.999965961581057
 20
4.815615328633285
 30
0.0
  0
SPLINE
  5
93E9
330
1F
100
AcDbEntity
  8
AM_0
100
AcDbSpline
210
0.0
220
0.0
230
1.0
 70
     8
 71
     3
 72
    10
 73
     6
 74
     0
 42
0.0000000001
 43
0.0000000001
 40
0.0
 40
0.0
 40
0.0
 40
0.0
 40
1.805349240137826
 40
3.686331527232636
 40
4.976269099446192
 40
4.976269099446192
 40
4.976269099446192
 40
4.976269099446192
 10
-49.61723099102441
 20
-2.538796150161507
 30
0.0
 10
-51.45426195840825
 20
-1.181811798600741
 30
0.0
 10
-57.21864596969435
 20
5.656443534887238
 30
0.0
 10
-47.43157223272558
 20
4.560358533219141
 30
0.0
 10
-44.6565337899902
 20
2.689912232746051
 30
0.0
 10
-43.35667688515338
 20
1.687500000001096
 30
0.0
  0
SPLINE
  5
93EA
330
1F
100
AcDbEntity
  8
AM_0
100
AcDbSpline
210
0.0
220
0.0
230
1.0
 70
     8
 71
     3
 72
     8
 73
     4
 74
     0
 42
0.0000000001
 43
0.0000000001
 40
0.0
 40
0.0
 40
0.0
 40
0.0
 40
10.77533687840354
 40
10.77533687840354
 40
10.77533687840354
 40
10.77533687840354
 10
-39.73422373987658
 20
-6.749999999998899
 30
0.0
 10
-43.20754496791685
 20
-6.749999999998899
 30
0.0
 10
-46.44289805098432
 20
-4.883624922148826
 30
0.0
 10
-49.61724555216027
 20
-2.538785394087919
 30
0.0
  0
LINE
  5
93EB
330
1F
100
AcDbEntity
  8
AM_0
100
AcDbLine
 10
-41.90618706561761
 20
1.687530708599284
 30
0.0
 11
-48.68066080502072
 21
6.750000000001111
 31
0.0
  0
LINE
  5
93EC
330
1F
100
AcDbEntity
  8
AM_0
100
AcDbLine
 10
-53.99999999998792
 20
-6.749999999998899
 30
0.0
 11
-53.99999999998792
 21
6.750000000001111
 31
0.0
  0
SPLINE
  5
93ED
330
1F
100
AcDbEntity
  8
AM_0
100
AcDbSpline
210
0.0
220
0.0
230
1.0
 70
     8
 71
     3
 72
     9
 73
     5
 74
     0
 42
0.0000000001
 43
0.0000000001
 40
0.0
 40
0.0
 40
0.0
 40
0.0
 40
14.48999654934396
 40
16.92804852839734
 40
16.92804852839734
 40
16.92804852839734
 40
16.92804852839734
 10
-28.06276952046378
 20
-6.749999999998899
 30
0.0
 10
-32.73347384989738
 20
-6.749999999998899
 30
0.0
 10
-37.68733256846655
 20
-2.807130614986688
 30
0.0
 10
-42.64119128703565
 20
1.135738770025561
 30
0.0
 10
-43.35671763039807
 20
1.687531421541618
 30
0.0
  0
SPLINE
  5
93EE
330
1F
100
AcDbEntity
  8
AM_0
100
AcDbSpline
210
0.0
220
0.0
230
1.0
 70
     8
 71
     3
 72
     9
 73
     5
 74
     0
 42
0.0000000001
 43
0.0000000001
 40
0.0
 40
0.0
 40
0.0
 40
0.0
 40
14.48999654934396
 40
16.9280474783711
 40
16.9280474783711
 40
16.9280474783711
 40
16.9280474783711
 10
-28.06276952046232
 20
-6.749999999998899
 30
0.0
 10
-32.73347384989595
 20
-6.749999999998899
 30
0.0
 10
-37.68733226118329
 20
-2.807130859558171
 30
0.0
 10
-42.64119067247063
 20
1.135738280882731
 30
0.0
 10
-43.35671670590264
 20
1.687530708599353
 30
0.0
  0
SPLINE
  5
93EF
330
1F
100
AcDbEntity
  8
AM_0
100
AcDbSpline
210
0.0
220
0.0
230
1.0
 70
     8
 71
     3
 72
     9
 73
     5
 74
     0
 42
0.0000000001
 43
0.0000000001
 40
0.0
 40
0.0
 40
0.0
 40
0.0
 40
14.48999654934396
 40
16.9280474783711
 40
16.9280474783711
 40
16.9280474783711
 40
16.9280474783711
 10
-26.61223988017728
 20
-6.749999999998899
 30
0.0
 10
-31.28294420961093
 20
-6.749999999998899
 30
0.0
 10
-36.23680262089825
 20
-2.807130859558171
 30
0.0
 10
-41.19066103218561
 20
1.135738280882731
 30
0.0
 10
-41.90618706561759
 20
1.687530708599353
 30
0.0
  0
SPLINE
  5
93F0
330
1F
100
AcDbEntity
  8
AM_0
100
AcDbSpline
210
0.0
220
0.0
230
1.0
 70
     8
 71
     3
 72
     9
 73
     5
 74
     0
 42
0.0000000001
 43
0.0000000001
 40
0.0
 40
0.0
 40
0.0
 40
0.0
 40
4.057199033816316
 40
8.114398067632626
 40
8.114398067632626
 40
8.114398067632626
 40
8.114398067632626
 10
-13.43128626270772
 20
-6.749999999998899
 30
0.0
 10
-18.10199059214141
 20
-6.749999999998899
 30
0.0
 10
-26.58275500129217
 20
0.0000000000010896
 30
0.0
 10
-35.06351941044295
 20
6.75000000000108
 30
0.0
 10
-39.73422373987658
 20
6.75000000000108
 30
0.0
  0
SPLINE
  5
93F1
330
1F
100
AcDbEntity
  8
AM_0
100
AcDbSpline
210
0.0
220
0.0
230
1.0
 70
     8
 71
     3
 72
     8
 73
     4
 74
     0
 42
0.0000000001
 43
0.0000000001
 40
22.73274810806259
 40
22.73274810806259
 40
22.73274810806259
 40
22.73274810806259
 40
28.97999309868794
 40
28.97999309868794
 40
28.97999309868794
 40
28.97999309868794
 10
-33.89849663017013
 20
-5.138410611529033
 30
0.0
 10
-35.78674055993905
 20
-6.122643664704053
 30
0.0
 10
-37.7204872889823
 20
-6.749999999998899
 30
0.0
 10
-39.73422373987658
 20
-6.749999999998899
 30
0.0
  0
LINE
  5
93F2
330
1F
100
AcDbEntity
  8
AM_5
  6
AM_ISO09W050
 62
     3
100
AcDbLine
 10
-26.61223988017812
 20
-6.749999999998899
 30
0.0
 11
-39.73422373987546
 21
-6.749999999998899
 31
0.0
  0
LINE
  5
93F3
330
1F
100
AcDbEntity
  8
AM_5
  6
AM_ISO09W050
 62
     3
100
AcDbLine
 10
-28.06276952046378
 20
6.75000000000108
 30
0.0
 11
-39.7342237398759
 21
6.75000000000108
 31
0.0
  0
VIEWPORT
  5
E2
330
1B
100
AcDbEntity
 67
     1
  8
0
100
AcDbViewport
 10
158.659971393327
 20
148.5
 30
0.0
 40
581.809078125
 41
314.226
 68
     1
 69
     1
1001
ACAD
1000
MVIEW
1002
{
1070
    16
1010
0.0
1020
0.0
1030
0.0
1010
0.0
1020
0.0
1030
1.0
1040
0.0
1040
314.226
1040
158.659971393327
1040
148.5
1040
50.0
1040
0.0
1040
0.0
1070
     0
1070
   100
1070
     1
1070
     1
1070
     0
1070
     0
1070
     0
1070
     0
1040
0.0
1040
0.0
1040
0.0
1040
10.0
1040
10.0
1040
10.0
1040
10.0
1070
     0
1002
{
1002
}
1002
}
  0
ENDSEC
  0
SECTION
  2
OBJECTS
  0
DICTIONARY
  5
C
330
0
100
AcDbDictionary
  3
ACAD_GROUP
350
D
  3
ACAD_LAYOUT
350
1A
  3
ACAD_MLINESTYLE
350
17
  3
ACAD_PLOTSETTINGS
350
19
  3
ACAD_PLOTSTYLENAME
350
E
  3
ACDBVARIABLEDICTIONARY
350
34
  3
ACMDICTIONARY
350
43
  3
AMG
350
2B
  3
AMGSNAPSETTINGS
350
6E
  3
DWGPROPS
350
9487
  3
ACDBHEADERROUNDTRIPXREC
350
9494
  0
DICTIONARY
  5
74
330
1F
100
AcDbDictionary
280
     1
  3
ACAD_INDEX
360
9489
  3
ACAD_LAYOUTSELFREF
360
94B7
  0
DICTIONARY
  5
94B5
330
1B
100
AcDbDictionary
280
     1
  3
ACAD_LAYOUTSELFREF
360
94B6
  0
DICTIONARY
  5
D
102
{ACAD_REACTORS
330
C
102
}
330
C
100
AcDbDictionary
  0
DICTIONARY
  5
1A
102
{ACAD_REACTORS
330
C
102
}
330
C
100
AcDbDictionary
  0
DICTIONARY
  5
17
102
{ACAD_REACTORS
330
C
102
}
330
C
100
AcDbDictionary
  3
STANDARD
350
18
  0
DICTIONARY
  5
19
102
{ACAD_REACTORS
330
C
102
}
330
C
100
AcDbDictionary
  0
ACDBDICTIONARYWDFLT
  5
E
102
{ACAD_REACTORS
330
C
102
}
330
C
100
AcDbDictionary
281
     1
  3
Normal
350
F
100
AcDbDictionaryWithDefault
340
F
  0
DICTIONARY
  5
34
102
{ACAD_REACTORS
330
C
102
}
330
C
100
AcDbDictionary
  3
INDEXCTL
350
35
  3
SORTENTS
350
B5E
  0
DICTIONARY
  5
43
102
{ACAD_REACTORS
330
C
102
}
330
C
100
AcDbDictionary
  3
ACMSTDDICTIONARY
350
260
  0
DICTIONARY
  5
2B
102
{ACAD_REACTORS
330
C
102
}
330
C
100
AcDbDictionary
  3
ACMGSETTINGS
350
2C
  0
DICTIONARY
  5
6E
102
{ACAD_REACTORS
330
C
102
}
330
C
100
AcDbDictionary
  0
XRECORD
  5
9487
102
{ACAD_REACTORS
330
C
102
}
330
C
100
AcDbXrecord
  1
DWGPROPS COOKIE
  2

  3

  4

  6

  7

  8

  9

300
AmdtFileType=82
301
=
302
=
303
=
304
=
305
=
306
=
307
=
308
=
309
=
 40
1.661717384259259
 41
2452838.620506898
 42
2452954.967139641
  1

 90
        1
  0
DICTIONARY
  5
9494
102
{ACAD_REACTORS
330
C
102
}
330
C
100
AcDbDictionary
  3
TSTACKALIGN
350
9495
  3
TSTACKSIZE
350
9496
  3
HYPERLINKBASE
350
9497
  3
STYLESHEET
350
9498
  3
LAYOUTDICT
350
9499
  3
PLOTSETDICT
350
949A
  3
PLOTSTYLNAMDICT
350
949B
  3
LWETCUNION
350
949C
  3
INSUNITS
350
949D
  3
CEPSNTYPE
350
949E
  3
FINGERPRINTGUID
350
949F
  3
VERSIONGUID
350
94A0
  3
PSVPSCALE
350
94A1
  3
DIMSTYLEDATA
350
94A2
  3
PUCSORTHOREF
350
94A3
  3
PUCSORTHOVIEW
350
94A4
  3
PUCSBASE
350
94A5
  3
PUCSORGTOP
350
94A6
  3
PUCSORGBOTTOM
350
94A7
  3
PUCSORGLEFT
350
94A8
  3
PUCSORGRIGHT
350
94A9
  3
PUCSORGFRONT
350
94AA
  3
PUCSORGBACK
350
94AB
  3
UCSORTHOREF
350
94AC
  3
UCSORTHOVIEW
350
94AD
  3
UCSBASE
350
94AE
  3
UCSORGTOP
350
94AF
  3
UCSORGBOTTOM
350
94B0
  3
UCSORGLEFT
350
94B1
  3
UCSORGRIGHT
350
94B2
  3
UCSORGFRONT
350
94B3
  3
UCSORGBACK
350
94B4
  0
DICTIONARY
  5
9489
102
{ACAD_REACTORS
330
74
102
}
330
74
100
AcDbDictionary
  3
*A1
350
948A
  0
XRECORD
  5
94B7
102
{ACAD_REACTORS
330
74
102
}
330
74
100
AcDbXrecord
340
1F
  0
XRECORD
  5
94B6
102
{ACAD_REACTORS
330
94B5
102
}
330
94B5
100
AcDbXrecord
340
1B
  0
MLINESTYLE
  5
18
102
{ACAD_REACTORS
330
17
102
}
330
17
100
AcDbMlineStyle
  2
STANDARD
 70
     0
  3

 62
   256
 51
90.0
 52
90.0
 71
     2
 49
0.5
 62
   256
  6
BYLAYER
 49
-0.5
 62
   256
  6
BYLAYER
  0
ACDBPLACEHOLDER
  5
F
102
{ACAD_REACTORS
330
E
102
}
330
E
100
AcDbPlaceHolder
280
     0
  0
DICTIONARYVAR
  5
35
102
{ACAD_REACTORS
330
34
102
}
330
34
100
DictionaryVariables
280
     0
  1
1
  0
DICTIONARYVAR
  5
B5E
102
{ACAD_REACTORS
330
34
102
}
330
34
100
DictionaryVariables
280
     0
  1
96
  0
DICTIONARY
  5
260
102
{ACAD_REACTORS
330
43
102
}
330
43
100
AcDbDictionary
  0
DICTIONARY
  5
2C
102
{ACAD_REACTORS
330
2B
102
}
330
2B
100
AcDbDictionary
  3
DWGSETTINGS
350
2D
  0
XRECORD
  5
9495
102
{ACAD_REACTORS
330
9494
102
}
330
9494
100
AcDbXrecord
 90
        1
  0
XRECORD
  5
9496
102
{ACAD_REACTORS
330
9494
102
}
330
9494
100
AcDbXrecord
 90
       70
  0
XRECORD
  5
9497
102
{ACAD_REACTORS
330
9494
102
}
330
9494
100
AcDbXrecord
  1

  0
XRECORD
  5
9498
102
{ACAD_REACTORS
330
9494
102
}
330
9494
100
AcDbXrecord
  1
ASAMI.ctb
  0
XRECORD
  5
9499
102
{ACAD_REACTORS
330
9494
102
}
330
9494
100
AcDbXrecord
340
1A
  0
XRECORD
  5
949A
102
{ACAD_REACTORS
330
9494
102
}
330
9494
100
AcDbXrecord
340
19
  0
XRECORD
  5
949B
102
{ACAD_REACTORS
330
9494
102
}
330
9494
100
AcDbXrecord
340
E
  0
XRECORD
  5
949C
102
{ACAD_REACTORS
330
9494
102
}
330
9494
100
AcDbXrecord
 90
    10781
  0
XRECORD
  5
949D
102
{ACAD_REACTORS
330
9494
102
}
330
9494
100
AcDbXrecord
 90
        4
  0
XRECORD
  5
949E
102
{ACAD_REACTORS
330
9494
102
}
330
9494
100
AcDbXrecord
 90
        0
  0
XRECORD
  5
949F
102
{ACAD_REACTORS
330
9494
102
}
330
9494
100
AcDbXrecord
  1
{AFB28963-8C59-40AE-9337-C84526B81ACE}
  0
XRECORD
  5
94A0
102
{ACAD_REACTORS
330
9494
102
}
330
9494
100
AcDbXrecord
  1
{695DE99E-FD50-450D-AA4E-BDD55F11EB44}
  0
XRECORD
  5
94A1
102
{ACAD_REACTORS
330
9494
102
}
330
9494
100
AcDbXrecord
 40
0.0
  0
XRECORD
  5
94A2
102
{ACAD_REACTORS
330
9494
102
}
330
9494
100
AcDbXrecord
1000
DSTYLE
1002
{
1070
    79
 70
     2
1070
   341
340
59
1070
   342
340
59
1070
   371
 70
    -1
1070
   372
 70
    -1
1002
}
  0
XRECORD
  5
94A3
102
{ACAD_REACTORS
330
9494
102
}
330
9494
100
AcDbXrecord
340
0
  0
XRECORD
  5
94A4
102
{ACAD_REACTORS
330
9494
102
}
330
9494
100
AcDbXrecord
 70
     0
  0
XRECORD
  5
94A5
102
{ACAD_REACTORS
330
9494
102
}
330
9494
100
AcDbXrecord
340
0
  0
XRECORD
  5
94A6
102
{ACAD_REACTORS
330
9494
102
}
330
9494
100
AcDbXrecord
 10
0.0
 20
0.0
 30
0.0
  0
XRECORD
  5
94A7
102
{ACAD_REACTORS
330
9494
102
}
330
9494
100
AcDbXrecord
 10
0.0
 20
0.0
 30
0.0
  0
XRECORD
  5
94A8
102
{ACAD_REACTORS
330
9494
102
}
330
9494
100
AcDbXrecord
 10
0.0
 20
0.0
 30
0.0
  0
XRECORD
  5
94A9
102
{ACAD_REACTORS
330
9494
102
}
330
9494
100
AcDbXrecord
 10
0.0
 20
0.0
 30
0.0
  0
XRECORD
  5
94AA
102
{ACAD_REACTORS
330
9494
102
}
330
9494
100
AcDbXrecord
 10
0.0
 20
0.0
 30
0.0
  0
XRECORD
  5
94AB
102
{ACAD_REACTORS
330
9494
102
}
330
9494
100
AcDbXrecord
 10
0.0
 20
0.0
 30
0.0
  0
XRECORD
  5
94AC
102
{ACAD_REACTORS
330
9494
102
}
330
9494
100
AcDbXrecord
340
0
  0
XRECORD
  5
94AD
102
{ACAD_REACTORS
330
9494
102
}
330
9494
100
AcDbXrecord
 70
     0
  0
XRECORD
  5
94AE
102
{ACAD_REACTORS
330
9494
102
}
330
9494
100
AcDbXrecord
340
0
  0
XRECORD
  5
94AF
102
{ACAD_REACTORS
330
9494
102
}
330
9494
100
AcDbXrecord
 10
0.0
 20
0.0
 30
0.0
  0
XRECORD
  5
94B0
102
{ACAD_REACTORS
330
9494
102
}
330
9494
100
AcDbXrecord
 10
0.0
 20
0.0
 30
0.0
  0
XRECORD
  5
94B1
102
{ACAD_REACTORS
330
9494
102
}
330
9494
100
AcDbXrecord
 10
0.0
 20
0.0
 30
0.0
  0
XRECORD
  5
94B2
102
{ACAD_REACTORS
330
9494
102
}
330
9494
100
AcDbXrecord
 10
0.0
 20
0.0
 30
0.0
  0
XRECORD
  5
94B3
102
{ACAD_REACTORS
330
9494
102
}
330
9494
100
AcDbXrecord
 10
0.0
 20
0.0
 30
0.0
  0
XRECORD
  5
94B4
102
{ACAD_REACTORS
330
9494
102
}
330
9494
100
AcDbXrecord
 10
0.0
 20
0.0
 30
0.0
  0
LAYER_INDEX
  5
948A
102
{ACAD_REACTORS
330
9489
102
}
330
9489
100
AcDbIndex
 40
2453151.607789514
100
AcDbLayerIndex
  8
0
360
948B
 90
        0
  8
AM_0
360
948C
 90
       38
  8
AM_11
360
948D
 90
        0
  8
AM_7
360
948E
 90
        1
  8
AM_5
360
948F
 90
        8
  8
Defpoints
360
9490
 90
        0
  8
AM_6
360
9491
 90
        1
  8
AM_CL
360
9492
 90
        0
  0
XRECORD
  5
2D
102
{ACAD_REACTORS
330
2C
102
}
330
2C
100
AcDbXrecord
  1
VERSION
140
15.0
  1
PRODUCT
  2
AutoCAD Mechanical 2000
  0
IDBUFFER
  5
948B
330
0
100
AcDbIdBuffer
  0
IDBUFFER
  5
948C
330
0
100
AcDbIdBuffer
330
93DA
330
93DB
330
93DC
330
93DD
330
93DE
330
93DF
330
93E0
330
93E1
330
93E2
330
93E3
330
93E6
330
93E7
330
93E8
330
93E9
330
93EA
330
93EB
330
93EC
330
93ED
330
93EE
330
93EF
330
93F0
330
93F1
330
631C
330
631D
330
63DB
330
665C
330
665E
330
6660
330
6661
330
67B1
330
67B7
330
67B9
330
67BA
330
7571
330
87FB
330
8C98
330
8C9A
330
93D9
  0
IDBUFFER
  5
948D
330
0
100
AcDbIdBuffer
  0
IDBUFFER
  5
948E
330
0
100
AcDbIdBuffer
330
6320
  0
IDBUFFER
  5
948F
330
0
100
AcDbIdBuffer
330
63C1
330
640B
330
6418
330
6663
330
93E4
330
93E5
330
93F2
330
93F3
  0
IDBUFFER
  5
9490
330
0
100
AcDbIdBuffer
  0
IDBUFFER
  5
9491
330
0
100
AcDbIdBuffer
330
C58
  0
IDBUFFER
  5
9492
330
0
100
AcDbIdBuffer
  0
ENDSEC
  0
EOF
