  0
SECTION
  2
HEADER
  9
$ACADVER
  1
AC1014
  9
$ACADMAINTVER
 70
     9
  9
$DWGCODEPAGE
  3
ANSI_932
  9
$INSBASE
 10
0.0
 20
0.0
 30
0.0
  9
$EXTMIN
 10
-184.267604131651
 20
-61.75281798494173
 30
-0.00000001
  9
$EXTMAX
 10
33.28390406280441
 20
32.33844422313201
 30
0.00000001
  9
$LIMMIN
 10
-215.6022648056348
 20
-74.91978734848164
  9
$LIMMAX
 10
55.85985091280099
 20
68.02993660540749
  9
$ORTHOMODE
 70
     0
  9
$REGENMODE
 70
     1
  9
$FILLMODE
 70
     1
  9
$QTEXTMODE
 70
     0
  9
$MIRRTEXT
 70
     0
  9
$DRAGMODE
 70
     2
  9
$LTSCALE
 40
0.5
  9
$OSMODE
 70
    55
  9
$ATTMODE
 70
     1
  9
$TEXTSIZE
 40
2.5
  9
$TRACEWID
 40
1.0
  9
$TEXTSTYLE
  7
STANDARD
  9
$CLAYER
  8
AM_0
  9
$CELTYPE
  6
BYLAYER
  9
$CECOLOR
 62
   256
  9
$CELTSCALE
 40
1.0
  9
$DELOBJ
 70
     1
  9
$DISPSILH
 70
     0
  9
$DIMSCALE
 40
1.0
  9
$DIMASZ
 40
2.5
  9
$DIMEXO
 40
1.0
  9
$DIMDLI
 40
12.0
  9
$DIMRND
 40
0.0
  9
$DIMDLE
 40
0.0
  9
$DIMEXE
 40
1.0
  9
$DIMTP
 40
0.1
  9
$DIMTM
 40
0.1
  9
$DIMTXT
 40
3.2
  9
$DIMCEN
 40
0.0
  9
$DIMTSZ
 40
0.0
  9
$DIMTOL
 70
     0
  9
$DIMLIM
 70
     0
  9
$DIMTIH
 70
     0
  9
$DIMTOH
 70
     0
  9
$DIMSE1
 70
     0
  9
$DIMSE2
 70
     0
  9
$DIMTAD
 70
     3
  9
$DIMZIN
 70
     1
  9
$DIMBLK
  1
OPEN30
  9
$DIMASO
 70
     1
  9
$DIMSHO
 70
     1
  9
$DIMPOST
  1

  9
$DIMAPOST
  1
"
  9
$DIMALT
 70
     0
  9
$DIMALTD
 70
     2
  9
$DIMALTF
 40
0.0393701
  9
$DIMLFAC
 40
1.0
  9
$DIMTOFL
 70
     1
  9
$DIMTVP
 40
0.0
  9
$DIMTIX
 70
     0
  9
$DIMSOXD
 70
     0
  9
$DIMSAH
 70
     0
  9
$DIMBLK1
  1

  9
$DIMBLK2
  1

  9
$DIMSTYLE
  2
AM_JIS
  9
$DIMCLRD
 70
     3
  9
$DIMCLRE
 70
     3
  9
$DIMCLRT
 70
     2
  9
$DIMTFAC
 40
0.71
  9
$DIMGAP
 40
1.5
  9
$DIMJUST
 70
     0
  9
$DIMSD1
 70
     0
  9
$DIMSD2
 70
     0
  9
$DIMTOLJ
 70
     0
  9
$DIMTZIN
 70
     0
  9
$DIMALTZ
 70
     0
  9
$DIMALTTZ
 70
     0
  9
$DIMFIT
 70
     3
  9
$DIMUPT
 70
     0
  9
$DIMUNIT
 70
     2
  9
$DIMDEC
 70
     1
  9
$DIMTDEC
 70
     1
  9
$DIMALTU
 70
     2
  9
$DIMALTTD
 70
     2
  9
$DIMTXSTY
  7
ASAMI
  9
$DIMAUNIT
 70
     0
  9
$LUNITS
 70
     2
  9
$LUPREC
 70
     2
  9
$SKETCHINC
 40
1.0
  9
$FILLETRAD
 40
0.8
  9
$AUNITS
 70
     0
  9
$AUPREC
 70
     0
  9
$MENU
  1
.
  9
$ELEVATION
 40
0.0
  9
$PELEVATION
 40
0.0
  9
$THICKNESS
 40
0.0
  9
$LIMCHECK
 70
     0
  9
$BLIPMODE
 70
     0
  9
$CHAMFERA
 40
1.0
  9
$CHAMFERB
 40
1.0
  9
$CHAMFERC
 40
20.0
  9
$CHAMFERD
 40
0.0
  9
$SKPOLY
 70
     0
  9
$TDCREATE
 40
2452838.620506898
  9
$TDUPDATE
 40
2453151.658904421
  9
$TDINDWG
 40
2.1630952546
  9
$TDUSRTIMER
 40
2.1630952546
  9
$USRTIMER
 70
     1
  9
$ANGBASE
 50
0.0
  9
$ANGDIR
 70
     0
  9
$PDMODE
 70
     0
  9
$PDSIZE
 40
0.0
  9
$PLINEWID
 40
0.0
  9
$COORDS
 70
     1
  9
$SPLFRAME
 70
     0
  9
$SPLINETYPE
 70
     6
  9
$SPLINESEGS
 70
     8
  9
$ATTDIA
 70
     1
  9
$ATTREQ
 70
     1
  9
$HANDLING
 70
 12289
  9
$HANDSEED
  5
D89C
  9
$SURFTAB1
 70
     6
  9
$SURFTAB2
 70
     6
  9
$SURFTYPE
 70
     6
  9
$SURFU
 70
     6
  9
$SURFV
 70
     6
  9
$UCSNAME
  2

  9
$UCSORG
 10
0.0
 20
0.0000000000000002
 30
0.0
  9
$UCSXDIR
 10
1.0
 20
0.0
 30
0.0
  9
$UCSYDIR
 10
0.0
 20
1.0
 30
0.0
  9
$PUCSNAME
  2

  9
$PUCSORG
 10
0.0
 20
0.0
 30
0.0
  9
$PUCSXDIR
 10
1.0
 20
0.0
 30
0.0
  9
$PUCSYDIR
 10
0.0
 20
1.0
 30
0.0
  9
$USERI1
 70
     0
  9
$USERI2
 70
     0
  9
$USERI3
 70
     0
  9
$USERI4
 70
     0
  9
$USERI5
 70
     0
  9
$USERR1
 40
0.0
  9
$USERR2
 40
0.0
  9
$USERR3
 40
0.0
  9
$USERR4
 40
0.0
  9
$USERR5
 40
0.0
  9
$WORLDVIEW
 70
     1
  9
$SHADEDGE
 70
     3
  9
$SHADEDIF
 70
    70
  9
$TILEMODE
 70
     1
  9
$MAXACTVP
 70
    64
  9
$PINSBASE
 10
0.0
 20
0.0
 30
0.0
  9
$PLIMCHECK
 70
     0
  9
$PEXTMIN
 10
1.000000000000000E+20
 20
1.000000000000000E+20
 30
1.000000000000000E+20
  9
$PEXTMAX
 10
-1.000000000000000E+20
 20
-1.000000000000000E+20
 30
-1.000000000000000E+20
  9
$PLIMMIN
 10
0.0
 20
0.0
  9
$PLIMMAX
 10
210.0
 20
297.0
  9
$UNITMODE
 70
     0
  9
$VISRETAIN
 70
     1
  9
$PLINEGEN
 70
     0
  9
$PSLTSCALE
 70
     1
  9
$TREEDEPTH
 70
  3020
  9
$PICKSTYLE
 70
     0
  9
$CMLSTYLE
  2
STANDARD
  9
$CMLJUST
 70
     0
  9
$CMLSCALE
 40
20.0
  9
$PROXYGRAPHICS
 70
     1
  9
$MEASUREMENT
 70
     1
  0
ENDSEC
  0
SECTION
  2
CLASSES
  0
CLASS
  1
ACDBDICTIONARYWDFLT
  2
AcDbDictionaryWithDefault
  3
AutoCAD 2000
 90
        0
280
     0
281
     0
  0
CLASS
  1
ACDBPLACEHOLDER
  2
AcDbPlaceHolder
  3
AutoCAD 2000
 90
        0
280
     0
281
     0
  0
CLASS
  1
LAYOUT
  2
AcDbLayout
  3
AutoCAD 2000
 90
        0
280
     0
281
     0
  0
CLASS
  1
AMGSETTINGSOBJ
  2
AmgSettingsObj
  3
"AcadM|Product Description: AutoCAD Mechanical 2000|Company: Autodesk"
 90
        0
280
     0
281
     0
  0
CLASS
  1
ACME_DOCUMENT
  2
AcMeDbDoc
  3
AcMeServices
 90
        0
280
     0
281
     0
  0
CLASS
  1
ACMESCOPE
  2
AcMeScope
  3
AcMeServices
 90
        0
280
     0
281
     0
  0
CLASS
  1
ACMECOMMANDHISTORY
  2
AcMeCommandHistory
  3
AcMeServices
 90
        0
280
     0
281
     0
  0
CLASS
  1
DICTIONARYVAR
  2
AcDbDictionaryVar
  3
AutoCAD 2000
 90
        0
280
     0
281
     0
  0
CLASS
  1
ACIMSYSVARMAN
  2
AcImSysVarManager
  3
AcMeServices
 90
        0
280
     0
281
     0
  0
CLASS
  1
ACIMREALSYSVAR
  2
AcImRealSysVar
  3
AcMeServices
 90
        0
280
     0
281
     0
  0
CLASS
  1
ACIMINTSYSVAR
  2
AcImIntSysVar
  3
AcMeServices
 90
        0
280
     0
281
     0
  0
CLASS
  1
ACMEDRAWINGMAN
  2
AcMeDrawingMan
  3
AcMeServices
 90
        0
280
     0
281
     0
  0
CLASS
  1
ACMEVIEW
  2
AcMeView
  3
AcMeServices
 90
        0
280
     0
281
     0
  0
CLASS
  1
ACDBENTITYCACHE
  2
AcMeEntityCache
  3
AcMeServices
 90
        0
280
     0
281
     0
  0
CLASS
  1
GSMANAGER
  2
AcMeGSManager
  3
AcMeServices
 90
        0
280
     0
281
     0
  0
CLASS
  1
AmdtInternalReactor
  2
AmdtInternalReactor
  3
AcMeServices
 90
        0
280
     0
281
     0
  0
CLASS
  1
ACMESTATEMGR
  2
AcMeStateMgr
  3
AcMeServices
 90
        0
280
     0
281
     0
  0
CLASS
  1
ACME_DATABASE
  2
AcMeDbDatabase
  3
AcMeServices
 90
        0
280
     0
281
     0
  0
CLASS
  1
ACRFINSADJUSTERMGR
  2
AcRfInsAdjusterMgr
  3
AcMeServices
 90
        0
280
     0
281
     0
  0
CLASS
  1
ACMDATADICTIONARY
  2
AcmDataDictionary
  3
"AcmSymBB|Product Description: AutoCAD Mechanical 2000|Company: Autodesk"
 90
        0
280
     0
281
     0
  0
CLASS
  1
ACMDATAENTRYBLOCK
  2
AcmDataEntryBlock
  3
"AcmSymBB|Product Description: AutoCAD Mechanical 2000|Company: Autodesk"
 90
        0
280
     0
281
     0
  0
CLASS
  1
AMGOBJPROPCFG
  2
AmgObjPropCfg
  3
"AmgLay|Product Description: AutoCAD Mechanical 2000|Company: Autodesk"
 90
        1
280
     0
281
     0
  0
CLASS
  1
ACAMGFILTERDAT
  2
AcAmgFilterDat
  3
"AcadM|Product Description: AutoCAD Mechanical 2000|Company: Autodesk"
 90
        0
280
     0
281
     0
  0
CLASS
  1
LAYER_INDEX
  2
AcDbLayerIndex
  3
AutoCAD 2000
 90
        0
280
     0
281
     0
  0
CLASS
  1
IDBUFFER
  2
AcDbIdBuffer
  3
AutoCAD 2000
 90
        0
280
     0
281
     0
  0
CLASS
  1
ACIMSTRSYSVAR
  2
AcImStrSysVar
  3
AcMeServices
 90
        0
280
     0
281
     0
  0
CLASS
  1
ACMSTANDARDJIS
  2
AcmStandardJIS
  3
"AcmSymBB|Product Description: AutoCAD Mechanical 2000|Company: Autodesk"
 90
        0
280
     0
281
     0
  0
CLASS
  1
ACMSURFSTANDARDJIS
  2
AcmSurfTextStdJIS
  3
"AcmSymBB|Product Description: AutoCAD Mechanical 2000|Company: Autodesk"
 90
        0
280
     0
281
     0
  0
CLASS
  1
ACMFCFSTANDARDJIS
  2
AcmFCFStdJIS
  3
"AcmSymBB|Product Description: AutoCAD Mechanical 2000|Company: Autodesk"
 90
        0
280
     0
281
     0
  0
CLASS
  1
ACMWELDSTANDARDJIS
  2
AcmWeldingStdJIS
  3
"AcmSymBB|Product Description: AutoCAD Mechanical 2000|Company: Autodesk"
 90
        0
280
     0
281
     0
  0
CLASS
  1
ACMIDSTANDARDJIS
  2
AcmIdStdJIS
  3
"AcmSymBB|Product Description: AutoCAD Mechanical 2000|Company: Autodesk"
 90
        0
280
     0
281
     0
  0
CLASS
  1
ACMDATUMSTANDARDJIS
  2
AcmDatumStdJIS
  3
"AcmSymBB|Product Description: AutoCAD Mechanical 2000|Company: Autodesk"
 90
        0
280
     0
281
     0
  0
CLASS
  1
ACMBOMSTANDARDJIS
  2
AcmBOMStdJIS
  3
"AcmSymBB|Product Description: AutoCAD Mechanical 2000|Company: Autodesk"
 90
        0
280
     0
281
     0
  0
CLASS
  1
ACMSTANDARDANSI
  2
AcmStandardANSI
  3
"AcmSymBB|Product Description: AutoCAD Mechanical 2000|Company: Autodesk"
 90
        0
280
     0
281
     0
  0
CLASS
  1
ACMSURFSTANDARDANSI
  2
AcmSurfTextStdANSI
  3
"AcmSymBB|Product Description: AutoCAD Mechanical 2000|Company: Autodesk"
 90
        0
280
     0
281
     0
  0
CLASS
  1
ACMFCFSTANDARDANSI
  2
AcmFCFStdANSI
  3
"AcmSymBB|Product Description: AutoCAD Mechanical 2000|Company: Autodesk"
 90
        0
280
     0
281
     0
  0
CLASS
  1
ACMWELDSTANDARDANSI
  2
AcmWeldingStdANSI
  3
"AcmSymBB|Product Description: AutoCAD Mechanical 2000|Company: Autodesk"
 90
        0
280
     0
281
     0
  0
CLASS
  1
ACMIDSTANDARDANSI
  2
AcmIdStdANSI
  3
"AcmSymBB|Product Description: AutoCAD Mechanical 2000|Company: Autodesk"
 90
        0
280
     0
281
     0
  0
CLASS
  1
ACMDATUMSTANDARDANSI
  2
AcmDatumStdANSI
  3
"AcmSymBB|Product Description: AutoCAD Mechanical 2000|Company: Autodesk"
 90
        0
280
     0
281
     0
  0
CLASS
  1
ACMBOMSTANDARDANSI
  2
AcmBOMStdANSI
  3
"AcmSymBB|Product Description: AutoCAD Mechanical 2000|Company: Autodesk"
 90
        0
280
     0
281
     0
  0
CLASS
  1
ACMSTANDARDBSI
  2
AcmStandardBSI
  3
"AcmSymBB|Product Description: AutoCAD Mechanical 2000|Company: Autodesk"
 90
        0
280
     0
281
     0
  0
CLASS
  1
ACMSURFSTANDARDBSI
  2
AcmSurfTextStdBSI
  3
"AcmSymBB|Product Description: AutoCAD Mechanical 2000|Company: Autodesk"
 90
        0
280
     0
281
     0
  0
CLASS
  1
ACMFCFSTANDARDBSI
  2
AcmFCFStdBSI
  3
"AcmSymBB|Product Description: AutoCAD Mechanical 2000|Company: Autodesk"
 90
        0
280
     0
281
     0
  0
CLASS
  1
ACMWELDSTANDARDBSI
  2
AcmWeldingStdBSI
  3
"AcmSymBB|Product Description: AutoCAD Mechanical 2000|Company: Autodesk"
 90
        0
280
     0
281
     0
  0
CLASS
  1
ACMIDSTANDARDBSI
  2
AcmIdStdBSI
  3
"AcmSymBB|Product Description: AutoCAD Mechanical 2000|Company: Autodesk"
 90
        0
280
     0
281
     0
  0
CLASS
  1
ACMDATUMSTANDARDBSI
  2
AcmDatumStdBSI
  3
"AcmSymBB|Product Description: AutoCAD Mechanical 2000|Company: Autodesk"
 90
        0
280
     0
281
     0
  0
CLASS
  1
ACMBOMSTANDARDBSI
  2
AcmBOMStdBSI
  3
"AcmSymBB|Product Description: AutoCAD Mechanical 2000|Company: Autodesk"
 90
        0
280
     0
281
     0
  0
CLASS
  1
LONG_TRANSACTION
  2
AcDbLongTransaction
  3
AutoCAD 2000
 90
        0
280
     0
281
     0
  0
CLASS
  1
LWPOLYLINE
  2
AcDbPolyline
  3
AutoCAD 2000
 90
        0
280
     0
281
     1
  0
CLASS
  1
HATCH
  2
AcDbHatch
  3
AutoCAD 2000
 90
        0
280
     0
281
     1
  0
CLASS
  1
XRECORD
  2
AcDbXrecord
  3
AutoCAD 2000
 90
        0
280
     0
281
     0
  0
ENDSEC
  0
SECTION
  2
TABLES
  0
TABLE
  2
VPORT
  5
8
330
0
100
AcDbSymbolTable
 70
     3
  0
VPORT
  5
D85D
330
8
100
AcDbSymbolTableRecord
100
AcDbViewportTableRecord
  2
*ACTIVE
 70
     0
 10
0.0
 20
0.0
 11
1.0
 21
1.0
 12
-7.28930429308869
 22
23.31216922130178
 13
0.0
 23
0.0
 14
2.5
 24
2.5
 15
10.0
 25
10.0
 16
0.0
 26
0.0
 36
1.0
 17
0.0
 27
0.0
 37
0.0
 40
285.1500186663342
 41
1.56570841889117
 42
50.0
 43
0.0
 44
0.0
 50
0.0
 51
0.0
 71
     0
 72
   100
 73
     1
 74
     3
 75
     0
 76
     0
 77
     0
 78
     0
  0
ENDTAB
  0
TABLE
  2
LTYPE
  5
5
330
0
100
AcDbSymbolTable
 70
    10
  0
LTYPE
  5
14
330
5
100
AcDbSymbolTableRecord
100
AcDbLinetypeTableRecord
  2
BYBLOCK
 70
     0
  3

 72
    65
 73
     0
 40
0.0
  0
LTYPE
  5
15
330
5
100
AcDbSymbolTableRecord
100
AcDbLinetypeTableRecord
  2
BYLAYER
 70
     0
  3

 72
    65
 73
     0
 40
0.0
  0
LTYPE
  5
16
330
5
100
AcDbSymbolTableRecord
100
AcDbLinetypeTableRecord
  2
CONTINUOUS
 70
     0
  3
Solid line
 72
    65
 73
     0
 40
0.0
  0
LTYPE
  5
4B
330
5
100
AcDbSymbolTableRecord
100
AcDbLinetypeTableRecord
  2
AM_ISO02W050
 70
     0
  3
__ __ __ __ __ __ __ __ __ __ __ __ __ __ __
 72
    65
 73
     2
 40
7.5
 49
6.0
 74
     0
 49
-1.5
 74
     0
  0
LTYPE
  5
4C
330
5
100
AcDbSymbolTableRecord
100
AcDbLinetypeTableRecord
  2
AM_ISO08W050
 70
     0
  3
____ . ____ . ____ . ____ . ____ . ____ . ____
 72
    65
 73
     4
 40
18.0
 49
12.0
 74
     0
 49
-1.5
 74
     0
 49
3.0
 74
     0
 49
-1.5
 74
     0
  0
LTYPE
  5
4D
330
5
100
AcDbSymbolTableRecord
100
AcDbLinetypeTableRecord
  2
AM_ISO09W050
 70
     0
  3
_____ . . _____ . . _____ . . ____ .. ____
 72
    65
 73
     6
 40
22.5
 49
12.0
 74
     0
 49
-1.5
 74
     0
 49
3.0
 74
     0
 49
-1.5
 74
     0
 49
3.0
 74
     0
 49
-1.5
 74
     0
  0
LTYPE
  5
4E
330
5
100
AcDbSymbolTableRecord
100
AcDbLinetypeTableRecord
  2
AMCONSTR
 70
     0
  3
_______________________
 72
    65
 73
     2
 40
9999.0
 49
9999.0
 74
     0
 49
0.0
 74
     0
  0
LTYPE
  5
4F
330
5
100
AcDbSymbolTableRecord
100
AcDbLinetypeTableRecord
  2
AM_ISO02W050X2
 70
     0
  3
 _ _ _ _ _ _ _ _ _ _ _ _
 72
    65
 73
     2
 40
3.75
 49
3.0
 74
     0
 49
-0.75
 74
     0
  0
LTYPE
  5
50
330
5
100
AcDbSymbolTableRecord
100
AcDbLinetypeTableRecord
  2
AM_ISO08W050X2
 70
     0
  3
__ . __ . __ . __ . __ . __
 72
    65
 73
     4
 40
9.0
 49
6.0
 74
     0
 49
-0.75
 74
     0
 49
1.5
 74
     0
 49
-0.75
 74
     0
  0
LTYPE
  5
53
330
5
100
AcDbSymbolTableRecord
100
AcDbLinetypeTableRecord
  2
AMZIGZAG
 70
     0
  3
/\/-/\/-/\/-/\/-/\/-/\/
 72
    65
 73
     2
 40
11.00009999999999
 49
0.0001
 74
     4
 75
   135
340
52
 46
0.04
 50
0.0
 44
0.0
 45
0.0
 49
-11.0
 74
     0
  0
LTYPE
  5
166
330
5
100
AcDbSymbolTableRecord
100
AcDbLinetypeTableRecord
  2
ACJISTGL
 70
     0
  3
_ _ _ _ _
 72
    65
 73
     2
 40
3.0
 49
2.0
 74
     0
 49
-1.0
 74
     0
  0
LTYPE
  5
26A
330
5
100
AcDbSymbolTableRecord
100
AcDbLinetypeTableRecord
  2
ACJISTGB
 70
     0
  3
__ . . __ . .
 72
    65
 73
     6
 40
9.0
 49
4.0
 74
     0
 49
-1.0
 74
     0
 49
1.0
 74
     0
 49
-1.0
 74
     0
 49
1.0
 74
     0
 49
-1.0
 74
     0
  0
ENDTAB
  0
TABLE
  2
LAYER
  5
2
330
0
100
AcDbSymbolTable
 70
     8
  0
LAYER
  5
10
330
2
100
AcDbSymbolTableRecord
100
AcDbLayerTableRecord
  2
0
 70
     0
 62
     7
  6
CONTINUOUS
  0
LAYER
  5
3F9
330
2
100
AcDbSymbolTableRecord
100
AcDbLayerTableRecord
  2
AM_0
 70
     0
 62
     7
  6
CONTINUOUS
  0
LAYER
  5
BD6
330
2
100
AcDbSymbolTableRecord
100
AcDbLayerTableRecord
  2
AM_11
 70
     0
 62
     3
  6
AM_ISO09W050
  0
LAYER
  5
BD7
330
2
100
AcDbSymbolTableRecord
100
AcDbLayerTableRecord
  2
AM_7
 70
     0
 62
     4
  6
AM_ISO08W050
  0
LAYER
  5
BD8
330
2
100
AcDbSymbolTableRecord
100
AcDbLayerTableRecord
  2
AM_5
 70
     0
 62
     3
  6
CONTINUOUS
  0
LAYER
  5
BD9
330
2
100
AcDbSymbolTableRecord
100
AcDbLayerTableRecord
  2
DEFPOINTS
 70
     0
 62
     7
  6
CONTINUOUS
  0
LAYER
  5
BDA
330
2
100
AcDbSymbolTableRecord
100
AcDbLayerTableRecord
  2
AM_6
 70
     0
 62
     2
  6
CONTINUOUS
  0
LAYER
  5
1E2E
330
2
100
AcDbSymbolTableRecord
100
AcDbLayerTableRecord
  2
AM_CL
 70
     0
 62
     1
  6
AMCONSTR
  0
ENDTAB
  0
TABLE
  2
STYLE
  5
3
330
0
100
AcDbSymbolTable
 70
     5
  0
STYLE
  5
11
330
3
100
AcDbSymbolTableRecord
100
AcDbTextStyleTableRecord
  2
STANDARD
 70
     0
 40
0.0
 41
1.0
 50
0.0
 71
     0
 42
2.5
  3
simplex.shx
  4
EXTFONT.SHX
  0
STYLE
  5
52
330
3
100
AcDbSymbolTableRecord
100
AcDbTextStyleTableRecord
  2

 70
     1
 40
0.0
 41
1.0
 50
0.0
 71
     0
 42
2.5
  3
ltypeshp.shx
  4

  0
STYLE
  5
6B
330
3
100
AcDbSymbolTableRecord
100
AcDbTextStyleTableRecord
  2
ASAMI
 70
     0
 40
0.0
 41
1.0
 50
0.0
 71
     0
 42
2.5
  3
simplex.shx
  4
EXTFONT.SHX
  0
STYLE
  5
262
330
3
100
AcDbSymbolTableRecord
100
AcDbTextStyleTableRecord
  2
ACJISTS
 70
     0
 40
1.0
 41
1.0
 50
0.0
 71
     0
 42
2.5
  3
simplex.shx
  4
bigfont.shx
  0
STYLE
  5
269
330
3
100
AcDbSymbolTableRecord
100
AcDbTextStyleTableRecord
  2
ACJISGDT
 70
     0
 40
0.0
 41
1.0
 50
0.0
 71
     0
 42
2.5
  3
amgdtans.shx
  4

  0
ENDTAB
  0
TABLE
  2
VIEW
  5
6
330
0
100
AcDbSymbolTable
 70
     0
  0
ENDTAB
  0
TABLE
  2
UCS
  5
7
330
0
100
AcDbSymbolTable
 70
     0
  0
ENDTAB
  0
TABLE
  2
APPID
  5
9
330
0
100
AcDbSymbolTable
 70
    14
  0
APPID
  5
12
330
9
100
AcDbSymbolTableRecord
100
AcDbRegAppTableRecord
  2
ACAD
 70
     0
  0
APPID
  5
30
330
9
100
AcDbSymbolTableRecord
100
AcDbRegAppTableRecord
  2
MCAD_NO_VIS
 70
     0
  0
APPID
  5
31
330
9
100
AcDbSymbolTableRecord
100
AcDbRegAppTableRecord
  2
ACAD_TEMP_GRAPHIC
 70
     0
  0
APPID
  5
2C2
330
9
100
AcDbSymbolTableRecord
100
AcDbRegAppTableRecord
  2
GENIUS_GENDTOL_13
 70
     0
  0
APPID
  5
339
330
9
100
AcDbSymbolTableRecord
100
AcDbRegAppTableRecord
  2
GENIUS_GENODEF_13
 70
     0
  0
APPID
  5
33A
330
9
100
AcDbSymbolTableRecord
100
AcDbRegAppTableRecord
  2
GENIUS_GENOBJ-N-RSBK_13
 70
     0
  0
APPID
  5
33B
330
9
100
AcDbSymbolTableRecord
100
AcDbRegAppTableRecord
  2
GENIUS_GENOBJ-N-LIB_13
 70
     0
  0
APPID
  5
33C
330
9
100
AcDbSymbolTableRecord
100
AcDbRegAppTableRecord
  2
GENIUS_GENSCALE_13
 70
     0
  0
APPID
  5
378
330
9
100
AcDbSymbolTableRecord
100
AcDbRegAppTableRecord
  2
GENIUS_GENDIMSH_14
 70
     0
  0
APPID
  5
BDB
330
9
100
AcDbSymbolTableRecord
100
AcDbRegAppTableRecord
  2
GENIUS_GENOBJ-N-CEN_13
 70
     0
  0
APPID
  5
BDC
330
9
100
AcDbSymbolTableRecord
100
AcDbRegAppTableRecord
  2
GENIUS_GENFIL_13
 70
     0
  0
APPID
  5
BDD
330
9
100
AcDbSymbolTableRecord
100
AcDbRegAppTableRecord
  2
GENIUS_GENOBJ-N-FIL_13
 70
     0
  0
APPID
  5
12AD
330
9
100
AcDbSymbolTableRecord
100
AcDbRegAppTableRecord
  2
GENIUS_GENOREF_13
 70
     0
  0
APPID
  5
62E6
330
9
100
AcDbSymbolTableRecord
100
AcDbRegAppTableRecord
  2
GENIUS_GENOBJ-N-CHA_13
 70
     0
  0
ENDTAB
  0
TABLE
  2
DIMSTYLE
  5
A
330
0
100
AcDbSymbolTable
 70
     9
  0
DIMSTYLE
105
58
102
{ACAD_REACTORS
330
634F
330
640B
330
6418
330
B7AC
102
}
330
A
100
AcDbSymbolTableRecord
100
AcDbDimStyleTableRecord
  2
AM_JIS
 70
     0
  3

  4
"
  5
OPEN30
  6

  7

 40
1.0
 41
2.5
 42
1.0
 43
12.0
 44
1.0
 45
0.0
 46
0.0
 47
0.1
 48
0.1
140
3.2
141
0.0
142
0.0
143
0.0393701
144
1.0
145
0.0
146
0.71
147
1.5
 71
     0
 72
     0
 73
     0
 74
     0
 75
     0
 76
     0
 77
     3
 78
     1
170
     0
171
     2
172
     1
173
     0
174
     0
175
     0
176
     3
177
     3
178
     2
270
     2
271
     1
272
     1
273
     2
274
     2
340
6B
275
     0
280
     0
281
     0
282
     0
283
     0
284
     0
285
     0
286
     0
287
     3
288
     0
  0
DIMSTYLE
105
5F
330
A
100
AcDbSymbolTableRecord
100
AcDbDimStyleTableRecord
  2
AM_JIS$3
 70
     0
  3

  4
"
  5
OPEN30
  6

  7

 40
1.0
 41
2.5
 42
1.0
 43
10.0
 44
1.0
 45
0.0
 46
0.0
 47
0.1
 48
0.1
140
3.2
141
0.0
142
0.0
143
0.0393701
144
1.0
145
0.0
146
0.71
147
1.5
 71
     0
 72
     0
 73
     0
 74
     1
 75
     0
 76
     0
 77
     3
 78
     1
170
     0
171
     2
172
     0
173
     0
174
     0
175
     0
176
     3
177
     3
178
     2
270
     2
271
     2
272
     1
273
     2
274
     2
340
6B
275
     0
280
     0
281
     0
282
     0
283
     0
284
     0
285
     0
286
     0
287
     0
288
     1
  0
DIMSTYLE
105
60
330
A
100
AcDbSymbolTableRecord
100
AcDbDimStyleTableRecord
  2
AM_JIS$4
 70
     0
  3

  4
"
  5
OPEN30
  6

  7

 40
1.0
 41
2.5
 42
1.0
 43
10.0
 44
1.0
 45
0.0
 46
0.0
 47
0.1
 48
0.1
140
3.2
141
0.0
142
0.0
143
0.0393701
144
1.0
145
0.0
146
0.71
147
1.5
 71
     0
 72
     0
 73
     0
 74
     1
 75
     0
 76
     0
 77
     3
 78
     1
170
     0
171
     2
172
     0
173
     0
174
     0
175
     0
176
     3
177
     3
178
     2
270
     2
271
     2
272
     1
273
     2
274
     2
340
6B
275
     0
280
     0
281
     0
282
     0
283
     0
284
     0
285
     0
286
     0
287
     0
288
     1
  0
DIMSTYLE
105
61
330
A
100
AcDbSymbolTableRecord
100
AcDbDimStyleTableRecord
  2
AM_JIS$6
 70
     0
  3

  4
"
  5
OPEN30
  6

  7

 40
1.0
 41
2.5
 42
1.0
 43
10.0
 44
1.0
 45
0.0
 46
0.0
 47
0.1
 48
0.1
140
3.2
141
0.0
142
0.0
143
0.0393701
144
1.0
145
0.0
146
0.71
147
1.5
 71
     0
 72
     0
 73
     0
 74
     0
 75
     0
 76
     0
 77
     0
 78
     1
170
     0
171
     2
172
     1
173
     0
174
     0
175
     0
176
     3
177
     3
178
     2
270
     2
271
     2
272
     2
273
     2
274
     2
340
6B
275
     0
280
     0
281
     0
282
     0
283
     0
284
     0
285
     0
286
     0
287
     3
288
     0
  0
DIMSTYLE
105
62
330
A
100
AcDbSymbolTableRecord
100
AcDbDimStyleTableRecord
  2
AM_JIS$7
 70
     0
  3

  4
"
  5
OPEN30
  6

  7

 40
1.0
 41
2.5
 42
1.0
 43
10.0
 44
1.0
 45
0.0
 46
0.0
 47
0.1
 48
0.1
140
3.2
141
0.0
142
0.0
143
0.0393701
144
1.0
145
0.0
146
0.71
147
1.5
 71
     0
 72
     0
 73
     0
 74
     0
 75
     0
 76
     0
 77
     3
 78
     1
170
     0
171
     2
172
     1
173
     0
174
     0
175
     0
176
     3
177
     3
178
     2
270
     2
271
     2
272
     1
273
     2
274
     2
340
6B
275
     0
280
     0
281
     0
282
     0
283
     0
284
     0
285
     0
286
     0
287
     3
288
     0
  0
DIMSTYLE
105
63
330
A
100
AcDbSymbolTableRecord
100
AcDbDimStyleTableRecord
  2
AM_JIS$SF
 70
     0
  3

  4
"
  5
OPEN30
  6

  7

 40
1.0
 41
2.5
 42
1.0
 43
10.0
 44
1.0
 45
0.0
 46
0.0
 47
0.1
 48
0.1
140
3.2
141
0.0
142
0.0
143
0.0393701
144
1.0
145
0.0
146
0.71
147
1.5
 71
     0
 72
     0
 73
     0
 74
     0
 75
     1
 76
     1
 77
     3
 78
     8
170
     0
171
     2
172
     1
173
     0
174
     0
175
     0
176
   256
177
   256
178
     2
270
     2
271
     2
272
     2
273
     2
274
     2
340
6B
275
     0
280
     0
281
     0
282
     0
283
     0
284
     0
285
     0
286
     0
287
     3
288
     0
  0
DIMSTYLE
105
68
330
A
100
AcDbSymbolTableRecord
100
AcDbDimStyleTableRecord
  2
AM_JIS$SH
 70
     0
  3

  4
"
  5

  6
GENAXEH
  7
OPEN30
 40
1.0
 41
2.5
 42
1.0
 43
10.0
 44
1.0
 45
0.0
 46
0.0
 47
0.1
 48
0.1
140
3.2
141
0.0
142
0.0
143
0.0393701
144
2.0
145
0.0
146
0.71
147
1.5
 71
     0
 72
     0
 73
     0
 74
     0
 75
     1
 76
     1
 77
     3
 78
     8
170
     0
171
     2
172
     1
173
     1
174
     0
175
     0
176
   256
177
   256
178
     2
270
     2
271
     2
272
     2
273
     2
274
     2
340
6B
275
     0
280
     0
281
     0
282
     0
283
     0
284
     0
285
     0
286
     0
287
     3
288
     0
  0
DIMSTYLE
105
B34
102
{ACAD_REACTORS
330
63DB
102
}
330
A
100
AcDbSymbolTableRecord
100
AcDbDimStyleTableRecord
  2
AM_JIS$2
 70
     0
  3

  4
"
  5
OPEN30
  6

  7

 40
1.0
 41
2.5
 42
1.0
 43
12.0
 44
1.0
 45
0.0
 46
0.0
 47
0.1
 48
0.1
140
3.2
141
0.0
142
0.0
143
0.0393701
144
1.0
145
0.0
146
0.71
147
1.5
 71
     0
 72
     0
 73
     0
 74
     0
 75
     0
 76
     0
 77
     3
 78
     1
170
     0
171
     2
172
     1
173
     0
174
     0
175
     0
176
     3
177
     3
178
     2
270
     2
271
     1
272
     1
273
     2
274
     2
340
6B
275
     0
280
     0
281
     0
282
     0
283
     0
284
     0
285
     0
286
     0
287
     3
288
     0
  0
DIMSTYLE
105
62E5
330
A
100
AcDbSymbolTableRecord
100
AcDbDimStyleTableRecord
  2
ISO-25
 70
     0
  3

  4

  5

  6

  7

 40
1.0
 41
2.5
 42
0.625
 43
3.75
 44
1.25
 45
0.0
 46
0.0
 47
0.0
 48
0.0
140
2.5
141
2.5
142
0.0
143
0.03937007874016
144
1.0
145
0.0
146
1.0
147
0.625
 71
     0
 72
     0
 73
     0
 74
     0
 75
     0
 76
     0
 77
     1
 78
     8
170
     0
171
     3
172
     1
173
     0
174
     0
175
     0
176
     0
177
     0
178
     0
270
     2
271
     2
272
     2
273
     2
274
     3
340
11
275
     0
280
     0
281
     0
282
     0
283
     0
284
     8
285
     0
286
     0
287
     3
288
     0
  0
ENDTAB
  0
TABLE
  2
BLOCK_RECORD
  5
1
330
0
100
AcDbSymbolTable
 70
    10
  0
BLOCK_RECORD
  5
1F
102
{ACAD_XDICTIONARY
360
74
102
}
330
1
100
AcDbSymbolTableRecord
100
AcDbBlockTableRecord
  2
*MODEL_SPACE
  0
BLOCK_RECORD
  5
1B
102
{ACAD_XDICTIONARY
360
D87F
102
}
330
1
100
AcDbSymbolTableRecord
100
AcDbBlockTableRecord
  2
*PAPER_SPACE
  0
BLOCK_RECORD
  5
59
330
1
100
AcDbSymbolTableRecord
100
AcDbBlockTableRecord
  2
_OPEN30
  0
BLOCK_RECORD
  5
64
330
1
100
AcDbSymbolTableRecord
100
AcDbBlockTableRecord
  2
GENAXEH
  0
BLOCK_RECORD
  5
6350
330
1
100
AcDbSymbolTableRecord
100
AcDbBlockTableRecord
  2
*D5
  0
BLOCK_RECORD
  5
63DC
330
1
100
AcDbSymbolTableRecord
100
AcDbBlockTableRecord
  2
*D6
  0
BLOCK_RECORD
  5
640C
330
1
100
AcDbSymbolTableRecord
100
AcDbBlockTableRecord
  2
*D7
  0
BLOCK_RECORD
  5
6419
330
1
100
AcDbSymbolTableRecord
100
AcDbBlockTableRecord
  2
*D8
  0
BLOCK_RECORD
  5
B7AD
330
1
100
AcDbSymbolTableRecord
100
AcDbBlockTableRecord
  2
*D9
  0
ENDTAB
  0
ENDSEC
  0
SECTION
  2
BLOCKS
  0
BLOCK
  5
20
330
1F
100
AcDbEntity
  8
0
100
AcDbBlockBegin
  2
*MODEL_SPACE
 70
     0
 10
0.0
 20
0.0
 30
0.0
  3
*MODEL_SPACE
  1

  0
ENDBLK
  5
21
330
1F
100
AcDbEntity
  8
0
100
AcDbBlockEnd
  0
BLOCK
  5
1C
330
1B
100
AcDbEntity
 67
     1
  8
0
100
AcDbBlockBegin
  2
*PAPER_SPACE
 70
     0
 10
0.0
 20
0.0
 30
0.0
  3
*PAPER_SPACE
  1

  0
ENDBLK
  5
1D
330
1B
100
AcDbEntity
 67
     1
  8
0
100
AcDbBlockEnd
  0
BLOCK
  5
5D
330
59
100
AcDbEntity
  8
0
100
AcDbBlockBegin
  2
_OPEN30
 70
     0
 10
0.0
 20
0.0
 30
0.0
  3
_OPEN30
  1

  0
LINE
  5
5A
330
59
100
AcDbEntity
  8
0
 62
     0
100
AcDbLine
 10
-1.0
 20
0.26794919
 30
0.0
 11
0.0
 21
0.0
 31
0.0
  0
LINE
  5
5B
330
59
100
AcDbEntity
  8
0
 62
     0
100
AcDbLine
 10
0.0
 20
0.0
 30
0.0
 11
-1.0
 21
-0.26794919
 31
0.0
  0
LINE
  5
5C
330
59
100
AcDbEntity
  8
0
 62
     0
100
AcDbLine
 10
0.0
 20
0.0
 30
0.0
 11
-1.0
 21
0.0
 31
0.0
  0
ENDBLK
  5
5E
330
59
100
AcDbEntity
  8
0
100
AcDbBlockEnd
  0
BLOCK
  5
66
330
64
100
AcDbEntity
  8
0
100
AcDbBlockBegin
  2
GENAXEH
 70
     0
 10
0.0
 20
0.0
 30
0.0
  3
GENAXEH
  1

  0
LINE
  5
65
330
64
100
AcDbEntity
  8
0
100
AcDbLine
 10
-1.0
 20
0.0
 30
0.0
 11
1.0
 21
0.0
 31
0.0
  0
ENDBLK
  5
67
330
64
100
AcDbEntity
  8
0
100
AcDbBlockEnd
  0
BLOCK
  5
635A
330
6350
100
AcDbEntity
  8
0
100
AcDbBlockBegin
  2
*D5
 70
     1
 10
0.0
 20
0.0
 30
0.0
  3
*D5
  1

  0
LINE
  5
D825
330
6350
100
AcDbEntity
  8
AM_5
 62
     3
100
AcDbLine
 10
-162.287166339085
 20
-7.849999999814775
 30
0.0
 11
-180.567604131651
 21
-7.84999999981477
 31
0.0
  0
LINE
  5
D826
330
6350
100
AcDbEntity
  8
AM_5
 62
     3
100
AcDbLine
 10
-162.287166339085
 20
7.850000000185207
 30
0.0
 11
-180.567604131651
 21
7.850000000185212
 31
0.0
  0
LINE
  5
D827
330
6350
100
AcDbEntity
  8
AM_5
 62
     3
100
AcDbLine
 10
-179.567604131651
 20
-10.34999999981477
 30
0.0
 11
-179.567604131651
 21
-12.84999999981477
 31
0.0
  0
LINE
  5
D828
330
6350
100
AcDbEntity
  8
AM_5
 62
     3
100
AcDbLine
 10
-179.567604131651
 20
10.35000000018521
 30
0.0
 11
-179.567604131651
 21
12.85000000018521
 31
0.0
  0
LINE
  5
D829
330
6350
100
AcDbEntity
  8
AM_5
 62
     3
100
AcDbLine
 10
-179.567604131651
 20
-7.84999999981477
 30
0.0
 11
-179.567604131651
 21
7.850000000185212
 31
0.0
  0
INSERT
  5
D82A
330
6350
100
AcDbEntity
  8
AM_5
 62
     3
100
AcDbBlockReference
  2
_OPEN30
 10
-179.567604131651
 20
-7.84999999981477
 30
0.0
 41
2.5
 42
2.5
 43
2.5
 50
90.0
  0
INSERT
  5
D82B
330
6350
100
AcDbEntity
  8
AM_5
 62
     3
100
AcDbBlockReference
  2
_OPEN30
 10
-179.567604131651
 20
7.850000000185212
 30
0.0
 41
2.5
 42
2.5
 43
2.5
 50
270.0
  0
MTEXT
  5
D82C
330
6350
100
AcDbEntity
  8
AM_5
 62
     2
100
AcDbMText
 10
-182.667604131651
 20
0.0000000001851921
 30
0.0
 40
3.2
 41
0.0
 71
     5
 72
     1
  1
%%C15.7
  7
ASAMI
 11
0.0000000000000001
 21
1.0
 31
0.0
1001
ACAD
1000
MTEXTBEGIN
1070
    73
1070
     1
1070
    44
1040
1.0
1070
    74
1070
     0
1000
MTEXTEND
  0
POINT
  5
D82D
330
6350
100
AcDbEntity
  8
DEFPOINTS
 62
     0
100
AcDbPoint
 10
-161.287166339085
 20
-7.849999999814776
 30
0.0
  0
POINT
  5
D82E
330
6350
100
AcDbEntity
  8
DEFPOINTS
 62
     0
100
AcDbPoint
 10
-161.287166339085
 20
7.850000000185207
 30
0.0
  0
POINT
  5
D82F
330
6350
100
AcDbEntity
  8
DEFPOINTS
 62
     0
100
AcDbPoint
 10
-179.567604131651
 20
7.850000000185212
 30
0.0
  0
ENDBLK
  5
635B
330
6350
100
AcDbEntity
  8
0
100
AcDbBlockEnd
  0
BLOCK
  5
63E8
330
63DC
100
AcDbEntity
  8
0
100
AcDbBlockBegin
  2
*D6
 70
     1
 10
0.0
 20
0.0
 30
0.0
  3
*D6
  1

  0
LINE
  5
D888
330
63DC
100
AcDbEntity
  8
AM_0
 62
     3
100
AcDbLine
 10
0.3420201433206588
 20
-0.9396926207858657
 30
0.0
 11
11.77023111969732
 21
-32.33844422313201
 31
0.0
  0
LINE
  5
D889
330
63DC
100
AcDbEntity
  8
AM_0
 62
     3
100
AcDbLine
 10
0.3420201433206592
 20
0.9396926207858655
 30
0.0
 11
11.77023111969733
 21
32.33844422313201
 31
0.0
  0
ARC
  5
D88A
330
63DC
100
AcDbEntity
  8
AM_0
 62
     3
100
AcDbCircle
 10
-0.0000000000051273
 20
0.0
 30
0.0
 40
33.41385353871072
100
AcDbArc
 50
294.2878286940014
 51
65.71217130599854
  0
INSERT
  5
D88B
330
63DC
100
AcDbEntity
  8
AM_0
 62
     3
100
AcDbBlockReference
  2
_OPEN30
 10
11.42821097637154
 20
-31.39875160234615
 30
0.0
 41
2.5
 42
2.5
 43
2.5
 50
202.1439143470043
  0
INSERT
  5
D88C
330
63DC
100
AcDbEntity
  8
AM_0
 62
     3
100
AcDbBlockReference
  2
_OPEN30
 10
11.42821097637155
 20
31.39875160234614
 30
0.0
 41
2.5
 42
2.5
 43
2.5
 50
157.8560856529956
  0
MTEXT
  5
D88D
330
63DC
100
AcDbEntity
  8
AM_0
 62
     2
100
AcDbMText
 10
30.31385353870559
 20
-0.0000000000000078
 30
0.0
 40
3.2
 41
0.0
 71
     5
 72
     1
  1
140°
  7
ASAMI
 11
0.0000000000000001
 21
1.0
 31
0.0
  0
POINT
  5
D88E
330
63DC
100
AcDbEntity
  8
DEFPOINTS
 62
     0
100
AcDbPoint
 10
30.68113851217805
 20
-13.23455129207792
 30
0.0
  0
POINT
  5
D88F
330
63DC
100
AcDbEntity
  8
DEFPOINTS
 62
     0
100
AcDbPoint
 10
-0.0000000000051273
 20
0.0
 30
0.0
  0
POINT
  5
D890
330
63DC
100
AcDbEntity
  8
DEFPOINTS
 62
     0
100
AcDbPoint
 10
-0.5459553514046434
 20
-1.5
 30
0.0
  0
POINT
  5
D891
330
63DC
100
AcDbEntity
  8
DEFPOINTS
 62
     0
100
AcDbPoint
 10
-0.0000000000051273
 20
0.0
 30
0.0
  0
POINT
  5
D892
330
63DC
100
AcDbEntity
  8
DEFPOINTS
 62
     0
100
AcDbPoint
 10
-0.5459553514046434
 20
1.5
 30
0.0
  0
ENDBLK
  5
63E9
330
63DC
100
AcDbEntity
  8
0
100
AcDbBlockEnd
  0
BLOCK
  5
6416
330
640C
100
AcDbEntity
  8
0
100
AcDbBlockBegin
  2
*D7
 70
     1
 10
0.0
 20
0.0
 30
0.0
  3
*D7
  1

  0
LINE
  5
D7FA
330
640C
100
AcDbEntity
  8
AM_5
 62
     3
100
AcDbLine
 10
-2.857166339084924
 20
-12.14457067674427
 30
0.0
 11
-2.857166339084924
 21
-25.92175058005429
 31
0.0
  0
LINE
  5
D7FB
330
640C
100
AcDbEntity
  8
AM_5
 62
     3
100
AcDbLine
 10
-98.85716633908499
 20
-8.850000000001013
 30
0.0
 11
-98.85716633908499
 21
-25.92175058005429
 31
0.0
  0
LINE
  5
D7FC
330
640C
100
AcDbEntity
  8
AM_5
 62
     3
100
AcDbLine
 10
-5.357166339084924
 20
-24.92175058005428
 30
0.0
 11
-96.35716633908499
 21
-24.92175058005428
 31
0.0
  0
INSERT
  5
D7FD
330
640C
100
AcDbEntity
  8
AM_5
 62
     3
100
AcDbBlockReference
  2
_OPEN30
 10
-2.857166339084924
 20
-24.92175058005428
 30
0.0
 41
2.5
 42
2.5
 43
2.5
  0
INSERT
  5
D7FE
330
640C
100
AcDbEntity
  8
AM_5
 62
     3
100
AcDbBlockReference
  2
_OPEN30
 10
-98.85716633908499
 20
-24.92175058005428
 30
0.0
 41
2.5
 42
2.5
 43
2.5
 50
180.0
  0
MTEXT
  5
D7FF
330
640C
100
AcDbEntity
  8
AM_5
 62
     2
100
AcDbMText
 10
-50.85716633908496
 20
-21.82175058005428
 30
0.0
 40
3.2
 41
0.0
 71
     5
 72
     1
  1
96
  7
ASAMI
1001
ACAD
1000
MTEXTBEGIN
1070
    73
1070
     1
1070
    44
1040
1.0
1070
    74
1070
     0
1000
MTEXTEND
  0
POINT
  5
D800
330
640C
100
AcDbEntity
  8
DEFPOINTS
 62
     0
100
AcDbPoint
 10
-2.857166339084924
 20
-11.14457067674427
 30
0.0
  0
POINT
  5
D801
330
640C
100
AcDbEntity
  8
DEFPOINTS
 62
     0
100
AcDbPoint
 10
-98.85716633908499
 20
-7.850000000001014
 30
0.0
  0
POINT
  5
D802
330
640C
100
AcDbEntity
  8
DEFPOINTS
 62
     0
100
AcDbPoint
 10
-98.85716633908499
 20
-24.92175058005428
 30
0.0
  0
ENDBLK
  5
6417
330
640C
100
AcDbEntity
  8
0
100
AcDbBlockEnd
  0
BLOCK
  5
6423
330
6419
100
AcDbEntity
  8
0
100
AcDbBlockBegin
  2
*D8
 70
     1
 10
0.0
 20
0.0
 30
0.0
  3
*D8
  1

  0
LINE
  5
D78F
330
6419
100
AcDbEntity
  8
AM_5
 62
     3
100
AcDbLine
 10
-2.857166339084923
 20
-8.853876841854917
 30
0.0
 11
-2.857166339084924
 21
-38.44242088941255
 31
0.0
  0
LINE
  5
D790
330
6419
100
AcDbEntity
  8
AM_5
 62
     3
100
AcDbLine
 10
-162.8571663390849
 20
-7.422727272727853
 30
0.0
 11
-162.8571663390849
 21
-38.44242088941255
 31
0.0
  0
LINE
  5
D791
330
6419
100
AcDbEntity
  8
AM_5
 62
     3
100
AcDbLine
 10
-5.357166339084924
 20
-37.44242088941255
 30
0.0
 11
-160.3571663390849
 21
-37.44242088941255
 31
0.0
  0
INSERT
  5
D792
330
6419
100
AcDbEntity
  8
AM_5
 62
     3
100
AcDbBlockReference
  2
_OPEN30
 10
-2.857166339084924
 20
-37.44242088941255
 30
0.0
 41
2.5
 42
2.5
 43
2.5
  0
INSERT
  5
D793
330
6419
100
AcDbEntity
  8
AM_5
 62
     3
100
AcDbBlockReference
  2
_OPEN30
 10
-162.8571663390849
 20
-37.44242088941255
 30
0.0
 41
2.5
 42
2.5
 43
2.5
 50
180.0
  0
MTEXT
  5
D794
330
6419
100
AcDbEntity
  8
AM_5
 62
     2
100
AcDbMText
 10
-82.85716633908494
 20
-34.34242088941255
 30
0.0
 40
3.2
 41
0.0
 71
     5
 72
     1
  1
160
  7
ASAMI
1001
ACAD
1000
MTEXTBEGIN
1070
    73
1070
     1
1070
    44
1040
1.0
1070
    74
1070
     0
1000
MTEXTEND
  0
POINT
  5
D795
330
6419
100
AcDbEntity
  8
DEFPOINTS
 62
     0
100
AcDbPoint
 10
-2.857166339084923
 20
-7.853876841854917
 30
0.0
  0
POINT
  5
D796
330
6419
100
AcDbEntity
  8
DEFPOINTS
 62
     0
100
AcDbPoint
 10
-162.8571663390849
 20
-6.422727272727853
 30
0.0
  0
POINT
  5
D797
330
6419
100
AcDbEntity
  8
DEFPOINTS
 62
     0
100
AcDbPoint
 10
-162.8571663390849
 20
-37.44242088941255
 30
0.0
  0
ENDBLK
  5
6424
330
6419
100
AcDbEntity
  8
0
100
AcDbBlockEnd
  0
BLOCK
  5
B7B7
330
B7AD
100
AcDbEntity
  8
0
100
AcDbBlockBegin
  2
*D9
 70
     1
 10
0.0
 20
0.0
 30
0.0
  3
*D9
  1

  0
LINE
  5
D893
330
B7AD
100
AcDbEntity
  8
AM_5
 62
     3
100
AcDbLine
 10
-2.09665786450865
 20
-7.849999999814779
 30
0.0
 11
21.7353189994293
 21
-7.849999999814786
 31
0.0
  0
LINE
  5
D894
330
B7AD
100
AcDbEntity
  8
AM_5
 62
     3
100
AcDbLine
 10
-2.09665786450865
 20
7.850000000185204
 30
0.0
 11
21.7353189994293
 21
7.850000000185197
 31
0.0
  0
LINE
  5
D895
330
B7AD
100
AcDbEntity
  8
AM_5
 62
     3
100
AcDbLine
 10
20.7353189994293
 20
-5.349999999814786
 30
0.0
 11
20.7353189994293
 21
5.350000000185197
 31
0.0
  0
MTEXT
  5
D896
330
B7AD
100
AcDbEntity
  8
AM_5
 62
     2
100
AcDbMText
 10
17.6353189994293
 20
0.000000000185206
 30
0.0
 40
3.2
 41
0.0
 71
     5
 72
     1
  1
%%C15.7
  7
ASAMI
 11
0.0000000000000001
 21
1.0
 31
0.0
  0
INSERT
  5
D897
330
B7AD
100
AcDbEntity
  8
AM_5
 62
     3
100
AcDbBlockReference
  2
_OPEN30
 10
20.7353189994293
 20
-7.849999999814786
 30
0.0
 41
2.5
 42
2.5
 43
2.5
 50
270.0
  0
INSERT
  5
D898
330
B7AD
100
AcDbEntity
  8
AM_5
 62
     3
100
AcDbBlockReference
  2
_OPEN30
 10
20.7353189994293
 20
7.850000000185197
 30
0.0
 41
2.5
 42
2.5
 43
2.5
 50
90.0
  0
POINT
  5
D899
330
B7AD
100
AcDbEntity
  8
DEFPOINTS
 62
     0
100
AcDbPoint
 10
-3.09665786450865
 20
-7.849999999814779
 30
0.0
  0
POINT
  5
D89A
330
B7AD
100
AcDbEntity
  8
DEFPOINTS
 62
     0
100
AcDbPoint
 10
-3.09665786450865
 20
7.850000000185204
 30
0.0
  0
POINT
  5
D89B
330
B7AD
100
AcDbEntity
  8
DEFPOINTS
 62
     0
100
AcDbPoint
 10
20.7353189994293
 20
7.850000000185197
 30
0.0
  0
ENDBLK
  5
B7B8
330
B7AD
100
AcDbEntity
  8
0
100
AcDbBlockEnd
  0
ENDSEC
  0
SECTION
  2
ENTITIES
  0
TEXT
  5
C58
330
1F
100
AcDbEntity
  8
AM_6
100
AcDbText
 10
-103.487541289113
 20
-61.75281798494173
 30
0.0
 40
5.0
  1
MDS157MG
 50
0.0000000000002036
 72
     4
 11
-84.43992224149406
 21
-59.25281798494165
 31
0.0
100
AcDbText
  0
LINE
  5
631C
330
1F
100
AcDbEntity
  8
AM_0
100
AcDbLine
 10
-81.27591240393925
 20
-7.850000000001254
 30
0.0
 11
-161.4298936118123
 21
-7.850000000000622
 31
0.0
  0
LINE
  5
631D
330
1F
100
AcDbEntity
  8
AM_0
100
AcDbLine
 10
-78.95372055383898
 20
7.849999999998757
 30
0.0
 11
-161.4298936118123
 21
7.84999999999937
 31
0.0
  0
LINE
  5
6320
330
1F
100
AcDbEntity
  8
AM_7
100
AcDbLine
 10
-168.0990198192148
 20
0.0000000000000299
 30
0.0
 11
4.709999999972001
 21
-0.0000000000000007
 31
0.0
1001
GENIUS_GENODEF_13
1002
{
1000
HIER
1070
     0
1002
}
1002
{
1000
MANEDIT
1070
     0
1002
}
1002
{
1000
NOSEL
1070
     0
1002
}
1002
{
1000
BEHIND
1070
     0
1002
}
1002
{
1000
REACTOR
1002
}
1001
GENIUS_GENOBJ-N-CEN_13
1002
{
1000
OWNER
1000
GEN
1002
}
  0
LINE
  5
6343
330
1F
100
AcDbEntity
  8
AM_0
100
AcDbLine
 10
-162.8571663390849
 20
-1.910660147800081
 30
0.0
 11
-162.8571663390849
 21
1.910660147800145
 31
0.0
  0
LINE
  5
6348
330
1F
100
AcDbEntity
  8
AM_0
100
AcDbLine
 10
-162.8571663390849
 20
2.685040191412678
 30
0.0
 11
-162.8571663390849
 21
6.422727272726675
 31
0.0
  0
LINE
  5
6349
330
1F
100
AcDbEntity
  8
AM_0
100
AcDbLine
 10
-162.8571663390849
 20
1.910660147800145
 30
0.0
 11
-162.8571663390849
 21
2.685040191412678
 31
0.0
  0
LINE
  5
634B
330
1F
100
AcDbEntity
  8
AM_0
100
AcDbLine
 10
-162.8571663390849
 20
-6.422727272727862
 30
0.0
 11
-162.8571663390849
 21
-2.685040190901242
 31
0.0
  0
LINE
  5
634C
330
1F
100
AcDbEntity
  8
AM_0
100
AcDbLine
 10
-162.8571663390849
 20
-2.685040190901242
 30
0.0
 11
-162.8571663390849
 21
-1.910660147800081
 31
0.0
  0
DIMENSION
  5
634F
330
1F
100
AcDbEntity
  8
AM_5
100
AcDbDimension
  2
*D5
 10
-179.567604131651
 20
7.850000000185212
 30
0.0
 11
-179.567604131651
 21
0.0000000001851918
 31
0.0
 70
   160
  1
%%C<>
  3
AM_JIS
100
AcDbAlignedDimension
 13
-161.287166339085
 23
-7.849999999814776
 33
0.0
 14
-161.287166339085
 24
7.850000000185207
 34
0.0
 50
90.0
100
AcDbRotatedDimension
  0
DIMENSION
  5
63DB
330
1F
100
AcDbEntity
  8
AM_0
100
AcDbDimension
  2
*D6
 10
-0.5459553514046434
 20
1.5
 30
0.0
 11
30.31385353870559
 21
-0.0000000000000127
 31
0.0
 70
    34
  3
AM_JIS$2
100
AcDb2LineAngularDimension
 13
-0.5459553514046434
 23
-1.5
 33
0.0
 14
-0.0000000000051273
 24
0.0
 34
0.0
 15
-0.0000000000051273
 25
0.0
 35
0.0
 16
30.68113851217805
 26
-13.23455129207792
 36
0.0
1001
ACAD
1000
DSTYLE
1002
{
1070
   271
1070
     0
1002
}
  0
DIMENSION
  5
640B
330
1F
100
AcDbEntity
  8
AM_5
100
AcDbDimension
  2
*D7
 10
-98.85716633908499
 20
-24.92175058005428
 30
0.0
 11
-50.85716633908496
 21
-21.82175058005428
 31
0.0
 70
    32
  3
AM_JIS
100
AcDbAlignedDimension
 13
-2.857166339084924
 23
-11.14457067674427
 33
0.0
 14
-98.85716633908499
 24
-7.850000000001014
 34
0.0
100
AcDbRotatedDimension
1001
ACAD
1000
DSTYLE
1002
{
1070
    78
1070
     9
1070
   271
1070
     3
1002
}
  0
DIMENSION
  5
6418
330
1F
100
AcDbEntity
  8
AM_5
100
AcDbDimension
  2
*D8
 10
-162.8571663390849
 20
-37.44242088941255
 30
0.0
 11
-82.85716633908494
 21
-34.34242088941255
 31
0.0
 70
    32
  3
AM_JIS
100
AcDbAlignedDimension
 13
-2.857166339084923
 23
-7.853876841854917
 33
0.0
 14
-162.8571663390849
 24
-6.422727272727853
 34
0.0
100
AcDbRotatedDimension
1001
ACAD
1000
DSTYLE
1002
{
1070
    78
1070
     9
1002
}
  0
LINE
  5
647F
330
1F
100
AcDbEntity
  8
AM_0
100
AcDbLine
 10
-161.4298936118123
 20
7.849999999999407
 30
0.0
 11
-161.4298936118123
 21
-7.850000000000565
 31
0.0
  0
LINE
  5
6CBA
330
1F
100
AcDbEntity
  8
AM_0
100
AcDbLine
 10
-2.857166339084924
 20
-7.850000000020301
 30
0.0
 11
-0.0000000000941446
 21
-0.0000000000203036
 31
0.0
  0
LINE
  5
6CBE
330
1F
100
AcDbEntity
  8
AM_0
100
AcDbLine
 10
-0.0000000000941446
 20
-0.0000000000203036
 30
0.0
 11
-2.857166339091453
 21
7.849999999997618
 31
0.0
  0
LINE
  5
6CC0
330
1F
100
AcDbEntity
  8
AM_0
100
AcDbLine
 10
-0.0000000000941446
 20
-0.0000000000203036
 30
0.0
 11
-1.371523624815623
 21
1.363138194665139
 31
0.0
  0
LINE
  5
6CC1
330
1F
100
AcDbEntity
  8
AM_0
100
AcDbLine
 10
-2.51817411963933
 20
-0.6154008669325087
 30
0.0
 11
-0.0000000000941446
 21
-0.0000000000203036
 31
0.0
  0
LINE
  5
B156
330
1F
100
AcDbEntity
  8
AM_0
100
AcDbLine
 10
-161.4298936118123
 20
7.849999999999397
 30
0.0
 11
-162.8571663390849
 21
6.422727272726675
 31
0.0
1001
GENIUS_GENFIL_13
1070
     0
1040
1.0
1040
1.0
1040
20.0
1040
0.0
1002
{
1002
}
1001
GENIUS_GENODEF_13
1002
{
1000
HIER
1070
     0
1002
}
1002
{
1000
MANEDIT
1070
     0
1002
}
1002
{
1000
NOSEL
1070
     0
1002
}
1002
{
1000
BEHIND
1070
     0
1002
}
1002
{
1000
REACTOR
1002
}
1001
GENIUS_GENOBJ-N-CHA_13
1002
{
1000
OWNER
1000
GEN
1002
}
  0
LINE
  5
B158
330
1F
100
AcDbEntity
  8
AM_0
100
AcDbLine
 10
-161.4298936118123
 20
-7.850000000000597
 30
0.0
 11
-162.8571663390849
 21
-6.422727272727862
 31
0.0
1001
GENIUS_GENFIL_13
1070
     0
1040
1.0
1040
1.0
1040
20.0
1040
0.0
1002
{
1002
}
1001
GENIUS_GENODEF_13
1002
{
1000
HIER
1070
     0
1002
}
1002
{
1000
MANEDIT
1070
     0
1002
}
1002
{
1000
NOSEL
1070
     0
1002
}
1002
{
1000
BEHIND
1070
     0
1002
}
1002
{
1000
REACTOR
1002
}
1001
GENIUS_GENOBJ-N-CHA_13
1002
{
1000
OWNER
1000
GEN
1002
}
  0
DIMENSION
  5
B7AC
330
1F
100
AcDbEntity
  8
AM_5
100
AcDbDimension
  2
*D9
 10
20.7353189994293
 20
7.850000000185197
 30
0.0
 11
20.7353189994293
 21
0.0000000001852056
 31
0.0
 70
   160
  1
%%C<>
  3
AM_JIS
100
AcDbAlignedDimension
 13
-3.09665786450865
 23
-7.849999999814779
 33
0.0
 14
-3.09665786450865
 24
7.850000000185204
 34
0.0
 50
90.0
100
AcDbRotatedDimension
1001
ACAD
1000
DSTYLE
1002
{
1070
   287
1070
     4
1070
   279
1070
     1
1002
}
  0
LINE
  5
B8B2
330
1F
100
AcDbEntity
  8
AM_0
100
AcDbLine
 10
-1.371523624815623
 20
1.363138194665139
 30
0.0
 11
-0.496142431534868
 21
1.363140127195873
 31
0.0
  0
SPLINE
  5
D710
330
1F
100
AcDbEntity
  8
AM_0
100
AcDbSpline
210
0.0
220
0.0
230
1.0
 70
     8
 71
     3
 72
     9
 73
     5
 74
     0
 42
0.0000000001
 43
0.0000000001
 40
0.0
 40
0.0
 40
0.0
 40
0.0
 40
0.0353107615743204
 40
0.4098003053212364
 40
0.4098003053212364
 40
0.4098003053212364
 40
0.4098003053212364
 10
-1.371523624815623
 20
1.363138194665139
 30
0.0
 10
-1.363783233751624
 20
1.16458736641156
 30
0.0
 10
-1.273951848646529
 20
-1.139701366326083
 30
0.0
 10
-4.22622271769032
 20
2.115169471627877
 30
0.0
 10
-5.080261455429296
 20
3.6164852895271
 30
0.0
  0
LINE
  5
D7D6
330
1F
100
AcDbEntity
  8
AM_5
  6
AM_ISO09W050
 62
     3
 48
0.5
100
AcDbLine
 10
-2.857166339084924
 20
7.849999999979682
 30
0.0
 11
-15.73360825747213
 21
7.849999999979685
 31
0.0
  0
LINE
  5
D7D7
330
1F
100
AcDbEntity
  8
AM_0
100
AcDbLine
 10
-2.51817411963933
 20
-0.6154008669325087
 30
0.0
 11
-5.080261455429296
 21
3.6164852895271
 31
0.0
  0
SPLINE
  5
D7D8
330
1F
100
AcDbEntity
  8
AM_0
100
AcDbSpline
210
0.0
220
0.0
230
1.0
 70
     8
 71
     3
 72
     9
 73
     5
 74
     0
 42
0.0000000001
 43
0.0000000001
 40
0.0
 40
0.0
 40
0.0
 40
0.0
 40
0.1987770877846628
 40
5.759128114460802
 40
5.759128114460802
 40
5.759128114460802
 40
5.759128114460802
 10
-2.544906669425645
 20
6.99207360858478
 30
0.0
 10
-2.544906669425645
 20
6.99207360858478
 30
0.0
 10
-4.087103813975159
 20
7.00223826077947
 30
0.0
 10
-6.198306165077357
 20
6.451512288190586
 30
0.0
 10
-8.199864115867841
 20
5.600382271055724
 30
0.0
  0
SPLINE
  5
D7D9
330
1F
100
AcDbEntity
  8
AM_0
100
AcDbSpline
210
0.0
220
0.0
230
1.0
 70
     8
 71
     3
 72
     8
 73
     4
 74
     0
 42
0.0000000001
 43
0.0000000001
 40
0.0
 40
0.0
 40
0.0
 40
0.0
 40
6.247244990626095
 40
6.247244990626095
 40
6.247244990626095
 40
6.247244990626095
 10
-2.857166339091453
 20
7.849999999997618
 30
0.0
 10
-4.420414192624165
 20
7.849999999979694
 30
0.0
 10
-6.68563383791624
 20
7.120407817451297
 30
0.0
 10
-8.897550828168878
 20
5.975781229684494
 30
0.0
  0
SPLINE
  5
D7DA
330
1F
100
AcDbEntity
  8
AM_0
100
AcDbSpline
210
0.0
220
0.0
230
1.0
 70
     8
 71
     3
 72
     8
 73
     4
 74
     0
 42
0.0000000001
 43
0.0000000001
 40
19.09542421355049
 40
19.09542421355049
 40
19.09542421355049
 40
19.09542421355049
 40
28.97999309868792
 40
28.97999309868792
 40
28.97999309868792
 40
28.97999309868792
 10
-5.080261455429295
 20
3.616485289527114
 30
0.0
 10
-8.503480831991478
 20
6.023504688840694
 30
0.0
 10
-12.00125661839211
 20
7.849999999979694
 30
0.0
 10
-15.73360825747391
 20
7.849999999979694
 30
0.0
  0
SPLINE
  5
D7DB
330
1F
100
AcDbEntity
  8
AM_0
100
AcDbSpline
210
0.0
220
0.0
230
1.0
 70
     8
 71
     3
 72
     8
 73
     4
 74
     0
 42
0.0000000001
 43
0.0000000001
 40
0.0
 40
0.0
 40
0.0
 40
0.0
 40
6.870645942600294
 40
6.870645942600294
 40
6.870645942600294
 40
6.870645942600294
 10
-32.87314510448483
 20
6.992567170462876
 30
0.0
 10
-30.27884536396407
 20
7.004110642739972
 30
0.0
 10
-27.67467155476397
 20
6.450957885262772
 30
0.0
 10
-25.13410280003039
 20
5.484611121362597
 30
0.0
  0
LINE
  5
D7DC
330
1F
100
AcDbEntity
  8
AM_0
100
AcDbLine
 10
-15.73360825747213
 20
7.849999999979685
 30
0.0
 11
-32.87314510448315
 21
7.849999999979685
 31
0.0
  0
LINE
  5
D7DD
330
1F
100
AcDbEntity
  8
AM_5
  6
AM_ISO09W050
 62
     3
 48
0.5
100
AcDbLine
 10
-66.33366761976327
 20
7.849999999979685
 30
0.0
 11
-78.95372055428167
 21
7.849999999979685
 31
0.0
  0
SPLINE
  5
D7DE
330
1F
100
AcDbEntity
  8
AM_0
100
AcDbSpline
210
0.0
220
0.0
230
1.0
 70
     8
 71
     3
 72
     9
 73
     5
 74
     0
 42
0.0000000001
 43
0.0000000001
 40
0.0
 40
0.0
 40
0.0
 40
0.0
 40
0.1987770877846628
 40
5.759128114445015
 40
5.759128114445015
 40
5.759128114445015
 40
5.759128114445015
 10
-65.07442915353886
 20
6.99256717045274
 30
0.0
 10
-65.14938895869116
 20
6.99256717045274
 30
0.0
 10
-67.322296191288
 20
7.002238260759282
 30
0.0
 10
-69.43076492376137
 20
6.451512288173535
 30
0.0
 10
-71.42973122524907
 20
5.600382271042785
 30
0.0
  0
SPLINE
  5
D7DF
330
1F
100
AcDbEntity
  8
AM_0
100
AcDbSpline
210
0.0
220
0.0
230
1.0
 70
     8
 71
     3
 72
     8
 73
     4
 74
     0
 42
0.0000000001
 43
0.0000000001
 40
0.0
 40
0.0
 40
0.0
 40
0.0
 40
6.247244990625308
 40
6.247244990625308
 40
6.247244990625308
 40
6.247244990625308
 10
-65.29930856900401
 20
7.849999999979694
 30
0.0
 10
-67.65517499433312
 20
7.849999999979694
 30
0.0
 10
-69.91746159694192
 20
7.120407817451521
 30
0.0
 10
-72.12651456164284
 20
5.975781229685042
 30
0.0
  0
LINE
  5
D7E0
330
1F
100
AcDbEntity
  8
AM_0
100
AcDbLine
 10
-46.48499241483577
 20
7.849999999979685
 30
0.0
 11
-66.33366761976327
 21
7.849999999979685
 31
0.0
  0
SPLINE
  5
D7E1
330
1F
100
AcDbEntity
  8
AM_0
100
AcDbSpline
210
0.0
220
0.0
230
1.0
 70
     8
 71
     3
 72
     8
 73
     4
 74
     0
 42
0.0000000001
 43
0.0000000001
 40
0.0
 40
0.0
 40
0.0
 40
0.0
 40
6.870645942600294
 40
6.870645942600294
 40
6.870645942600294
 40
6.870645942600294
 10
-65.29930856900401
 20
6.992567170462876
 30
0.0
 10
-62.70836796934501
 20
7.004110642739972
 30
0.0
 10
-60.10756608610897
 20
6.450957885262772
 30
0.0
 10
-57.57028690049608
 20
5.484611121362597
 30
0.0
  0
LINE
  5
D7E2
330
1F
100
AcDbEntity
  8
AM_5
  6
AM_ISO09W050
 62
     3
 48
0.5
100
AcDbLine
 10
-32.83058042961279
 20
7.849999999979685
 30
0.0
 11
-46.48499241488966
 21
7.849999999979685
 31
0.0
  0
SPLINE
  5
D7E3
330
1F
100
AcDbEntity
  8
AM_0
100
AcDbSpline
210
0.0
220
0.0
230
1.0
 70
     8
 71
     3
 72
     8
 73
     4
 74
     0
 42
0.0000000001
 43
0.0000000001
 40
0.0
 40
0.0
 40
0.0
 40
0.0
 40
6.247244990625308
 40
6.247244990625308
 40
6.247244990625308
 40
6.247244990625308
 10
-32.83058042961283
 20
7.849999999979694
 30
0.0
 10
-35.18644685494197
 20
7.849999999979694
 30
0.0
 10
-37.44873345755077
 20
7.120407817451521
 30
0.0
 10
-39.65778642225171
 20
5.975781229685042
 30
0.0
  0
SPLINE
  5
D7E4
330
1F
100
AcDbEntity
  8
AM_0
100
AcDbSpline
210
0.0
220
0.0
230
1.0
 70
     8
 71
     3
 72
     9
 73
     5
 74
     0
 42
0.0000000001
 43
0.0000000001
 40
0.0
 40
0.0
 40
0.0
 40
0.0
 40
0.1987770877846628
 40
5.759128114445015
 40
5.759128114445015
 40
5.759128114445015
 40
5.759128114445015
 10
-32.60570101414766
 20
6.99256717045274
 30
0.0
 10
-32.68066081930012
 20
6.99256717045274
 30
0.0
 10
-34.85356805189686
 20
7.002238260759282
 30
0.0
 10
-36.96203678437019
 20
6.451512288173535
 30
0.0
 10
-38.96100308585793
 20
5.600382271042785
 30
0.0
  0
SPLINE
  5
D7E5
330
1F
100
AcDbEntity
  8
AM_0
100
AcDbSpline
210
0.0
220
0.0
230
1.0
 70
     8
 71
     3
 72
     8
 73
     4
 74
     0
 42
0.0000000001
 43
0.0000000001
 40
22.73274810806179
 40
22.73274810806179
 40
22.73274810806179
 40
22.73274810806179
 40
28.97999309868792
 40
28.97999309868792
 40
28.97999309868792
 40
28.97999309868792
 10
-8.977844197922747
 20
-6.017136685204661
 30
0.0
 10
-11.10946781842137
 20
-7.120407817491994
 30
0.0
 10
-13.37468746371342
 20
-7.850000000020268
 30
0.0
 10
-15.73360825747391
 20
-7.850000000020268
 30
0.0
  0
LINE
  5
D7E6
330
1F
100
AcDbEntity
  8
AM_5
  6
AM_ISO09W050
 62
     3
 48
0.5
100
AcDbLine
 10
-2.857166339084924
 20
-7.850000000020314
 30
0.0
 11
-15.73360825747213
 21
-7.850000000020301
 31
0.0
  0
LINE
  5
D7E7
330
1F
100
AcDbEntity
  8
AM_0
100
AcDbLine
 10
-15.73360825747213
 20
-7.850000000020301
 30
0.0
 11
-34.57231707353513
 21
-7.850000000020301
 31
0.0
  0
SPLINE
  5
D7E8
330
1F
100
AcDbEntity
  8
AM_0
100
AcDbSpline
210
0.0
220
0.0
230
1.0
 70
     8
 71
     3
 72
     8
 73
     4
 74
     0
 42
0.0000000001
 43
0.0000000001
 40
22.73274810806179
 40
22.73274810806179
 40
22.73274810806179
 40
22.73274810806179
 40
28.97999309868792
 40
28.97999309868792
 40
28.97999309868792
 40
28.97999309868792
 10
-41.35475827621887
 20
-5.975781229725296
 30
0.0
 10
-43.56381124092004
 20
-7.120407817491994
 30
0.0
 10
-45.82609784352911
 20
-7.850000000020268
 30
0.0
 10
-48.18196426885863
 20
-7.850000000020268
 30
0.0
  0
LINE
  5
D7E9
330
1F
100
AcDbEntity
  8
AM_0
100
AcDbLine
 10
-47.22132751066344
 20
-7.850000000020301
 30
0.0
 11
-68.05981571562265
 21
-7.850000000020301
 31
0.0
  0
LINE
  5
D7EA
330
1F
100
AcDbEntity
  8
AM_5
  6
AM_ISO09W050
 62
     3
 48
0.5
100
AcDbLine
 10
-34.52755228357879
 20
-7.850000000020301
 30
0.0
 11
-47.77660998455249
 21
-7.850000000020301
 31
0.0
  0
SPLINE
  5
D7EB
330
1F
100
AcDbEntity
  8
AM_0
100
AcDbSpline
210
0.0
220
0.0
230
1.0
 70
     8
 71
     3
 72
     9
 73
     5
 74
     0
 42
0.0000000001
 43
0.0000000001
 40
1.521176736886217
 40
1.521176736886217
 40
1.521176736886217
 40
1.521176736886217
 40
14.48999654934396
 40
28.97999309868792
 40
28.97999309868792
 40
28.97999309868792
 40
28.97999309868792
 10
-2.836519219527331
 20
-7.409359700085355
 30
0.0
 10
-6.87658857220229
 20
-7.025897844861514
 30
0.0
 10
-16.28961463510018
 20
0.4120510775590788
 30
0.0
 10
-25.70264069799795
 20
7.849999999979694
 30
0.0
 10
-31.1739731354248
 20
7.849999999979694
 30
0.0
  0
LINE
  5
D7EC
330
1F
100
AcDbEntity
  8
AM_0
100
AcDbLine
 10
-2.857166339084924
 20
-7.850000000020301
 30
0.0
 11
-2.51817411963933
 21
-0.6154008669325087
 31
0.0
  0
SPLINE
  5
D7ED
330
1F
100
AcDbEntity
  8
AM_0
100
AcDbSpline
210
0.0
220
0.0
230
1.0
 70
     8
 71
     3
 72
     9
 73
     5
 74
     0
 42
0.0000000001
 43
0.0000000001
 40
0.0
 40
0.0
 40
0.0
 40
0.0
 40
1.448999654934392
 40
2.897999309868792
 40
2.897999309868792
 40
2.897999309868792
 40
2.897999309868792
 10
-2.857166339084924
 20
-7.850000000020301
 30
0.0
 10
-7.532825836290636
 20
-7.850000000020268
 30
0.0
 10
-17.46731925167425
 20
-0.0000000000205108
 30
0.0
 10
-27.40181266705786
 20
7.849999999979694
 30
0.0
 10
-32.87314510448483
 20
7.849999999979694
 30
0.0
  0
SPLINE
  5
D7EE
330
1F
100
AcDbEntity
  8
AM_0
100
AcDbSpline
210
0.0
220
0.0
230
1.0
 70
     8
 71
     3
 72
     9
 73
     5
 74
     0
 42
0.0000000001
 43
0.0000000001
 40
0.0
 40
0.0
 40
0.0
 40
0.0
 40
1.448999654934399
 40
2.897999309868795
 40
2.897999309868795
 40
2.897999309868795
 40
2.897999309868795
 10
-48.18196426885686
 20
-7.850000000020268
 30
0.0
 10
-53.64621233739922
 20
-7.850000000020268
 30
0.0
 10
-63.56784241156934
 20
-0.0000000000205108
 30
0.0
 10
-73.4894724857393
 20
7.849999999979694
 30
0.0
 10
-78.95372055428166
 20
7.849999999979694
 30
0.0
  0
SPLINE
  5
D7EF
330
1F
100
AcDbEntity
  8
AM_0
100
AcDbSpline
210
0.0
220
0.0
230
1.0
 70
     8
 71
     3
 72
     9
 73
     5
 74
     0
 42
0.0000000001
 43
0.0000000001
 40
0.0
 40
0.0
 40
0.0
 40
0.0
 40
1.448999654934399
 40
2.897999309868795
 40
2.897999309868795
 40
2.897999309868795
 40
2.897999309868795
 10
-15.73360825747219
 20
-7.850000000020268
 30
0.0
 10
-21.20494069489909
 20
-7.850000000020268
 30
0.0
 10
-31.13943411028277
 20
-0.0000000000205108
 30
0.0
 10
-41.07392752566637
 20
7.849999999979694
 30
0.0
 10
-46.54525996309328
 20
7.849999999979694
 30
0.0
  0
SPLINE
  5
D7F0
330
1F
100
AcDbEntity
  8
AM_0
100
AcDbSpline
210
0.0
220
0.0
230
1.0
 70
     8
 71
     3
 72
     9
 73
     5
 74
     0
 42
0.0000000001
 43
0.0000000001
 40
0.0
 40
0.0
 40
0.0
 40
0.0
 40
1.448999654934392
 40
2.897999309868792
 40
2.897999309868792
 40
2.897999309868792
 40
2.897999309868792
 10
-34.71766565603812
 20
-7.848419025227408
 30
0.0
 10
-39.99180035212161
 20
-7.850000000020268
 30
0.0
 10
-49.91343042629154
 20
-0.0000000000205108
 30
0.0
 10
-59.83506050046149
 20
7.849999999979694
 30
0.0
 10
-65.29930856900401
 20
7.849999999979694
 30
0.0
  0
SPLINE
  5
D7F1
330
1F
100
AcDbEntity
  8
AM_0
100
AcDbSpline
210
0.0
220
0.0
230
1.0
 70
     8
 71
     3
 72
     9
 73
     5
 74
     0
 42
0.0000000001
 43
0.0000000001
 40
1.521176736886217
 40
1.521176736886217
 40
1.521176736886217
 40
1.521176736886217
 40
14.48999654934396
 40
28.97999309868792
 40
28.97999309868792
 40
28.97999309868792
 40
28.97999309868792
 10
-34.52755228357878
 20
-7.850000000020268
 30
0.0
 10
-39.33641279455453
 20
-7.025897844861513
 30
0.0
 10
-48.73725072052013
 20
0.4120510775590788
 30
0.0
 10
-58.13808864648552
 20
7.849999999979694
 30
0.0
 10
-63.60233671502789
 20
7.849999999979694
 30
0.0
  0
SPLINE
  5
D7F2
330
1F
100
AcDbEntity
  8
AM_0
100
AcDbSpline
210
0.0
220
0.0
230
1.0
 70
     8
 71
     3
 72
     8
 73
     4
 74
     0
 42
0.0000000001
 43
0.0000000001
 40
2.893239258405414
 40
2.893239258405414
 40
2.893239258405414
 40
2.893239258405414
 40
2.897999309868792
 40
2.897999309868792
 40
2.897999309868792
 40
2.897999309868792
 10
-99.26202172128995
 20
7.849873060775674
 30
0.0
 10
-99.28024542587422
 20
7.849957635864147
 30
0.0
 10
-99.29847463124566
 20
7.849999992981179
 30
0.0
 10
-99.31670935553416
 20
7.849999992981179
 30
0.0
  0
SPLINE
  5
D7F3
330
1F
100
AcDbEntity
  8
AM_0
100
AcDbSpline
210
0.0
220
0.0
230
1.0
 70
     8
 71
     3
 72
    10
 73
     6
 74
     0
 42
0.0000000001
 43
0.0000000001
 40
0.0
 40
0.0
 40
0.0
 40
0.0
 40
0.6447675857635071
 40
1.316546974011651
 40
1.777238964087921
 40
1.777238964087921
 40
1.777238964087921
 40
1.777238964087921
 10
-93.67347993711824
 20
-2.952525893172343
 30
0.0
 10
-95.85666190956221
 20
-1.374403350986908
 30
0.0
 10
-102.6615708692351
 20
6.397969766419604
 30
0.0
 10
-91.07597837957625
 20
5.303528071944338
 30
0.0
 10
-87.77804056111534
 20
3.128268300283067
 30
0.0
 10
-86.23348620571926
 20
1.962676633180452
 30
0.0
  0
SPLINE
  5
D7F4
330
1F
100
AcDbEntity
  8
AM_0
100
AcDbSpline
210
0.0
220
0.0
230
1.0
 70
     8
 71
     3
 72
     8
 73
     4
 74
     0
 42
0.0000000001
 43
0.0000000001
 40
0.0
 40
0.0
 40
0.0
 40
0.0
 40
10.77533687840354
 40
10.77533687840354
 40
10.77533687840354
 40
10.77533687840354
 10
-81.9282216114151
 20
-7.850000000020268
 30
0.0
 10
-86.05601935908381
 20
-7.850000000020268
 30
0.0
 10
-89.90100872009788
 20
-5.679474909483556
 30
0.0
 10
-93.67349724200312
 20
-2.952513384257117
 30
0.0
  0
LINE
  5
D7F5
330
1F
100
AcDbEntity
  8
AM_0
100
AcDbLine
 10
-98.85716633908499
 20
-7.850000000001014
 30
0.0
 11
-98.85716633908478
 21
7.849999999998996
 31
0.0
  0
SPLINE
  5
D7F6
330
1F
100
AcDbEntity
  8
AM_0
100
AcDbSpline
210
0.0
220
0.0
230
1.0
 70
     8
 71
     3
 72
     9
 73
     5
 74
     0
 42
0.0000000001
 43
0.0000000001
 40
1.521176736886217
 40
1.521176736886217
 40
1.521176736886217
 40
1.521176736886217
 40
14.48999654934396
 40
28.97999309868792
 40
28.97999309868792
 40
28.97999309868792
 40
28.97999309868792
 10
-68.05751996676949
 20
-7.850000007018805
 30
0.0
 10
-72.94255415404276
 20
-7.025897851860045
 30
0.0
 10
-82.49230394456841
 20
0.4120510705605507
 30
0.0
 10
-92.04205373509395
 20
7.849999992981179
 30
0.0
 10
-97.59285699953622
 20
7.849999992981179
 30
0.0
  0
SPLINE
  5
D7F7
330
1F
100
AcDbEntity
  8
AM_0
100
AcDbSpline
210
0.0
220
0.0
230
1.0
 70
     8
 71
     3
 72
     9
 73
     5
 74
     0
 42
0.0000000001
 43
0.0000000001
 40
0.0
 40
0.0
 40
0.0
 40
0.0
 40
1.448999654934392
 40
1.692872608825329
 40
1.692872608825329
 40
1.692872608825329
 40
1.692872608825329
 10
-68.05751996676949
 20
-7.850000007018805
 30
0.0
 10
-73.60832323121179
 20
-7.850000007018805
 30
0.0
 10
-79.49587119704677
 20
-3.264405409385621
 30
0.0
 10
-85.38341916288173
 20
1.321189188247559
 30
0.0
 10
-86.23400952323526
 20
1.963071547953279
 30
0.0
  0
LINE
  5
D7F8
330
1F
100
AcDbEntity
  8
AM_5
  6
AM_ISO09W050
 62
     3
 48
0.5
100
AcDbLine
 10
-68.05751996676949
 20
-7.850000007018818
 30
0.0
 11
-81.92822160241956
 21
-7.850000007018818
 31
0.0
  0
SPLINE
  5
D7F9
330
1F
100
AcDbEntity
  8
AM_0
100
AcDbSpline
210
0.0
220
0.0
230
1.0
 70
     8
 71
     3
 72
     8
 73
     4
 74
     0
 42
0.0000000001
 43
0.0000000001
 40
22.73274810806179
 40
22.73274810806179
 40
22.73274810806179
 40
22.73274810806179
 40
28.97999309868792
 40
28.97999309868792
 40
28.97999309868792
 40
28.97999309868792
 10
-74.99287078459449
 20
-5.97578123672382
 30
0.0
 10
-77.23691575729279
 20
-7.120407824490526
 30
0.0
 10
-79.53503760340014
 20
-7.850000007018805
 30
0.0
 10
-81.92822160241954
 20
-7.850000007018805
 30
0.0
  0
VIEWPORT
  5
E2
330
1B
100
AcDbEntity
 67
     1
  8
0
100
AcDbViewport
 10
158.659971393327
 20
148.5
 30
0.0
 40
581.809078125
 41
314.226
 68
     1
 69
     1
1001
ACAD
1000
MVIEW
1002
{
1070
    16
1010
0.0
1020
0.0
1030
0.0
1010
0.0
1020
0.0
1030
1.0
1040
0.0
1040
314.226
1040
158.659971393327
1040
148.5
1040
50.0
1040
0.0
1040
0.0
1070
     0
1070
   100
1070
     1
1070
     1
1070
     0
1070
     0
1070
     0
1070
     0
1040
0.0
1040
0.0
1040
0.0
1040
10.0
1040
10.0
1040
10.0
1040
10.0
1070
     0
1002
{
1002
}
1002
}
  0
ENDSEC
  0
SECTION
  2
OBJECTS
  0
DICTIONARY
  5
C
330
0
100
AcDbDictionary
  3
ACAD_GROUP
350
D
  3
ACAD_LAYOUT
350
1A
  3
ACAD_MLINESTYLE
350
17
  3
ACAD_PLOTSETTINGS
350
19
  3
ACAD_PLOTSTYLENAME
350
E
  3
ACDBVARIABLEDICTIONARY
350
34
  3
ACMDICTIONARY
350
43
  3
AMG
350
2B
  3
AMGSNAPSETTINGS
350
6E
  3
DWGPROPS
350
D851
  3
ACDBHEADERROUNDTRIPXREC
350
D85E
  0
DICTIONARY
  5
74
330
1F
100
AcDbDictionary
280
     1
  3
ACAD_INDEX
360
D853
  3
ACAD_LAYOUTSELFREF
360
D881
  0
DICTIONARY
  5
D87F
330
1B
100
AcDbDictionary
280
     1
  3
ACAD_LAYOUTSELFREF
360
D880
  0
DICTIONARY
  5
D
102
{ACAD_REACTORS
330
C
102
}
330
C
100
AcDbDictionary
  0
DICTIONARY
  5
1A
102
{ACAD_REACTORS
330
C
102
}
330
C
100
AcDbDictionary
  0
DICTIONARY
  5
17
102
{ACAD_REACTORS
330
C
102
}
330
C
100
AcDbDictionary
  3
STANDARD
350
18
  0
DICTIONARY
  5
19
102
{ACAD_REACTORS
330
C
102
}
330
C
100
AcDbDictionary
  0
ACDBDICTIONARYWDFLT
  5
E
102
{ACAD_REACTORS
330
C
102
}
330
C
100
AcDbDictionary
281
     1
  3
Normal
350
F
100
AcDbDictionaryWithDefault
340
F
  0
DICTIONARY
  5
34
102
{ACAD_REACTORS
330
C
102
}
330
C
100
AcDbDictionary
  3
INDEXCTL
350
35
  3
SORTENTS
350
B5E
  0
DICTIONARY
  5
43
102
{ACAD_REACTORS
330
C
102
}
330
C
100
AcDbDictionary
  3
ACMSTDDICTIONARY
350
260
  0
DICTIONARY
  5
2B
102
{ACAD_REACTORS
330
C
102
}
330
C
100
AcDbDictionary
  3
ACMGSETTINGS
350
2C
  0
DICTIONARY
  5
6E
102
{ACAD_REACTORS
330
C
102
}
330
C
100
AcDbDictionary
  0
XRECORD
  5
D851
102
{ACAD_REACTORS
330
C
102
}
330
C
100
AcDbXrecord
  1
DWGPROPS COOKIE
  2

  3

  4

  6

  7

  8

  9

300
AmdtFileType=82
301
=
302
=
303
=
304
=
305
=
306
=
307
=
308
=
309
=
 40
2.162953842592592
 41
2452838.620506898
 42
2452950.898373137
  1

 90
        1
  0
DICTIONARY
  5
D85E
102
{ACAD_REACTORS
330
C
102
}
330
C
100
AcDbDictionary
  3
TSTACKALIGN
350
D85F
  3
TSTACKSIZE
350
D860
  3
HYPERLINKBASE
350
D861
  3
STYLESHEET
350
D862
  3
LAYOUTDICT
350
D863
  3
PLOTSETDICT
350
D864
  3
PLOTSTYLNAMDICT
350
D865
  3
LWETCUNION
350
D866
  3
INSUNITS
350
D867
  3
CEPSNTYPE
350
D868
  3
FINGERPRINTGUID
350
D869
  3
VERSIONGUID
350
D86A
  3
PSVPSCALE
350
D86B
  3
DIMSTYLEDATA
350
D86C
  3
PUCSORTHOREF
350
D86D
  3
PUCSORTHOVIEW
350
D86E
  3
PUCSBASE
350
D86F
  3
PUCSORGTOP
350
D870
  3
PUCSORGBOTTOM
350
D871
  3
PUCSORGLEFT
350
D872
  3
PUCSORGRIGHT
350
D873
  3
PUCSORGFRONT
350
D874
  3
PUCSORGBACK
350
D875
  3
UCSORTHOREF
350
D876
  3
UCSORTHOVIEW
350
D877
  3
UCSBASE
350
D878
  3
UCSORGTOP
350
D879
  3
UCSORGBOTTOM
350
D87A
  3
UCSORGLEFT
350
D87B
  3
UCSORGRIGHT
350
D87C
  3
UCSORGFRONT
350
D87D
  3
UCSORGBACK
350
D87E
  0
DICTIONARY
  5
D853
102
{ACAD_REACTORS
330
74
102
}
330
74
100
AcDbDictionary
  3
*A1
350
D854
  0
XRECORD
  5
D881
102
{ACAD_REACTORS
330
74
102
}
330
74
100
AcDbXrecord
340
1F
  0
XRECORD
  5
D880
102
{ACAD_REACTORS
330
D87F
102
}
330
D87F
100
AcDbXrecord
340
1B
  0
MLINESTYLE
  5
18
102
{ACAD_REACTORS
330
17
102
}
330
17
100
AcDbMlineStyle
  2
STANDARD
 70
     0
  3

 62
   256
 51
90.0
 52
90.0
 71
     2
 49
0.5
 62
   256
  6
BYLAYER
 49
-0.5
 62
   256
  6
BYLAYER
  0
ACDBPLACEHOLDER
  5
F
102
{ACAD_REACTORS
330
E
102
}
330
E
100
AcDbPlaceHolder
280
     0
  0
DICTIONARYVAR
  5
35
102
{ACAD_REACTORS
330
34
102
}
330
34
100
DictionaryVariables
280
     0
  1
1
  0
DICTIONARYVAR
  5
B5E
102
{ACAD_REACTORS
330
34
102
}
330
34
100
DictionaryVariables
280
     0
  1
96
  0
DICTIONARY
  5
260
102
{ACAD_REACTORS
330
43
102
}
330
43
100
AcDbDictionary
  0
DICTIONARY
  5
2C
102
{ACAD_REACTORS
330
2B
102
}
330
2B
100
AcDbDictionary
  3
DWGSETTINGS
350
2D
  0
XRECORD
  5
D85F
102
{ACAD_REACTORS
330
D85E
102
}
330
D85E
100
AcDbXrecord
 90
        1
  0
XRECORD
  5
D860
102
{ACAD_REACTORS
330
D85E
102
}
330
D85E
100
AcDbXrecord
 90
       70
  0
XRECORD
  5
D861
102
{ACAD_REACTORS
330
D85E
102
}
330
D85E
100
AcDbXrecord
  1

  0
XRECORD
  5
D862
102
{ACAD_REACTORS
330
D85E
102
}
330
D85E
100
AcDbXrecord
  1
ASAMI.ctb
  0
XRECORD
  5
D863
102
{ACAD_REACTORS
330
D85E
102
}
330
D85E
100
AcDbXrecord
340
1A
  0
XRECORD
  5
D864
102
{ACAD_REACTORS
330
D85E
102
}
330
D85E
100
AcDbXrecord
340
19
  0
XRECORD
  5
D865
102
{ACAD_REACTORS
330
D85E
102
}
330
D85E
100
AcDbXrecord
340
E
  0
XRECORD
  5
D866
102
{ACAD_REACTORS
330
D85E
102
}
330
D85E
100
AcDbXrecord
 90
    10781
  0
XRECORD
  5
D867
102
{ACAD_REACTORS
330
D85E
102
}
330
D85E
100
AcDbXrecord
 90
        4
  0
XRECORD
  5
D868
102
{ACAD_REACTORS
330
D85E
102
}
330
D85E
100
AcDbXrecord
 90
        0
  0
XRECORD
  5
D869
102
{ACAD_REACTORS
330
D85E
102
}
330
D85E
100
AcDbXrecord
  1
{AFB28963-8C59-40AE-9337-C84526B81ACE}
  0
XRECORD
  5
D86A
102
{ACAD_REACTORS
330
D85E
102
}
330
D85E
100
AcDbXrecord
  1
{ACE172B1-F6EF-4201-A733-D0D49BC10695}
  0
XRECORD
  5
D86B
102
{ACAD_REACTORS
330
D85E
102
}
330
D85E
100
AcDbXrecord
 40
0.0
  0
XRECORD
  5
D86C
102
{ACAD_REACTORS
330
D85E
102
}
330
D85E
100
AcDbXrecord
1000
DSTYLE
1002
{
1070
    79
 70
     2
1070
   341
340
59
1070
   342
340
59
1070
   371
 70
    -1
1070
   372
 70
    -1
1002
}
  0
XRECORD
  5
D86D
102
{ACAD_REACTORS
330
D85E
102
}
330
D85E
100
AcDbXrecord
340
0
  0
XRECORD
  5
D86E
102
{ACAD_REACTORS
330
D85E
102
}
330
D85E
100
AcDbXrecord
 70
     0
  0
XRECORD
  5
D86F
102
{ACAD_REACTORS
330
D85E
102
}
330
D85E
100
AcDbXrecord
340
0
  0
XRECORD
  5
D870
102
{ACAD_REACTORS
330
D85E
102
}
330
D85E
100
AcDbXrecord
 10
0.0
 20
0.0
 30
0.0
  0
XRECORD
  5
D871
102
{ACAD_REACTORS
330
D85E
102
}
330
D85E
100
AcDbXrecord
 10
0.0
 20
0.0
 30
0.0
  0
XRECORD
  5
D872
102
{ACAD_REACTORS
330
D85E
102
}
330
D85E
100
AcDbXrecord
 10
0.0
 20
0.0
 30
0.0
  0
XRECORD
  5
D873
102
{ACAD_REACTORS
330
D85E
102
}
330
D85E
100
AcDbXrecord
 10
0.0
 20
0.0
 30
0.0
  0
XRECORD
  5
D874
102
{ACAD_REACTORS
330
D85E
102
}
330
D85E
100
AcDbXrecord
 10
0.0
 20
0.0
 30
0.0
  0
XRECORD
  5
D875
102
{ACAD_REACTORS
330
D85E
102
}
330
D85E
100
AcDbXrecord
 10
0.0
 20
0.0
 30
0.0
  0
XRECORD
  5
D876
102
{ACAD_REACTORS
330
D85E
102
}
330
D85E
100
AcDbXrecord
340
0
  0
XRECORD
  5
D877
102
{ACAD_REACTORS
330
D85E
102
}
330
D85E
100
AcDbXrecord
 70
     0
  0
XRECORD
  5
D878
102
{ACAD_REACTORS
330
D85E
102
}
330
D85E
100
AcDbXrecord
340
0
  0
XRECORD
  5
D879
102
{ACAD_REACTORS
330
D85E
102
}
330
D85E
100
AcDbXrecord
 10
0.0
 20
0.0
 30
0.0
  0
XRECORD
  5
D87A
102
{ACAD_REACTORS
330
D85E
102
}
330
D85E
100
AcDbXrecord
 10
0.0
 20
0.0
 30
0.0
  0
XRECORD
  5
D87B
102
{ACAD_REACTORS
330
D85E
102
}
330
D85E
100
AcDbXrecord
 10
0.0
 20
0.0
 30
0.0
  0
XRECORD
  5
D87C
102
{ACAD_REACTORS
330
D85E
102
}
330
D85E
100
AcDbXrecord
 10
0.0
 20
0.0
 30
0.0
  0
XRECORD
  5
D87D
102
{ACAD_REACTORS
330
D85E
102
}
330
D85E
100
AcDbXrecord
 10
0.0
 20
0.0
 30
0.0
  0
XRECORD
  5
D87E
102
{ACAD_REACTORS
330
D85E
102
}
330
D85E
100
AcDbXrecord
 10
0.0
 20
0.0
 30
0.0
  0
LAYER_INDEX
  5
D854
102
{ACAD_REACTORS
330
D853
102
}
330
D853
100
AcDbIndex
 40
2453151.658904421
100
AcDbLayerIndex
  8
0
360
D855
 90
        0
  8
AM_0
360
D856
 90
       47
  8
AM_11
360
D857
 90
        0
  8
AM_7
360
D858
 90
        1
  8
AM_5
360
D859
 90
       10
  8
Defpoints
360
D85A
 90
        0
  8
AM_6
360
D85B
 90
        1
  8
AM_CL
360
D85C
 90
        0
  0
XRECORD
  5
2D
102
{ACAD_REACTORS
330
2C
102
}
330
2C
100
AcDbXrecord
  1
VERSION
140
15.0
  1
PRODUCT
  2
AutoCAD Mechanical 2000
  0
IDBUFFER
  5
D855
330
0
100
AcDbIdBuffer
  0
IDBUFFER
  5
D856
330
0
100
AcDbIdBuffer
330
D710
330
D7D7
330
D7D8
330
D7D9
330
D7DA
330
D7DB
330
D7DC
330
D7DE
330
D7DF
330
D7E0
330
D7E1
330
D7E3
330
D7E4
330
D7E5
330
D7E7
330
D7E8
330
D7E9
330
D7EB
330
D7EC
330
D7ED
330
D7EE
330
D7EF
330
D7F0
330
D7F1
330
D7F2
330
D7F3
330
D7F4
330
D7F5
330
D7F6
330
D7F7
330
D7F9
330
631C
330
631D
330
6343
330
6348
330
6349
330
634B
330
634C
330
63DB
330
647F
330
6CBA
330
6CBE
330
6CC0
330
6CC1
330
B156
330
B158
330
B8B2
  0
IDBUFFER
  5
D857
330
0
100
AcDbIdBuffer
  0
IDBUFFER
  5
D858
330
0
100
AcDbIdBuffer
330
6320
  0
IDBUFFER
  5
D859
330
0
100
AcDbIdBuffer
330
634F
330
640B
330
6418
330
B7AC
330
D7D6
330
D7DD
330
D7E2
330
D7E6
330
D7EA
330
D7F8
  0
IDBUFFER
  5
D85A
330
0
100
AcDbIdBuffer
  0
IDBUFFER
  5
D85B
330
0
100
AcDbIdBuffer
330
C58
  0
IDBUFFER
  5
D85C
330
0
100
AcDbIdBuffer
  0
ENDSEC
  0
EOF
