  0
SECTION
  2
HEADER
  9
$ACADVER
  1
AC1014
  9
$ACADMAINTVER
 70
     9
  9
$DWGCODEPAGE
  3
ANSI_932
  9
$INSBASE
 10
0.0
 20
0.0
 30
0.0
  9
$EXTMIN
 10
-41.85999987094024
 20
-10.80000042919937
 30
-0.00000001
  9
$EXTMAX
 10
6.415583840727788
 20
6.240035251643648
 30
0.00000001
  9
$LIMMIN
 10
-46.21458733153764
 20
-16.11712340512581
  9
$LIMMAX
 10
11.77263791077575
 20
10.28122633900932
  9
$ORTHOMODE
 70
     0
  9
$REGENMODE
 70
     1
  9
$FILLMODE
 70
     1
  9
$QTEXTMODE
 70
     0
  9
$MIRRTEXT
 70
     0
  9
$DRAGMODE
 70
     2
  9
$LTSCALE
 40
0.2
  9
$OSMODE
 70
    55
  9
$ATTMODE
 70
     1
  9
$TEXTSIZE
 40
2.5
  9
$TRACEWID
 40
1.0
  9
$TEXTSTYLE
  7
STANDARD
  9
$CLAYER
  8
AM_0
  9
$CELTYPE
  6
BYLAYER
  9
$CECOLOR
 62
   256
  9
$CELTSCALE
 40
1.0
  9
$DELOBJ
 70
     1
  9
$DISPSILH
 70
     0
  9
$DIMSCALE
 40
0.2
  9
$DIMASZ
 40
2.5
  9
$DIMEXO
 40
1.0
  9
$DIMDLI
 40
12.0
  9
$DIMRND
 40
0.0
  9
$DIMDLE
 40
0.0
  9
$DIMEXE
 40
1.0
  9
$DIMTP
 40
0.1
  9
$DIMTM
 40
0.1
  9
$DIMTXT
 40
3.2
  9
$DIMCEN
 40
0.0
  9
$DIMTSZ
 40
0.0
  9
$DIMTOL
 70
     0
  9
$DIMLIM
 70
     0
  9
$DIMTIH
 70
     0
  9
$DIMTOH
 70
     0
  9
$DIMSE1
 70
     0
  9
$DIMSE2
 70
     0
  9
$DIMTAD
 70
     3
  9
$DIMZIN
 70
     8
  9
$DIMBLK
  1
OPEN30
  9
$DIMASO
 70
     1
  9
$DIMSHO
 70
     1
  9
$DIMPOST
  1

  9
$DIMAPOST
  1
"
  9
$DIMALT
 70
     0
  9
$DIMALTD
 70
     2
  9
$DIMALTF
 40
0.0393701
  9
$DIMLFAC
 40
1.0
  9
$DIMTOFL
 70
     1
  9
$DIMTVP
 40
0.0
  9
$DIMTIX
 70
     0
  9
$DIMSOXD
 70
     0
  9
$DIMSAH
 70
     0
  9
$DIMBLK1
  1

  9
$DIMBLK2
  1

  9
$DIMSTYLE
  2
AM_JIS
  9
$DIMCLRD
 70
   256
  9
$DIMCLRE
 70
   256
  9
$DIMCLRT
 70
     2
  9
$DIMTFAC
 40
0.71
  9
$DIMGAP
 40
1.5
  9
$DIMJUST
 70
     0
  9
$DIMSD1
 70
     0
  9
$DIMSD2
 70
     0
  9
$DIMTOLJ
 70
     0
  9
$DIMTZIN
 70
     0
  9
$DIMALTZ
 70
     0
  9
$DIMALTTZ
 70
     0
  9
$DIMFIT
 70
     3
  9
$DIMUPT
 70
     0
  9
$DIMUNIT
 70
     2
  9
$DIMDEC
 70
     3
  9
$DIMTDEC
 70
     3
  9
$DIMALTU
 70
     2
  9
$DIMALTTD
 70
     2
  9
$DIMTXSTY
  7
ASAMI
  9
$DIMAUNIT
 70
     0
  9
$LUNITS
 70
     2
  9
$LUPREC
 70
     2
  9
$SKETCHINC
 40
1.0
  9
$FILLETRAD
 40
2.5
  9
$AUNITS
 70
     0
  9
$AUPREC
 70
     0
  9
$MENU
  1
.
  9
$ELEVATION
 40
0.0
  9
$PELEVATION
 40
0.0
  9
$THICKNESS
 40
0.0
  9
$LIMCHECK
 70
     0
  9
$BLIPMODE
 70
     0
  9
$CHAMFERA
 40
0.3
  9
$CHAMFERB
 40
0.3
  9
$CHAMFERC
 40
20.0
  9
$CHAMFERD
 40
0.0
  9
$SKPOLY
 70
     0
  9
$TDCREATE
 40
2452802.456869572
  9
$TDUPDATE
 40
2453151.591280728
  9
$TDINDWG
 40
0.1963201968
  9
$TDUSRTIMER
 40
0.1963201968
  9
$USRTIMER
 70
     1
  9
$ANGBASE
 50
0.0
  9
$ANGDIR
 70
     0
  9
$PDMODE
 70
     0
  9
$PDSIZE
 40
0.0
  9
$PLINEWID
 40
0.0
  9
$COORDS
 70
     1
  9
$SPLFRAME
 70
     0
  9
$SPLINETYPE
 70
     6
  9
$SPLINESEGS
 70
     8
  9
$ATTDIA
 70
     1
  9
$ATTREQ
 70
     1
  9
$HANDLING
 70
 12289
  9
$HANDSEED
  5
47ED
  9
$SURFTAB1
 70
     6
  9
$SURFTAB2
 70
     6
  9
$SURFTYPE
 70
     6
  9
$SURFU
 70
     6
  9
$SURFV
 70
     6
  9
$UCSNAME
  2

  9
$UCSORG
 10
0.0
 20
0.0
 30
0.0
  9
$UCSXDIR
 10
1.0
 20
0.0
 30
0.0
  9
$UCSYDIR
 10
0.0
 20
1.0
 30
0.0
  9
$PUCSNAME
  2

  9
$PUCSORG
 10
0.0
 20
0.0
 30
0.0
  9
$PUCSXDIR
 10
1.0
 20
0.0
 30
0.0
  9
$PUCSYDIR
 10
0.0
 20
1.0
 30
0.0
  9
$USERI1
 70
     0
  9
$USERI2
 70
     0
  9
$USERI3
 70
     0
  9
$USERI4
 70
     0
  9
$USERI5
 70
     0
  9
$USERR1
 40
0.0
  9
$USERR2
 40
0.0
  9
$USERR3
 40
0.0
  9
$USERR4
 40
0.0
  9
$USERR5
 40
0.0
  9
$WORLDVIEW
 70
     1
  9
$SHADEDGE
 70
     3
  9
$SHADEDIF
 70
    70
  9
$TILEMODE
 70
     1
  9
$MAXACTVP
 70
    64
  9
$PINSBASE
 10
0.0
 20
0.0
 30
0.0
  9
$PLIMCHECK
 70
     0
  9
$PEXTMIN
 10
1.000000000000000E+20
 20
1.000000000000000E+20
 30
1.000000000000000E+20
  9
$PEXTMAX
 10
-1.000000000000000E+20
 20
-1.000000000000000E+20
 30
-1.000000000000000E+20
  9
$PLIMMIN
 10
0.0
 20
0.0
  9
$PLIMMAX
 10
841.0
 20
594.0
  9
$UNITMODE
 70
     0
  9
$VISRETAIN
 70
     1
  9
$PLINEGEN
 70
     0
  9
$PSLTSCALE
 70
     0
  9
$TREEDEPTH
 70
  3020
  9
$PICKSTYLE
 70
     0
  9
$CMLSTYLE
  2
STANDARD
  9
$CMLJUST
 70
     0
  9
$CMLSCALE
 40
20.0
  9
$PROXYGRAPHICS
 70
     1
  9
$MEASUREMENT
 70
     1
  0
ENDSEC
  0
SECTION
  2
CLASSES
  0
CLASS
  1
ACDBDICTIONARYWDFLT
  2
AcDbDictionaryWithDefault
  3
AutoCAD 2000
 90
        0
280
     0
281
     0
  0
CLASS
  1
ACDBPLACEHOLDER
  2
AcDbPlaceHolder
  3
AutoCAD 2000
 90
        0
280
     0
281
     0
  0
CLASS
  1
LAYOUT
  2
AcDbLayout
  3
AutoCAD 2000
 90
        0
280
     0
281
     0
  0
CLASS
  1
AMGSETTINGSOBJ
  2
AmgSettingsObj
  3
"AcadM|Product Description: AutoCAD Mechanical 2000|Company: Autodesk"
 90
        0
280
     0
281
     0
  0
CLASS
  1
ACME_DOCUMENT
  2
AcMeDbDoc
  3
AcMeServices
 90
        0
280
     0
281
     0
  0
CLASS
  1
ACMESCOPE
  2
AcMeScope
  3
AcMeServices
 90
        0
280
     0
281
     0
  0
CLASS
  1
ACMECOMMANDHISTORY
  2
AcMeCommandHistory
  3
AcMeServices
 90
        0
280
     0
281
     0
  0
CLASS
  1
DICTIONARYVAR
  2
AcDbDictionaryVar
  3
AutoCAD 2000
 90
        0
280
     0
281
     0
  0
CLASS
  1
ACIMSYSVARMAN
  2
AcImSysVarManager
  3
AcMeServices
 90
        0
280
     0
281
     0
  0
CLASS
  1
ACIMREALSYSVAR
  2
AcImRealSysVar
  3
AcMeServices
 90
        0
280
     0
281
     0
  0
CLASS
  1
ACIMINTSYSVAR
  2
AcImIntSysVar
  3
AcMeServices
 90
        0
280
     0
281
     0
  0
CLASS
  1
ACMEDRAWINGMAN
  2
AcMeDrawingMan
  3
AcMeServices
 90
        0
280
     0
281
     0
  0
CLASS
  1
ACMEVIEW
  2
AcMeView
  3
AcMeServices
 90
        0
280
     0
281
     0
  0
CLASS
  1
ACDBENTITYCACHE
  2
AcMeEntityCache
  3
AcMeServices
 90
        0
280
     0
281
     0
  0
CLASS
  1
GSMANAGER
  2
AcMeGSManager
  3
AcMeServices
 90
        0
280
     0
281
     0
  0
CLASS
  1
AmdtInternalReactor
  2
AmdtInternalReactor
  3
AcMeServices
 90
        0
280
     0
281
     0
  0
CLASS
  1
ACMESTATEMGR
  2
AcMeStateMgr
  3
AcMeServices
 90
        0
280
     0
281
     0
  0
CLASS
  1
ACME_DATABASE
  2
AcMeDbDatabase
  3
AcMeServices
 90
        0
280
     0
281
     0
  0
CLASS
  1
ACRFINSADJUSTERMGR
  2
AcRfInsAdjusterMgr
  3
AcMeServices
 90
        0
280
     0
281
     0
  0
CLASS
  1
ACMDATADICTIONARY
  2
AcmDataDictionary
  3
"AcmSymBB|Product Description: AutoCAD Mechanical 2000|Company: Autodesk"
 90
        0
280
     0
281
     0
  0
CLASS
  1
ACMDATAENTRYBLOCK
  2
AcmDataEntryBlock
  3
"AcmSymBB|Product Description: AutoCAD Mechanical 2000|Company: Autodesk"
 90
        0
280
     0
281
     0
  0
CLASS
  1
AMGOBJPROPCFG
  2
AmgObjPropCfg
  3
"AmgLay|Product Description: AutoCAD Mechanical 2000|Company: Autodesk"
 90
        1
280
     0
281
     0
  0
CLASS
  1
ACAMGFILTERDAT
  2
AcAmgFilterDat
  3
"AcadM|Product Description: AutoCAD Mechanical 2000|Company: Autodesk"
 90
        0
280
     0
281
     0
  0
CLASS
  1
LAYER_INDEX
  2
AcDbLayerIndex
  3
AutoCAD 2000
 90
        0
280
     0
281
     0
  0
CLASS
  1
IDBUFFER
  2
AcDbIdBuffer
  3
AutoCAD 2000
 90
        0
280
     0
281
     0
  0
CLASS
  1
ACIMSTRSYSVAR
  2
AcImStrSysVar
  3
AcMeServices
 90
        0
280
     0
281
     0
  0
CLASS
  1
ACMSTANDARDJIS
  2
AcmStandardJIS
  3
"AcmSymBB|Product Description: AutoCAD Mechanical 2000|Company: Autodesk"
 90
        0
280
     0
281
     0
  0
CLASS
  1
ACMSURFSTANDARDJIS
  2
AcmSurfTextStdJIS
  3
"AcmSymBB|Product Description: AutoCAD Mechanical 2000|Company: Autodesk"
 90
        0
280
     0
281
     0
  0
CLASS
  1
ACMFCFSTANDARDJIS
  2
AcmFCFStdJIS
  3
"AcmSymBB|Product Description: AutoCAD Mechanical 2000|Company: Autodesk"
 90
        0
280
     0
281
     0
  0
CLASS
  1
ACMWELDSTANDARDJIS
  2
AcmWeldingStdJIS
  3
"AcmSymBB|Product Description: AutoCAD Mechanical 2000|Company: Autodesk"
 90
        0
280
     0
281
     0
  0
CLASS
  1
ACMIDSTANDARDJIS
  2
AcmIdStdJIS
  3
"AcmSymBB|Product Description: AutoCAD Mechanical 2000|Company: Autodesk"
 90
        0
280
     0
281
     0
  0
CLASS
  1
ACMDATUMSTANDARDJIS
  2
AcmDatumStdJIS
  3
"AcmSymBB|Product Description: AutoCAD Mechanical 2000|Company: Autodesk"
 90
        0
280
     0
281
     0
  0
CLASS
  1
ACMBOMSTANDARDJIS
  2
AcmBOMStdJIS
  3
"AcmSymBB|Product Description: AutoCAD Mechanical 2000|Company: Autodesk"
 90
        0
280
     0
281
     0
  0
CLASS
  1
ACMSTANDARDANSI
  2
AcmStandardANSI
  3
"AcmSymBB|Product Description: AutoCAD Mechanical 2000|Company: Autodesk"
 90
        0
280
     0
281
     0
  0
CLASS
  1
ACMSURFSTANDARDANSI
  2
AcmSurfTextStdANSI
  3
"AcmSymBB|Product Description: AutoCAD Mechanical 2000|Company: Autodesk"
 90
        0
280
     0
281
     0
  0
CLASS
  1
ACMFCFSTANDARDANSI
  2
AcmFCFStdANSI
  3
"AcmSymBB|Product Description: AutoCAD Mechanical 2000|Company: Autodesk"
 90
        0
280
     0
281
     0
  0
CLASS
  1
ACMWELDSTANDARDANSI
  2
AcmWeldingStdANSI
  3
"AcmSymBB|Product Description: AutoCAD Mechanical 2000|Company: Autodesk"
 90
        0
280
     0
281
     0
  0
CLASS
  1
ACMIDSTANDARDANSI
  2
AcmIdStdANSI
  3
"AcmSymBB|Product Description: AutoCAD Mechanical 2000|Company: Autodesk"
 90
        0
280
     0
281
     0
  0
CLASS
  1
ACMDATUMSTANDARDANSI
  2
AcmDatumStdANSI
  3
"AcmSymBB|Product Description: AutoCAD Mechanical 2000|Company: Autodesk"
 90
        0
280
     0
281
     0
  0
CLASS
  1
ACMBOMSTANDARDANSI
  2
AcmBOMStdANSI
  3
"AcmSymBB|Product Description: AutoCAD Mechanical 2000|Company: Autodesk"
 90
        0
280
     0
281
     0
  0
CLASS
  1
ACMSTANDARDBSI
  2
AcmStandardBSI
  3
"AcmSymBB|Product Description: AutoCAD Mechanical 2000|Company: Autodesk"
 90
        0
280
     0
281
     0
  0
CLASS
  1
ACMSURFSTANDARDBSI
  2
AcmSurfTextStdBSI
  3
"AcmSymBB|Product Description: AutoCAD Mechanical 2000|Company: Autodesk"
 90
        0
280
     0
281
     0
  0
CLASS
  1
ACMFCFSTANDARDBSI
  2
AcmFCFStdBSI
  3
"AcmSymBB|Product Description: AutoCAD Mechanical 2000|Company: Autodesk"
 90
        0
280
     0
281
     0
  0
CLASS
  1
ACMWELDSTANDARDBSI
  2
AcmWeldingStdBSI
  3
"AcmSymBB|Product Description: AutoCAD Mechanical 2000|Company: Autodesk"
 90
        0
280
     0
281
     0
  0
CLASS
  1
ACMIDSTANDARDBSI
  2
AcmIdStdBSI
  3
"AcmSymBB|Product Description: AutoCAD Mechanical 2000|Company: Autodesk"
 90
        0
280
     0
281
     0
  0
CLASS
  1
ACMDATUMSTANDARDBSI
  2
AcmDatumStdBSI
  3
"AcmSymBB|Product Description: AutoCAD Mechanical 2000|Company: Autodesk"
 90
        0
280
     0
281
     0
  0
CLASS
  1
ACMBOMSTANDARDBSI
  2
AcmBOMStdBSI
  3
"AcmSymBB|Product Description: AutoCAD Mechanical 2000|Company: Autodesk"
 90
        0
280
     0
281
     0
  0
CLASS
  1
LONG_TRANSACTION
  2
AcDbLongTransaction
  3
AutoCAD 2000
 90
        0
280
     0
281
     0
  0
CLASS
  1
LWPOLYLINE
  2
AcDbPolyline
  3
AutoCAD 2000
 90
        0
280
     0
281
     1
  0
CLASS
  1
HATCH
  2
AcDbHatch
  3
AutoCAD 2000
 90
        0
280
     0
281
     1
  0
CLASS
  1
XRECORD
  2
AcDbXrecord
  3
AutoCAD 2000
 90
        0
280
     0
281
     0
  0
ENDSEC
  0
SECTION
  2
TABLES
  0
TABLE
  2
VPORT
  5
8
330
0
100
AcDbSymbolTable
 70
     3
  0
VPORT
  5
47B7
330
8
100
AcDbSymbolTableRecord
100
AcDbViewportTableRecord
  2
*ACTIVE
 70
     0
 10
0.0
 20
0.0
 11
1.0
 21
1.0
 12
-14.89030845915332
 22
1.799718203584586
 13
0.0
 23
0.0
 14
2.5
 24
2.5
 15
10.0
 25
10.0
 16
0.0
 26
0.0
 36
1.0
 17
0.0
 27
0.0
 37
0.0
 40
45.65388304021879
 41
1.56570841889117
 42
50.0
 43
0.0
 44
0.0
 50
0.0
 51
0.0
 71
     0
 72
   100
 73
     1
 74
     3
 75
     0
 76
     0
 77
     0
 78
     0
  0
ENDTAB
  0
TABLE
  2
LTYPE
  5
5
330
0
100
AcDbSymbolTable
 70
    10
  0
LTYPE
  5
14
330
5
100
AcDbSymbolTableRecord
100
AcDbLinetypeTableRecord
  2
BYBLOCK
 70
     0
  3

 72
    65
 73
     0
 40
0.0
  0
LTYPE
  5
15
330
5
100
AcDbSymbolTableRecord
100
AcDbLinetypeTableRecord
  2
BYLAYER
 70
     0
  3

 72
    65
 73
     0
 40
0.0
  0
LTYPE
  5
16
330
5
100
AcDbSymbolTableRecord
100
AcDbLinetypeTableRecord
  2
CONTINUOUS
 70
     0
  3
Solid line
 72
    65
 73
     0
 40
0.0
  0
LTYPE
  5
4B
330
5
100
AcDbSymbolTableRecord
100
AcDbLinetypeTableRecord
  2
AM_ISO02W050
 70
     0
  3
__ __ __ __ __ __ __ __ __ __ __ __ __ __ __
 72
    65
 73
     2
 40
7.5
 49
6.0
 74
     0
 49
-1.5
 74
     0
  0
LTYPE
  5
4C
330
5
100
AcDbSymbolTableRecord
100
AcDbLinetypeTableRecord
  2
AM_ISO08W050
 70
     0
  3
____ . ____ . ____ . ____ . ____ . ____ . ____
 72
    65
 73
     4
 40
18.0
 49
12.0
 74
     0
 49
-1.5
 74
     0
 49
3.0
 74
     0
 49
-1.5
 74
     0
  0
LTYPE
  5
4D
330
5
100
AcDbSymbolTableRecord
100
AcDbLinetypeTableRecord
  2
AM_ISO09W050
 70
     0
  3
_____ . . _____ . . _____ . . ____ .. ____
 72
    65
 73
     6
 40
22.5
 49
12.0
 74
     0
 49
-1.5
 74
     0
 49
3.0
 74
     0
 49
-1.5
 74
     0
 49
3.0
 74
     0
 49
-1.5
 74
     0
  0
LTYPE
  5
4E
330
5
100
AcDbSymbolTableRecord
100
AcDbLinetypeTableRecord
  2
AMCONSTR
 70
     0
  3
_______________________
 72
    65
 73
     2
 40
9999.0
 49
9999.0
 74
     0
 49
0.0
 74
     0
  0
LTYPE
  5
4F
330
5
100
AcDbSymbolTableRecord
100
AcDbLinetypeTableRecord
  2
AM_ISO02W050X2
 70
     0
  3
 _ _ _ _ _ _ _ _ _ _ _ _
 72
    65
 73
     2
 40
3.75
 49
3.0
 74
     0
 49
-0.75
 74
     0
  0
LTYPE
  5
50
330
5
100
AcDbSymbolTableRecord
100
AcDbLinetypeTableRecord
  2
AM_ISO08W050X2
 70
     0
  3
__ . __ . __ . __ . __ . __
 72
    65
 73
     4
 40
9.0
 49
6.0
 74
     0
 49
-0.75
 74
     0
 49
1.5
 74
     0
 49
-0.75
 74
     0
  0
LTYPE
  5
53
330
5
100
AcDbSymbolTableRecord
100
AcDbLinetypeTableRecord
  2
AMZIGZAG
 70
     0
  3
/\/-/\/-/\/-/\/-/\/-/\/
 72
    65
 73
     2
 40
11.00009999999999
 49
0.0001
 74
     4
 75
   135
340
52
 46
0.04
 50
0.0
 44
0.0
 45
0.0
 49
-11.0
 74
     0
  0
LTYPE
  5
166
330
5
100
AcDbSymbolTableRecord
100
AcDbLinetypeTableRecord
  2
ACJISTGL
 70
     0
  3
_ _ _ _ _
 72
    65
 73
     2
 40
3.0
 49
2.0
 74
     0
 49
-1.0
 74
     0
  0
LTYPE
  5
26A
330
5
100
AcDbSymbolTableRecord
100
AcDbLinetypeTableRecord
  2
ACJISTGB
 70
     0
  3
__ . . __ . .
 72
    65
 73
     6
 40
9.0
 49
4.0
 74
     0
 49
-1.0
 74
     0
 49
1.0
 74
     0
 49
-1.0
 74
     0
 49
1.0
 74
     0
 49
-1.0
 74
     0
  0
ENDTAB
  0
TABLE
  2
LAYER
  5
2
330
0
100
AcDbSymbolTable
 70
     8
  0
LAYER
  5
10
330
2
100
AcDbSymbolTableRecord
100
AcDbLayerTableRecord
  2
0
 70
     0
 62
     7
  6
CONTINUOUS
  0
LAYER
  5
3F9
330
2
100
AcDbSymbolTableRecord
100
AcDbLayerTableRecord
  2
AM_0
 70
     0
 62
     7
  6
CONTINUOUS
  0
LAYER
  5
BA4
330
2
100
AcDbSymbolTableRecord
100
AcDbLayerTableRecord
  2
AM_11
 70
     0
 62
     3
  6
AM_ISO09W050
  0
LAYER
  5
E2D
330
2
100
AcDbSymbolTableRecord
100
AcDbLayerTableRecord
  2
AM_7
 70
     0
 62
     4
  6
AM_ISO08W050
  0
LAYER
  5
13D6
330
2
100
AcDbSymbolTableRecord
100
AcDbLayerTableRecord
  2
AM_5
 70
     0
 62
     3
  6
CONTINUOUS
  0
LAYER
  5
1894
330
2
100
AcDbSymbolTableRecord
100
AcDbLayerTableRecord
  2
DEFPOINTS
 70
     0
 62
     7
  6
CONTINUOUS
  0
LAYER
  5
2277
330
2
100
AcDbSymbolTableRecord
100
AcDbLayerTableRecord
  2
AM_6
 70
     0
 62
     2
  6
CONTINUOUS
  0
LAYER
  5
3813
330
2
100
AcDbSymbolTableRecord
100
AcDbLayerTableRecord
  2
AM_CL
 70
     0
 62
     1
  6
AMCONSTR
  0
ENDTAB
  0
TABLE
  2
STYLE
  5
3
330
0
100
AcDbSymbolTable
 70
     5
  0
STYLE
  5
11
330
3
100
AcDbSymbolTableRecord
100
AcDbTextStyleTableRecord
  2
STANDARD
 70
     0
 40
0.0
 41
1.0
 50
0.0
 71
     0
 42
2.5
  3
simplex.shx
  4
EXTFONT.SHX
  0
STYLE
  5
52
330
3
100
AcDbSymbolTableRecord
100
AcDbTextStyleTableRecord
  2

 70
     1
 40
0.0
 41
1.0
 50
0.0
 71
     0
 42
2.5
  3
ltypeshp.shx
  4

  0
STYLE
  5
6B
330
3
100
AcDbSymbolTableRecord
100
AcDbTextStyleTableRecord
  2
ASAMI
 70
     0
 40
0.0
 41
1.0
 50
0.0
 71
     0
 42
2.5
  3
simplex.shx
  4
EXTFONT.SHX
  0
STYLE
  5
262
330
3
100
AcDbSymbolTableRecord
100
AcDbTextStyleTableRecord
  2
ACJISTS
 70
     0
 40
1.0
 41
1.0
 50
0.0
 71
     0
 42
2.5
  3
simplex.shx
  4
bigfont.shx
  0
STYLE
  5
269
330
3
100
AcDbSymbolTableRecord
100
AcDbTextStyleTableRecord
  2
ACJISGDT
 70
     0
 40
0.0
 41
1.0
 50
0.0
 71
     0
 42
2.5
  3
amgdtans.shx
  4

  0
ENDTAB
  0
TABLE
  2
VIEW
  5
6
330
0
100
AcDbSymbolTable
 70
     0
  0
ENDTAB
  0
TABLE
  2
UCS
  5
7
330
0
100
AcDbSymbolTable
 70
     0
  0
ENDTAB
  0
TABLE
  2
APPID
  5
9
330
0
100
AcDbSymbolTable
 70
    14
  0
APPID
  5
12
330
9
100
AcDbSymbolTableRecord
100
AcDbRegAppTableRecord
  2
ACAD
 70
     0
  0
APPID
  5
30
330
9
100
AcDbSymbolTableRecord
100
AcDbRegAppTableRecord
  2
MCAD_NO_VIS
 70
     0
  0
APPID
  5
31
330
9
100
AcDbSymbolTableRecord
100
AcDbRegAppTableRecord
  2
ACAD_TEMP_GRAPHIC
 70
     0
  0
APPID
  5
2C2
330
9
100
AcDbSymbolTableRecord
100
AcDbRegAppTableRecord
  2
GENIUS_GENDTOL_13
 70
     0
  0
APPID
  5
339
330
9
100
AcDbSymbolTableRecord
100
AcDbRegAppTableRecord
  2
GENIUS_GENODEF_13
 70
     0
  0
APPID
  5
33A
330
9
100
AcDbSymbolTableRecord
100
AcDbRegAppTableRecord
  2
GENIUS_GENOBJ-N-RSBK_13
 70
     0
  0
APPID
  5
33B
330
9
100
AcDbSymbolTableRecord
100
AcDbRegAppTableRecord
  2
GENIUS_GENOBJ-N-LIB_13
 70
     0
  0
APPID
  5
33C
330
9
100
AcDbSymbolTableRecord
100
AcDbRegAppTableRecord
  2
GENIUS_GENSCALE_13
 70
     0
  0
APPID
  5
378
330
9
100
AcDbSymbolTableRecord
100
AcDbRegAppTableRecord
  2
GENIUS_GENDIMSH_14
 70
     0
  0
APPID
  5
BA6
330
9
100
AcDbSymbolTableRecord
100
AcDbRegAppTableRecord
  2
GENIUS_GENOBJ-N-CEN_13
 70
     0
  0
APPID
  5
BA7
330
9
100
AcDbSymbolTableRecord
100
AcDbRegAppTableRecord
  2
GENIUS_GENFIL_13
 70
     0
  0
APPID
  5
BA8
330
9
100
AcDbSymbolTableRecord
100
AcDbRegAppTableRecord
  2
GENIUS_GENOBJ-N-CHA_13
 70
     0
  0
APPID
  5
D04
330
9
100
AcDbSymbolTableRecord
100
AcDbRegAppTableRecord
  2
GENIUS_GENREC_14
 70
     0
  0
APPID
  5
D05
330
9
100
AcDbSymbolTableRecord
100
AcDbRegAppTableRecord
  2
GENIUS_GENOBJ-N-REC_13
 70
     0
  0
ENDTAB
  0
TABLE
  2
DIMSTYLE
  5
A
330
0
100
AcDbSymbolTable
 70
     9
  0
DIMSTYLE
105
58
330
A
100
AcDbSymbolTableRecord
100
AcDbDimStyleTableRecord
  2
AM_JIS
 70
     0
  3

  4
"
  5
OPEN30
  6

  7

 40
0.2
 41
2.5
 42
1.0
 43
12.0
 44
1.0
 45
0.0
 46
0.0
 47
0.1
 48
0.1
140
3.2
141
0.0
142
0.0
143
0.0393701
144
1.0
145
0.0
146
0.71
147
1.5
 71
     0
 72
     0
 73
     0
 74
     0
 75
     0
 76
     0
 77
     3
 78
     8
170
     0
171
     2
172
     1
173
     0
174
     0
175
     0
176
   256
177
   256
178
     2
270
     2
271
     3
272
     3
273
     2
274
     2
340
6B
275
     0
280
     0
281
     0
282
     0
283
     0
284
     0
285
     0
286
     0
287
     3
288
     0
  0
DIMSTYLE
105
5F
330
A
100
AcDbSymbolTableRecord
100
AcDbDimStyleTableRecord
  2
AM_JIS$3
 70
     0
  3

  4
"
  5
OPEN30
  6

  7

 40
0.2
 41
2.5
 42
1.0
 43
10.0
 44
1.0
 45
0.0
 46
0.0
 47
0.1
 48
0.1
140
3.2
141
0.0
142
0.0
143
0.0393701
144
1.0
145
0.0
146
0.71
147
1.5
 71
     0
 72
     0
 73
     0
 74
     1
 75
     0
 76
     0
 77
     3
 78
     8
170
     0
171
     2
172
     0
173
     0
174
     0
175
     0
176
   256
177
   256
178
     2
270
     2
271
     2
272
     3
273
     2
274
     2
340
6B
275
     0
280
     0
281
     0
282
     0
283
     0
284
     0
285
     0
286
     0
287
     0
288
     1
  0
DIMSTYLE
105
60
330
A
100
AcDbSymbolTableRecord
100
AcDbDimStyleTableRecord
  2
AM_JIS$4
 70
     0
  3

  4
"
  5
OPEN30
  6

  7

 40
0.2
 41
2.5
 42
1.0
 43
10.0
 44
1.0
 45
0.0
 46
0.0
 47
0.1
 48
0.1
140
3.2
141
0.0
142
0.0
143
0.0393701
144
1.0
145
0.0
146
0.71
147
1.5
 71
     0
 72
     0
 73
     0
 74
     1
 75
     0
 76
     0
 77
     3
 78
     8
170
     0
171
     2
172
     0
173
     0
174
     0
175
     0
176
   256
177
   256
178
     2
270
     2
271
     2
272
     3
273
     2
274
     2
340
6B
275
     0
280
     0
281
     0
282
     0
283
     0
284
     0
285
     0
286
     0
287
     0
288
     1
  0
DIMSTYLE
105
61
330
A
100
AcDbSymbolTableRecord
100
AcDbDimStyleTableRecord
  2
AM_JIS$6
 70
     0
  3

  4
"
  5
OPEN30
  6

  7

 40
0.2
 41
2.5
 42
1.0
 43
10.0
 44
1.0
 45
0.0
 46
0.0
 47
0.1
 48
0.1
140
3.2
141
0.0
142
0.0
143
0.0393701
144
1.0
145
0.0
146
0.71
147
1.5
 71
     0
 72
     0
 73
     0
 74
     0
 75
     0
 76
     0
 77
     0
 78
     8
170
     0
171
     2
172
     1
173
     0
174
     0
175
     0
176
   256
177
   256
178
     2
270
     2
271
     2
272
     2
273
     2
274
     2
340
6B
275
     0
280
     0
281
     0
282
     0
283
     0
284
     0
285
     0
286
     0
287
     3
288
     0
  0
DIMSTYLE
105
62
330
A
100
AcDbSymbolTableRecord
100
AcDbDimStyleTableRecord
  2
AM_JIS$7
 70
     0
  3

  4
"
  5
OPEN30
  6

  7

 40
0.2
 41
2.5
 42
1.0
 43
10.0
 44
1.0
 45
0.0
 46
0.0
 47
0.1
 48
0.1
140
3.2
141
0.0
142
0.0
143
0.0393701
144
1.0
145
0.0
146
0.71
147
1.5
 71
     0
 72
     0
 73
     0
 74
     0
 75
     0
 76
     0
 77
     3
 78
     8
170
     0
171
     2
172
     1
173
     0
174
     0
175
     0
176
   256
177
   256
178
     2
270
     2
271
     2
272
     3
273
     2
274
     2
340
6B
275
     0
280
     0
281
     0
282
     0
283
     0
284
     0
285
     0
286
     0
287
     3
288
     0
  0
DIMSTYLE
105
63
330
A
100
AcDbSymbolTableRecord
100
AcDbDimStyleTableRecord
  2
AM_JIS$SF
 70
     0
  3

  4
"
  5
OPEN30
  6

  7

 40
0.2
 41
2.5
 42
1.0
 43
10.0
 44
1.0
 45
0.0
 46
0.0
 47
0.1
 48
0.1
140
3.2
141
0.0
142
0.0
143
0.0393701
144
1.0
145
0.0
146
0.71
147
1.5
 71
     0
 72
     0
 73
     0
 74
     0
 75
     1
 76
     1
 77
     3
 78
     8
170
     0
171
     2
172
     1
173
     0
174
     0
175
     0
176
   256
177
   256
178
     2
270
     2
271
     2
272
     2
273
     2
274
     2
340
6B
275
     0
280
     0
281
     0
282
     0
283
     0
284
     0
285
     0
286
     0
287
     3
288
     0
  0
DIMSTYLE
105
68
330
A
100
AcDbSymbolTableRecord
100
AcDbDimStyleTableRecord
  2
AM_JIS$SH
 70
     0
  3

  4
"
  5

  6
GENAXEH
  7
OPEN30
 40
0.2
 41
2.5
 42
1.0
 43
10.0
 44
1.0
 45
0.0
 46
0.0
 47
0.1
 48
0.1
140
3.2
141
0.0
142
0.0
143
0.0393701
144
2.0
145
0.0
146
0.71
147
1.5
 71
     0
 72
     0
 73
     0
 74
     0
 75
     1
 76
     1
 77
     3
 78
     8
170
     0
171
     2
172
     1
173
     1
174
     0
175
     0
176
   256
177
   256
178
     2
270
     2
271
     2
272
     2
273
     2
274
     2
340
6B
275
     0
280
     0
281
     0
282
     0
283
     0
284
     0
285
     0
286
     0
287
     3
288
     0
  0
DIMSTYLE
105
B34
102
{ACAD_REACTORS
330
2753
330
45F7
102
}
330
A
100
AcDbSymbolTableRecord
100
AcDbDimStyleTableRecord
  2
AM_JIS$2
 70
     0
  3

  4
"
  5
OPEN30
  6

  7

 40
0.2
 41
2.5
 42
1.0
 43
12.0
 44
1.0
 45
0.0
 46
0.0
 47
0.1
 48
0.1
140
3.2
141
0.0
142
0.0
143
0.0393701
144
1.0
145
0.0
146
0.71
147
1.5
 71
     0
 72
     0
 73
     0
 74
     0
 75
     0
 76
     0
 77
     3
 78
     8
170
     0
171
     2
172
     1
173
     0
174
     0
175
     0
176
   256
177
   256
178
     2
270
     2
271
     3
272
     3
273
     2
274
     2
340
6B
275
     0
280
     0
281
     0
282
     0
283
     0
284
     0
285
     0
286
     0
287
     3
288
     0
  0
DIMSTYLE
105
BA5
102
{ACAD_REACTORS
330
2716
330
2703
330
2713
330
2702
330
274B
102
}
330
A
100
AcDbSymbolTableRecord
100
AcDbDimStyleTableRecord
  2
AM_JIS$0
 70
     0
  3

  4
"
  5
OPEN30
  6

  7

 40
0.2
 41
2.5
 42
0.0
 43
10.0
 44
1.0
 45
0.0
 46
0.0
 47
0.1
 48
0.1000000001
140
3.799999999999999
141
0.0
142
0.0
143
0.0393701
144
1.0
145
0.0
146
0.71
147
1.5
 71
     0
 72
     0
 73
     0
 74
     0
 75
     0
 76
     0
 77
     3
 78
     1
170
     0
171
     2
172
     1
173
     0
174
     0
175
     0
176
     3
177
     3
178
     2
270
     2
271
     2
272
     2
273
     2
274
     2
340
11
275
     1
280
     0
281
     0
282
     0
283
     0
284
     8
285
     0
286
     0
287
     0
288
     0
  0
ENDTAB
  0
TABLE
  2
BLOCK_RECORD
  5
1
330
0
100
AcDbSymbolTable
 70
    13
  0
BLOCK_RECORD
  5
1F
102
{ACAD_XDICTIONARY
360
74
102
}
330
1
100
AcDbSymbolTableRecord
100
AcDbBlockTableRecord
  2
*MODEL_SPACE
  0
BLOCK_RECORD
  5
101
102
{ACAD_XDICTIONARY
360
47E0
102
}
330
1
100
AcDbSymbolTableRecord
100
AcDbBlockTableRecord
  2
*PAPER_SPACE
  0
BLOCK_RECORD
  5
59
330
1
100
AcDbSymbolTableRecord
100
AcDbBlockTableRecord
  2
_OPEN30
  0
BLOCK_RECORD
  5
64
330
1
100
AcDbSymbolTableRecord
100
AcDbBlockTableRecord
  2
GENAXEH
  0
BLOCK_RECORD
  5
2754
330
1
100
AcDbSymbolTableRecord
100
AcDbBlockTableRecord
  2
*D5
  0
BLOCK_RECORD
  5
2760
330
1
100
AcDbSymbolTableRecord
100
AcDbBlockTableRecord
  2
*D6
  0
BLOCK_RECORD
  5
276C
330
1
100
AcDbSymbolTableRecord
100
AcDbBlockTableRecord
  2
*D7
  0
BLOCK_RECORD
  5
27A4
330
1
100
AcDbSymbolTableRecord
100
AcDbBlockTableRecord
  2
*D8
  0
BLOCK_RECORD
  5
27B0
330
1
100
AcDbSymbolTableRecord
100
AcDbBlockTableRecord
  2
*D9
  0
BLOCK_RECORD
  5
27BE
330
1
100
AcDbSymbolTableRecord
100
AcDbBlockTableRecord
  2
*D10
  0
BLOCK_RECORD
  5
45F8
330
1
100
AcDbSymbolTableRecord
100
AcDbBlockTableRecord
  2
*D12
  0
ENDTAB
  0
ENDSEC
  0
SECTION
  2
BLOCKS
  0
BLOCK
  5
20
330
1F
100
AcDbEntity
  8
0
100
AcDbBlockBegin
  2
*MODEL_SPACE
 70
     0
 10
0.0
 20
0.0
 30
0.0
  3
*MODEL_SPACE
  1

  0
ENDBLK
  5
21
330
1F
100
AcDbEntity
  8
0
100
AcDbBlockEnd
  0
BLOCK
  5
103
330
101
100
AcDbEntity
 67
     1
  8
0
100
AcDbBlockBegin
  2
*PAPER_SPACE
 70
     0
 10
0.0
 20
0.0
 30
0.0
  3
*PAPER_SPACE
  1

  0
ENDBLK
  5
104
330
101
100
AcDbEntity
 67
     1
  8
0
100
AcDbBlockEnd
  0
BLOCK
  5
5D
330
59
100
AcDbEntity
  8
0
100
AcDbBlockBegin
  2
_OPEN30
 70
     0
 10
0.0
 20
0.0
 30
0.0
  3
_OPEN30
  1

  0
LINE
  5
5A
330
59
100
AcDbEntity
  8
0
 62
     0
100
AcDbLine
 10
-1.0
 20
0.26794919
 30
0.0
 11
0.0
 21
0.0
 31
0.0
  0
LINE
  5
5B
330
59
100
AcDbEntity
  8
0
 62
     0
100
AcDbLine
 10
0.0
 20
0.0
 30
0.0
 11
-1.0
 21
-0.26794919
 31
0.0
  0
LINE
  5
5C
330
59
100
AcDbEntity
  8
0
 62
     0
100
AcDbLine
 10
0.0
 20
0.0
 30
0.0
 11
-1.0
 21
0.0
 31
0.0
  0
ENDBLK
  5
5E
330
59
100
AcDbEntity
  8
0
100
AcDbBlockEnd
  0
BLOCK
  5
66
330
64
100
AcDbEntity
  8
0
100
AcDbBlockBegin
  2
GENAXEH
 70
     0
 10
0.0
 20
0.0
 30
0.0
  3
GENAXEH
  1

  0
LINE
  5
65
330
64
100
AcDbEntity
  8
0
100
AcDbLine
 10
-1.0
 20
0.0
 30
0.0
 11
1.0
 21
0.0
 31
0.0
  0
ENDBLK
  5
67
330
64
100
AcDbEntity
  8
0
100
AcDbBlockEnd
  0
BLOCK
  5
275E
330
2754
100
AcDbEntity
  8
0
100
AcDbBlockBegin
  2
*D5
 70
     1
 10
0.0
 20
0.0
 30
0.0
  3
*D5
  1

  0
LINE
  5
3CCD
330
2754
100
AcDbEntity
  8
AM_5
 62
     3
100
AcDbLine
 10
-37.00000015013637
 20
-1.500000435719498
 30
0.0
 11
-40.99999987094024
 21
-1.500000435719497
 31
0.0
  0
LINE
  5
3CCE
330
2754
100
AcDbEntity
  8
AM_5
 62
     3
100
AcDbLine
 10
-37.00000016782043
 20
1.499999574490402
 30
0.0
 11
-40.99999987094024
 21
1.499999574490403
 31
0.0
  0
LINE
  5
3CCF
330
2754
100
AcDbEntity
  8
AM_5
 62
     3
100
AcDbLine
 10
-40.79999987094024
 20
-1.000000435719497
 30
0.0
 11
-40.79999987094024
 21
0.9999995744904037
 31
0.0
  0
INSERT
  5
3CD0
330
2754
100
AcDbEntity
  8
AM_5
 62
     3
100
AcDbBlockReference
  2
_OPEN30
 10
-40.79999987094024
 20
-1.500000435719497
 30
0.0
 41
0.5
 42
0.5
 43
0.5
 50
270.0
  0
INSERT
  5
3CD1
330
2754
100
AcDbEntity
  8
AM_5
 62
     3
100
AcDbBlockReference
  2
_OPEN30
 10
-40.79999987094024
 20
1.499999574490403
 30
0.0
 41
0.5
 42
0.5
 43
0.5
 50
90.0
  0
MTEXT
  5
3CD2
330
2754
100
AcDbEntity
  8
AM_5
 62
     2
100
AcDbMText
 10
-41.47999987094023
 20
-0.0000004291993888
 30
0.0
 40
0.76
 41
0.0
 71
     5
 72
     1
  1
%%c3
 11
0.0000000000000001
 21
1.0
 31
0.0
1001
ACAD
1000
MTEXTBEGIN
1070
    73
1070
     1
1070
    44
1040
1.0
1070
    74
1070
     0
1000
MTEXTEND
  0
POINT
  5
3CD3
330
2754
100
AcDbEntity
  8
DEFPOINTS
 62
     0
100
AcDbPoint
 10
-37.00000015013637
 20
-1.500000435719498
 30
0.0
  0
POINT
  5
3CD4
330
2754
100
AcDbEntity
  8
DEFPOINTS
 62
     0
100
AcDbPoint
 10
-37.00000016782043
 20
1.499999574490402
 30
0.0
  0
POINT
  5
3CD5
330
2754
100
AcDbEntity
  8
DEFPOINTS
 62
     0
100
AcDbPoint
 10
-40.79999987094024
 20
1.499999574490403
 30
0.0
  0
ENDBLK
  5
275F
330
2754
100
AcDbEntity
  8
0
100
AcDbBlockEnd
  0
BLOCK
  5
276A
330
2760
100
AcDbEntity
  8
0
100
AcDbBlockBegin
  2
*D6
 70
     1
 10
0.0
 20
0.0
 30
0.0
  3
*D6
  1

  0
LINE
  5
3935
330
2760
100
AcDbEntity
  8
AM_5
 62
     3
100
AcDbLine
 10
-37.9999998709402
 20
-1.200000429199405
 30
0.0
 11
-37.9999998709402
 21
-6.500000429199372
 31
0.0
  0
LINE
  5
3936
330
2760
100
AcDbEntity
  8
AM_5
 62
     3
100
AcDbLine
 10
-0.0000001501363728
 20
-0.1700000121581695
 30
0.0
 11
-0.0000001501363732
 21
-6.500000429199372
 31
0.0
  0
LINE
  5
3937
330
2760
100
AcDbEntity
  8
AM_5
 62
     3
100
AcDbLine
 10
-37.4999998709402
 20
-6.300000429199371
 30
0.0
 11
-0.5000001501363732
 21
-6.300000429199371
 31
0.0
  0
INSERT
  5
3938
330
2760
100
AcDbEntity
  8
AM_5
 62
     3
100
AcDbBlockReference
  2
_OPEN30
 10
-37.9999998709402
 20
-6.300000429199371
 30
0.0
 41
0.5
 42
0.5
 43
0.5
 50
180.0
  0
INSERT
  5
3939
330
2760
100
AcDbEntity
  8
AM_5
 62
     3
100
AcDbBlockReference
  2
_OPEN30
 10
-0.0000001501363731
 20
-6.300000429199371
 30
0.0
 41
0.5
 42
0.5
 43
0.5
  0
MTEXT
  5
393A
330
2760
100
AcDbEntity
  8
AM_5
 62
     2
100
AcDbMText
 10
-19.00000001053828
 20
-5.620000429199372
 30
0.0
 40
0.76
 41
0.0
 71
     5
 72
     1
  1
38
1001
ACAD
1000
MTEXTBEGIN
1070
    73
1070
     1
1070
    44
1040
1.0
1070
    74
1070
     0
1000
MTEXTEND
  0
POINT
  5
393B
330
2760
100
AcDbEntity
  8
DEFPOINTS
 62
     0
100
AcDbPoint
 10
-37.9999998709402
 20
-1.200000429199405
 30
0.0
  0
POINT
  5
393C
330
2760
100
AcDbEntity
  8
DEFPOINTS
 62
     0
100
AcDbPoint
 10
-0.0000001501363728
 20
-0.1700000121581695
 30
0.0
  0
POINT
  5
393D
330
2760
100
AcDbEntity
  8
DEFPOINTS
 62
     0
100
AcDbPoint
 10
-0.0000001501363731
 20
-6.300000429199371
 30
0.0
  0
ENDBLK
  5
276B
330
2760
100
AcDbEntity
  8
0
100
AcDbBlockEnd
  0
BLOCK
  5
2776
330
276C
100
AcDbEntity
  8
0
100
AcDbBlockBegin
  2
*D7
 70
     1
 10
0.0
 20
0.0
 30
0.0
  3
*D7
  1

  0
LINE
  5
4778
330
276C
100
AcDbEntity
  8
AM_5
 62
     3
100
AcDbLine
 10
-37.9999998709402
 20
-0.9226503277238576
 30
0.0
 11
-37.9999998709402
 21
-4.5000004291994
 31
0.0
  0
LINE
  5
4779
330
276C
100
AcDbEntity
  8
AM_5
 62
     3
100
AcDbLine
 10
-15.41854749868403
 20
-1.499930568575448
 30
0.0
 11
-15.41854749868403
 21
-4.5000004291994
 31
0.0
  0
LINE
  5
477A
330
276C
100
AcDbEntity
  8
AM_5
 62
     3
100
AcDbLine
 10
-37.4999998709402
 20
-4.3000004291994
 30
0.0
 11
-15.91854749868403
 21
-4.3000004291994
 31
0.0
  0
INSERT
  5
477B
330
276C
100
AcDbEntity
  8
AM_5
 62
     3
100
AcDbBlockReference
  2
_OPEN30
 10
-37.9999998709402
 20
-4.3000004291994
 30
0.0
 41
0.5
 42
0.5
 43
0.5
 50
180.0
  0
INSERT
  5
477C
330
276C
100
AcDbEntity
  8
AM_5
 62
     3
100
AcDbBlockReference
  2
_OPEN30
 10
-15.41854749868403
 20
-4.3000004291994
 30
0.0
 41
0.5
 42
0.5
 43
0.5
  0
MTEXT
  5
477D
330
276C
100
AcDbEntity
  8
AM_5
 62
     2
100
AcDbMText
 10
-26.70927368481212
 20
-3.6200004291994
 30
0.0
 40
0.76
 41
0.0
 71
     5
 72
     1
  1
23
1001
ACAD
1000
MTEXTBEGIN
1070
    73
1070
     1
1070
    44
1040
1.0
1070
    74
1070
     0
1000
MTEXTEND
  0
POINT
  5
477E
330
276C
100
AcDbEntity
  8
DEFPOINTS
 62
     0
100
AcDbPoint
 10
-37.9999998709402
 20
-0.9226503277238576
 30
0.0
  0
POINT
  5
477F
330
276C
100
AcDbEntity
  8
DEFPOINTS
 62
     0
100
AcDbPoint
 10
-15.41854749868403
 20
-1.499930568575448
 30
0.0
  0
POINT
  5
4780
330
276C
100
AcDbEntity
  8
DEFPOINTS
 62
     0
100
AcDbPoint
 10
-15.41854749868403
 20
-4.3000004291994
 30
0.0
  0
ENDBLK
  5
2777
330
276C
100
AcDbEntity
  8
0
100
AcDbBlockEnd
  0
BLOCK
  5
27AE
330
27A4
100
AcDbEntity
  8
0
100
AcDbBlockBegin
  2
*D8
 70
     1
 10
0.0
 20
0.0
 30
0.0
  3
*D8
  1

  0
LINE
  5
4764
330
27A4
100
AcDbEntity
  8
AM_5
 62
     3
100
AcDbLine
 10
-10.99995848459071
 20
0.1553918303036028
 30
0.0
 11
-10.99995848459071
 21
-4.5000004291994
 31
0.0
  0
LINE
  5
4765
330
27A4
100
AcDbEntity
  8
AM_5
 62
     3
100
AcDbLine
 10
-0.0000001501363728
 20
-0.0000000097255113
 30
0.0
 11
-0.000000150136373
 21
-4.5000004291994
 31
0.0
  0
LINE
  5
4766
330
27A4
100
AcDbEntity
  8
AM_5
 62
     3
100
AcDbLine
 10
-10.49995848459071
 20
-4.3000004291994
 30
0.0
 11
-0.5000001501363731
 21
-4.3000004291994
 31
0.0
  0
INSERT
  5
4767
330
27A4
100
AcDbEntity
  8
AM_5
 62
     3
100
AcDbBlockReference
  2
_OPEN30
 10
-10.99995848459071
 20
-4.3000004291994
 30
0.0
 41
0.5
 42
0.5
 43
0.5
 50
180.0
  0
INSERT
  5
4768
330
27A4
100
AcDbEntity
  8
AM_5
 62
     3
100
AcDbBlockReference
  2
_OPEN30
 10
-0.000000150136373
 20
-4.3000004291994
 30
0.0
 41
0.5
 42
0.5
 43
0.5
  0
MTEXT
  5
4769
330
27A4
100
AcDbEntity
  8
AM_5
 62
     2
100
AcDbMText
 10
-5.499979317363542
 20
-3.6200004291994
 30
0.0
 40
0.76
 41
0.0
 71
     5
 72
     1
  1
11
1001
ACAD
1000
MTEXTBEGIN
1070
    73
1070
     1
1070
    44
1040
1.0
1070
    74
1070
     0
1000
MTEXTEND
  0
POINT
  5
476A
330
27A4
100
AcDbEntity
  8
DEFPOINTS
 62
     0
100
AcDbPoint
 10
-10.99995848459071
 20
0.1553918303036028
 30
0.0
  0
POINT
  5
476B
330
27A4
100
AcDbEntity
  8
DEFPOINTS
 62
     0
100
AcDbPoint
 10
-0.0000001501363728
 20
-0.0000000097255113
 30
0.0
  0
POINT
  5
476C
330
27A4
100
AcDbEntity
  8
DEFPOINTS
 62
     0
100
AcDbPoint
 10
-0.000000150136373
 20
-4.3000004291994
 30
0.0
  0
ENDBLK
  5
27AF
330
27A4
100
AcDbEntity
  8
0
100
AcDbBlockEnd
  0
BLOCK
  5
27BC
330
27B0
100
AcDbEntity
  8
0
100
AcDbBlockBegin
  2
*D9
 70
     1
 10
0.0
 20
0.0
 30
0.0
  3
*D9
  1

  0
LINE
  5
47E2
330
27B0
100
AcDbEntity
  8
AM_5
100
AcDbLine
 10
0.0684041276828743
 20
-0.1879386037654591
 30
0.0
 11
2.271187719343772
 21
-6.240036832110164
 31
0.0
  0
LINE
  5
47E3
330
27B0
100
AcDbEntity
  8
AM_5
100
AcDbLine
 10
0.0684042303434766
 20
0.187938473011644
 30
0.0
 11
2.271192039839738
 21
6.240035251643647
 31
0.0
  0
ARC
  5
47E4
330
27B0
100
AcDbEntity
  8
AM_5
100
AcDbCircle
 10
0.0000000720550126
 20
-0.0000000039664532
 30
0.0
 40
6.440508485484141
100
AcDbArc
 50
294.4491965027331
 51
65.55076382663324
  0
INSERT
  5
47E5
330
27B0
100
AcDbEntity
  8
AM_5
100
AcDbBlockReference
  2
_OPEN30
 10
2.202783691180764
 20
-6.052098307770224
 30
0.0
 41
0.5
 42
0.5
 43
0.5
 50
202.2245981748264
  0
INSERT
  5
47E6
330
27B0
100
AcDbEntity
  8
AM_5
100
AcDbBlockReference
  2
_OPEN30
 10
2.202787881551274
 20
6.05209677466555
 30
0.0
 41
0.5
 42
0.5
 43
0.5
 50
157.7753621545398
  0
MTEXT
  5
47E7
330
27B0
100
AcDbEntity
  8
AM_5
 62
     2
100
AcDbMText
 10
5.820508557538767
 20
-0.0000022336163109
 30
0.0
 40
0.6400000000000002
 41
0.0
 71
     5
 72
     1
  1
140°
  7
ASAMI
 11
0.0000000000000001
 21
1.0
 31
0.0
  0
POINT
  5
47E8
330
27B0
100
AcDbEntity
  8
DEFPOINTS
 62
     0
100
AcDbPoint
 10
5.913779875145419
 20
2.550952365669879
 30
0.0
  0
POINT
  5
47E9
330
27B0
100
AcDbEntity
  8
DEFPOINTS
 62
     0
100
AcDbPoint
 10
0.0000000677307526
 20
-0.0000000158472346
 30
0.0
  0
POINT
  5
47EA
330
27B0
100
AcDbEntity
  8
DEFPOINTS
 62
     0
100
AcDbPoint
 10
0.0000000995198661
 20
-0.0000000794255186
 30
0.0
  0
POINT
  5
47EB
330
27B0
100
AcDbEntity
  8
DEFPOINTS
 62
     0
100
AcDbPoint
 10
-0.0133687245935335
 20
0.036730463256049
 30
0.0
  0
POINT
  5
47EC
330
27B0
100
AcDbEntity
  8
DEFPOINTS
 62
     0
100
AcDbPoint
 10
-0.0133689477578969
 20
-0.0367310051978791
 30
0.0
  0
ENDBLK
  5
27BD
330
27B0
100
AcDbEntity
  8
0
100
AcDbBlockEnd
  0
BLOCK
  5
27CA
330
27BE
100
AcDbEntity
  8
0
100
AcDbBlockBegin
  2
*D10
 70
     1
 10
0.0
 20
0.0
 30
0.0
  3
*D10
  1

  0
LINE
  5
46E2
330
27BE
100
AcDbEntity
  8
AM_5
 62
     3
100
AcDbLine
 10
-0.1681869637144552
 20
-0.4500294587696939
 30
0.0
 11
3.46578391723234
 21
-0.450029458769695
 31
0.0
  0
LINE
  5
46E3
330
27BE
100
AcDbEntity
  8
AM_5
 62
     3
100
AcDbLine
 10
-0.1618764638762733
 20
0.4499705476447544
 30
0.0
 11
3.46578391723234
 21
0.4499705476447533
 31
0.0
  0
LINE
  5
46E4
330
27BE
100
AcDbEntity
  8
AM_5
 62
     3
100
AcDbLine
 10
3.26578391723234
 20
0.9499705476447532
 30
0.0
 11
3.265783917232341
 21
1.449970547644753
 31
0.0
  0
LINE
  5
46E5
330
27BE
100
AcDbEntity
  8
AM_5
 62
     3
100
AcDbLine
 10
3.26578391723234
 20
-0.9500294587696949
 30
0.0
 11
3.265783917232339
 21
-5.216689577011651
 31
0.0
  0
LINE
  5
46E6
330
27BE
100
AcDbEntity
  8
AM_5
 62
     3
100
AcDbLine
 10
3.26578391723234
 20
0.4499705476447533
 30
0.0
 11
3.26578391723234
 21
-0.4500294587696949
 31
0.0
  0
INSERT
  5
46E7
330
27BE
100
AcDbEntity
  8
AM_5
 62
     3
100
AcDbBlockReference
  2
_OPEN30
 10
3.26578391723234
 20
0.4499705476447533
 30
0.0
 41
0.5
 42
0.5
 43
0.5
 50
270.0
  0
INSERT
  5
46E8
330
27BE
100
AcDbEntity
  8
AM_5
 62
     3
100
AcDbBlockReference
  2
_OPEN30
 10
3.26578391723234
 20
-0.4500294587696949
 30
0.0
 41
0.5
 42
0.5
 43
0.5
 50
90.0
  0
MTEXT
  5
46E9
330
27BE
100
AcDbEntity
  8
AM_5
 62
     2
100
AcDbMText
 10
2.58578391723234
 20
-3.414784815106889
 30
0.0
 40
0.76
 41
0.0
 71
     5
 72
     1
  1
%%c0.90
 11
0.0000000000000001
 21
1.0
 31
0.0
1001
ACAD
1000
MTEXTBEGIN
1070
    73
1070
     1
1070
    44
1040
1.0
1070
    74
1070
     0
1000
MTEXTEND
  0
POINT
  5
46EA
330
27BE
100
AcDbEntity
  8
DEFPOINTS
 62
     0
100
AcDbPoint
 10
-0.1681869637144552
 20
-0.4500294587696939
 30
0.0
  0
POINT
  5
46EB
330
27BE
100
AcDbEntity
  8
DEFPOINTS
 62
     0
100
AcDbPoint
 10
-0.1618764638762733
 20
0.4499705476447544
 30
0.0
  0
POINT
  5
46EC
330
27BE
100
AcDbEntity
  8
DEFPOINTS
 62
     0
100
AcDbPoint
 10
3.26578391723234
 20
0.4499705476447533
 30
0.0
  0
ENDBLK
  5
27CB
330
27BE
100
AcDbEntity
  8
0
100
AcDbBlockEnd
  0
BLOCK
  5
4606
330
45F8
100
AcDbEntity
  8
0
100
AcDbBlockBegin
  2
*D12
 70
     1
 10
0.0
 20
0.0
 30
0.0
  3
*D12
  1

  0
LINE
  5
476D
330
45F8
100
AcDbEntity
  8
AM_5
100
AcDbLine
 10
-15.61173266394185
 20
1.551763383510906
 30
0.0
 11
-17.61761540995906
 21
2.089238045417738
 31
0.0
  0
LINE
  5
476E
330
45F8
100
AcDbEntity
  8
AM_5
100
AcDbLine
 10
-15.61173266394185
 20
-1.551763436088686
 30
0.0
 11
-17.61761540995906
 21
-2.089238097995513
 31
0.0
  0
ARC
  5
476F
330
45F8
100
AcDbEntity
  8
AM_5
100
AcDbCircle
 10
-9.820472777242676
 20
-0.0000000262888902
 30
0.0
 40
7.872196042911241
100
AcDbArc
 50
168.6397349807336
 51
191.3602650192663
  0
INSERT
  5
4770
330
45F8
100
AcDbEntity
  8
AM_5
100
AcDbBlockReference
  2
_OPEN30
 10
-17.42443024470125
 20
2.037474236397234
 30
0.0
 41
0.5
 42
0.5
 43
0.5
 50
76.81986749036686
  0
INSERT
  5
4771
330
45F8
100
AcDbEntity
  8
AM_5
100
AcDbBlockReference
  2
_OPEN30
 10
-17.42443024470125
 20
-2.03747428897501
 30
0.0
 41
0.5
 42
0.5
 43
0.5
 50
283.1801325096331
  0
MTEXT
  5
4772
330
45F8
100
AcDbEntity
  8
AM_5
 62
     2
100
AcDbMText
 10
-18.31266882015392
 20
-0.0000000262888908
 30
0.0
 40
0.6400000000000002
 41
0.0
 71
     5
 72
     1
  1
30°
  7
ASAMI
 11
0.0000000000000001
 21
1.0
 31
0.0
1001
ACAD
1000
MTEXTBEGIN
1070
    73
1070
     1
1070
    44
1040
1.0
1070
    74
1070
     0
1000
MTEXTEND
  0
POINT
  5
4773
330
45F8
100
AcDbEntity
  8
DEFPOINTS
 62
     0
100
AcDbPoint
 10
-17.66271273752967
 20
0.6861070668862143
 30
0.0
  0
POINT
  5
4774
330
45F8
100
AcDbEntity
  8
DEFPOINTS
 62
     0
100
AcDbPoint
 10
-15.41854749868403
 20
-1.499999627068183
 30
0.0
  0
POINT
  5
4775
330
45F8
100
AcDbEntity
  8
DEFPOINTS
 62
     0
100
AcDbPoint
 10
-15.41854749868403
 20
1.499999574490402
 30
0.0
  0
POINT
  5
4776
330
45F8
100
AcDbEntity
  8
DEFPOINTS
 62
     0
100
AcDbPoint
 10
-11.31314880204626
 20
0.3999613091185281
 30
0.0
  0
POINT
  5
4777
330
45F8
100
AcDbEntity
  8
DEFPOINTS
 62
     0
100
AcDbPoint
 10
-11.31314880204626
 20
-0.3999613616963089
 30
0.0
  0
ENDBLK
  5
4607
330
45F8
100
AcDbEntity
  8
0
100
AcDbBlockEnd
  0
ENDSEC
  0
SECTION
  2
ENTITIES
  0
DIMENSION
  5
2702
330
1F
100
AcDbEntity
  8
AM_5
100
AcDbDimension
  2
*D8
 10
-0.000000150136373
 20
-4.3000004291994
 30
0.0
 11
-5.499979317363542
 21
-3.6200004291994
 31
0.0
 70
    32
  1
<>
  3
AM_JIS$0
100
AcDbAlignedDimension
 13
-10.99995848459071
 23
0.1553918303036028
 33
0.0
 14
-0.0000001501363728
 24
-0.0000000097255113
 34
0.0
100
AcDbRotatedDimension
1001
GENIUS_GENDTOL_13
1000

1000
h7
1000

1040
0.0
1001
ACAD
1000
DSTYLE
1002
{
1070
   271
1070
     0
1002
}
  0
DIMENSION
  5
2703
330
1F
100
AcDbEntity
  8
AM_5
100
AcDbDimension
  2
*D6
 10
-0.0000001501363731
 20
-6.300000429199371
 30
0.0
 11
-19.00000001053828
 21
-5.620000429199372
 31
0.0
 70
    32
  1
<>
  3
AM_JIS$0
100
AcDbAlignedDimension
 13
-37.9999998709402
 23
-1.200000429199405
 33
0.0
 14
-0.0000001501363728
 24
-0.1700000121581695
 34
0.0
100
AcDbRotatedDimension
1001
ACAD
1000
DSTYLE
1002
{
1070
   271
1070
     0
1002
}
1001
GENIUS_GENDTOL_13
1000

1000
h7
1000

1040
0.0
  0
LINE
  5
2704
330
1F
100
AcDbEntity
  8
AM_7
100
AcDbLine
 10
0.5718937955108459
 20
0.0000002319753492
 30
0.0
 11
-38.66621376932428
 21
-0.0000004357194996
 31
0.0
1001
GENIUS_GENODEF_13
1002
{
1000
HIER
1070
     0
1002
}
1002
{
1000
MANEDIT
1070
     0
1002
}
1002
{
1000
NOSEL
1070
     0
1002
}
1002
{
1000
BEHIND
1070
     0
1002
}
1002
{
1000
REACTOR
1002
}
1001
GENIUS_GENOBJ-N-CEN_13
1002
{
1000
OWNER
1000
GEN
1002
}
  0
DIMENSION
  5
2713
330
1F
100
AcDbEntity
  8
AM_5
100
AcDbDimension
  2
*D7
 10
-15.41854749868403
 20
-4.3000004291994
 30
0.0
 11
-26.70927368481212
 21
-3.6200004291994
 31
0.0
 70
    32
  1
<>
  3
AM_JIS$0
100
AcDbAlignedDimension
 13
-37.9999998709402
 23
-0.9226503277238576
 33
0.0
 14
-15.41854749868403
 24
-1.499930568575448
 34
0.0
100
AcDbRotatedDimension
1001
ACAD
1000
DSTYLE
1002
{
1070
   271
1070
     0
1002
}
1001
GENIUS_GENDTOL_13
1000

1000
h7
1000

1040
0.0
  0
LINE
  5
2714
330
1F
100
AcDbEntity
  8
AM_0
100
AcDbLine
 10
-37.00000015013637
 20
1.499999574490402
 30
0.0
 11
-15.41854749868403
 21
1.499999574490402
 31
0.0
1001
GENIUS_GENREC_14
1002
{
1000
PYDIR
1011
-37.9999998709402
1021
-1.500000425509597
1031
0.0
1002
}
1002
{
1000
PXDIR
1011
-9.9999998709402
1021
1.499999574490402
1031
0.0
1002
}
1002
{
1000
PORI
1011
-37.9999998709402
1021
1.499999574490402
1031
0.0
1002
}
1002
{
1000
PINS
1011
-37.9999998709402
1021
1.499999574490402
1031
0.0
1002
}
1002
{
1000
PINS2
1011
-9.9999998709402
1021
-1.500000425509597
1031
0.0
1002
}
1002
{
1000
C
1070
     1
1002
}
1001
GENIUS_GENODEF_13
1002
{
1000
HIER
1070
     0
1002
}
1002
{
1000
MANEDIT
1070
     0
1002
}
1002
{
1000
NOSEL
1070
     0
1002
}
1002
{
1000
BEHIND
1070
     0
1002
}
1002
{
1000
REACTOR
1002
}
1001
GENIUS_GENOBJ-N-REC_13
1002
{
1000
OWNER
1000
GEN
1002
}
  0
LINE
  5
2715
330
1F
100
AcDbEntity
  8
AM_0
100
AcDbLine
 10
-15.41854749868403
 20
-1.500000425509597
 30
0.0
 11
-37.00000015013637
 21
-1.500000425509597
 31
0.0
1001
GENIUS_GENREC_14
1002
{
1000
PYDIR
1011
-37.9999998709402
1021
-1.500000425509597
1031
0.0
1002
}
1002
{
1000
PXDIR
1011
-9.9999998709402
1021
1.499999574490402
1031
0.0
1002
}
1002
{
1000
PORI
1011
-37.9999998709402
1021
1.499999574490402
1031
0.0
1002
}
1002
{
1000
PINS
1011
-37.9999998709402
1021
1.499999574490402
1031
0.0
1002
}
1002
{
1000
PINS2
1011
-9.9999998709402
1021
-1.500000425509597
1031
0.0
1002
}
1002
{
1000
C
1070
     1
1002
}
1001
GENIUS_GENODEF_13
1002
{
1000
HIER
1070
     0
1002
}
1002
{
1000
MANEDIT
1070
     0
1002
}
1002
{
1000
NOSEL
1070
     0
1002
}
1002
{
1000
BEHIND
1070
     0
1002
}
1002
{
1000
REACTOR
1002
}
1001
GENIUS_GENOBJ-N-REC_13
1002
{
1000
OWNER
1000
GEN
1002
}
  0
DIMENSION
  5
2716
330
1F
100
AcDbEntity
  8
AM_5
100
AcDbDimension
  2
*D5
 10
-40.79999987094024
 20
1.499999574490403
 30
0.0
 11
-40.79999987094024
 21
-0.0000004291993889
 31
0.0
 70
   160
  1
%%c<>
  3
AM_JIS$0
100
AcDbAlignedDimension
 13
-37.00000015013637
 23
-1.500000435719498
 33
0.0
 14
-37.00000016782043
 24
1.499999574490402
 34
0.0
 50
270.0
100
AcDbRotatedDimension
1001
GENIUS_GENDTOL_13
1000

1000
h7
1000

1040
0.0
1001
ACAD
1000
DSTYLE
1002
{
1070
   271
1070
     0
1002
}
  0
LINE
  5
271F
330
1F
100
AcDbEntity
  8
AM_0
100
AcDbLine
 10
-15.41854749868403
 20
1.499999574490402
 30
0.0
 11
-15.41854749868403
 21
-1.500000425509597
 31
0.0
1001
GENIUS_GENREC_14
1002
{
1000
PYDIR
1011
-43.41854749868407
1021
-1.500000425509597
1031
0.0
1002
}
1002
{
1000
PXDIR
1011
-15.41854749868403
1021
1.499999574490402
1031
0.0
1002
}
1002
{
1000
PORI
1011
-43.41854749868407
1021
1.499999574490402
1031
0.0
1002
}
1002
{
1000
PINS
1011
-43.41854749868407
1021
1.499999574490402
1031
0.0
1002
}
1002
{
1000
PINS2
1011
-15.41854749868403
1021
-1.500000425509597
1031
0.0
1002
}
1002
{
1000
C
1070
     1
1002
}
1001
GENIUS_GENODEF_13
1002
{
1000
HIER
1070
     0
1002
}
1002
{
1000
MANEDIT
1070
     0
1002
}
1002
{
1000
NOSEL
1070
     0
1002
}
1002
{
1000
BEHIND
1070
     0
1002
}
1002
{
1000
REACTOR
1002
}
1001
GENIUS_GENOBJ-N-REC_13
1002
{
1000
OWNER
1000
GEN
1002
}
  0
DIMENSION
  5
274B
330
1F
100
AcDbEntity
  8
AM_5
100
AcDbDimension
  2
*D10
 10
3.26578391723234
 20
0.4499705476447533
 30
0.0
 11
3.26578391723234
 21
-3.414784815106889
 31
0.0
 70
   160
  1
%%c<>
  3
AM_JIS$0
100
AcDbAlignedDimension
 13
-0.1681869637144552
 23
-0.4500294587696939
 33
0.0
 14
-0.1618764638762733
 24
0.4499705476447544
 34
0.0
 50
90.0
100
AcDbRotatedDimension
1001
ACAD
1000
DSTYLE
1002
{
1070
   271
1070
     2
1002
}
1001
GENIUS_GENDTOL_13
1000

1000
h7
1000

1040
0.0
  0
DIMENSION
  5
2753
330
1F
100
AcDbEntity
  8
AM_5
100
AcDbDimension
  2
*D9
 10
-0.0133689477578969
 20
-0.0367310051978791
 30
0.0
 11
5.820508557538767
 21
-0.0000022336163119
 31
0.0
 70
    34
  1
<>
  3
AM_JIS$2
100
AcDb2LineAngularDimension
 13
0.0000000995198661
 23
-0.0000000794255186
 33
0.0
 14
-0.0133687245935335
 24
0.036730463256049
 34
0.0
 15
0.0000000677307526
 25
-0.0000000158472346
 35
0.0
 16
5.913779875145419
 26
2.550952365669879
 36
0.0
1001
GENIUS_GENDTOL_13
1000

1000
h7
1000

1040
0.0
1001
ACAD
1000
DSTYLE
1002
{
1070
   271
1070
     0
1002
}
  0
LINE
  5
2B58
330
1F
100
AcDbEntity
  8
AM_0
 48
0.5
100
AcDbLine
 10
0.001909659416055
 20
-0.0000294587697378
 30
0.0
 11
-0.2476690663132703
 21
0.1727565863046715
 31
0.0
  0
ELLIPSE
  5
2B59
330
1F
100
AcDbEntity
  8
AM_0
 48
0.5
100
AcDbEllipse
 10
-0.8854253118253071
 20
0.855919782379625
 30
0.0
 11
1.28217313840468
 21
0.4687491004603303
 31
0.0
210
0.0
220
0.0
230
1.0
 40
0.8840039620320629
 41
-1.415498797905765
 42
-1.164534488608015
  0
LINE
  5
2B64
330
1F
100
AcDbEntity
  8
AM_0
 48
0.5
100
AcDbLine
 10
-0.449648967872665
 20
-0.4500297448719353
 30
0.0
 11
-0.1681869637144562
 21
-0.4500294587696939
 31
0.0
  0
LINE
  5
2B65
330
1F
100
AcDbEntity
  8
AM_0
 48
0.5
100
AcDbLine
 10
-0.449648967872665
 20
0.449970255127977
 30
0.0
 11
-0.161876463876274
 21
0.4499705476447543
 31
0.0
  0
ELLIPSE
  5
2B88
330
1F
100
AcDbEntity
  8
AM_0
 48
0.5
100
AcDbEllipse
 10
0.3059773086765665
 20
0.5402229406748958
 30
0.0
 11
-0.9876252748044494
 21
0.000000000003788
 31
0.0
210
0.0
220
0.0
230
1.0
 40
0.9183140236859916
 41
0.5303675532381234
 42
0.93848848343276
  0
SPLINE
  5
2B89
330
1F
100
AcDbEntity
  8
AM_0
 48
0.5
100
AcDbSpline
210
0.0
220
0.0
230
1.0
 70
     8
 71
     3
 72
    10
 73
     6
 74
     0
 42
0.0000000001
 43
0.0000000001
 40
0.0
 40
0.0
 40
0.0
 40
0.0
 40
2.69986029516136
 40
4.147722969032201
 40
6.285750005020438
 40
6.285750005020438
 40
6.285750005020438
 40
6.285750005020438
 10
-0.5459545830719968
 20
0.0814178564462828
 30
0.0
 10
-0.4871747771091623
 20
0.0396097468061899
 30
0.0
 10
-0.3968729375121789
 20
-0.0246189308618428
 30
0.0
 10
-0.183321217329478
 20
0.0064752971888175
 30
0.0
 10
-0.2235392177743162
 20
0.111204771641853
 30
0.0
 10
-0.2501127028352566
 20
0.1750406119018061
 30
0.0
  0
ELLIPSE
  5
2B8A
330
1F
100
AcDbEntity
  8
AM_0
 48
0.5
100
AcDbEllipse
 10
0.4951341016330115
 20
-0.0588983702432177
 30
0.0
 11
0.7768200031710216
 21
0.1077868703792925
 31
0.0
210
0.0
220
0.0
230
1.0
 40
0.8623944533520736
 41
3.17857797620105
 42
3.596418478329661
  0
LINE
  5
2BAB
330
1F
100
AcDbEntity
  8
AM_0
100
AcDbLine
 10
-11.50000015013651
 20
-0.4499337247021196
 30
0.0
 11
-11.50000015013622
 21
0.4500279769439008
 31
0.0
  0
TEXT
  5
3732
330
1F
100
AcDbEntity
  8
AM_6
100
AcDbText
 10
-22.78571429625257
 20
-10.80000042919937
 30
0.0
 40
1.0
  1
MDSS0090
 72
     4
 11
-19.00000001053828
 21
-10.30000042919937
 31
0.0
100
AcDbText
  0
LINE
  5
3814
330
1F
100
AcDbEntity
  8
AM_0
 48
0.5
100
AcDbLine
 10
-0.1618768957640695
 20
-0.4500294523555969
 30
0.0
 11
0.0019099153242816
 21
-0.0000288872858709
 31
0.0
  0
LINE
  5
3819
330
1F
100
AcDbEntity
  8
AM_0
 48
0.5
100
AcDbLine
 10
-0.1618768957640695
 20
0.4499717278322028
 30
0.0
 11
0.0019099153242816
 21
-0.0000288372375234
 31
0.0
  0
LINE
  5
38A3
330
1F
100
AcDbEntity
  8
AM_0
100
AcDbLine
 10
-11.50000015041089
 20
0.4499693456410942
 30
0.0
 11
-6.809523893803823
 21
0.4501083512072745
 31
0.0
  0
LINE
  5
38AD
330
1F
100
AcDbEntity
  8
AM_0
 48
0.5
100
AcDbLine
 10
-11.50000015059411
 20
-0.4499633409617196
 30
0.0
 11
-6.988355971183795
 21
-0.4500330497201034
 31
0.0
  0
LINE
  5
3CC0
330
1F
100
AcDbEntity
  8
AM_0
100
AcDbLine
 10
-37.00000015013637
 20
-1.500000411609875
 30
0.0
 11
-37.00000015013637
 21
1.499999588390124
 31
0.0
  0
LINE
  5
3CC1
330
1F
100
AcDbEntity
  8
AM_0
100
AcDbLine
 10
-37.00000015013637
 20
1.499999584700304
 30
0.0
 11
-38.00000015013637
 21
0.9226493155106782
 31
0.0
  0
LINE
  5
3CC2
330
1F
100
AcDbEntity
  8
AM_0
100
AcDbLine
 10
-37.9999998709402
 20
-0.9226501665298727
 30
0.0
 11
-37.9999998709402
 21
0.922649315510678
 31
0.0
1001
GENIUS_GENREC_14
1002
{
1000
PYDIR
1011
-37.9999998709402
1021
-1.500000415299695
1031
0.0
1002
}
1002
{
1000
PXDIR
1011
-9.9999998709402
1021
1.499999584700304
1031
0.0
1002
}
1002
{
1000
PORI
1011
-37.9999998709402
1021
1.499999584700304
1031
0.0
1002
}
1002
{
1000
PINS
1011
-37.9999998709402
1021
1.499999584700304
1031
0.0
1002
}
1002
{
1000
PINS2
1011
-9.9999998709402
1021
-1.500000415299695
1031
0.0
1002
}
1002
{
1000
C
1070
     1
1002
}
1001
GENIUS_GENODEF_13
1002
{
1000
HIER
1070
     0
1002
}
1002
{
1000
MANEDIT
1070
     0
1002
}
1002
{
1000
NOSEL
1070
     0
1002
}
1002
{
1000
BEHIND
1070
     0
1002
}
1002
{
1000
REACTOR
1002
}
1001
GENIUS_GENOBJ-N-REC_13
1002
{
1000
OWNER
1000
GEN
1002
}
  0
LINE
  5
3CC3
330
1F
100
AcDbEntity
  8
AM_0
100
AcDbLine
 10
-37.00000015013637
 20
-1.500000435719498
 30
0.0
 11
-38.00000015013637
 21
-0.9226501665298727
 31
0.0
  0
SPLINE
  5
3DC7
330
1F
100
AcDbEntity
  8
AM_0
 48
0.5
100
AcDbSpline
210
0.0
220
0.0
230
1.0
 70
     8
 71
     3
 72
    17
 73
    13
 74
     0
 42
0.0000000001
 43
0.0000000001
 40
0.0
 40
0.0
 40
0.0
 40
0.0
 40
1.010743614677189
 40
2.022833924044153
 40
3.037578959561199
 40
4.056212747067873
 40
5.079857613375832
 40
6.109500119648989
 40
7.14596120163808
 40
8.18989512056258
 40
9.241717674284874
 40
9.667868060342595
 40
9.667868060342595
 40
9.667868060342595
 40
9.667868060342595
 10
-0.359337994538722
 20
0.4499702551279039
 30
0.0
 10
-0.3837251658416539
 20
0.4497027089756859
 30
0.0
 10
-0.4325320014298123
 20
0.4491672601980174
 30
0.0
 10
-0.5057244004599358
 20
0.4448466482106462
 30
0.0
 10
-0.5789137862016699
 20
0.4379806096393227
 30
0.0
 10
-0.6520986201864023
 20
0.4283565579293697
 30
0.0
 10
-0.7252780308041307
 20
0.4161050173127586
 30
0.0
 10
-0.7984511242404903
 20
0.4012827903166237
 30
0.0
 10
-0.8716169183898584
 20
0.3839852925177714
 30
0.0
 10
-0.9447782523782944
 20
0.3643289751262024
 30
0.0
 10
-1.003231481489259
 20
0.3468028548239625
 30
0.0
 10
-1.037315296187251
 20
0.3359356699225251
 30
0.0
 10
-1.085244088177944
 20
0.3171496127396562
 30
0.0
  0
LINE
  5
4360
330
1F
100
AcDbEntity
  8
AM_11
 48
0.5
100
AcDbLine
 10
-1.911410390880472
 20
0.449970255127977
 30
0.0
 11
-0.3870689042001094
 21
0.449970255127977
 31
0.0
  0
LINE
  5
4364
330
1F
100
AcDbEntity
  8
AM_11
 48
0.5
100
AcDbLine
 10
-2.159490220957783
 20
-0.4500297448719353
 30
0.0
 11
-0.3870689042001094
 21
-0.4500297448719353
 31
0.0
  0
LINE
  5
4382
330
1F
100
AcDbEntity
  8
AM_0
100
AcDbLine
 10
-15.41867636358582
 20
1.50003410373677
 30
0.0
 11
-11.49998549256679
 21
0.4500240494600096
 31
0.0
  0
LINE
  5
45D8
330
1F
100
AcDbEntity
  8
AM_0
100
AcDbLine
 10
-15.41867636358582
 20
-1.499965097821815
 30
0.0
 11
-11.50000124304663
 21
-0.4499592638734084
 31
0.0
  0
DIMENSION
  5
45F7
330
1F
100
AcDbEntity
  8
AM_5
100
AcDbDimension
  2
*D12
 10
-11.31314880204626
 20
-0.3999613616963089
 30
0.0
 11
-18.31266882015392
 21
-0.0000000262888878
 31
0.0
 70
    34
  1
<>
  3
AM_JIS$2
100
AcDb2LineAngularDimension
 13
-15.41854749868403
 23
1.499999574490402
 33
0.0
 14
-11.31314880204626
 24
0.3999613091185281
 34
0.0
 15
-15.41854749868403
 25
-1.499999627068183
 35
0.0
 16
-17.66271273752967
 26
0.6861070668862143
 36
0.0
1001
ACAD
1000
DSTYLE
1002
{
1070
   179
1070
     3
1002
}
1001
GENIUS_GENDTOL_13
1000

1000
h7
1000

1040
0.0
  0
SPLINE
  5
4742
330
1F
100
AcDbEntity
  8
AM_0
100
AcDbSpline
210
0.0
220
0.0
230
1.0
 70
     8
 71
     3
 72
    46
 73
    42
 74
     0
 42
0.0000000001
 43
0.0000000001
 40
0.0
 40
0.0
 40
0.0
 40
0.0
 40
0.8427075293422856
 40
1.265518104770559
 40
1.68994884956506
 40
2.116467290673827
 40
2.54548530610122
 40
2.977344090263341
 40
3.412310401731622
 40
3.850575907619845
 40
4.292228523283339
 40
4.737291192035371
 40
5.185695533383685
 40
5.63729472003792
 40
6.091866727153825
 40
6.549120869352286
 40
7.008706717250554
 40
7.470222077277051
 40
7.933222198716569
 40
8.397230145652669
 40
8.861746885649248
 40
9.326263625646204
 40
9.790271572582303
 40
10.25327169402144
 40
10.71478705404793
 40
11.17437290194659
 40
11.6316270441445
 40
12.08619905126056
 40
12.53780120194721
 40
12.98620554329551
 40
13.43126821204755
 40
13.87292082771091
 40
14.3111802250952
 40
14.74614653656348
 40
15.17800532072561
 40
15.60702303167234
 40
16.03354172596774
 40
16.45797877828845
 40
16.88078920975347
 40
17.30249350532345
 40
17.72363667810562
 40
17.72363667810562
 40
17.72363667810562
 40
17.72363667810562
 10
-0.2368259404599917
 20
-0.4500297448720083
 30
0.0
 10
-0.2964916136585875
 20
-0.4490046100866287
 30
0.0
 10
-0.3860932690808971
 20
-0.4474651357309821
 30
0.0
 10
-0.5052404976659816
 20
-0.4379868749395302
 30
0.0
 10
-0.594704527227183
 20
-0.428430266732538
 30
0.0
 10
-0.6841609097433821
 20
-0.4161612051364619
 30
0.0
 10
-0.7736094095556137
 20
-0.4013428363073791
 30
0.0
 10
-0.8630495671503362
 20
-0.3840460046722817
 30
0.0
 10
-0.9524812327281168
 20
-0.3643833881092426
 30
0.0
 10
-1.041904008286503
 20
-0.3424757179947737
 30
0.0
 10
-1.131318072559894
 20
-0.3184588738232286
 30
0.0
 10
-1.220723185052603
 20
-0.2924809518887471
 30
0.0
 10
-1.310120782104722
 20
-0.2647033230189782
 30
0.0
 10
-1.399511298206291
 20
-0.2352967511102574
 30
0.0
 10
-1.488895555387454
 20
-0.204442571876371
 30
0.0
 10
-1.578274546941676
 20
-0.1723311359842233
 30
0.0
 10
-1.667649056190776
 20
-0.1391599111728889
 30
0.0
 10
-1.757019952974693
 20
-0.1051329179361059
 30
0.0
 10
-1.846388184880178
 20
-0.0704595724789919
 30
0.0
 10
-1.93575456829084
 20
-0.0353530915028197
 30
0.0
 10
-2.025120200472199
 20
-0.0000297448792145
 30
0.0
 10
-2.114485832633923
 20
0.0352936017872913
 30
0.0
 10
-2.203852216103808
 20
0.0704000826348349
 30
0.0
 10
-2.293220447793459
 20
0.1050734285623932
 30
0.0
 10
-2.382591345375947
 20
0.1391004200545786
 30
0.0
 10
-2.471965851666073
 20
0.1722716513343205
 30
0.0
 10
-2.561344854179715
 20
0.204383063271742
 30
0.0
 10
-2.650729265138599
 20
0.2352373981900811
 30
0.0
 10
-2.740120128568704
 20
0.2646437029251268
 30
0.0
 10
-2.829517885092271
 20
0.2924214742291475
 30
0.0
 10
-2.918922995503279
 20
0.3183994038934
 30
0.0
 10
-3.008336692473863
 20
0.3424160273707533
 30
0.0
 10
-3.097758872226746
 20
0.3643240363782958
 30
0.0
 10
-3.187190172750327
 20
0.3839867332651785
 30
0.0
 10
-3.276630278581665
 20
0.4012824332507497
 30
0.0
 10
-3.366078843972431
 20
0.4161050999907968
 30
0.0
 10
-3.455535797406024
 20
0.4283566412095503
 30
0.0
 10
-3.54499936598148
 20
0.4379805261579409
 30
0.0
 10
-3.634468469624345
 20
0.4448466613121934
 30
0.0
 10
-3.723940820929183
 20
0.4491672569312911
 30
0.0
 10
-3.783603604086462
 20
0.4497027078872401
 30
0.0
 10
-3.813415135519065
 20
0.4499702551279039
 30
0.0
  0
SPLINE
  5
4743
330
1F
100
AcDbEntity
  8
AM_0
 48
0.5
100
AcDbSpline
210
0.0
220
0.0
230
1.0
 70
     8
 71
     3
 72
    21
 73
    17
 74
     0
 42
0.0000000001
 43
0.0000000001
 40
11.41400771384456
 40
11.41400771384456
 40
11.41400771384456
 40
11.41400771384456
 40
12.0033633515982
 40
13.08720139956839
 40
14.16337181880432
 40
15.23152222380919
 40
16.29148850140128
 40
17.34331105512262
 40
18.38723020264746
 40
19.42369128463655
 40
20.45333379090873
 40
21.47697865721768
 40
22.49561244472435
 40
23.5103574802404
 40
24.52244778960836
 40
25.53320666051913
 40
25.53320666051913
 40
25.53320666051913
 40
25.53320666051913
 10
-0.5459533149065726
 20
0.0814169544426399
 30
0.0
 10
-0.7216836049610264
 20
0.1757679354240134
 30
0.0
 10
-0.8561531089605495
 20
0.2400374040894587
 30
0.0
 10
-0.9197939974222586
 20
0.2646375882528238
 30
0.0
 10
-1.009191597935013
 20
0.292415208681418
 30
0.0
 10
-1.098596697488106
 20
0.3183931620822399
 30
0.0
 10
-1.18801039732297
 20
0.342409779354801
 30
0.0
 10
-1.277432576362317
 20
0.3643177896998609
 30
0.0
 10
-1.366863876907591
 20
0.383980487362023
 30
0.0
 10
-1.45630398335128
 20
0.4012761829710813
 30
0.0
 10
-1.545752546295182
 20
0.4160988662876194
 30
0.0
 10
-1.635209068000245
 20
0.4283502856910563
 30
0.0
 10
-1.724672156558516
 20
0.4379743697103781
 30
0.0
 10
-1.814140825996372
 20
0.4448403994066979
 30
0.0
 10
-1.903613623966978
 20
0.4491610364612862
 30
0.0
 10
-1.963276857944719
 20
0.4496964685339813
 30
0.0
 10
-1.993088839776251
 20
0.4499640083597946
 30
0.0
  0
SPLINE
  5
4744
330
1F
100
AcDbEntity
  8
AM_0
100
AcDbSpline
210
0.0
220
0.0
230
1.0
 70
     8
 71
     3
 72
    11
 73
     7
 74
     0
 42
0.0000000001
 43
0.0000000001
 40
11.27226913003534
 40
11.27226913003534
 40
11.27226913003534
 40
11.2722691300354
 40
12.28301561507924
 40
13.29510212255852
 40
14.30984805882082
 40
15.18258238371378
 40
15.18258238371378
 40
15.18258238371378
 40
15.18258238371378
 10
-2.17271802195034
 20
-0.4500297448720083
 30
0.0
 10
-2.20241618958945
 20
-0.4478273141029382
 30
0.0
 10
-2.261756508476084
 20
-0.4424953250644669
 30
0.0
 10
-2.350460564462308
 20
-0.4317393843097408
 30
0.0
 10
-2.43464227768902
 20
-0.4188925924210031
 30
0.0
 10
-2.489086068436619
 20
-0.4090168811510795
 30
0.0
 10
-2.514175317498749
 20
-0.4041385525606777
 30
0.0
  0
SPLINE
  5
4745
330
1F
100
AcDbEntity
  8
AM_0
100
AcDbSpline
210
0.0
220
0.0
230
1.0
 70
     8
 71
     3
 72
    17
 73
    13
 74
     0
 42
0.0000000001
 43
0.0000000001
 40
1.580019955310467
 40
1.580019955310467
 40
1.580019955310467
 40
1.580019955310467
 40
2.030549285115227
 40
3.082371838836284
 40
4.126290986361125
 40
5.162752068350215
 40
6.192395305374981
 40
7.216039564037012
 40
8.234688489606833
 40
9.249433870634691
 40
10.26152376260694
 40
11.27226744710342
 40
11.27226744710342
 40
11.27226744710342
 40
11.27226744710352
 10
-1.329937229880586
 20
-0.332142995837696
 30
0.0
 10
-1.342596084565285
 20
-0.3355634864236343
 30
0.0
 10
-1.384880912108238
 20
-0.3467746011906705
 30
0.0
 10
-1.457071598922907
 20
-0.3643596358434062
 30
0.0
 10
-1.54649044403489
 20
-0.3840525418401631
 30
0.0
 10
-1.635933906071102
 20
-0.401340298645632
 30
0.0
 10
-1.725381466375251
 20
-0.4161648500873172
 30
0.0
 10
-1.814838771831424
 20
-0.4284183616618167
 30
0.0
 10
-1.904302257635698
 20
-0.438030907981849
 30
0.0
 10
-1.993771314152533
 20
-0.4449401965306872
 30
0.0
 10
-2.083243737097162
 20
-0.4491017514155753
 30
0.0
 10
-2.142906496213678
 20
-0.4500297474469909
 30
0.0
 10
-2.17271802195034
 20
-0.4500297448720083
 30
0.0
  0
LINE
  5
4746
330
1F
100
AcDbEntity
  8
AM_11
 48
0.5
100
AcDbLine
 10
-5.139451867760711
 20
0.4500341857946712
 30
0.0
 11
-4.063875002423078
 21
0.449970255127977
 31
0.0
  0
SPLINE
  5
4747
330
1F
100
AcDbEntity
  8
AM_0
100
AcDbSpline
210
0.0
220
0.0
230
1.0
 70
     8
 71
     3
 72
    11
 73
     7
 74
     0
 42
0.0000000001
 43
0.0000000001
 40
11.27226913003534
 40
11.27226913003534
 40
11.27226913003534
 40
11.2722691300354
 40
12.28301561507924
 40
13.29510212255852
 40
14.30984805882082
 40
15.18258238371378
 40
15.18258238371378
 40
15.18258238371378
 40
15.18258238371378
 10
-5.357918702078396
 20
-0.4500297448720083
 30
0.0
 10
-5.387616869717506
 20
-0.4478273141029382
 30
0.0
 10
-5.446957188604299
 20
-0.4424953250644669
 30
0.0
 10
-5.535661244590046
 20
-0.4317393843097408
 30
0.0
 10
-5.619842957817075
 20
-0.4188925924210031
 30
0.0
 10
-5.674286748564991
 20
-0.4090168811510795
 30
0.0
 10
-5.699375997627121
 20
-0.4041385525606777
 30
0.0
  0
LINE
  5
4748
330
1F
100
AcDbEntity
  8
AM_11
 48
0.5
100
AcDbLine
 10
-5.35791870207808
 20
-0.4500297448719353
 30
0.0
 11
-3.672488614184248
 21
-0.4500936755387026
 31
0.0
  0
SPLINE
  5
4749
330
1F
100
AcDbEntity
  8
AM_0
100
AcDbSpline
210
0.0
220
0.0
230
1.0
 70
     8
 71
     3
 72
    17
 73
    13
 74
     0
 42
0.0000000001
 43
0.0000000001
 40
1.580019955310467
 40
1.580019955310467
 40
1.580019955310467
 40
1.580019955310467
 40
2.030549285115227
 40
3.082371838836284
 40
4.126290986361125
 40
5.162752068350215
 40
6.192395305374981
 40
7.216039564037012
 40
8.234688489606833
 40
9.249433870634691
 40
10.26152376260694
 40
11.27226744710342
 40
11.27226744710342
 40
11.27226744710342
 40
11.27226744710352
 10
-4.515137910008642
 20
-0.332142995837696
 30
0.0
 10
-4.5277967646935
 20
-0.3355634864236343
 30
0.0
 10
-4.570081592236137
 20
-0.3467746011906705
 30
0.0
 10
-4.642272279050963
 20
-0.3643596358434062
 30
0.0
 10
-4.731691124162787
 20
-0.3840525418401631
 30
0.0
 10
-4.821134586198996
 20
-0.401340298645632
 30
0.0
 10
-4.910582146503466
 20
-0.4161648500873172
 30
0.0
 10
-5.000039451959322
 20
-0.4284183616618167
 30
0.0
 10
-5.089502937763912
 20
-0.438030907981849
 30
0.0
 10
-5.178971994281222
 20
-0.4449401965306872
 30
0.0
 10
-5.268444417225373
 20
-0.4491017514155753
 30
0.0
 10
-5.328107176341733
 20
-0.4500297474469909
 30
0.0
 10
-5.357918702078396
 20
-0.4500297448720083
 30
0.0
  0
SPLINE
  5
474A
330
1F
100
AcDbEntity
  8
AM_0
100
AcDbSpline
210
0.0
220
0.0
230
1.0
 70
     8
 71
     3
 72
    23
 73
    19
 74
     0
 42
0.0000000001
 43
0.0000000001
 40
16.03460024169435
 40
16.03460024169435
 40
16.03460024169435
 40
16.03460024169435
 40
16.35212704903564
 40
17.38177054169784
 40
18.41822485651776
 40
19.46214173629503
 40
20.51396345435107
 40
21.57393551351153
 40
22.64208202342361
 40
23.7182574881101
 40
24.80209208578934
 40
25.89306333925047
 40
26.99048218457928
 40
28.09348763352352
 40
29.20111863782268
 40
30.31232390128032
 40
31.42594612798585
 40
32.5407912310448
 40
32.5407912310486
 40
32.5407912310486
 40
32.5407912310486
 10
-5.13945186776071
 20
0.4500341857946712
 30
0.0
 10
-5.130259675681005
 20
0.4485150650394297
 30
0.0
 10
-5.091299126452922
 20
0.4418997217166027
 30
0.0
 10
-5.022669699411029
 20
0.4289379661040578
 30
0.0
 10
-4.933794411730665
 20
0.4096639772567002
 30
0.0
 10
-4.845001675597803
 20
0.3880225004295663
 30
0.0
 10
-4.75628624417879
 20
0.3641387854526746
 30
0.0
 10
-4.667644968806051
 20
0.3381459845713504
 30
0.0
 10
-4.579072726226295
 20
0.3101926835971891
 30
0.0
 10
-4.490563348604916
 20
0.2804415637299934
 30
0.0
 10
-4.402111806521363
 20
0.2490611038270696
 30
0.0
 10
-4.313711008495118
 20
0.2162338994727481
 30
0.0
 10
-4.225353790629156
 20
0.1821507565617247
 30
0.0
 10
-4.137034265934832
 20
0.1470076388770925
 30
0.0
 10
-4.048745044824758
 20
0.111008898835458
 30
0.0
 10
-3.960477949846446
 20
0.0743647426681047
 30
0.0
 10
-3.872225793568033
 20
0.0372875133370804
 30
0.0
 10
-3.813406825714417
 20
0.0124292584325753
 30
0.0
 10
-3.783981301492276
 20
-0.0000068566885803
 30
0.0
  0
LINE
  5
474B
330
1F
100
AcDbEntity
  8
AM_11
 48
0.5
100
AcDbLine
 10
-8.324569131530438
 20
0.4500341857946712
 30
0.0
 11
-7.248992266192963
 21
0.449970255127977
 31
0.0
  0
SPLINE
  5
474C
330
1F
100
AcDbEntity
  8
AM_0
100
AcDbSpline
210
0.0
220
0.0
230
1.0
 70
     8
 71
     3
 72
    17
 73
    13
 74
     0
 42
0.0000000001
 43
0.0000000001
 40
1.580019955310467
 40
1.580019955310467
 40
1.580019955310467
 40
1.580019955310467
 40
2.030549285115227
 40
3.082371838836284
 40
4.126290986361125
 40
5.162752068350215
 40
6.192395305374981
 40
7.216039564037012
 40
8.234688489606833
 40
9.249433870634691
 40
10.26152376260694
 40
11.27226744710342
 40
11.27226744710342
 40
11.27226744710342
 40
11.27226744710352
 10
-7.700398538590518
 20
-0.3321192995889293
 30
0.0
 10
-7.713057393275375
 20
-0.3355397901748676
 30
0.0
 10
-7.75534222081801
 20
-0.3467509049419038
 30
0.0
 10
-7.827532907632837
 20
-0.3643359395946395
 30
0.0
 10
-7.916951752744661
 20
-0.3840288455913965
 30
0.0
 10
-8.006395214780873
 20
-0.4013166023968653
 30
0.0
 10
-8.095842775085339
 20
-0.4161411538385507
 30
0.0
 10
-8.185300080541191
 20
-0.4283946654130502
 30
0.0
 10
-8.274763566345786
 20
-0.4380072117330823
 30
0.0
 10
-8.364232622862937
 20
-0.4449165002819206
 30
0.0
 10
-8.453705045807247
 20
-0.4490780551668087
 30
0.0
 10
-8.513367804923605
 20
-0.4500060511982243
 30
0.0
 10
-8.543179330660109
 20
-0.4500060486232416
 30
0.0
  0
LINE
  5
474D
330
1F
100
AcDbEntity
  8
AM_11
 48
0.5
100
AcDbLine
 10
-8.54317933130366
 20
-0.4500060486231686
 30
0.0
 11
-7.249090094878998
 21
-0.4500699792899361
 31
0.0
  0
SPLINE
  5
474E
330
1F
100
AcDbEntity
  8
AM_0
100
AcDbSpline
210
0.0
220
0.0
230
1.0
 70
     8
 71
     3
 72
    46
 73
    42
 74
     0
 42
0.0000000001
 43
0.0000000001
 40
0.0
 40
0.0
 40
0.0
 40
0.0
 40
0.8427075293422831
 40
1.265518104770557
 40
1.689948849565058
 40
2.116467290673825
 40
2.545485306101222
 40
2.97734409026334
 40
3.412310401731621
 40
3.850575907619841
 40
4.292228523283341
 40
4.737291192035375
 40
5.185695533383689
 40
5.637294720037917
 40
6.09186672715383
 40
6.549120869352283
 40
7.008706717250553
 40
7.470222077277046
 40
7.933222198716568
 40
8.397230145652669
 40
8.861746885649248
 40
9.326263625646204
 40
9.790271572582303
 40
10.25327169402144
 40
10.71478705404793
 40
11.17437290194658
 40
11.6316270441445
 40
12.08619905126055
 40
12.5378012019472
 40
12.98620554329551
 40
13.43126821204755
 40
13.87292082771092
 40
14.31118022509521
 40
14.74614653656349
 40
15.17800532072561
 40
15.60702303167235
 40
16.03354172596773
 40
16.45797877828844
 40
16.88078920975347
 40
17.30249350532346
 40
17.72363667810562
 40
17.72363667810562
 40
17.72363667810562
 40
17.72363667810562
 10
-6.607290300027416
 20
-0.4500060485075491
 30
0.0
 10
-6.666955973226166
 20
-0.4489809137221695
 30
0.0
 10
-6.756557628648793
 20
-0.4474414393664499
 30
0.0
 10
-6.875704857233878
 20
-0.437963178575071
 30
0.0
 10
-6.965168886794763
 20
-0.4284065703680788
 30
0.0
 10
-7.054625269310962
 20
-0.4161375087720028
 30
0.0
 10
-7.144073769123671
 20
-0.4013191399429199
 30
0.0
 10
-7.233513926717917
 20
-0.3840223083078225
 30
0.0
 10
-7.322945592295695
 20
-0.3643596917447834
 30
0.0
 10
-7.412368367854242
 20
-0.3424520216303146
 30
0.0
 10
-7.501782432127949
 20
-0.3184351774587694
 30
0.0
 10
-7.591187544620343
 20
-0.2924572555242877
 30
0.0
 10
-7.680585141672302
 20
-0.264679626654519
 30
0.0
 10
-7.769975657774028
 20
-0.2352730547457981
 30
0.0
 10
-7.859359914954876
 20
-0.2044188755119118
 30
0.0
 10
-7.948738906509254
 20
-0.1723074396197641
 30
0.0
 10
-8.038113415758356
 20
-0.1391362148084297
 30
0.0
 10
-8.127484312542589
 20
-0.1051092215716467
 30
0.0
 10
-8.216852544447757
 20
-0.0704358761145327
 30
0.0
 10
-8.306218927858576
 20
-0.0353293951383605
 30
0.0
 10
-8.395584560039935
 20
-0.0000060485147553
 30
0.0
 10
-8.484950192201662
 20
0.0353172981517505
 30
0.0
 10
-8.574316575671385
 20
0.0704237789992941
 30
0.0
 10
-8.663684807361354
 20
0.1050971249268524
 30
0.0
 10
-8.753055704943525
 20
0.1391241164190379
 30
0.0
 10
-8.842430211233494
 20
0.1722953476987797
 30
0.0
 10
-8.931809213747294
 20
0.2044067596362012
 30
0.0
 10
-9.021193624706024
 20
0.2352610945545404
 30
0.0
 10
-9.110584488136598
 20
0.264667399289586
 30
0.0
 10
-9.199982244660008
 20
0.2924451705936067
 30
0.0
 10
-9.289387355070855
 20
0.3184231002578593
 30
0.0
 10
-9.378801052041914
 20
0.3424397237352124
 30
0.0
 10
-9.468223231794324
 20
0.3643477327427549
 30
0.0
 10
-9.557654532318061
 20
0.3840104296296376
 30
0.0
 10
-9.647094638149402
 20
0.4013061296152089
 30
0.0
 10
-9.736543203540005
 20
0.4161287963552561
 30
0.0
 10
-9.826000156973758
 20
0.4283803375740095
 30
0.0
 10
-9.915463725549216
 20
0.4380042225224
 30
0.0
 10
-10.00493282919192
 20
0.4448703576766527
 30
0.0
 10
-10.09440518049692
 20
0.4491909532957504
 30
0.0
 10
-10.11387995087826
 20
0.4494892556739385
 30
0.0
 10
-10.11980815959562
 20
0.4500034832855196
 30
0.0
  0
SPLINE
  5
474F
330
1F
100
AcDbEntity
  8
AM_0
100
AcDbSpline
210
0.0
220
0.0
230
1.0
 70
     8
 71
     3
 72
    23
 73
    19
 74
     0
 42
0.0000000001
 43
0.0000000001
 40
16.03460024169435
 40
16.03460024169435
 40
16.03460024169435
 40
16.03460024169435
 40
16.35212704903564
 40
17.38177054169784
 40
18.41822485651776
 40
19.46214173629503
 40
20.51396345435107
 40
21.57393551351153
 40
22.64208202342361
 40
23.7182574881101
 40
24.80209208578934
 40
25.89306333925047
 40
26.99048218457928
 40
28.09348763352352
 40
29.20111863782268
 40
30.31232390128032
 40
31.42594612798585
 40
32.5407912310448
 40
32.5407912310486
 40
32.5407912310486
 40
32.5407912310486
 10
-8.324712496986286
 20
0.4500578820434379
 30
0.0
 10
-8.315520304906581
 20
0.4485387612881963
 30
0.0
 10
-8.276559755678498
 20
0.4419234179653694
 30
0.0
 10
-8.207930328636608
 20
0.4289616623528244
 30
0.0
 10
-8.11905504095624
 20
0.4096876735054668
 30
0.0
 10
-8.030262304823379
 20
0.3880461966783329
 30
0.0
 10
-7.941546873404366
 20
0.3641624817014411
 30
0.0
 10
-7.852905598031625
 20
0.338169680820117
 30
0.0
 10
-7.76433335545187
 20
0.3102163798459557
 30
0.0
 10
-7.67582397783049
 20
0.28046525997876
 30
0.0
 10
-7.587372435746939
 20
0.2490848000758362
 30
0.0
 10
-7.498971637720695
 20
0.2162575957215148
 30
0.0
 10
-7.410614419854732
 20
0.1821744528104914
 30
0.0
 10
-7.322294895160565
 20
0.1470313351258591
 30
0.0
 10
-7.234005674050332
 20
0.1110325950842246
 30
0.0
 10
-7.145738579072179
 20
0.0743884389168713
 30
0.0
 10
-7.05748642279361
 20
0.0373112095858471
 30
0.0
 10
-6.998667454939996
 20
0.0124529546813419
 30
0.0
 10
-6.969241930717851
 20
0.0000168395601864
 30
0.0
  0
SPLINE
  5
4750
330
1F
100
AcDbEntity
  8
AM_0
100
AcDbSpline
210
0.0
220
0.0
230
1.0
 70
     8
 71
     3
 72
    55
 73
    51
 74
     0
 42
0.0000000001
 43
0.0000000001
 40
0.0
 40
0.0
 40
0.0
 40
0.0
 40
1.010743684496582
 40
2.022833576467832
 40
3.037578957496688
 40
4.056212745003489
 40
5.079857003664532
 40
6.109500240690281
 40
7.145961322679372
 40
8.189895241603872
 40
9.241717795325891
 40
10.30168407291828
 40
11.36983447792315
 40
12.44600489715814
 40
13.52984294512926
 40
14.62081576220742
 40
15.7182257034828
 40
16.82123173843959
 40
17.92886860250316
 40
19.0400688939571
 40
20.15368796660465
 40
21.26852814259644
 40
22.38336992938901
 40
23.49698739941135
 40
24.6081876908653
 40
25.71582455492886
 40
26.81883757994213
 40
27.91624752121713
 40
29.00722033829659
 40
30.09105838626677
 40
31.16722880550176
 40
32.23537921050758
 40
33.29534548809967
 40
34.347168041821
 40
35.39108718934584
 40
36.42754827133493
 40
37.45720575381954
 40
38.48085062012849
 40
39.49948440763516
 40
40.51422944315121
 40
41.52631975251916
 40
42.53706336719636
 40
43.54780698187354
 40
44.55989729124051
 40
45.57464232675757
 40
46.59327611426424
 40
47.6169209805722
 40
48.64656348684535
 40
49.68302456883444
 40
50.58557219878025
 40
50.58557219878025
 40
50.58557219878025
 40
50.58557219878025
 10
-3.672488614184407
 20
-0.4500297448720083
 30
0.0
 10
-3.702300140314258
 20
-0.4497620057739162
 30
0.0
 10
-3.761962898485409
 20
-0.4492261709765286
 30
0.0
 10
-3.851435323327419
 20
-0.444906740960067
 30
0.0
 10
-3.940903928928779
 20
-0.4380399755947586
 30
0.0
 10
-4.030366997301853
 20
-0.4284159427725177
 30
0.0
 10
-4.119823635745826
 20
-0.416165066589973
 30
0.0
 10
-4.209272079481626
 20
-0.4013418247408502
 30
0.0
 10
-4.298712627709865
 20
-0.3840460718661482
 30
0.0
 10
-4.388144487274401
 20
-0.3643837188807397
 30
0.0
 10
-4.477567048980548
 20
-0.3424754914393593
 30
0.0
 10
-4.566980758550771
 20
-0.3184589052208695
 30
0.0
 10
-4.656385855452405
 20
-0.2924809433793847
 30
0.0
 10
-4.745783456730955
 20
-0.2647033253263987
 30
0.0
 10
-4.835173971681459
 20
-0.235296750476031
 30
0.0
 10
-4.924558229198804
 20
-0.20444257208415
 30
0.0
 10
-5.013937220567281
 20
-0.1723311357914267
 30
0.0
 10
-5.103311730223665
 20
-0.1391599117383429
 30
0.0
 10
-5.192682625558336
 20
-0.1051329158564164
 30
0.0
 10
-5.282050862877101
 20
-0.0704595802628455
 30
0.0
 10
-5.371417226026084
 20
-0.0353530623753992
 30
0.0
 10
-5.460782976994797
 20
-0.000029836688417
 30
0.0
 10
-5.550148326786569
 20
0.0352940248387275
 30
0.0
 10
-5.639514989471392
 20
0.0703999960247832
 30
0.0
 10
-5.728883116464366
 20
0.1050734365725891
 30
0.0
 10
-5.818254171146339
 20
0.1391005620821158
 30
0.0
 10
-5.907629051571074
 20
0.172271503046301
 30
0.0
 10
-5.997008184002673
 20
0.204383102188598
 30
0.0
 10
-6.08639245442464
 20
0.2352372555609863
 30
0.0
 10
-6.175782966122426
 20
0.2646438365953903
 30
0.0
 10
-6.265180567629794
 20
0.2924214546890842
 30
0.0
 10
-6.354585666808699
 20
0.3183994103187609
 30
0.0
 10
-6.443999367150134
 20
0.3424160210603542
 30
0.0
 10
-6.533421544551166
 20
0.364324055052382
 30
0.0
 10
-6.622852851082797
 20
0.383986665565641
 30
0.0
 10
-6.712293366133491
 20
0.4012827662361924
 30
0.0
 10
-6.801742448561094
 20
0.416104315065191
 30
0.0
 10
-6.891199382544408
 20
0.4283589831529665
 30
0.0
 10
-6.98066247743852
 20
0.4379716079265396
 30
0.0
 10
-7.070131145205282
 20
0.4448800726564493
 30
0.0
 10
-7.159603494185346
 20
0.4490429333359959
 30
0.0
 10
-7.249077809265806
 20
0.4504336073439465
 30
0.0
 10
-7.338552124214675
 20
0.4490429333338036
 30
0.0
 10
-7.428024473589987
 20
0.4448800726651463
 30
0.0
 10
-7.517493139900063
 20
0.4379716078935055
 30
0.0
 10
-7.606956240256387
 20
0.4283589832768446
 30
0.0
 10
-7.696412717585691
 20
0.4161043743427751
 30
0.0
 10
-7.785861447617637
 20
0.4012829177785139
 30
0.0
 10
-7.871235296550548
 20
0.3847717990337687
 30
0.0
 10
-7.926626822003189
 20
0.3726970618049963
 30
0.0
 10
-7.952325261361225
 20
0.3668124533121819
 30
0.0
  0
SPLINE
  5
4751
330
1F
100
AcDbEntity
  8
AM_0
100
AcDbSpline
210
0.0
220
0.0
230
1.0
 70
     8
 71
     3
 72
    46
 73
    42
 74
     0
 42
0.0000000001
 43
0.0000000001
 40
0.0
 40
0.0
 40
0.0
 40
0.0
 40
0.8427075293422831
 40
1.265518104770557
 40
1.689948849565058
 40
2.116467290673825
 40
2.545485306101222
 40
2.97734409026334
 40
3.412310401731621
 40
3.850575907619841
 40
4.292228523283341
 40
4.737291192035375
 40
5.185695533383689
 40
5.637294720037917
 40
6.09186672715383
 40
6.549120869352283
 40
7.008706717250553
 40
7.470222077277046
 40
7.933222198716568
 40
8.397230145652669
 40
8.861746885649248
 40
9.326263625646204
 40
9.790271572582303
 40
10.25327169402144
 40
10.71478705404793
 40
11.17437290194658
 40
11.6316270441445
 40
12.08619905126055
 40
12.5378012019472
 40
12.98620554329551
 40
13.43126821204755
 40
13.87292082771092
 40
14.31118022509521
 40
14.74614653656349
 40
15.17800532072561
 40
15.60702303167235
 40
16.03354172596773
 40
16.45797877828844
 40
16.88078920975347
 40
17.30249350532346
 40
17.72363667810562
 40
17.72363667810562
 40
17.72363667810562
 40
17.72363667810562
 10
-3.422026620587891
 20
-0.4500297448720083
 30
0.0
 10
-3.481692293786642
 20
-0.4490046100866287
 30
0.0
 10
-3.571293949209269
 20
-0.4474651357309091
 30
0.0
 10
-3.690441177794353
 20
-0.4379868749395302
 30
0.0
 10
-3.779905207355239
 20
-0.428430266732538
 30
0.0
 10
-3.869361589871438
 20
-0.4161612051364619
 30
0.0
 10
-3.958810089684144
 20
-0.4013428363073791
 30
0.0
 10
-4.048250247278233
 20
-0.3840460046722817
 30
0.0
 10
-4.137681912856173
 20
-0.3643833881092426
 30
0.0
 10
-4.227104688414559
 20
-0.3424757179947737
 30
0.0
 10
-4.316518752688427
 20
-0.3184588738232286
 30
0.0
 10
-4.40592386518066
 20
-0.2924809518887471
 30
0.0
 10
-4.495321462232621
 20
-0.2647033230189782
 30
0.0
 10
-4.584711978334349
 20
-0.2352967511102574
 30
0.0
 10
-4.67409623551535
 20
-0.204442571876371
 30
0.0
 10
-4.763475227069575
 20
-0.1723311359842233
 30
0.0
 10
-4.852849736318675
 20
-0.1391599111728889
 30
0.0
 10
-4.942220633103068
 20
-0.1051329179361059
 30
0.0
 10
-5.031588865008234
 20
-0.0704595724789919
 30
0.0
 10
-5.120955248419054
 20
-0.0353530915028197
 30
0.0
 10
-5.210320880600415
 20
-0.0000297448792145
 30
0.0
 10
-5.299686512762138
 20
0.0352936017872913
 30
0.0
 10
-5.389052896231707
 20
0.0704000826348349
 30
0.0
 10
-5.478421127921832
 20
0.1050734285623932
 30
0.0
 10
-5.567792025503845
 20
0.1391004200545786
 30
0.0
 10
-5.657166531793966
 20
0.1722716513343205
 30
0.0
 10
-5.74654553430777
 20
0.204383063271742
 30
0.0
 10
-5.835929945266496
 20
0.2352373981900811
 30
0.0
 10
-5.925320808697076
 20
0.2646437029251268
 30
0.0
 10
-6.014718565220483
 20
0.2924214742291475
 30
0.0
 10
-6.104123675631174
 20
0.3183994038934
 30
0.0
 10
-6.193537372602395
 20
0.3424160273707533
 30
0.0
 10
-6.282959552354799
 20
0.3643240363782958
 30
0.0
 10
-6.372390852878539
 20
0.3839867332651785
 30
0.0
 10
-6.461830958709721
 20
0.4012824332507497
 30
0.0
 10
-6.551279524100325
 20
0.4161050999907968
 30
0.0
 10
-6.640736477534079
 20
0.4283566412095503
 30
0.0
 10
-6.730200046109537
 20
0.4379805261579409
 30
0.0
 10
-6.8196691497524
 20
0.4448466613121934
 30
0.0
 10
-6.909141501057396
 20
0.4491672569312911
 30
0.0
 10
-6.968804284214673
 20
0.4497027078872401
 30
0.0
 10
-6.998615815647595
 20
0.4499702551279039
 30
0.0
  0
SPLINE
  5
4752
330
1F
100
AcDbEntity
  8
AM_0
100
AcDbSpline
210
0.0
220
0.0
230
1.0
 70
     8
 71
     3
 72
    22
 73
    18
 74
     0
 42
0.0000000001
 43
0.0000000001
 40
17.17441611292
 40
17.17441611292
 40
17.17441611292
 40
17.17441611292
 40
17.38177636558528
 40
18.41823744757437
 40
19.46215659509824
 40
20.51397914882054
 40
21.57394542641293
 40
22.64209583141747
 40
23.71826625065247
 40
24.80210429862395
 40
25.8930771157021
 40
26.99048705697709
 40
28.09349309193389
 40
29.20112995599786
 40
30.31233024745139
 40
31.42594771747373
 40
32.5407895042663
 40
32.54078950426994
 40
32.54078950426994
 40
32.54078950426994
 10
-5.699415127002349
 20
-0.4041330018141273
 30
0.0
 10
-5.705406327994055
 20
-0.4030912959509258
 30
0.0
 10
-5.741320305953527
 20
-0.3967461516768615
 30
0.0
 10
-5.807112689831791
 20
-0.384023311568602
 30
0.0
 10
-5.896543983575033
 20
-0.3643606445646133
 30
0.0
 10
-5.985966164457759
 20
-0.3424526259113192
 30
0.0
 10
-6.075379863794132
 20
-0.318436010893631
 30
0.0
 10
-6.164784963476282
 20
-0.2924580568702031
 30
0.0
 10
-6.254182563976524
 20
-0.2646804366535536
 30
0.0
 10
-6.343573079230908
 20
-0.2352738625596825
 30
0.0
 10
-6.432957336314844
 20
-0.2044196833201687
 30
0.0
 10
-6.52233632912401
 20
-0.1723082496771932
 30
0.0
 10
-6.61171083341414
 20
-0.1391370158074134
 30
0.0
 10
-6.701081748884607
 20
-0.1051100567470133
 30
0.0
 10
-6.790449867730345
 20
-0.0704365997777283
 30
0.0
 10
-6.879816513862576
 20
-0.0353305988704414
 30
0.0
 10
-6.93938258354908
 20
-0.0117857487348705
 30
0.0
 10
-6.969181981620332
 20
-0.0000068566884341
 30
0.0
  0
LINE
  5
4753
330
1F
100
AcDbEntity
  8
AM_0
 48
0.5
100
AcDbLine
 10
-7.249090094879153
 20
-0.4500297448719353
 30
0.0
 11
-5.357918702336193
 21
-0.4500297448719353
 31
0.0
  0
LINE
  5
4754
330
1F
100
AcDbEntity
  8
AM_0
100
AcDbLine
 10
-7.249089419834522
 20
0.449970255127977
 30
0.0
 11
-5.139451867760711
 21
0.4500341857946712
 31
0.0
  0
ELLIPSE
  5
4755
330
1F
100
AcDbEntity
  8
AM_0
100
AcDbEllipse
 10
-10.70459181055246
 20
0.1553918303035821
 30
0.0
 11
-0.295366674038251
 21
0.0000000000000207
 31
0.0
210
0.0
220
0.0
230
1.0
 40
0.9310257873815922
 41
-0.3991456590762021
 42
1.046270830457483
  0
SPLINE
  5
4756
330
1F
100
AcDbEntity
  8
AM_0
100
AcDbSpline
210
0.0
220
0.0
230
1.0
 70
     8
 71
     3
 72
    55
 73
    51
 74
     0
 42
0.0000000001
 43
0.0000000001
 40
0.0
 40
0.0
 40
0.0
 40
0.0
 40
1.010743684496582
 40
2.022833576467832
 40
3.037578957496688
 40
4.056212745003489
 40
5.079857003664532
 40
6.109500240690281
 40
7.145961322679372
 40
8.189895241603872
 40
9.241717795325891
 40
10.30168407291828
 40
11.36983447792315
 40
12.44600489715814
 40
13.52984294512926
 40
14.62081576220742
 40
15.7182257034828
 40
16.82123173843959
 40
17.92886860250316
 40
19.0400688939571
 40
20.15368796660465
 40
21.26852814259644
 40
22.38336992938901
 40
23.49698739941135
 40
24.6081876908653
 40
25.71582455492886
 40
26.81883757994213
 40
27.91624752121713
 40
29.00722033829659
 40
30.09105838626677
 40
31.16722880550176
 40
32.23537921050758
 40
33.29534548809967
 40
34.347168041821
 40
35.39108718934584
 40
36.42754827133493
 40
37.45720575381954
 40
38.48085062012849
 40
39.49948440763516
 40
40.51422944315121
 40
41.52631975251916
 40
42.53706336719636
 40
43.54780698187354
 40
44.55989729124051
 40
45.57464232675757
 40
46.59327611426424
 40
47.6169209805722
 40
48.64656348684535
 40
49.68302456883444
 40
50.58557219878025
 40
50.58557219878025
 40
50.58557219878025
 40
50.58557219878025
 10
-6.79905720390418
 20
-0.4500060485075491
 30
0.0
 10
-6.828613645998029
 20
-0.449738309409457
 30
0.0
 10
-6.887765896351262
 20
-0.4492024746120693
 30
0.0
 10
-6.976472745250074
 20
-0.4448830445956079
 30
0.0
 10
-7.065175807587479
 20
-0.4380162792302994
 30
0.0
 10
-7.153873380076364
 20
-0.4283922464080585
 30
0.0
 10
-7.242564577654205
 20
-0.4161413702255138
 30
0.0
 10
-7.331247650642524
 20
-0.401318128376391
 30
0.0
 10
-7.419922895681489
 20
-0.384022375501689
 30
0.0
 10
-7.508589526401797
 20
-0.3643600225162804
 30
0.0
 10
-7.59724693882138
 20
-0.3424517950749002
 30
0.0
 10
-7.685895574848689
 20
-0.3184352088564104
 30
0.0
 10
-7.774535671902364
 20
-0.2924572470149255
 30
0.0
 10
-7.863168337469674
 20
-0.2646796289619396
 30
0.0
 10
-7.951793977343678
 20
-0.2352730541115719
 30
0.0
 10
-8.040413413326449
 20
-0.2044188757196907
 30
0.0
 10
-8.12902762822045
 20
-0.1723074394269674
 30
0.0
 10
-8.217637399750238
 20
-0.1391362153738837
 30
0.0
 10
-8.306243587884623
 20
-0.1051092194919571
 30
0.0
 10
-8.394847140746723
 20
-0.0704358838983862
 30
0.0
 10
-8.483448835475162
 20
-0.03532936601094
 30
0.0
 10
-8.57204992326165
 20
-0.0000061403239578
 30
0.0
 10
-8.660650613303889
 20
0.0273610603753034
 30
0.0
 10
-8.749252605005485
 20
0.0622293285394213
 30
0.0
 10
-8.837856048485493
 20
0.100130610688017
 30
0.0
 10
-8.926462394603708
 20
0.131714905505182
 30
0.0
 10
-9.015072533729503
 20
0.1651261973187252
 30
0.0
 10
-9.103686888479778
 20
0.1967108130558208
 30
0.0
 10
-9.19230633725659
 20
0.2267158610400961
 30
0.0
 10
-9.280931973905548
 20
0.2598797236100173
 30
0.0
 10
-9.369564639699724
 20
0.2835677842629258
 30
0.0
 10
-9.458204739011181
 20
0.3053309673496307
 30
0.0
 10
-9.546853365888829
 20
0.3251615707925004
 30
0.0
 10
-9.635510397291623
 20
0.3427890591148901
 30
0.0
 10
-9.724176479711088
 20
0.3610304672079798
 30
0.0
 10
-9.812851691856392
 20
0.373637163679168
 30
0.0
 10
-9.901535398071509
 20
0.3875339581524151
 30
0.0
 10
-9.990226888659888
 20
0.3987472204134739
 30
0.0
 10
-10.07892448744273
 20
0.4110952554444274
 30
0.0
 10
-10.16762761141392
 20
0.4190784589018271
 30
0.0
 10
-10.25633438509975
 20
0.4258611010096281
 30
0.0
 10
-10.34504310806292
 20
0.4307621897377678
 30
0.0
 10
-10.43375183089548
 20
0.4307621897377678
 30
0.0
 10
-10.52245860497333
 20
0.433701495111071
 30
0.0
 10
-10.61116172750015
 20
0.4316347709485746
 30
0.0
 10
-10.69985933169846
 20
0.4234137658445128
 30
0.0
 10
-10.78502133258016
 20
0.4121302221251688
 30
0.0
 10
-10.85463630426707
 20
0.3863574657953115
 30
0.0
 10
-10.89760980290309
 20
0.3586331955474384
 30
0.0
 10
-10.94375315067131
 20
0.3164033457741247
 30
0.0
 10
-10.97674070095956
 20
0.2622631022827417
 30
0.0
  0
ELLIPSE
  5
4757
330
1F
100
AcDbEntity
  8
AM_0
100
AcDbEllipse
 10
-9.254308983734437
 20
2.741546953053192
 30
0.0
 11
3.42867414420546
 21
0.0000000000000794
 31
0.0
210
0.0
220
0.0
230
1.0
 40
0.9310257873815878
 41
4.227479111204887
 42
4.7324519917315
  0
SPLINE
  5
4758
330
1F
100
AcDbEntity
  8
AM_0
100
AcDbSpline
210
0.0
220
0.0
230
1.0
 70
     8
 71
     3
 72
    22
 73
    18
 74
     0
 42
0.0000000001
 43
0.0000000001
 40
17.17441611292
 40
17.17441611292
 40
17.17441611292
 40
17.17441611292
 40
17.38177636558528
 40
18.41823744757437
 40
19.46215659509824
 40
20.51397914882054
 40
21.57394542641293
 40
22.64209583141747
 40
23.71826625065247
 40
24.80210429862395
 40
25.8930771157021
 40
26.99048705697709
 40
28.09349309193389
 40
29.20112995599786
 40
30.31233024745139
 40
31.42594771747373
 40
32.5407895042663
 40
32.54078950426994
 40
32.54078950426994
 40
32.54078950426994
 10
-2.514214446874296
 20
-0.4041330018141273
 30
0.0
 10
-2.520205647865842
 20
-0.4030912959509258
 30
0.0
 10
-2.556119625825788
 20
-0.3967461516768615
 30
0.0
 10
-2.621912009703736
 20
-0.384023311568602
 30
0.0
 10
-2.711343303447294
 20
-0.3643606445646133
 30
0.0
 10
-2.800765484329548
 20
-0.3424526259113192
 30
0.0
 10
-2.890179183666077
 20
-0.318436010893631
 30
0.0
 10
-2.979584283348069
 20
-0.2924580568702031
 30
0.0
 10
-3.068981883848313
 20
-0.2646804366535536
 30
0.0
 10
-3.15837239910317
 20
-0.2352738625596825
 30
0.0
 10
-3.247756656186471
 20
-0.2044196833201687
 30
0.0
 10
-3.337135648995954
 20
-0.1723082496771932
 30
0.0
 10
-3.426510153286246
 20
-0.1391370158074134
 30
0.0
 10
-3.51588106875655
 20
-0.1051100567470133
 30
0.0
 10
-3.605249187602132
 20
-0.0704365997777283
 30
0.0
 10
-3.694615833734523
 20
-0.0353305988704414
 30
0.0
 10
-3.754181903421025
 20
-0.0117857487348705
 30
0.0
 10
-3.783981301492436
 20
-0.0000068566884341
 30
0.0
  0
LINE
  5
4759
330
1F
100
AcDbEntity
  8
AM_0
 48
0.5
100
AcDbLine
 10
-3.672488614184248
 20
-0.4500297448719353
 30
0.0
 11
-2.172718021950182
 21
-0.4500297448719353
 31
0.0
  0
SPLINE
  5
475A
330
1F
100
AcDbEntity
  8
AM_0
100
AcDbSpline
210
0.0
220
0.0
230
1.0
 70
     8
 71
     3
 72
    55
 73
    51
 74
     0
 42
0.0000000001
 43
0.0000000001
 40
0.0
 40
0.0
 40
0.0
 40
0.0
 40
1.010743684496582
 40
2.022833576467832
 40
3.037578957496688
 40
4.056212745003489
 40
5.079857003664532
 40
6.109500240690281
 40
7.145961322679372
 40
8.189895241603872
 40
9.241717795325891
 40
10.30168407291828
 40
11.36983447792315
 40
12.44600489715814
 40
13.52984294512926
 40
14.62081576220742
 40
15.7182257034828
 40
16.82123173843959
 40
17.92886860250316
 40
19.0400688939571
 40
20.15368796660465
 40
21.26852814259644
 40
22.38336992938901
 40
23.49698739941135
 40
24.6081876908653
 40
25.71582455492886
 40
26.81883757994213
 40
27.91624752121713
 40
29.00722033829659
 40
30.09105838626677
 40
31.16722880550176
 40
32.23537921050758
 40
33.29534548809967
 40
34.347168041821
 40
35.39108718934584
 40
36.42754827133493
 40
37.45720575381954
 40
38.48085062012849
 40
39.49948440763516
 40
40.51422944315121
 40
41.52631975251916
 40
42.53706336719636
 40
43.54780698187354
 40
44.55989729124051
 40
45.57464232675757
 40
46.59327611426424
 40
47.6169209805722
 40
48.64656348684535
 40
49.68302456883444
 40
50.58557219878025
 40
50.58557219878025
 40
50.58557219878025
 40
50.58557219878025
 10
-0.4872879340561919
 20
-0.4500297448720083
 30
0.0
 10
-0.5170994601863607
 20
-0.4497620057739162
 30
0.0
 10
-0.5767622183575119
 20
-0.4492261709765286
 30
0.0
 10
-0.6662346431993628
 20
-0.444906740960067
 30
0.0
 10
-0.7557032488007235
 20
-0.4380399755947586
 30
0.0
 10
-0.8451663171737976
 20
-0.4284159427725177
 30
0.0
 10
-0.9346229556179274
 20
-0.416165066589973
 30
0.0
 10
-1.024071399353411
 20
-0.4013418247408502
 30
0.0
 10
-1.113511947582126
 20
-0.3840460718661482
 30
0.0
 10
-1.202943807146662
 20
-0.3643837188807397
 30
0.0
 10
-1.292366368852335
 20
-0.3424754914393593
 30
0.0
 10
-1.381780078422714
 20
-0.3184589052208695
 30
0.0
 10
-1.471185175324351
 20
-0.2924809433793847
 30
0.0
 10
-1.560582776602899
 20
-0.2647033253263987
 30
0.0
 10
-1.649973291553403
 20
-0.235296750476031
 30
0.0
 10
-1.739357549070906
 20
-0.20444257208415
 30
0.0
 10
-1.828736540439222
 20
-0.1723311357914267
 30
0.0
 10
-1.918111050095448
 20
-0.1391599117383429
 30
0.0
 10
-2.007481945430121
 20
-0.1051329158564164
 30
0.0
 10
-2.096850182749204
 20
-0.0704595802628455
 30
0.0
 10
-2.186216545897868
 20
-0.0353530623753992
 30
0.0
 10
-2.275582296866743
 20
-0.000029836688417
 30
0.0
 10
-2.364947646658199
 20
0.0352940248387275
 30
0.0
 10
-2.45431430934302
 20
0.0703999960247832
 30
0.0
 10
-2.543682436336154
 20
0.1050734365725891
 30
0.0
 10
-2.633053491018127
 20
0.1391005620821158
 30
0.0
 10
-2.722428371443021
 20
0.172271503046301
 30
0.0
 10
-2.811807503874936
 20
0.204383102188598
 30
0.0
 10
-2.901191774296427
 20
0.2352372555609863
 30
0.0
 10
-2.99058228599453
 20
0.2646438365953903
 30
0.0
 10
-3.079979887501738
 20
0.2924214546890842
 30
0.0
 10
-3.169384986680644
 20
0.3183994103187609
 30
0.0
 10
-3.258798687022236
 20
0.3424160210603542
 30
0.0
 10
-3.34822086442295
 20
0.364324055052382
 30
0.0
 10
-3.437652170954743
 20
0.383986665565641
 30
0.0
 10
-3.527092686005437
 20
0.4012827662361924
 30
0.0
 10
-3.616541768432881
 20
0.416104315065191
 30
0.0
 10
-3.705998702416509
 20
0.4283589831529665
 30
0.0
 10
-3.795461797310466
 20
0.4379716079265396
 30
0.0
 10
-3.884930465077387
 20
0.4448800726564493
 30
0.0
 10
-3.974402814057291
 20
0.4490429333359959
 30
0.0
 10
-4.063877129137751
 20
0.4504336073439465
 30
0.0
 10
-4.153351444086462
 20
0.4490429333338036
 30
0.0
 10
-4.24282379346209
 20
0.4448800726651463
 30
0.0
 10
-4.332292459772009
 20
0.4379716078935055
 30
0.0
 10
-4.421755560128492
 20
0.4283589832768446
 30
0.0
 10
-4.511212037457636
 20
0.4161043743427751
 30
0.0
 10
-4.600660767489899
 20
0.4012829177785139
 30
0.0
 10
-4.686034616422494
 20
0.3847717990337687
 30
0.0
 10
-4.741426141875135
 20
0.3726970618049963
 30
0.0
 10
-4.767124581233326
 20
0.3668124533121819
 30
0.0
  0
LINE
  5
475B
330
1F
100
AcDbEntity
  8
AM_0
 48
0.5
100
AcDbLine
 10
-4.063876454073957
 20
0.449970255127977
 30
0.0
 11
-1.966122316304011
 21
0.449970255127977
 31
0.0
  0
VIEWPORT
  5
110
330
101
100
AcDbEntity
 67
     1
  8
0
100
AcDbViewport
 10
420.5
 20
297.0
 30
0.0
 40
948.9782706766916
 41
628.452
 68
     1
 69
     1
1001
ACAD
1000
MVIEW
1002
{
1070
    16
1010
0.0
1020
0.0
1030
0.0
1010
0.0
1020
0.0
1030
1.0
1040
0.0
1040
628.452
1040
420.5
1040
297.0
1040
50.0
1040
0.0
1040
0.0
1070
     0
1070
   100
1070
     1
1070
     1
1070
     0
1070
     0
1070
     0
1070
     0
1040
0.0
1040
0.0
1040
0.0
1040
10.0
1040
10.0
1040
10.0
1040
10.0
1070
     0
1002
{
1002
}
1002
}
  0
ENDSEC
  0
SECTION
  2
OBJECTS
  0
DICTIONARY
  5
C
330
0
100
AcDbDictionary
  3
ACAD_GROUP
350
D
  3
ACAD_LAYOUT
350
1A
  3
ACAD_MLINESTYLE
350
17
  3
ACAD_PLOTSETTINGS
350
19
  3
ACAD_PLOTSTYLENAME
350
E
  3
ACDBVARIABLEDICTIONARY
350
34
  3
ACMDICTIONARY
350
43
  3
AMG
350
2B
  3
AMGSNAPSETTINGS
350
6E
  3
DWGPROPS
350
47AB
  3
ACDBHEADERROUNDTRIPXREC
350
47B8
  0
DICTIONARY
  5
74
330
1F
100
AcDbDictionary
280
     1
  3
ACAD_INDEX
360
47AD
  3
ACAD_LAYOUTSELFREF
360
47DB
  0
DICTIONARY
  5
47E0
330
101
100
AcDbDictionary
280
     1
  3
ACAD_LAYOUTSELFREF
360
47E1
  0
DICTIONARY
  5
D
102
{ACAD_REACTORS
330
C
102
}
330
C
100
AcDbDictionary
  0
DICTIONARY
  5
1A
102
{ACAD_REACTORS
330
C
102
}
330
C
100
AcDbDictionary
  0
DICTIONARY
  5
17
102
{ACAD_REACTORS
330
C
102
}
330
C
100
AcDbDictionary
  3
STANDARD
350
18
  0
DICTIONARY
  5
19
102
{ACAD_REACTORS
330
C
102
}
330
C
100
AcDbDictionary
  0
ACDBDICTIONARYWDFLT
  5
E
102
{ACAD_REACTORS
330
C
102
}
330
C
100
AcDbDictionary
281
     1
  3
Normal
350
F
100
AcDbDictionaryWithDefault
340
F
  0
DICTIONARY
  5
34
102
{ACAD_REACTORS
330
C
102
}
330
C
100
AcDbDictionary
  3
INDEXCTL
350
35
  3
SORTENTS
350
B5E
  0
DICTIONARY
  5
43
102
{ACAD_REACTORS
330
C
102
}
330
C
100
AcDbDictionary
  3
ACMSTDDICTIONARY
350
260
  0
DICTIONARY
  5
2B
102
{ACAD_REACTORS
330
C
102
}
330
C
100
AcDbDictionary
  3
ACMGSETTINGS
350
2C
  0
DICTIONARY
  5
6E
102
{ACAD_REACTORS
330
C
102
}
330
C
100
AcDbDictionary
  0
XRECORD
  5
47AB
102
{ACAD_REACTORS
330
C
102
}
330
C
100
AcDbXrecord
  1
DWGPROPS COOKIE
  2

  3

  4

  6

  7

  8

  9

300
AmdtFileType=82
301
=
302
=
303
=
304
=
305
=
306
=
307
=
308
=
309
=
 40
0.1962207291666667
 41
2452802.456869572
 42
2453001.08730456
  1

 90
        1
  0
DICTIONARY
  5
47B8
102
{ACAD_REACTORS
330
C
102
}
330
C
100
AcDbDictionary
  3
TSTACKALIGN
350
47B9
  3
TSTACKSIZE
350
47BA
  3
HYPERLINKBASE
350
47BB
  3
STYLESHEET
350
47BC
  3
LAYOUTDICT
350
47BD
  3
PLOTSETDICT
350
47BE
  3
PLOTSTYLNAMDICT
350
47BF
  3
LWETCUNION
350
47C0
  3
INSUNITS
350
47C1
  3
CEPSNTYPE
350
47C2
  3
FINGERPRINTGUID
350
47C3
  3
VERSIONGUID
350
47C4
  3
PSVPSCALE
350
47C5
  3
DIMSTYLEDATA
350
47C6
  3
PUCSORTHOREF
350
47C7
  3
PUCSORTHOVIEW
350
47C8
  3
PUCSBASE
350
47C9
  3
PUCSORGTOP
350
47CA
  3
PUCSORGBOTTOM
350
47CB
  3
PUCSORGLEFT
350
47CC
  3
PUCSORGRIGHT
350
47CD
  3
PUCSORGFRONT
350
47CE
  3
PUCSORGBACK
350
47CF
  3
UCSORTHOREF
350
47D0
  3
UCSORTHOVIEW
350
47D1
  3
UCSBASE
350
47D2
  3
UCSORGTOP
350
47D3
  3
UCSORGBOTTOM
350
47D4
  3
UCSORGLEFT
350
47D5
  3
UCSORGRIGHT
350
47D6
  3
UCSORGFRONT
350
47D7
  3
UCSORGBACK
350
47D8
  0
DICTIONARY
  5
47AD
102
{ACAD_REACTORS
330
74
102
}
330
74
100
AcDbDictionary
  3
*A1
350
47AE
  0
XRECORD
  5
47DB
102
{ACAD_REACTORS
330
74
102
}
330
74
100
AcDbXrecord
340
1F
  0
XRECORD
  5
47E1
102
{ACAD_REACTORS
330
47E0
102
}
330
47E0
100
AcDbXrecord
340
101
  0
MLINESTYLE
  5
18
102
{ACAD_REACTORS
330
17
102
}
330
17
100
AcDbMlineStyle
  2
STANDARD
 70
     0
  3

 62
   256
 51
90.0
 52
90.0
 71
     2
 49
0.5
 62
   256
  6
BYLAYER
 49
-0.5
 62
   256
  6
BYLAYER
  0
ACDBPLACEHOLDER
  5
F
102
{ACAD_REACTORS
330
E
102
}
330
E
100
AcDbPlaceHolder
280
     0
  0
DICTIONARYVAR
  5
35
102
{ACAD_REACTORS
330
34
102
}
330
34
100
DictionaryVariables
280
     0
  1
1
  0
DICTIONARYVAR
  5
B5E
102
{ACAD_REACTORS
330
34
102
}
330
34
100
DictionaryVariables
280
     0
  1
96
  0
DICTIONARY
  5
260
102
{ACAD_REACTORS
330
43
102
}
330
43
100
AcDbDictionary
  0
DICTIONARY
  5
2C
102
{ACAD_REACTORS
330
2B
102
}
330
2B
100
AcDbDictionary
  3
DWGSETTINGS
350
2D
  0
XRECORD
  5
47B9
102
{ACAD_REACTORS
330
47B8
102
}
330
47B8
100
AcDbXrecord
 90
        1
  0
XRECORD
  5
47BA
102
{ACAD_REACTORS
330
47B8
102
}
330
47B8
100
AcDbXrecord
 90
       70
  0
XRECORD
  5
47BB
102
{ACAD_REACTORS
330
47B8
102
}
330
47B8
100
AcDbXrecord
  1

  0
XRECORD
  5
47BC
102
{ACAD_REACTORS
330
47B8
102
}
330
47B8
100
AcDbXrecord
  1
ASAMI.ctb
  0
XRECORD
  5
47BD
102
{ACAD_REACTORS
330
47B8
102
}
330
47B8
100
AcDbXrecord
340
1A
  0
XRECORD
  5
47BE
102
{ACAD_REACTORS
330
47B8
102
}
330
47B8
100
AcDbXrecord
340
19
  0
XRECORD
  5
47BF
102
{ACAD_REACTORS
330
47B8
102
}
330
47B8
100
AcDbXrecord
340
E
  0
XRECORD
  5
47C0
102
{ACAD_REACTORS
330
47B8
102
}
330
47B8
100
AcDbXrecord
 90
    10781
  0
XRECORD
  5
47C1
102
{ACAD_REACTORS
330
47B8
102
}
330
47B8
100
AcDbXrecord
 90
        4
  0
XRECORD
  5
47C2
102
{ACAD_REACTORS
330
47B8
102
}
330
47B8
100
AcDbXrecord
 90
        0
  0
XRECORD
  5
47C3
102
{ACAD_REACTORS
330
47B8
102
}
330
47B8
100
AcDbXrecord
  1
{AFB28963-8C59-40AE-9337-C84526B81ACE}
  0
XRECORD
  5
47C4
102
{ACAD_REACTORS
330
47B8
102
}
330
47B8
100
AcDbXrecord
  1
{ACF3A212-9CCA-41E2-9BBE-BB558F2DA54D}
  0
XRECORD
  5
47C5
102
{ACAD_REACTORS
330
47B8
102
}
330
47B8
100
AcDbXrecord
 40
0.0
  0
XRECORD
  5
47C6
102
{ACAD_REACTORS
330
47B8
102
}
330
47B8
100
AcDbXrecord
1000
DSTYLE
1002
{
1070
    79
 70
     2
1070
   341
340
59
1070
   342
340
59
1070
   371
 70
    -1
1070
   372
 70
    -1
1002
}
  0
XRECORD
  5
47C7
102
{ACAD_REACTORS
330
47B8
102
}
330
47B8
100
AcDbXrecord
340
0
  0
XRECORD
  5
47C8
102
{ACAD_REACTORS
330
47B8
102
}
330
47B8
100
AcDbXrecord
 70
     0
  0
XRECORD
  5
47C9
102
{ACAD_REACTORS
330
47B8
102
}
330
47B8
100
AcDbXrecord
340
0
  0
XRECORD
  5
47CA
102
{ACAD_REACTORS
330
47B8
102
}
330
47B8
100
AcDbXrecord
 10
0.0
 20
0.0
 30
0.0
  0
XRECORD
  5
47CB
102
{ACAD_REACTORS
330
47B8
102
}
330
47B8
100
AcDbXrecord
 10
0.0
 20
0.0
 30
0.0
  0
XRECORD
  5
47CC
102
{ACAD_REACTORS
330
47B8
102
}
330
47B8
100
AcDbXrecord
 10
0.0
 20
0.0
 30
0.0
  0
XRECORD
  5
47CD
102
{ACAD_REACTORS
330
47B8
102
}
330
47B8
100
AcDbXrecord
 10
0.0
 20
0.0
 30
0.0
  0
XRECORD
  5
47CE
102
{ACAD_REACTORS
330
47B8
102
}
330
47B8
100
AcDbXrecord
 10
0.0
 20
0.0
 30
0.0
  0
XRECORD
  5
47CF
102
{ACAD_REACTORS
330
47B8
102
}
330
47B8
100
AcDbXrecord
 10
0.0
 20
0.0
 30
0.0
  0
XRECORD
  5
47D0
102
{ACAD_REACTORS
330
47B8
102
}
330
47B8
100
AcDbXrecord
340
0
  0
XRECORD
  5
47D1
102
{ACAD_REACTORS
330
47B8
102
}
330
47B8
100
AcDbXrecord
 70
     0
  0
XRECORD
  5
47D2
102
{ACAD_REACTORS
330
47B8
102
}
330
47B8
100
AcDbXrecord
340
0
  0
XRECORD
  5
47D3
102
{ACAD_REACTORS
330
47B8
102
}
330
47B8
100
AcDbXrecord
 10
0.0
 20
0.0
 30
0.0
  0
XRECORD
  5
47D4
102
{ACAD_REACTORS
330
47B8
102
}
330
47B8
100
AcDbXrecord
 10
0.0
 20
0.0
 30
0.0
  0
XRECORD
  5
47D5
102
{ACAD_REACTORS
330
47B8
102
}
330
47B8
100
AcDbXrecord
 10
0.0
 20
0.0
 30
0.0
  0
XRECORD
  5
47D6
102
{ACAD_REACTORS
330
47B8
102
}
330
47B8
100
AcDbXrecord
 10
0.0
 20
0.0
 30
0.0
  0
XRECORD
  5
47D7
102
{ACAD_REACTORS
330
47B8
102
}
330
47B8
100
AcDbXrecord
 10
0.0
 20
0.0
 30
0.0
  0
XRECORD
  5
47D8
102
{ACAD_REACTORS
330
47B8
102
}
330
47B8
100
AcDbXrecord
 10
0.0
 20
0.0
 30
0.0
  0
LAYER_INDEX
  5
47AE
102
{ACAD_REACTORS
330
47AD
102
}
330
47AD
100
AcDbIndex
 40
2453151.591280728
100
AcDbLayerIndex
  8
0
360
47AF
 90
        0
  8
AM_0
360
47B0
 90
       44
  8
AM_11
360
47B1
 90
        6
  8
AM_7
360
47B2
 90
        1
  8
AM_5
360
47B3
 90
        7
  8
Defpoints
360
47B4
 90
        0
  8
AM_6
360
47B5
 90
        1
  8
AM_CL
360
47B6
 90
        0
  0
XRECORD
  5
2D
102
{ACAD_REACTORS
330
2C
102
}
330
2C
100
AcDbXrecord
  1
VERSION
140
15.0
  1
PRODUCT
  2
AutoCAD Mechanical 2000
  0
IDBUFFER
  5
47AF
330
0
100
AcDbIdBuffer
  0
IDBUFFER
  5
47B0
330
0
100
AcDbIdBuffer
330
3CC1
330
3CC2
330
3CC3
330
3DC7
330
4382
330
45D8
330
4742
330
4743
330
4744
330
4745
330
4747
330
4749
330
474A
330
474C
330
474E
330
474F
330
4750
330
4751
330
4752
330
4753
330
4754
330
4755
330
4756
330
4757
330
4758
330
4759
330
475A
330
475B
330
2714
330
2715
330
271F
330
2B58
330
2B59
330
2B64
330
2B65
330
2B88
330
2B89
330
2B8A
330
2BAB
330
3814
330
3819
330
38A3
330
38AD
330
3CC0
  0
IDBUFFER
  5
47B1
330
0
100
AcDbIdBuffer
330
4360
330
4364
330
4746
330
4748
330
474B
330
474D
  0
IDBUFFER
  5
47B2
330
0
100
AcDbIdBuffer
330
2704
  0
IDBUFFER
  5
47B3
330
0
100
AcDbIdBuffer
330
2702
330
2703
330
2713
330
2716
330
274B
330
2753
330
45F7
  0
IDBUFFER
  5
47B4
330
0
100
AcDbIdBuffer
  0
IDBUFFER
  5
47B5
330
0
100
AcDbIdBuffer
330
3732
  0
IDBUFFER
  5
47B6
330
0
100
AcDbIdBuffer
  0
ENDSEC
  0
EOF
