  0
SECTION
  2
HEADER
  9
$ACADVER
  1
AC1014
  9
$ACADMAINTVER
 70
     9
  9
$DWGCODEPAGE
  3
ANSI_932
  9
$INSBASE
 10
0.0
 20
0.0
 30
0.0
  9
$EXTMIN
 10
-41.85999987094024
 20
-10.80000042919937
 30
-0.00000001
  9
$EXTMAX
 10
6.415583840727788
 20
6.240035251643648
 30
0.00000001
  9
$LIMMIN
 10
-46.21458733153764
 20
-16.11712340512581
  9
$LIMMAX
 10
11.77263791077575
 20
10.28122633900932
  9
$ORTHOMODE
 70
     0
  9
$REGENMODE
 70
     1
  9
$FILLMODE
 70
     1
  9
$QTEXTMODE
 70
     0
  9
$MIRRTEXT
 70
     0
  9
$DRAGMODE
 70
     2
  9
$LTSCALE
 40
0.2
  9
$OSMODE
 70
    55
  9
$ATTMODE
 70
     1
  9
$TEXTSIZE
 40
2.5
  9
$TRACEWID
 40
1.0
  9
$TEXTSTYLE
  7
STANDARD
  9
$CLAYER
  8
AM_0
  9
$CELTYPE
  6
BYLAYER
  9
$CECOLOR
 62
   256
  9
$CELTSCALE
 40
1.0
  9
$DELOBJ
 70
     1
  9
$DISPSILH
 70
     0
  9
$DIMSCALE
 40
0.2
  9
$DIMASZ
 40
2.5
  9
$DIMEXO
 40
1.0
  9
$DIMDLI
 40
12.0
  9
$DIMRND
 40
0.0
  9
$DIMDLE
 40
0.0
  9
$DIMEXE
 40
1.0
  9
$DIMTP
 40
0.1
  9
$DIMTM
 40
0.1
  9
$DIMTXT
 40
3.2
  9
$DIMCEN
 40
0.0
  9
$DIMTSZ
 40
0.0
  9
$DIMTOL
 70
     0
  9
$DIMLIM
 70
     0
  9
$DIMTIH
 70
     0
  9
$DIMTOH
 70
     0
  9
$DIMSE1
 70
     0
  9
$DIMSE2
 70
     0
  9
$DIMTAD
 70
     3
  9
$DIMZIN
 70
     8
  9
$DIMBLK
  1
OPEN30
  9
$DIMASO
 70
     1
  9
$DIMSHO
 70
     1
  9
$DIMPOST
  1

  9
$DIMAPOST
  1
"
  9
$DIMALT
 70
     0
  9
$DIMALTD
 70
     2
  9
$DIMALTF
 40
0.0393701
  9
$DIMLFAC
 40
1.0
  9
$DIMTOFL
 70
     1
  9
$DIMTVP
 40
0.0
  9
$DIMTIX
 70
     0
  9
$DIMSOXD
 70
     0
  9
$DIMSAH
 70
     0
  9
$DIMBLK1
  1

  9
$DIMBLK2
  1

  9
$DIMSTYLE
  2
AM_JIS
  9
$DIMCLRD
 70
   256
  9
$DIMCLRE
 70
   256
  9
$DIMCLRT
 70
     2
  9
$DIMTFAC
 40
0.71
  9
$DIMGAP
 40
1.5
  9
$DIMJUST
 70
     0
  9
$DIMSD1
 70
     0
  9
$DIMSD2
 70
     0
  9
$DIMTOLJ
 70
     0
  9
$DIMTZIN
 70
     0
  9
$DIMALTZ
 70
     0
  9
$DIMALTTZ
 70
     0
  9
$DIMFIT
 70
     3
  9
$DIMUPT
 70
     0
  9
$DIMUNIT
 70
     2
  9
$DIMDEC
 70
     3
  9
$DIMTDEC
 70
     3
  9
$DIMALTU
 70
     2
  9
$DIMALTTD
 70
     2
  9
$DIMTXSTY
  7
ASAMI
  9
$DIMAUNIT
 70
     0
  9
$LUNITS
 70
     2
  9
$LUPREC
 70
     2
  9
$SKETCHINC
 40
1.0
  9
$FILLETRAD
 40
2.5
  9
$AUNITS
 70
     0
  9
$AUPREC
 70
     0
  9
$MENU
  1
.
  9
$ELEVATION
 40
0.0
  9
$PELEVATION
 40
0.0
  9
$THICKNESS
 40
0.0
  9
$LIMCHECK
 70
     0
  9
$BLIPMODE
 70
     0
  9
$CHAMFERA
 40
0.3
  9
$CHAMFERB
 40
0.3
  9
$CHAMFERC
 40
20.0
  9
$CHAMFERD
 40
0.0
  9
$SKPOLY
 70
     0
  9
$TDCREATE
 40
2452802.456869572
  9
$TDUPDATE
 40
2453151.591409305
  9
$TDINDWG
 40
0.1997700579
  9
$TDUSRTIMER
 40
0.1997700579
  9
$USRTIMER
 70
     1
  9
$ANGBASE
 50
0.0
  9
$ANGDIR
 70
     0
  9
$PDMODE
 70
     0
  9
$PDSIZE
 40
0.0
  9
$PLINEWID
 40
0.0
  9
$COORDS
 70
     1
  9
$SPLFRAME
 70
     0
  9
$SPLINETYPE
 70
     6
  9
$SPLINESEGS
 70
     8
  9
$ATTDIA
 70
     1
  9
$ATTREQ
 70
     1
  9
$HANDLING
 70
 12289
  9
$HANDSEED
  5
48A0
  9
$SURFTAB1
 70
     6
  9
$SURFTAB2
 70
     6
  9
$SURFTYPE
 70
     6
  9
$SURFU
 70
     6
  9
$SURFV
 70
     6
  9
$UCSNAME
  2

  9
$UCSORG
 10
0.0
 20
0.0
 30
0.0
  9
$UCSXDIR
 10
1.0
 20
0.0
 30
0.0
  9
$UCSYDIR
 10
0.0
 20
1.0
 30
0.0
  9
$PUCSNAME
  2

  9
$PUCSORG
 10
0.0
 20
0.0
 30
0.0
  9
$PUCSXDIR
 10
1.0
 20
0.0
 30
0.0
  9
$PUCSYDIR
 10
0.0
 20
1.0
 30
0.0
  9
$USERI1
 70
     0
  9
$USERI2
 70
     0
  9
$USERI3
 70
     0
  9
$USERI4
 70
     0
  9
$USERI5
 70
     0
  9
$USERR1
 40
0.0
  9
$USERR2
 40
0.0
  9
$USERR3
 40
0.0
  9
$USERR4
 40
0.0
  9
$USERR5
 40
0.0
  9
$WORLDVIEW
 70
     1
  9
$SHADEDGE
 70
     3
  9
$SHADEDIF
 70
    70
  9
$TILEMODE
 70
     1
  9
$MAXACTVP
 70
    64
  9
$PINSBASE
 10
0.0
 20
0.0
 30
0.0
  9
$PLIMCHECK
 70
     0
  9
$PEXTMIN
 10
1.000000000000000E+20
 20
1.000000000000000E+20
 30
1.000000000000000E+20
  9
$PEXTMAX
 10
-1.000000000000000E+20
 20
-1.000000000000000E+20
 30
-1.000000000000000E+20
  9
$PLIMMIN
 10
0.0
 20
0.0
  9
$PLIMMAX
 10
841.0
 20
594.0
  9
$UNITMODE
 70
     0
  9
$VISRETAIN
 70
     1
  9
$PLINEGEN
 70
     0
  9
$PSLTSCALE
 70
     0
  9
$TREEDEPTH
 70
  3020
  9
$PICKSTYLE
 70
     0
  9
$CMLSTYLE
  2
STANDARD
  9
$CMLJUST
 70
     0
  9
$CMLSCALE
 40
20.0
  9
$PROXYGRAPHICS
 70
     1
  9
$MEASUREMENT
 70
     1
  0
ENDSEC
  0
SECTION
  2
CLASSES
  0
CLASS
  1
ACDBDICTIONARYWDFLT
  2
AcDbDictionaryWithDefault
  3
AutoCAD 2000
 90
        0
280
     0
281
     0
  0
CLASS
  1
ACDBPLACEHOLDER
  2
AcDbPlaceHolder
  3
AutoCAD 2000
 90
        0
280
     0
281
     0
  0
CLASS
  1
LAYOUT
  2
AcDbLayout
  3
AutoCAD 2000
 90
        0
280
     0
281
     0
  0
CLASS
  1
AMGSETTINGSOBJ
  2
AmgSettingsObj
  3
"AcadM|Product Description: AutoCAD Mechanical 2000|Company: Autodesk"
 90
        0
280
     0
281
     0
  0
CLASS
  1
ACME_DOCUMENT
  2
AcMeDbDoc
  3
AcMeServices
 90
        0
280
     0
281
     0
  0
CLASS
  1
ACMESCOPE
  2
AcMeScope
  3
AcMeServices
 90
        0
280
     0
281
     0
  0
CLASS
  1
ACMECOMMANDHISTORY
  2
AcMeCommandHistory
  3
AcMeServices
 90
        0
280
     0
281
     0
  0
CLASS
  1
DICTIONARYVAR
  2
AcDbDictionaryVar
  3
AutoCAD 2000
 90
        0
280
     0
281
     0
  0
CLASS
  1
ACIMSYSVARMAN
  2
AcImSysVarManager
  3
AcMeServices
 90
        0
280
     0
281
     0
  0
CLASS
  1
ACIMREALSYSVAR
  2
AcImRealSysVar
  3
AcMeServices
 90
        0
280
     0
281
     0
  0
CLASS
  1
ACIMINTSYSVAR
  2
AcImIntSysVar
  3
AcMeServices
 90
        0
280
     0
281
     0
  0
CLASS
  1
ACMEDRAWINGMAN
  2
AcMeDrawingMan
  3
AcMeServices
 90
        0
280
     0
281
     0
  0
CLASS
  1
ACMEVIEW
  2
AcMeView
  3
AcMeServices
 90
        0
280
     0
281
     0
  0
CLASS
  1
ACDBENTITYCACHE
  2
AcMeEntityCache
  3
AcMeServices
 90
        0
280
     0
281
     0
  0
CLASS
  1
GSMANAGER
  2
AcMeGSManager
  3
AcMeServices
 90
        0
280
     0
281
     0
  0
CLASS
  1
AmdtInternalReactor
  2
AmdtInternalReactor
  3
AcMeServices
 90
        0
280
     0
281
     0
  0
CLASS
  1
ACMESTATEMGR
  2
AcMeStateMgr
  3
AcMeServices
 90
        0
280
     0
281
     0
  0
CLASS
  1
ACME_DATABASE
  2
AcMeDbDatabase
  3
AcMeServices
 90
        0
280
     0
281
     0
  0
CLASS
  1
ACRFINSADJUSTERMGR
  2
AcRfInsAdjusterMgr
  3
AcMeServices
 90
        0
280
     0
281
     0
  0
CLASS
  1
ACMDATADICTIONARY
  2
AcmDataDictionary
  3
"AcmSymBB|Product Description: AutoCAD Mechanical 2000|Company: Autodesk"
 90
        0
280
     0
281
     0
  0
CLASS
  1
ACMDATAENTRYBLOCK
  2
AcmDataEntryBlock
  3
"AcmSymBB|Product Description: AutoCAD Mechanical 2000|Company: Autodesk"
 90
        0
280
     0
281
     0
  0
CLASS
  1
AMGOBJPROPCFG
  2
AmgObjPropCfg
  3
"AmgLay|Product Description: AutoCAD Mechanical 2000|Company: Autodesk"
 90
        1
280
     0
281
     0
  0
CLASS
  1
ACAMGFILTERDAT
  2
AcAmgFilterDat
  3
"AcadM|Product Description: AutoCAD Mechanical 2000|Company: Autodesk"
 90
        0
280
     0
281
     0
  0
CLASS
  1
LAYER_INDEX
  2
AcDbLayerIndex
  3
AutoCAD 2000
 90
        0
280
     0
281
     0
  0
CLASS
  1
IDBUFFER
  2
AcDbIdBuffer
  3
AutoCAD 2000
 90
        0
280
     0
281
     0
  0
CLASS
  1
ACIMSTRSYSVAR
  2
AcImStrSysVar
  3
AcMeServices
 90
        0
280
     0
281
     0
  0
CLASS
  1
ACMSTANDARDJIS
  2
AcmStandardJIS
  3
"AcmSymBB|Product Description: AutoCAD Mechanical 2000|Company: Autodesk"
 90
        0
280
     0
281
     0
  0
CLASS
  1
ACMSURFSTANDARDJIS
  2
AcmSurfTextStdJIS
  3
"AcmSymBB|Product Description: AutoCAD Mechanical 2000|Company: Autodesk"
 90
        0
280
     0
281
     0
  0
CLASS
  1
ACMFCFSTANDARDJIS
  2
AcmFCFStdJIS
  3
"AcmSymBB|Product Description: AutoCAD Mechanical 2000|Company: Autodesk"
 90
        0
280
     0
281
     0
  0
CLASS
  1
ACMWELDSTANDARDJIS
  2
AcmWeldingStdJIS
  3
"AcmSymBB|Product Description: AutoCAD Mechanical 2000|Company: Autodesk"
 90
        0
280
     0
281
     0
  0
CLASS
  1
ACMIDSTANDARDJIS
  2
AcmIdStdJIS
  3
"AcmSymBB|Product Description: AutoCAD Mechanical 2000|Company: Autodesk"
 90
        0
280
     0
281
     0
  0
CLASS
  1
ACMDATUMSTANDARDJIS
  2
AcmDatumStdJIS
  3
"AcmSymBB|Product Description: AutoCAD Mechanical 2000|Company: Autodesk"
 90
        0
280
     0
281
     0
  0
CLASS
  1
ACMBOMSTANDARDJIS
  2
AcmBOMStdJIS
  3
"AcmSymBB|Product Description: AutoCAD Mechanical 2000|Company: Autodesk"
 90
        0
280
     0
281
     0
  0
CLASS
  1
ACMSTANDARDANSI
  2
AcmStandardANSI
  3
"AcmSymBB|Product Description: AutoCAD Mechanical 2000|Company: Autodesk"
 90
        0
280
     0
281
     0
  0
CLASS
  1
ACMSURFSTANDARDANSI
  2
AcmSurfTextStdANSI
  3
"AcmSymBB|Product Description: AutoCAD Mechanical 2000|Company: Autodesk"
 90
        0
280
     0
281
     0
  0
CLASS
  1
ACMFCFSTANDARDANSI
  2
AcmFCFStdANSI
  3
"AcmSymBB|Product Description: AutoCAD Mechanical 2000|Company: Autodesk"
 90
        0
280
     0
281
     0
  0
CLASS
  1
ACMWELDSTANDARDANSI
  2
AcmWeldingStdANSI
  3
"AcmSymBB|Product Description: AutoCAD Mechanical 2000|Company: Autodesk"
 90
        0
280
     0
281
     0
  0
CLASS
  1
ACMIDSTANDARDANSI
  2
AcmIdStdANSI
  3
"AcmSymBB|Product Description: AutoCAD Mechanical 2000|Company: Autodesk"
 90
        0
280
     0
281
     0
  0
CLASS
  1
ACMDATUMSTANDARDANSI
  2
AcmDatumStdANSI
  3
"AcmSymBB|Product Description: AutoCAD Mechanical 2000|Company: Autodesk"
 90
        0
280
     0
281
     0
  0
CLASS
  1
ACMBOMSTANDARDANSI
  2
AcmBOMStdANSI
  3
"AcmSymBB|Product Description: AutoCAD Mechanical 2000|Company: Autodesk"
 90
        0
280
     0
281
     0
  0
CLASS
  1
ACMSTANDARDBSI
  2
AcmStandardBSI
  3
"AcmSymBB|Product Description: AutoCAD Mechanical 2000|Company: Autodesk"
 90
        0
280
     0
281
     0
  0
CLASS
  1
ACMSURFSTANDARDBSI
  2
AcmSurfTextStdBSI
  3
"AcmSymBB|Product Description: AutoCAD Mechanical 2000|Company: Autodesk"
 90
        0
280
     0
281
     0
  0
CLASS
  1
ACMFCFSTANDARDBSI
  2
AcmFCFStdBSI
  3
"AcmSymBB|Product Description: AutoCAD Mechanical 2000|Company: Autodesk"
 90
        0
280
     0
281
     0
  0
CLASS
  1
ACMWELDSTANDARDBSI
  2
AcmWeldingStdBSI
  3
"AcmSymBB|Product Description: AutoCAD Mechanical 2000|Company: Autodesk"
 90
        0
280
     0
281
     0
  0
CLASS
  1
ACMIDSTANDARDBSI
  2
AcmIdStdBSI
  3
"AcmSymBB|Product Description: AutoCAD Mechanical 2000|Company: Autodesk"
 90
        0
280
     0
281
     0
  0
CLASS
  1
ACMDATUMSTANDARDBSI
  2
AcmDatumStdBSI
  3
"AcmSymBB|Product Description: AutoCAD Mechanical 2000|Company: Autodesk"
 90
        0
280
     0
281
     0
  0
CLASS
  1
ACMBOMSTANDARDBSI
  2
AcmBOMStdBSI
  3
"AcmSymBB|Product Description: AutoCAD Mechanical 2000|Company: Autodesk"
 90
        0
280
     0
281
     0
  0
CLASS
  1
LONG_TRANSACTION
  2
AcDbLongTransaction
  3
AutoCAD 2000
 90
        0
280
     0
281
     0
  0
CLASS
  1
LWPOLYLINE
  2
AcDbPolyline
  3
AutoCAD 2000
 90
        0
280
     0
281
     1
  0
CLASS
  1
HATCH
  2
AcDbHatch
  3
AutoCAD 2000
 90
        0
280
     0
281
     1
  0
CLASS
  1
XRECORD
  2
AcDbXrecord
  3
AutoCAD 2000
 90
        0
280
     0
281
     0
  0
ENDSEC
  0
SECTION
  2
TABLES
  0
TABLE
  2
VPORT
  5
8
330
0
100
AcDbSymbolTable
 70
     3
  0
VPORT
  5
486A
330
8
100
AcDbSymbolTableRecord
100
AcDbViewportTableRecord
  2
*ACTIVE
 70
     0
 10
0.0
 20
0.0
 11
1.0
 21
1.0
 12
-17.73761046963997
 22
-0.1399169139277561
 13
0.0
 23
0.0
 14
2.5
 24
2.5
 15
10.0
 25
10.0
 16
0.0
 26
0.0
 36
1.0
 17
0.0
 27
0.0
 37
0.0
 40
56.85387752964849
 41
1.56570841889117
 42
50.0
 43
0.0
 44
0.0
 50
0.0
 51
0.0
 71
     0
 72
   100
 73
     1
 74
     3
 75
     0
 76
     0
 77
     0
 78
     0
  0
ENDTAB
  0
TABLE
  2
LTYPE
  5
5
330
0
100
AcDbSymbolTable
 70
    10
  0
LTYPE
  5
14
330
5
100
AcDbSymbolTableRecord
100
AcDbLinetypeTableRecord
  2
BYBLOCK
 70
     0
  3

 72
    65
 73
     0
 40
0.0
  0
LTYPE
  5
15
330
5
100
AcDbSymbolTableRecord
100
AcDbLinetypeTableRecord
  2
BYLAYER
 70
     0
  3

 72
    65
 73
     0
 40
0.0
  0
LTYPE
  5
16
330
5
100
AcDbSymbolTableRecord
100
AcDbLinetypeTableRecord
  2
CONTINUOUS
 70
     0
  3
Solid line
 72
    65
 73
     0
 40
0.0
  0
LTYPE
  5
4B
330
5
100
AcDbSymbolTableRecord
100
AcDbLinetypeTableRecord
  2
AM_ISO02W050
 70
     0
  3
__ __ __ __ __ __ __ __ __ __ __ __ __ __ __
 72
    65
 73
     2
 40
7.5
 49
6.0
 74
     0
 49
-1.5
 74
     0
  0
LTYPE
  5
4C
330
5
100
AcDbSymbolTableRecord
100
AcDbLinetypeTableRecord
  2
AM_ISO08W050
 70
     0
  3
____ . ____ . ____ . ____ . ____ . ____ . ____
 72
    65
 73
     4
 40
18.0
 49
12.0
 74
     0
 49
-1.5
 74
     0
 49
3.0
 74
     0
 49
-1.5
 74
     0
  0
LTYPE
  5
4D
330
5
100
AcDbSymbolTableRecord
100
AcDbLinetypeTableRecord
  2
AM_ISO09W050
 70
     0
  3
_____ . . _____ . . _____ . . ____ .. ____
 72
    65
 73
     6
 40
22.5
 49
12.0
 74
     0
 49
-1.5
 74
     0
 49
3.0
 74
     0
 49
-1.5
 74
     0
 49
3.0
 74
     0
 49
-1.5
 74
     0
  0
LTYPE
  5
4E
330
5
100
AcDbSymbolTableRecord
100
AcDbLinetypeTableRecord
  2
AMCONSTR
 70
     0
  3
_______________________
 72
    65
 73
     2
 40
9999.0
 49
9999.0
 74
     0
 49
0.0
 74
     0
  0
LTYPE
  5
4F
330
5
100
AcDbSymbolTableRecord
100
AcDbLinetypeTableRecord
  2
AM_ISO02W050X2
 70
     0
  3
 _ _ _ _ _ _ _ _ _ _ _ _
 72
    65
 73
     2
 40
3.75
 49
3.0
 74
     0
 49
-0.75
 74
     0
  0
LTYPE
  5
50
330
5
100
AcDbSymbolTableRecord
100
AcDbLinetypeTableRecord
  2
AM_ISO08W050X2
 70
     0
  3
__ . __ . __ . __ . __ . __
 72
    65
 73
     4
 40
9.0
 49
6.0
 74
     0
 49
-0.75
 74
     0
 49
1.5
 74
     0
 49
-0.75
 74
     0
  0
LTYPE
  5
53
330
5
100
AcDbSymbolTableRecord
100
AcDbLinetypeTableRecord
  2
AMZIGZAG
 70
     0
  3
/\/-/\/-/\/-/\/-/\/-/\/
 72
    65
 73
     2
 40
11.00009999999999
 49
0.0001
 74
     4
 75
   135
340
52
 46
0.04
 50
0.0
 44
0.0
 45
0.0
 49
-11.0
 74
     0
  0
LTYPE
  5
166
330
5
100
AcDbSymbolTableRecord
100
AcDbLinetypeTableRecord
  2
ACJISTGL
 70
     0
  3
_ _ _ _ _
 72
    65
 73
     2
 40
3.0
 49
2.0
 74
     0
 49
-1.0
 74
     0
  0
LTYPE
  5
26A
330
5
100
AcDbSymbolTableRecord
100
AcDbLinetypeTableRecord
  2
ACJISTGB
 70
     0
  3
__ . . __ . .
 72
    65
 73
     6
 40
9.0
 49
4.0
 74
     0
 49
-1.0
 74
     0
 49
1.0
 74
     0
 49
-1.0
 74
     0
 49
1.0
 74
     0
 49
-1.0
 74
     0
  0
ENDTAB
  0
TABLE
  2
LAYER
  5
2
330
0
100
AcDbSymbolTable
 70
     8
  0
LAYER
  5
10
330
2
100
AcDbSymbolTableRecord
100
AcDbLayerTableRecord
  2
0
 70
     0
 62
     7
  6
CONTINUOUS
  0
LAYER
  5
3F9
330
2
100
AcDbSymbolTableRecord
100
AcDbLayerTableRecord
  2
AM_0
 70
     0
 62
     7
  6
CONTINUOUS
  0
LAYER
  5
BA4
330
2
100
AcDbSymbolTableRecord
100
AcDbLayerTableRecord
  2
AM_11
 70
     0
 62
     3
  6
AM_ISO09W050
  0
LAYER
  5
E2D
330
2
100
AcDbSymbolTableRecord
100
AcDbLayerTableRecord
  2
AM_7
 70
     0
 62
     4
  6
AM_ISO08W050
  0
LAYER
  5
13D6
330
2
100
AcDbSymbolTableRecord
100
AcDbLayerTableRecord
  2
AM_5
 70
     0
 62
     3
  6
CONTINUOUS
  0
LAYER
  5
1894
330
2
100
AcDbSymbolTableRecord
100
AcDbLayerTableRecord
  2
DEFPOINTS
 70
     0
 62
     7
  6
CONTINUOUS
  0
LAYER
  5
2277
330
2
100
AcDbSymbolTableRecord
100
AcDbLayerTableRecord
  2
AM_6
 70
     0
 62
     2
  6
CONTINUOUS
  0
LAYER
  5
3813
330
2
100
AcDbSymbolTableRecord
100
AcDbLayerTableRecord
  2
AM_CL
 70
     0
 62
     1
  6
AMCONSTR
  0
ENDTAB
  0
TABLE
  2
STYLE
  5
3
330
0
100
AcDbSymbolTable
 70
     5
  0
STYLE
  5
11
330
3
100
AcDbSymbolTableRecord
100
AcDbTextStyleTableRecord
  2
STANDARD
 70
     0
 40
0.0
 41
1.0
 50
0.0
 71
     0
 42
2.5
  3
simplex.shx
  4
EXTFONT.SHX
  0
STYLE
  5
52
330
3
100
AcDbSymbolTableRecord
100
AcDbTextStyleTableRecord
  2

 70
     1
 40
0.0
 41
1.0
 50
0.0
 71
     0
 42
2.5
  3
ltypeshp.shx
  4

  0
STYLE
  5
6B
330
3
100
AcDbSymbolTableRecord
100
AcDbTextStyleTableRecord
  2
ASAMI
 70
     0
 40
0.0
 41
1.0
 50
0.0
 71
     0
 42
2.5
  3
simplex.shx
  4
EXTFONT.SHX
  0
STYLE
  5
262
330
3
100
AcDbSymbolTableRecord
100
AcDbTextStyleTableRecord
  2
ACJISTS
 70
     0
 40
1.0
 41
1.0
 50
0.0
 71
     0
 42
2.5
  3
simplex.shx
  4
bigfont.shx
  0
STYLE
  5
269
330
3
100
AcDbSymbolTableRecord
100
AcDbTextStyleTableRecord
  2
ACJISGDT
 70
     0
 40
0.0
 41
1.0
 50
0.0
 71
     0
 42
2.5
  3
amgdtans.shx
  4

  0
ENDTAB
  0
TABLE
  2
VIEW
  5
6
330
0
100
AcDbSymbolTable
 70
     0
  0
ENDTAB
  0
TABLE
  2
UCS
  5
7
330
0
100
AcDbSymbolTable
 70
     0
  0
ENDTAB
  0
TABLE
  2
APPID
  5
9
330
0
100
AcDbSymbolTable
 70
    14
  0
APPID
  5
12
330
9
100
AcDbSymbolTableRecord
100
AcDbRegAppTableRecord
  2
ACAD
 70
     0
  0
APPID
  5
30
330
9
100
AcDbSymbolTableRecord
100
AcDbRegAppTableRecord
  2
MCAD_NO_VIS
 70
     0
  0
APPID
  5
31
330
9
100
AcDbSymbolTableRecord
100
AcDbRegAppTableRecord
  2
ACAD_TEMP_GRAPHIC
 70
     0
  0
APPID
  5
2C2
330
9
100
AcDbSymbolTableRecord
100
AcDbRegAppTableRecord
  2
GENIUS_GENDTOL_13
 70
     0
  0
APPID
  5
339
330
9
100
AcDbSymbolTableRecord
100
AcDbRegAppTableRecord
  2
GENIUS_GENODEF_13
 70
     0
  0
APPID
  5
33A
330
9
100
AcDbSymbolTableRecord
100
AcDbRegAppTableRecord
  2
GENIUS_GENOBJ-N-RSBK_13
 70
     0
  0
APPID
  5
33B
330
9
100
AcDbSymbolTableRecord
100
AcDbRegAppTableRecord
  2
GENIUS_GENOBJ-N-LIB_13
 70
     0
  0
APPID
  5
33C
330
9
100
AcDbSymbolTableRecord
100
AcDbRegAppTableRecord
  2
GENIUS_GENSCALE_13
 70
     0
  0
APPID
  5
378
330
9
100
AcDbSymbolTableRecord
100
AcDbRegAppTableRecord
  2
GENIUS_GENDIMSH_14
 70
     0
  0
APPID
  5
BA6
330
9
100
AcDbSymbolTableRecord
100
AcDbRegAppTableRecord
  2
GENIUS_GENOBJ-N-CEN_13
 70
     0
  0
APPID
  5
BA7
330
9
100
AcDbSymbolTableRecord
100
AcDbRegAppTableRecord
  2
GENIUS_GENFIL_13
 70
     0
  0
APPID
  5
BA8
330
9
100
AcDbSymbolTableRecord
100
AcDbRegAppTableRecord
  2
GENIUS_GENOBJ-N-CHA_13
 70
     0
  0
APPID
  5
D04
330
9
100
AcDbSymbolTableRecord
100
AcDbRegAppTableRecord
  2
GENIUS_GENREC_14
 70
     0
  0
APPID
  5
D05
330
9
100
AcDbSymbolTableRecord
100
AcDbRegAppTableRecord
  2
GENIUS_GENOBJ-N-REC_13
 70
     0
  0
ENDTAB
  0
TABLE
  2
DIMSTYLE
  5
A
330
0
100
AcDbSymbolTable
 70
     9
  0
DIMSTYLE
105
58
330
A
100
AcDbSymbolTableRecord
100
AcDbDimStyleTableRecord
  2
AM_JIS
 70
     0
  3

  4
"
  5
OPEN30
  6

  7

 40
0.2
 41
2.5
 42
1.0
 43
12.0
 44
1.0
 45
0.0
 46
0.0
 47
0.1
 48
0.1
140
3.2
141
0.0
142
0.0
143
0.0393701
144
1.0
145
0.0
146
0.71
147
1.5
 71
     0
 72
     0
 73
     0
 74
     0
 75
     0
 76
     0
 77
     3
 78
     8
170
     0
171
     2
172
     1
173
     0
174
     0
175
     0
176
   256
177
   256
178
     2
270
     2
271
     3
272
     3
273
     2
274
     2
340
6B
275
     0
280
     0
281
     0
282
     0
283
     0
284
     0
285
     0
286
     0
287
     3
288
     0
  0
DIMSTYLE
105
5F
330
A
100
AcDbSymbolTableRecord
100
AcDbDimStyleTableRecord
  2
AM_JIS$3
 70
     0
  3

  4
"
  5
OPEN30
  6

  7

 40
0.2
 41
2.5
 42
1.0
 43
10.0
 44
1.0
 45
0.0
 46
0.0
 47
0.1
 48
0.1
140
3.2
141
0.0
142
0.0
143
0.0393701
144
1.0
145
0.0
146
0.71
147
1.5
 71
     0
 72
     0
 73
     0
 74
     1
 75
     0
 76
     0
 77
     3
 78
     8
170
     0
171
     2
172
     0
173
     0
174
     0
175
     0
176
   256
177
   256
178
     2
270
     2
271
     2
272
     3
273
     2
274
     2
340
6B
275
     0
280
     0
281
     0
282
     0
283
     0
284
     0
285
     0
286
     0
287
     0
288
     1
  0
DIMSTYLE
105
60
330
A
100
AcDbSymbolTableRecord
100
AcDbDimStyleTableRecord
  2
AM_JIS$4
 70
     0
  3

  4
"
  5
OPEN30
  6

  7

 40
0.2
 41
2.5
 42
1.0
 43
10.0
 44
1.0
 45
0.0
 46
0.0
 47
0.1
 48
0.1
140
3.2
141
0.0
142
0.0
143
0.0393701
144
1.0
145
0.0
146
0.71
147
1.5
 71
     0
 72
     0
 73
     0
 74
     1
 75
     0
 76
     0
 77
     3
 78
     8
170
     0
171
     2
172
     0
173
     0
174
     0
175
     0
176
   256
177
   256
178
     2
270
     2
271
     2
272
     3
273
     2
274
     2
340
6B
275
     0
280
     0
281
     0
282
     0
283
     0
284
     0
285
     0
286
     0
287
     0
288
     1
  0
DIMSTYLE
105
61
330
A
100
AcDbSymbolTableRecord
100
AcDbDimStyleTableRecord
  2
AM_JIS$6
 70
     0
  3

  4
"
  5
OPEN30
  6

  7

 40
0.2
 41
2.5
 42
1.0
 43
10.0
 44
1.0
 45
0.0
 46
0.0
 47
0.1
 48
0.1
140
3.2
141
0.0
142
0.0
143
0.0393701
144
1.0
145
0.0
146
0.71
147
1.5
 71
     0
 72
     0
 73
     0
 74
     0
 75
     0
 76
     0
 77
     0
 78
     8
170
     0
171
     2
172
     1
173
     0
174
     0
175
     0
176
   256
177
   256
178
     2
270
     2
271
     2
272
     2
273
     2
274
     2
340
6B
275
     0
280
     0
281
     0
282
     0
283
     0
284
     0
285
     0
286
     0
287
     3
288
     0
  0
DIMSTYLE
105
62
330
A
100
AcDbSymbolTableRecord
100
AcDbDimStyleTableRecord
  2
AM_JIS$7
 70
     0
  3

  4
"
  5
OPEN30
  6

  7

 40
0.2
 41
2.5
 42
1.0
 43
10.0
 44
1.0
 45
0.0
 46
0.0
 47
0.1
 48
0.1
140
3.2
141
0.0
142
0.0
143
0.0393701
144
1.0
145
0.0
146
0.71
147
1.5
 71
     0
 72
     0
 73
     0
 74
     0
 75
     0
 76
     0
 77
     3
 78
     8
170
     0
171
     2
172
     1
173
     0
174
     0
175
     0
176
   256
177
   256
178
     2
270
     2
271
     2
272
     3
273
     2
274
     2
340
6B
275
     0
280
     0
281
     0
282
     0
283
     0
284
     0
285
     0
286
     0
287
     3
288
     0
  0
DIMSTYLE
105
63
330
A
100
AcDbSymbolTableRecord
100
AcDbDimStyleTableRecord
  2
AM_JIS$SF
 70
     0
  3

  4
"
  5
OPEN30
  6

  7

 40
0.2
 41
2.5
 42
1.0
 43
10.0
 44
1.0
 45
0.0
 46
0.0
 47
0.1
 48
0.1
140
3.2
141
0.0
142
0.0
143
0.0393701
144
1.0
145
0.0
146
0.71
147
1.5
 71
     0
 72
     0
 73
     0
 74
     0
 75
     1
 76
     1
 77
     3
 78
     8
170
     0
171
     2
172
     1
173
     0
174
     0
175
     0
176
   256
177
   256
178
     2
270
     2
271
     2
272
     2
273
     2
274
     2
340
6B
275
     0
280
     0
281
     0
282
     0
283
     0
284
     0
285
     0
286
     0
287
     3
288
     0
  0
DIMSTYLE
105
68
330
A
100
AcDbSymbolTableRecord
100
AcDbDimStyleTableRecord
  2
AM_JIS$SH
 70
     0
  3

  4
"
  5

  6
GENAXEH
  7
OPEN30
 40
0.2
 41
2.5
 42
1.0
 43
10.0
 44
1.0
 45
0.0
 46
0.0
 47
0.1
 48
0.1
140
3.2
141
0.0
142
0.0
143
0.0393701
144
2.0
145
0.0
146
0.71
147
1.5
 71
     0
 72
     0
 73
     0
 74
     0
 75
     1
 76
     1
 77
     3
 78
     8
170
     0
171
     2
172
     1
173
     1
174
     0
175
     0
176
   256
177
   256
178
     2
270
     2
271
     2
272
     2
273
     2
274
     2
340
6B
275
     0
280
     0
281
     0
282
     0
283
     0
284
     0
285
     0
286
     0
287
     3
288
     0
  0
DIMSTYLE
105
B34
102
{ACAD_REACTORS
330
2753
330
3DBE
330
45F7
102
}
330
A
100
AcDbSymbolTableRecord
100
AcDbDimStyleTableRecord
  2
AM_JIS$2
 70
     0
  3

  4
"
  5
OPEN30
  6

  7

 40
0.2
 41
2.5
 42
1.0
 43
12.0
 44
1.0
 45
0.0
 46
0.0
 47
0.1
 48
0.1
140
3.2
141
0.0
142
0.0
143
0.0393701
144
1.0
145
0.0
146
0.71
147
1.5
 71
     0
 72
     0
 73
     0
 74
     0
 75
     0
 76
     0
 77
     3
 78
     8
170
     0
171
     2
172
     1
173
     0
174
     0
175
     0
176
   256
177
   256
178
     2
270
     2
271
     3
272
     3
273
     2
274
     2
340
6B
275
     0
280
     0
281
     0
282
     0
283
     0
284
     0
285
     0
286
     0
287
     3
288
     0
  0
DIMSTYLE
105
BA5
102
{ACAD_REACTORS
330
2716
330
2703
330
2713
330
2702
330
274B
102
}
330
A
100
AcDbSymbolTableRecord
100
AcDbDimStyleTableRecord
  2
AM_JIS$0
 70
     0
  3

  4
"
  5
OPEN30
  6

  7

 40
0.2
 41
2.5
 42
0.0
 43
10.0
 44
1.0
 45
0.0
 46
0.0
 47
0.1
 48
0.1000000001
140
3.799999999999999
141
0.0
142
0.0
143
0.0393701
144
1.0
145
0.0
146
0.71
147
1.5
 71
     0
 72
     0
 73
     0
 74
     0
 75
     0
 76
     0
 77
     3
 78
     1
170
     0
171
     2
172
     1
173
     0
174
     0
175
     0
176
     3
177
     3
178
     2
270
     2
271
     2
272
     2
273
     2
274
     2
340
11
275
     1
280
     0
281
     0
282
     0
283
     0
284
     8
285
     0
286
     0
287
     0
288
     0
  0
ENDTAB
  0
TABLE
  2
BLOCK_RECORD
  5
1
330
0
100
AcDbSymbolTable
 70
    31
  0
BLOCK_RECORD
  5
1F
102
{ACAD_XDICTIONARY
360
74
102
}
330
1
100
AcDbSymbolTableRecord
100
AcDbBlockTableRecord
  2
*MODEL_SPACE
  0
BLOCK_RECORD
  5
101
102
{ACAD_XDICTIONARY
360
4893
102
}
330
1
100
AcDbSymbolTableRecord
100
AcDbBlockTableRecord
  2
*PAPER_SPACE
  0
BLOCK_RECORD
  5
59
330
1
100
AcDbSymbolTableRecord
100
AcDbBlockTableRecord
  2
_OPEN30
  0
BLOCK_RECORD
  5
64
330
1
100
AcDbSymbolTableRecord
100
AcDbBlockTableRecord
  2
GENAXEH
  0
BLOCK_RECORD
  5
2754
330
1
100
AcDbSymbolTableRecord
100
AcDbBlockTableRecord
  2
*D5
  0
BLOCK_RECORD
  5
2760
330
1
100
AcDbSymbolTableRecord
100
AcDbBlockTableRecord
  2
*D6
  0
BLOCK_RECORD
  5
276C
330
1
100
AcDbSymbolTableRecord
100
AcDbBlockTableRecord
  2
*D7
  0
BLOCK_RECORD
  5
27A4
330
1
100
AcDbSymbolTableRecord
100
AcDbBlockTableRecord
  2
*D9
  0
BLOCK_RECORD
  5
27B0
330
1
100
AcDbSymbolTableRecord
100
AcDbBlockTableRecord
  2
*D10
  0
BLOCK_RECORD
  5
27BE
330
1
100
AcDbSymbolTableRecord
100
AcDbBlockTableRecord
  2
*D11
  0
BLOCK_RECORD
  5
3988
330
1
100
AcDbSymbolTableRecord
100
AcDbBlockTableRecord
  2
*D14
  0
BLOCK_RECORD
  5
45F8
330
1
100
AcDbSymbolTableRecord
100
AcDbBlockTableRecord
  2
*D28
  0
ENDTAB
  0
ENDSEC
  0
SECTION
  2
BLOCKS
  0
BLOCK
  5
20
330
1F
100
AcDbEntity
  8
0
100
AcDbBlockBegin
  2
*MODEL_SPACE
 70
     0
 10
0.0
 20
0.0
 30
0.0
  3
*MODEL_SPACE
  1

  0
ENDBLK
  5
21
330
1F
100
AcDbEntity
  8
0
100
AcDbBlockEnd
  0
BLOCK
  5
103
330
101
100
AcDbEntity
 67
     1
  8
0
100
AcDbBlockBegin
  2
*PAPER_SPACE
 70
     0
 10
0.0
 20
0.0
 30
0.0
  3
*PAPER_SPACE
  1

  0
ENDBLK
  5
104
330
101
100
AcDbEntity
 67
     1
  8
0
100
AcDbBlockEnd
  0
BLOCK
  5
5D
330
59
100
AcDbEntity
  8
0
100
AcDbBlockBegin
  2
_OPEN30
 70
     0
 10
0.0
 20
0.0
 30
0.0
  3
_OPEN30
  1

  0
LINE
  5
5A
330
59
100
AcDbEntity
  8
0
 62
     0
100
AcDbLine
 10
-1.0
 20
0.26794919
 30
0.0
 11
0.0
 21
0.0
 31
0.0
  0
LINE
  5
5B
330
59
100
AcDbEntity
  8
0
 62
     0
100
AcDbLine
 10
0.0
 20
0.0
 30
0.0
 11
-1.0
 21
-0.26794919
 31
0.0
  0
LINE
  5
5C
330
59
100
AcDbEntity
  8
0
 62
     0
100
AcDbLine
 10
0.0
 20
0.0
 30
0.0
 11
-1.0
 21
0.0
 31
0.0
  0
ENDBLK
  5
5E
330
59
100
AcDbEntity
  8
0
100
AcDbBlockEnd
  0
BLOCK
  5
66
330
64
100
AcDbEntity
  8
0
100
AcDbBlockBegin
  2
GENAXEH
 70
     0
 10
0.0
 20
0.0
 30
0.0
  3
GENAXEH
  1

  0
LINE
  5
65
330
64
100
AcDbEntity
  8
0
100
AcDbLine
 10
-1.0
 20
0.0
 30
0.0
 11
1.0
 21
0.0
 31
0.0
  0
ENDBLK
  5
67
330
64
100
AcDbEntity
  8
0
100
AcDbBlockEnd
  0
BLOCK
  5
275E
330
2754
100
AcDbEntity
  8
0
100
AcDbBlockBegin
  2
*D5
 70
     1
 10
0.0
 20
0.0
 30
0.0
  3
*D5
  1

  0
LINE
  5
3CCD
330
2754
100
AcDbEntity
  8
AM_5
 62
     3
100
AcDbLine
 10
-37.00000015013637
 20
-1.500000435719498
 30
0.0
 11
-40.99999987094024
 21
-1.500000435719497
 31
0.0
  0
LINE
  5
3CCE
330
2754
100
AcDbEntity
  8
AM_5
 62
     3
100
AcDbLine
 10
-37.00000016782043
 20
1.499999574490402
 30
0.0
 11
-40.99999987094024
 21
1.499999574490403
 31
0.0
  0
LINE
  5
3CCF
330
2754
100
AcDbEntity
  8
AM_5
 62
     3
100
AcDbLine
 10
-40.79999987094024
 20
-1.000000435719497
 30
0.0
 11
-40.79999987094024
 21
0.9999995744904037
 31
0.0
  0
INSERT
  5
3CD0
330
2754
100
AcDbEntity
  8
AM_5
 62
     3
100
AcDbBlockReference
  2
_OPEN30
 10
-40.79999987094024
 20
-1.500000435719497
 30
0.0
 41
0.5
 42
0.5
 43
0.5
 50
270.0
  0
INSERT
  5
3CD1
330
2754
100
AcDbEntity
  8
AM_5
 62
     3
100
AcDbBlockReference
  2
_OPEN30
 10
-40.79999987094024
 20
1.499999574490403
 30
0.0
 41
0.5
 42
0.5
 43
0.5
 50
90.0
  0
MTEXT
  5
3CD2
330
2754
100
AcDbEntity
  8
AM_5
 62
     2
100
AcDbMText
 10
-41.47999987094023
 20
-0.0000004291993888
 30
0.0
 40
0.76
 41
0.0
 71
     5
 72
     1
  1
%%c3
 11
0.0000000000000001
 21
1.0
 31
0.0
1001
ACAD
1000
MTEXTBEGIN
1070
    73
1070
     1
1070
    44
1040
1.0
1070
    74
1070
     0
1000
MTEXTEND
  0
POINT
  5
3CD3
330
2754
100
AcDbEntity
  8
DEFPOINTS
 62
     0
100
AcDbPoint
 10
-37.00000015013637
 20
-1.500000435719498
 30
0.0
  0
POINT
  5
3CD4
330
2754
100
AcDbEntity
  8
DEFPOINTS
 62
     0
100
AcDbPoint
 10
-37.00000016782043
 20
1.499999574490402
 30
0.0
  0
POINT
  5
3CD5
330
2754
100
AcDbEntity
  8
DEFPOINTS
 62
     0
100
AcDbPoint
 10
-40.79999987094024
 20
1.499999574490403
 30
0.0
  0
ENDBLK
  5
275F
330
2754
100
AcDbEntity
  8
0
100
AcDbBlockEnd
  0
BLOCK
  5
276A
330
2760
100
AcDbEntity
  8
0
100
AcDbBlockBegin
  2
*D6
 70
     1
 10
0.0
 20
0.0
 30
0.0
  3
*D6
  1

  0
LINE
  5
3935
330
2760
100
AcDbEntity
  8
AM_5
 62
     3
100
AcDbLine
 10
-37.9999998709402
 20
-1.200000429199405
 30
0.0
 11
-37.9999998709402
 21
-6.500000429199372
 31
0.0
  0
LINE
  5
3936
330
2760
100
AcDbEntity
  8
AM_5
 62
     3
100
AcDbLine
 10
-0.0000001501363728
 20
-0.1700000121581695
 30
0.0
 11
-0.0000001501363732
 21
-6.500000429199372
 31
0.0
  0
LINE
  5
3937
330
2760
100
AcDbEntity
  8
AM_5
 62
     3
100
AcDbLine
 10
-37.4999998709402
 20
-6.300000429199371
 30
0.0
 11
-0.5000001501363732
 21
-6.300000429199371
 31
0.0
  0
INSERT
  5
3938
330
2760
100
AcDbEntity
  8
AM_5
 62
     3
100
AcDbBlockReference
  2
_OPEN30
 10
-37.9999998709402
 20
-6.300000429199371
 30
0.0
 41
0.5
 42
0.5
 43
0.5
 50
180.0
  0
INSERT
  5
3939
330
2760
100
AcDbEntity
  8
AM_5
 62
     3
100
AcDbBlockReference
  2
_OPEN30
 10
-0.0000001501363731
 20
-6.300000429199371
 30
0.0
 41
0.5
 42
0.5
 43
0.5
  0
MTEXT
  5
393A
330
2760
100
AcDbEntity
  8
AM_5
 62
     2
100
AcDbMText
 10
-19.00000001053828
 20
-5.620000429199372
 30
0.0
 40
0.76
 41
0.0
 71
     5
 72
     1
  1
38
1001
ACAD
1000
MTEXTBEGIN
1070
    73
1070
     1
1070
    44
1040
1.0
1070
    74
1070
     0
1000
MTEXTEND
  0
POINT
  5
393B
330
2760
100
AcDbEntity
  8
DEFPOINTS
 62
     0
100
AcDbPoint
 10
-37.9999998709402
 20
-1.200000429199405
 30
0.0
  0
POINT
  5
393C
330
2760
100
AcDbEntity
  8
DEFPOINTS
 62
     0
100
AcDbPoint
 10
-0.0000001501363728
 20
-0.1700000121581695
 30
0.0
  0
POINT
  5
393D
330
2760
100
AcDbEntity
  8
DEFPOINTS
 62
     0
100
AcDbPoint
 10
-0.0000001501363731
 20
-6.300000429199371
 30
0.0
  0
ENDBLK
  5
276B
330
2760
100
AcDbEntity
  8
0
100
AcDbBlockEnd
  0
BLOCK
  5
2776
330
276C
100
AcDbEntity
  8
0
100
AcDbBlockBegin
  2
*D7
 70
     1
 10
0.0
 20
0.0
 30
0.0
  3
*D7
  1

  0
LINE
  5
4821
330
276C
100
AcDbEntity
  8
AM_5
 62
     3
100
AcDbLine
 10
-37.9999998709402
 20
-0.9226503277238576
 30
0.0
 11
-37.9999998709402
 21
-4.5000004291994
 31
0.0
  0
LINE
  5
4822
330
276C
100
AcDbEntity
  8
AM_5
 62
     3
100
AcDbLine
 10
-16.23202176427624
 20
-1.499952530940261
 30
0.0
 11
-16.23202176427624
 21
-4.5000004291994
 31
0.0
  0
LINE
  5
4823
330
276C
100
AcDbEntity
  8
AM_5
 62
     3
100
AcDbLine
 10
-37.4999998709402
 20
-4.3000004291994
 30
0.0
 11
-16.73202176427624
 21
-4.3000004291994
 31
0.0
  0
INSERT
  5
4824
330
276C
100
AcDbEntity
  8
AM_5
 62
     3
100
AcDbBlockReference
  2
_OPEN30
 10
-37.9999998709402
 20
-4.3000004291994
 30
0.0
 41
0.5
 42
0.5
 43
0.5
 50
180.0
  0
INSERT
  5
4825
330
276C
100
AcDbEntity
  8
AM_5
 62
     3
100
AcDbBlockReference
  2
_OPEN30
 10
-16.23202176427624
 20
-4.3000004291994
 30
0.0
 41
0.5
 42
0.5
 43
0.5
  0
MTEXT
  5
4826
330
276C
100
AcDbEntity
  8
AM_5
 62
     2
100
AcDbMText
 10
-27.11601081760822
 20
-3.6200004291994
 30
0.0
 40
0.76
 41
0.0
 71
     5
 72
     1
  1
22
1001
ACAD
1000
MTEXTBEGIN
1070
    73
1070
     1
1070
    44
1040
1.0
1070
    74
1070
     0
1000
MTEXTEND
  0
POINT
  5
4827
330
276C
100
AcDbEntity
  8
DEFPOINTS
 62
     0
100
AcDbPoint
 10
-37.9999998709402
 20
-0.9226503277238576
 30
0.0
  0
POINT
  5
4828
330
276C
100
AcDbEntity
  8
DEFPOINTS
 62
     0
100
AcDbPoint
 10
-16.23202176427624
 20
-1.499952530940261
 30
0.0
  0
POINT
  5
4829
330
276C
100
AcDbEntity
  8
DEFPOINTS
 62
     0
100
AcDbPoint
 10
-16.23202176427624
 20
-4.3000004291994
 30
0.0
  0
ENDBLK
  5
2777
330
276C
100
AcDbEntity
  8
0
100
AcDbBlockEnd
  0
BLOCK
  5
27AE
330
27A4
100
AcDbEntity
  8
0
100
AcDbBlockBegin
  2
*D9
 70
     1
 10
0.0
 20
0.0
 30
0.0
  3
*D9
  1

  0
LINE
  5
4803
330
27A4
100
AcDbEntity
  8
AM_5
 62
     3
100
AcDbLine
 10
-12.00000015013637
 20
0.2104445616430089
 30
0.0
 11
-12.00000015013637
 21
-4.5000004291994
 31
0.0
  0
LINE
  5
4804
330
27A4
100
AcDbEntity
  8
AM_5
 62
     3
100
AcDbLine
 10
-0.0000001501363728
 20
-0.0000000097255113
 30
0.0
 11
-0.000000150136373
 21
-4.5000004291994
 31
0.0
  0
LINE
  5
4805
330
27A4
100
AcDbEntity
  8
AM_5
 62
     3
100
AcDbLine
 10
-11.50000015013637
 20
-4.3000004291994
 30
0.0
 11
-0.5000001501363731
 21
-4.3000004291994
 31
0.0
  0
INSERT
  5
4806
330
27A4
100
AcDbEntity
  8
AM_5
 62
     3
100
AcDbBlockReference
  2
_OPEN30
 10
-12.00000015013637
 20
-4.3000004291994
 30
0.0
 41
0.5
 42
0.5
 43
0.5
 50
180.0
  0
INSERT
  5
4807
330
27A4
100
AcDbEntity
  8
AM_5
 62
     3
100
AcDbBlockReference
  2
_OPEN30
 10
-0.000000150136373
 20
-4.3000004291994
 30
0.0
 41
0.5
 42
0.5
 43
0.5
  0
MTEXT
  5
4808
330
27A4
100
AcDbEntity
  8
AM_5
 62
     2
100
AcDbMText
 10
-6.000000150136372
 20
-3.6200004291994
 30
0.0
 40
0.76
 41
0.0
 71
     5
 72
     1
  1
12
1001
ACAD
1000
MTEXTBEGIN
1070
    73
1070
     1
1070
    44
1040
1.0
1070
    74
1070
     0
1000
MTEXTEND
  0
POINT
  5
4809
330
27A4
100
AcDbEntity
  8
DEFPOINTS
 62
     0
100
AcDbPoint
 10
-12.00000015013637
 20
0.2104445616430089
 30
0.0
  0
POINT
  5
480A
330
27A4
100
AcDbEntity
  8
DEFPOINTS
 62
     0
100
AcDbPoint
 10
-0.0000001501363728
 20
-0.0000000097255113
 30
0.0
  0
POINT
  5
480B
330
27A4
100
AcDbEntity
  8
DEFPOINTS
 62
     0
100
AcDbPoint
 10
-0.000000150136373
 20
-4.3000004291994
 30
0.0
  0
ENDBLK
  5
27AF
330
27A4
100
AcDbEntity
  8
0
100
AcDbBlockEnd
  0
BLOCK
  5
27BC
330
27B0
100
AcDbEntity
  8
0
100
AcDbBlockBegin
  2
*D10
 70
     1
 10
0.0
 20
0.0
 30
0.0
  3
*D10
  1

  0
LINE
  5
4895
330
27B0
100
AcDbEntity
  8
AM_5
100
AcDbLine
 10
0.0684041276828743
 20
-0.1879386037654591
 30
0.0
 11
2.271187719343772
 21
-6.240036832110164
 31
0.0
  0
LINE
  5
4896
330
27B0
100
AcDbEntity
  8
AM_5
100
AcDbLine
 10
0.0684042303434766
 20
0.187938473011644
 30
0.0
 11
2.271192039839738
 21
6.240035251643647
 31
0.0
  0
ARC
  5
4897
330
27B0
100
AcDbEntity
  8
AM_5
100
AcDbCircle
 10
0.0000000720550126
 20
-0.0000000039664532
 30
0.0
 40
6.440508485484141
100
AcDbArc
 50
294.4491965027331
 51
65.55076382663324
  0
INSERT
  5
4898
330
27B0
100
AcDbEntity
  8
AM_5
100
AcDbBlockReference
  2
_OPEN30
 10
2.202783691180764
 20
-6.052098307770224
 30
0.0
 41
0.5
 42
0.5
 43
0.5
 50
202.2245981748264
  0
INSERT
  5
4899
330
27B0
100
AcDbEntity
  8
AM_5
100
AcDbBlockReference
  2
_OPEN30
 10
2.202787881551274
 20
6.05209677466555
 30
0.0
 41
0.5
 42
0.5
 43
0.5
 50
157.7753621545398
  0
MTEXT
  5
489A
330
27B0
100
AcDbEntity
  8
AM_5
 62
     2
100
AcDbMText
 10
5.820508557538767
 20
-0.0000022336163109
 30
0.0
 40
0.6400000000000002
 41
0.0
 71
     5
 72
     1
  1
140°
  7
ASAMI
 11
0.0000000000000001
 21
1.0
 31
0.0
  0
POINT
  5
489B
330
27B0
100
AcDbEntity
  8
DEFPOINTS
 62
     0
100
AcDbPoint
 10
5.913779875145419
 20
2.550952365669879
 30
0.0
  0
POINT
  5
489C
330
27B0
100
AcDbEntity
  8
DEFPOINTS
 62
     0
100
AcDbPoint
 10
0.0000000677307526
 20
-0.0000000158472346
 30
0.0
  0
POINT
  5
489D
330
27B0
100
AcDbEntity
  8
DEFPOINTS
 62
     0
100
AcDbPoint
 10
0.0000000995198661
 20
-0.0000000794255186
 30
0.0
  0
POINT
  5
489E
330
27B0
100
AcDbEntity
  8
DEFPOINTS
 62
     0
100
AcDbPoint
 10
-0.0133687245935335
 20
0.036730463256049
 30
0.0
  0
POINT
  5
489F
330
27B0
100
AcDbEntity
  8
DEFPOINTS
 62
     0
100
AcDbPoint
 10
-0.0133689477578969
 20
-0.0367310051978791
 30
0.0
  0
ENDBLK
  5
27BD
330
27B0
100
AcDbEntity
  8
0
100
AcDbBlockEnd
  0
BLOCK
  5
27CA
330
27BE
100
AcDbEntity
  8
0
100
AcDbBlockBegin
  2
*D11
 70
     1
 10
0.0
 20
0.0
 30
0.0
  3
*D11
  1

  0
LINE
  5
478D
330
27BE
100
AcDbEntity
  8
AM_5
 62
     3
100
AcDbLine
 10
-0.1870866169409815
 20
-0.5000295222678966
 30
0.0
 11
3.828436584111013
 21
-0.5000295222678977
 31
0.0
  0
LINE
  5
478E
330
27BE
100
AcDbEntity
  8
AM_5
 62
     3
100
AcDbLine
 10
-0.1800749504541127
 20
0.4999704848592683
 30
0.0
 11
3.828436584111013
 21
0.4999704848592672
 31
0.0
  0
LINE
  5
478F
330
27BE
100
AcDbEntity
  8
AM_5
 62
     3
100
AcDbLine
 10
3.628436584111013
 20
0.9999704848592671
 30
0.0
 11
3.628436584111013
 21
1.499970484859267
 31
0.0
  0
LINE
  5
4790
330
27BE
100
AcDbEntity
  8
AM_5
 62
     3
100
AcDbLine
 10
3.628436584111013
 20
-1.000029522267897
 30
0.0
 11
3.628436584111012
 21
-4.991401545629831
 31
0.0
  0
LINE
  5
4791
330
27BE
100
AcDbEntity
  8
AM_5
 62
     3
100
AcDbLine
 10
3.628436584111013
 20
0.4999704848592672
 30
0.0
 11
3.628436584111013
 21
-0.5000295222678976
 31
0.0
  0
INSERT
  5
4792
330
27BE
100
AcDbEntity
  8
AM_5
 62
     3
100
AcDbBlockReference
  2
_OPEN30
 10
3.628436584111013
 20
0.4999704848592672
 30
0.0
 41
0.5
 42
0.5
 43
0.5
 50
270.0
  0
INSERT
  5
4793
330
27BE
100
AcDbEntity
  8
AM_5
 62
     3
100
AcDbBlockReference
  2
_OPEN30
 10
3.628436584111013
 20
-0.5000295222678976
 30
0.0
 41
0.5
 42
0.5
 43
0.5
 50
90.0
  0
MTEXT
  5
4794
330
27BE
100
AcDbEntity
  8
AM_5
 62
     2
100
AcDbMText
 10
2.948436584111013
 20
-3.261877736106021
 30
0.0
 40
0.76
 41
0.0
 71
     5
 72
     1
  1
%%c1.00
 11
0.0000000000000001
 21
1.0
 31
0.0
1001
ACAD
1000
MTEXTBEGIN
1070
    73
1070
     1
1070
    44
1040
1.0
1070
    74
1070
     0
1000
MTEXTEND
  0
POINT
  5
4795
330
27BE
100
AcDbEntity
  8
DEFPOINTS
 62
     0
100
AcDbPoint
 10
-0.1870866169409815
 20
-0.5000295222678966
 30
0.0
  0
POINT
  5
4796
330
27BE
100
AcDbEntity
  8
DEFPOINTS
 62
     0
100
AcDbPoint
 10
-0.1800749504541127
 20
0.4999704848592683
 30
0.0
  0
POINT
  5
4797
330
27BE
100
AcDbEntity
  8
DEFPOINTS
 62
     0
100
AcDbPoint
 10
3.628436584111013
 20
0.4999704848592672
 30
0.0
  0
ENDBLK
  5
27CB
330
27BE
100
AcDbEntity
  8
0
100
AcDbBlockEnd
  0
BLOCK
  5
3996
330
3988
100
AcDbEntity
  8
0
100
AcDbBlockBegin
  2
*D14
 70
     1
 10
0.0
 20
0.0
 30
0.0
  3
*D14
  1

  0
LINE
  5
3CFE
330
3988
100
AcDbEntity
  8
AM_5
100
AcDbLine
 10
-4.68605604944104
 20
0.5517639548113377
 30
0.0
 11
-8.265112679231112
 21
1.510769288428839
 31
0.0
  0
LINE
  5
3CFF
330
3988
100
AcDbEntity
  8
AM_5
100
AcDbLine
 10
-4.68605604944104
 20
-0.5517634908606394
 30
0.0
 11
-8.265112679231112
 21
-1.510768824478138
 31
0.0
  0
ARC
  5
3D00
330
3988
100
AcDbEntity
  8
AM_5
100
AcDbCircle
 10
-2.626845802043776
 20
0.0000002319753491
 30
0.0
 40
5.63716339674719
100
AcDbArc
 50
154.8327272750215
 51
159.9163636375108
  0
ARC
  5
3D01
330
3988
100
AcDbEntity
  8
AM_5
100
AcDbCircle
 10
-2.626845802043776
 20
0.0000002319753491
 30
0.0
 40
5.63716339674719
100
AcDbArc
 50
200.0836363624891
 51
205.1672727249783
  0
ARC
  5
3D02
330
3988
100
AcDbEntity
  8
AM_5
100
AcDbCircle
 10
-2.626845802043776
 20
0.0000002319753491
 30
0.0
 40
5.63716339674719
100
AcDbArc
 50
165.0
 51
194.9999999999999
  0
INSERT
  5
3D03
330
3988
100
AcDbEntity
  8
AM_5
100
AcDbBlockReference
  2
_OPEN30
 10
-8.071927513973298
 20
1.459005479408335
 30
0.0
 41
0.5
 42
0.5
 43
0.5
 50
252.4581818187554
  0
INSERT
  5
3D04
330
3988
100
AcDbEntity
  8
AM_5
100
AcDbBlockReference
  2
_OPEN30
 10
-8.071927513973298
 20
-1.459005015457634
 30
0.0
 41
0.5
 42
0.5
 43
0.5
 50
107.5418181812445
  0
MTEXT
  5
3D05
330
3988
100
AcDbEntity
  8
AM_5
 62
     2
100
AcDbMText
 10
-8.884009198790966
 20
0.0000002319753495
 30
0.0
 40
0.6400000000000002
 41
0.0
 71
     5
 72
     1
  1
30°
  7
ASAMI
 11
0.0000000000000001
 21
1.0
 31
0.0
1001
ACAD
1000
MTEXTBEGIN
1070
    73
1070
     1
1070
    44
1040
1.0
1070
    74
1070
     0
1000
MTEXTEND
  0
POINT
  5
3D06
330
3988
100
AcDbEntity
  8
DEFPOINTS
 62
     0
100
AcDbPoint
 10
-8.242558090160182
 20
0.491311394808762
 30
0.0
  0
POINT
  5
3D07
330
3988
100
AcDbEntity
  8
DEFPOINTS
 62
     0
100
AcDbPoint
 10
-4.492870884183226
 20
-0.4999996818401355
 30
0.0
  0
POINT
  5
3D08
330
3988
100
AcDbEntity
  8
DEFPOINTS
 62
     0
100
AcDbPoint
 10
-4.492870884183226
 20
0.5000001457908338
 30
0.0
  0
POINT
  5
3D09
330
3988
100
AcDbEntity
  8
DEFPOINTS
 62
     0
100
AcDbPoint
 10
-2.999999900480133
 20
0.0999865713037348
 30
0.0
  0
POINT
  5
3D0A
330
3988
100
AcDbEntity
  8
DEFPOINTS
 62
     0
100
AcDbPoint
 10
-2.999999900480133
 20
-0.0999861073530365
 30
0.0
  0
ENDBLK
  5
3997
330
3988
100
AcDbEntity
  8
0
100
AcDbBlockEnd
  0
BLOCK
  5
4606
330
45F8
100
AcDbEntity
  8
0
100
AcDbBlockBegin
  2
*D28
 70
     1
 10
0.0
 20
0.0
 30
0.0
  3
*D28
  1

  0
LINE
  5
4844
330
45F8
100
AcDbEntity
  8
AM_5
100
AcDbLine
 10
-16.42507822726491
 20
1.551762776553797
 30
0.0
 11
-17.65274951674865
 21
1.880712173068053
 31
0.0
  0
LINE
  5
4845
330
45F8
100
AcDbEntity
  8
AM_5
100
AcDbLine
 10
-16.42507830224039
 20
-1.551680923940662
 30
0.0
 11
-17.65275224077962
 21
-1.880629124385649
 31
0.0
  0
ARC
  5
4846
330
45F8
100
AcDbEntity
  8
AM_5
100
AcDbCircle
 10
-10.63388392414199
 20
0.0000364411516131
 30
0.0
 40
7.066458244268464
100
AcDbArc
 50
169.0550924234459
 51
190.9448245872876
  0
INSERT
  5
4847
330
45F8
100
AcDbEntity
  8
AM_5
100
AcDbBlockReference
  2
_OPEN30
 10
-17.45956418885819
 20
1.828948971004658
 30
0.0
 41
0.5
 42
0.5
 43
0.5
 50
77.02763621880515
  0
INSERT
  5
4848
330
45F8
100
AcDbEntity
  8
AM_5
100
AcDbBlockReference
  2
_OPEN30
 10
-17.45956683791368
 20
-1.828866202138881
 30
0.0
 41
0.5
 42
0.5
 43
0.5
 50
282.9722807919284
  0
MTEXT
  5
4849
330
45F8
100
AcDbEntity
  8
AM_5
 62
     2
100
AcDbMText
 10
-18.3203421684086
 20
0.0000415588076668
 30
0.0
 40
0.6400000000000002
 41
0.0
 71
     5
 72
     1
  1
30°
  7
ASAMI
 11
0.0000000000000001
 21
1.0
 31
0.0
1001
ACAD
1000
MTEXTBEGIN
1070
    73
1070
     1
1070
    44
1040
1.0
1070
    74
1070
     0
1000
MTEXTEND
  0
POINT
  5
484A
330
45F8
100
AcDbEntity
  8
DEFPOINTS
 62
     0
100
AcDbPoint
 10
-17.67345250901372
 20
0.6159148844152189
 30
0.0
  0
POINT
  5
484B
330
45F8
100
AcDbEntity
  8
DEFPOINTS
 62
     0
100
AcDbPoint
 10
-16.23189289937445
 20
-1.499918001693893
 30
0.0
  0
POINT
  5
484C
330
45F8
100
AcDbEntity
  8
DEFPOINTS
 62
     0
100
AcDbPoint
 10
-16.23189289937445
 20
1.499999574490402
 30
0.0
  0
POINT
  5
484D
330
45F8
100
AcDbEntity
  8
DEFPOINTS
 62
     0
100
AcDbPoint
 10
-12.49998087405281
 20
0.5000493279630276
 30
0.0
  0
POINT
  5
484E
330
45F8
100
AcDbEntity
  8
DEFPOINTS
 62
     0
100
AcDbPoint
 10
-12.50000015013653
 20
-0.4999787135990763
 30
0.0
  0
ENDBLK
  5
4607
330
45F8
100
AcDbEntity
  8
0
100
AcDbBlockEnd
  0
ENDSEC
  0
SECTION
  2
ENTITIES
  0
DIMENSION
  5
2702
330
1F
100
AcDbEntity
  8
AM_5
100
AcDbDimension
  2
*D9
 10
-0.000000150136373
 20
-4.3000004291994
 30
0.0
 11
-6.000000150136372
 21
-3.6200004291994
 31
0.0
 70
    32
  1
<>
  3
AM_JIS$0
100
AcDbAlignedDimension
 13
-12.00000015013637
 23
0.2104445616430089
 33
0.0
 14
-0.0000001501363728
 24
-0.0000000097255113
 34
0.0
100
AcDbRotatedDimension
1001
GENIUS_GENDTOL_13
1000

1000
h7
1000

1040
0.0
1001
ACAD
1000
DSTYLE
1002
{
1070
   271
1070
     0
1002
}
  0
DIMENSION
  5
2703
330
1F
100
AcDbEntity
  8
AM_5
100
AcDbDimension
  2
*D6
 10
-0.0000001501363731
 20
-6.300000429199371
 30
0.0
 11
-19.00000001053828
 21
-5.620000429199372
 31
0.0
 70
    32
  1
<>
  3
AM_JIS$0
100
AcDbAlignedDimension
 13
-37.9999998709402
 23
-1.200000429199405
 33
0.0
 14
-0.0000001501363728
 24
-0.1700000121581695
 34
0.0
100
AcDbRotatedDimension
1001
ACAD
1000
DSTYLE
1002
{
1070
   271
1070
     0
1002
}
1001
GENIUS_GENDTOL_13
1000

1000
h7
1000

1040
0.0
  0
LINE
  5
2704
330
1F
100
AcDbEntity
  8
AM_7
100
AcDbLine
 10
0.5718937955108459
 20
0.0000002319753492
 30
0.0
 11
-38.66621376932428
 21
-0.0000004357194996
 31
0.0
1001
GENIUS_GENODEF_13
1002
{
1000
HIER
1070
     0
1002
}
1002
{
1000
MANEDIT
1070
     0
1002
}
1002
{
1000
NOSEL
1070
     0
1002
}
1002
{
1000
BEHIND
1070
     0
1002
}
1002
{
1000
REACTOR
1002
}
1001
GENIUS_GENOBJ-N-CEN_13
1002
{
1000
OWNER
1000
GEN
1002
}
  0
DIMENSION
  5
2713
330
1F
100
AcDbEntity
  8
AM_5
100
AcDbDimension
  2
*D7
 10
-16.23202176427624
 20
-4.3000004291994
 30
0.0
 11
-27.11601081760822
 21
-3.6200004291994
 31
0.0
 70
    32
  1
<>
  3
AM_JIS$0
100
AcDbAlignedDimension
 13
-37.9999998709402
 23
-0.9226503277238576
 33
0.0
 14
-16.23202176427624
 24
-1.499952530940261
 34
0.0
100
AcDbRotatedDimension
1001
ACAD
1000
DSTYLE
1002
{
1070
   271
1070
     0
1002
}
1001
GENIUS_GENDTOL_13
1000

1000
h7
1000

1040
0.0
  0
LINE
  5
2714
330
1F
100
AcDbEntity
  8
AM_0
100
AcDbLine
 10
-37.00000015013637
 20
1.499999574490402
 30
0.0
 11
-16.23189289937445
 21
1.499999574490402
 31
0.0
1001
GENIUS_GENREC_14
1002
{
1000
PYDIR
1011
-37.9999998709402
1021
-1.500000425509597
1031
0.0
1002
}
1002
{
1000
PXDIR
1011
-9.9999998709402
1021
1.499999574490402
1031
0.0
1002
}
1002
{
1000
PORI
1011
-37.9999998709402
1021
1.499999574490402
1031
0.0
1002
}
1002
{
1000
PINS
1011
-37.9999998709402
1021
1.499999574490402
1031
0.0
1002
}
1002
{
1000
PINS2
1011
-9.9999998709402
1021
-1.500000425509597
1031
0.0
1002
}
1002
{
1000
C
1070
     1
1002
}
1001
GENIUS_GENODEF_13
1002
{
1000
HIER
1070
     0
1002
}
1002
{
1000
MANEDIT
1070
     0
1002
}
1002
{
1000
NOSEL
1070
     0
1002
}
1002
{
1000
BEHIND
1070
     0
1002
}
1002
{
1000
REACTOR
1002
}
1001
GENIUS_GENOBJ-N-REC_13
1002
{
1000
OWNER
1000
GEN
1002
}
  0
LINE
  5
2715
330
1F
100
AcDbEntity
  8
AM_0
100
AcDbLine
 10
-16.23189289937445
 20
-1.500000425509597
 30
0.0
 11
-37.00000015013637
 21
-1.500000425509597
 31
0.0
1001
GENIUS_GENREC_14
1002
{
1000
PYDIR
1011
-37.9999998709402
1021
-1.500000425509597
1031
0.0
1002
}
1002
{
1000
PXDIR
1011
-9.9999998709402
1021
1.499999574490402
1031
0.0
1002
}
1002
{
1000
PORI
1011
-37.9999998709402
1021
1.499999574490402
1031
0.0
1002
}
1002
{
1000
PINS
1011
-37.9999998709402
1021
1.499999574490402
1031
0.0
1002
}
1002
{
1000
PINS2
1011
-9.9999998709402
1021
-1.500000425509597
1031
0.0
1002
}
1002
{
1000
C
1070
     1
1002
}
1001
GENIUS_GENODEF_13
1002
{
1000
HIER
1070
     0
1002
}
1002
{
1000
MANEDIT
1070
     0
1002
}
1002
{
1000
NOSEL
1070
     0
1002
}
1002
{
1000
BEHIND
1070
     0
1002
}
1002
{
1000
REACTOR
1002
}
1001
GENIUS_GENOBJ-N-REC_13
1002
{
1000
OWNER
1000
GEN
1002
}
  0
DIMENSION
  5
2716
330
1F
100
AcDbEntity
  8
AM_5
100
AcDbDimension
  2
*D5
 10
-40.79999987094024
 20
1.499999574490403
 30
0.0
 11
-40.79999987094024
 21
-0.0000004291993889
 31
0.0
 70
   160
  1
%%c<>
  3
AM_JIS$0
100
AcDbAlignedDimension
 13
-37.00000015013637
 23
-1.500000435719498
 33
0.0
 14
-37.00000016782043
 24
1.499999574490402
 34
0.0
 50
270.0
100
AcDbRotatedDimension
1001
GENIUS_GENDTOL_13
1000

1000
h7
1000

1040
0.0
1001
ACAD
1000
DSTYLE
1002
{
1070
   271
1070
     0
1002
}
  0
LINE
  5
271F
330
1F
100
AcDbEntity
  8
AM_0
100
AcDbLine
 10
-16.23189289937445
 20
1.500012141371957
 30
0.0
 11
-16.23189289937445
 21
-1.499987858628042
 31
0.0
1001
GENIUS_GENREC_14
1002
{
1000
PYDIR
1011
-44.23189289937449
1021
-1.499987858628042
1031
0.0
1002
}
1002
{
1000
PXDIR
1011
-16.23189289937445
1021
1.500012141371957
1031
0.0
1002
}
1002
{
1000
PORI
1011
-44.23189289937449
1021
1.500012141371957
1031
0.0
1002
}
1002
{
1000
PINS
1011
-44.23189289937449
1021
1.500012141371957
1031
0.0
1002
}
1002
{
1000
PINS2
1011
-16.23189289937445
1021
-1.499987858628042
1031
0.0
1002
}
1002
{
1000
C
1070
     1
1002
}
1001
GENIUS_GENODEF_13
1002
{
1000
HIER
1070
     0
1002
}
1002
{
1000
MANEDIT
1070
     0
1002
}
1002
{
1000
NOSEL
1070
     0
1002
}
1002
{
1000
BEHIND
1070
     0
1002
}
1002
{
1000
REACTOR
1002
}
1001
GENIUS_GENOBJ-N-REC_13
1002
{
1000
OWNER
1000
GEN
1002
}
  0
DIMENSION
  5
274B
330
1F
100
AcDbEntity
  8
AM_5
100
AcDbDimension
  2
*D11
 10
3.628436584111013
 20
0.4999704848592672
 30
0.0
 11
3.628436584111013
 21
-3.261877736106022
 31
0.0
 70
   160
  1
%%c<>
  3
AM_JIS$0
100
AcDbAlignedDimension
 13
-0.1870866169409815
 23
-0.5000295222678966
 33
0.0
 14
-0.1800749504541127
 24
0.4999704848592683
 34
0.0
 50
90.0
100
AcDbRotatedDimension
1001
ACAD
1000
DSTYLE
1002
{
1070
   271
1070
     2
1002
}
1001
GENIUS_GENDTOL_13
1000

1000
h7
1000

1040
0.0
  0
DIMENSION
  5
2753
330
1F
100
AcDbEntity
  8
AM_5
100
AcDbDimension
  2
*D10
 10
-0.0133689477578969
 20
-0.0367310051978791
 30
0.0
 11
5.820508557538767
 21
-0.0000022336163119
 31
0.0
 70
    34
  1
<>
  3
AM_JIS$2
100
AcDb2LineAngularDimension
 13
0.0000000995198661
 23
-0.0000000794255186
 33
0.0
 14
-0.0133687245935335
 24
0.036730463256049
 34
0.0
 15
0.0000000677307526
 25
-0.0000000158472346
 35
0.0
 16
5.913779875145419
 26
2.550952365669879
 36
0.0
1001
GENIUS_GENDTOL_13
1000

1000
h7
1000

1040
0.0
1001
ACAD
1000
DSTYLE
1002
{
1070
   271
1070
     0
1002
}
  0
LINE
  5
2B58
330
1F
100
AcDbEntity
  8
AM_0
 48
0.5
100
AcDbLine
 10
0.0019096309818076
 20
-0.0000295222679452
 30
0.0
 11
-0.2754000642729983
 21
0.1919549722591762
 31
0.0
  0
ELLIPSE
  5
2B59
330
1F
100
AcDbEntity
  8
AM_0
 48
0.5
100
AcDbEllipse
 10
-0.9840181148419283
 20
0.9510251901202355
 30
0.0
 11
1.424636820449645
 21
0.5208323338448114
 31
0.0
210
0.0
220
0.0
230
1.0
 40
0.8840039620320629
 41
-1.415498797905765
 42
-1.164534488608015
  0
LINE
  5
2B64
330
1F
100
AcDbEntity
  8
AM_0
 48
0.5
100
AcDbLine
 10
-0.4998221771167702
 20
-0.5000298401592758
 30
0.0
 11
-0.1870866169409826
 21
-0.5000295222678965
 31
0.0
  0
LINE
  5
2B65
330
1F
100
AcDbEntity
  8
AM_0
 48
0.5
100
AcDbLine
 10
-0.4998221771167702
 20
0.4999701598406267
 30
0.0
 11
-0.1800749504541135
 21
0.4999704848592682
 31
0.0
  0
ELLIPSE
  5
2B88
330
1F
100
AcDbEntity
  8
AM_0
 48
0.5
100
AcDbEllipse
 10
0.3397625746045982
 20
0.6002509215594253
 30
0.0
 11
-1.097361416449388
 21
0.0000000000042089
 31
0.0
210
0.0
220
0.0
230
1.0
 40
0.9183140236859916
 41
0.5303675532381234
 42
0.93848848343276
  0
SPLINE
  5
2B89
330
1F
100
AcDbEntity
  8
AM_0
 48
0.5
100
AcDbSpline
210
0.0
220
0.0
230
1.0
 70
     8
 71
     3
 72
    10
 73
     6
 74
     0
 42
0.0000000001
 43
0.0000000001
 40
0.0
 40
0.0
 40
0.0
 40
0.0
 40
2.69986029516136
 40
4.147722969032201
 40
6.285750005020438
 40
6.285750005020438
 40
6.285750005020438
 40
6.285750005020438
 10
-0.606828416227139
 20
0.0904674946387443
 30
0.0
 10
-0.5415175207128783
 20
0.0440140394830855
 30
0.0
 10
-0.4411821433828968
 20
-0.0273511579258396
 30
0.0
 10
-0.2039024542910069
 20
0.0071979843526718
 30
0.0
 10
-0.2485891214519382
 20
0.1235640670782668
 30
0.0
 10
-0.2781152159640942
 20
0.1944927784782146
 30
0.0
  0
ELLIPSE
  5
2B8A
330
1F
100
AcDbEntity
  8
AM_0
 48
0.5
100
AcDbEllipse
 10
0.5499367890006482
 20
-0.0654394239051451
 30
0.0
 11
0.8631333368566904
 21
0.119763189310325
 31
0.0
210
0.0
220
0.0
230
0.9999999999999996
 40
0.8623944533520736
 41
3.17857797620105
 42
3.596418478329661
  0
LINE
  5
2BAB
330
1F
100
AcDbEntity
  8
AM_0
100
AcDbLine
 10
-12.50000015013653
 20
-0.4999787135990763
 30
0.0
 11
-12.50000015013621
 21
0.4999787326742799
 31
0.0
  0
TEXT
  5
3732
330
1F
100
AcDbEntity
  8
AM_6
100
AcDbText
 10
-22.69047620101447
 20
-10.80000042919937
 30
0.0
 40
1.0
  1
MDSS0100
 72
     4
 11
-19.00000001053828
 21
-10.30000042919937
 31
0.0
100
AcDbText
  0
LINE
  5
3814
330
1F
100
AcDbEntity
  8
AM_0
 48
0.5
100
AcDbLine
 10
-0.1800754303294418
 20
-0.5000295151411219
 30
0.0
 11
0.0019099153242816
 21
-0.0000288872858709
 31
0.0
  0
LINE
  5
3819
330
1F
100
AcDbEntity
  8
AM_0
 48
0.5
100
AcDbLine
 10
-0.1800754303294418
 20
0.4999717961786553
 30
0.0
 11
0.0019099153242816
 21
-0.0000288316765959
 31
0.0
  0
LINE
  5
38A3
330
1F
100
AcDbEntity
  8
AM_0
100
AcDbLine
 10
-12.50000015038036
 20
0.4999773877292312
 30
0.0
 11
-7.566349872595835
 21
0.5001235999287351
 31
0.0
  0
LINE
  5
38AD
330
1F
100
AcDbEntity
  8
AM_0
 48
0.5
100
AcDbLine
 10
-12.50000014985285
 20
-0.4999603532200187
 30
0.0
 11
-7.765052180795804
 21
-0.5000335122127959
 31
0.0
  0
LINE
  5
3CC0
330
1F
100
AcDbEntity
  8
AM_0
100
AcDbLine
 10
-37.00000015013637
 20
-1.500000411609875
 30
0.0
 11
-37.00000015013637
 21
1.499999588390124
 31
0.0
  0
LINE
  5
3CC1
330
1F
100
AcDbEntity
  8
AM_0
100
AcDbLine
 10
-37.00000015013637
 20
1.499999584700304
 30
0.0
 11
-38.00000015013637
 21
0.9226493155106782
 31
0.0
  0
LINE
  5
3CC2
330
1F
100
AcDbEntity
  8
AM_0
100
AcDbLine
 10
-37.9999998709402
 20
-0.9226501665298727
 30
0.0
 11
-37.9999998709402
 21
0.922649315510678
 31
0.0
1001
GENIUS_GENREC_14
1002
{
1000
PYDIR
1011
-37.9999998709402
1021
-1.500000415299695
1031
0.0
1002
}
1002
{
1000
PXDIR
1011
-9.9999998709402
1021
1.499999584700304
1031
0.0
1002
}
1002
{
1000
PORI
1011
-37.9999998709402
1021
1.499999584700304
1031
0.0
1002
}
1002
{
1000
PINS
1011
-37.9999998709402
1021
1.499999584700304
1031
0.0
1002
}
1002
{
1000
PINS2
1011
-9.9999998709402
1021
-1.500000415299695
1031
0.0
1002
}
1002
{
1000
C
1070
     1
1002
}
1001
GENIUS_GENODEF_13
1002
{
1000
HIER
1070
     0
1002
}
1002
{
1000
MANEDIT
1070
     0
1002
}
1002
{
1000
NOSEL
1070
     0
1002
}
1002
{
1000
BEHIND
1070
     0
1002
}
1002
{
1000
REACTOR
1002
}
1001
GENIUS_GENOBJ-N-REC_13
1002
{
1000
OWNER
1000
GEN
1002
}
  0
LINE
  5
3CC3
330
1F
100
AcDbEntity
  8
AM_0
100
AcDbLine
 10
-37.00000015013637
 20
-1.500000435719498
 30
0.0
 11
-38.00000015013637
 21
-0.9226501665298727
 31
0.0
  0
SPLINE
  5
3DC7
330
1F
100
AcDbEntity
  8
AM_0
 48
0.5
100
AcDbSpline
210
0.0
220
0.0
230
1.0
 70
     8
 71
     3
 72
    17
 73
    13
 74
     0
 42
0.0000000001
 43
0.0000000001
 40
0.0
 40
0.0
 40
0.0
 40
0.0
 40
1.010743614677189
 40
2.022833924044153
 40
3.037578959561199
 40
4.056212747067873
 40
5.079857613375832
 40
6.109500119648989
 40
7.14596120163808
 40
8.18989512056258
 40
9.241717674284874
 40
9.667868060342595
 40
9.667868060342595
 40
9.667868060342595
 40
9.667868060342595
 10
-0.3994766511901668
 20
0.4999701598405455
 30
0.0
 10
-0.4265735081934246
 20
0.4996728863380812
 30
0.0
 10
-0.4808033255136005
 20
0.4990779432517828
 30
0.0
 10
-0.562128213324849
 20
0.4942772632658147
 30
0.0
 10
-0.6434497530378867
 20
0.4866483315198999
 30
0.0
 10
-0.7247662352431452
 20
0.4759549407310632
 30
0.0
 10
-0.8060766914850654
 20
0.4623421178237174
 30
0.0
 10
-0.8873801286365761
 20
0.4458729767169009
 30
0.0
 10
-0.9686754554692074
 20
0.4266535347181761
 30
0.0
 10
-1.049965826567469
 20
0.4048131820608772
 30
0.0
 10
-1.114913858912986
 20
0.3853397150583884
 30
0.0
 10
-1.152784764132977
 20
0.3732650651679024
 30
0.0
 10
-1.206038977455969
 20
0.3523916682980481
 30
0.0
  0
LINE
  5
4360
330
1F
100
AcDbEntity
  8
AM_11
 48
0.5
100
AcDbLine
 10
-2.124001536014334
 20
0.4999701598406267
 30
0.0
 11
-0.4302887730361529
 21
0.4999701598406267
 31
0.0
  0
LINE
  5
4364
330
1F
100
AcDbEntity
  8
AM_11
 48
0.5
100
AcDbLine
 10
-2.39964579165579
 20
-0.5000298401592758
 30
0.0
 11
-0.4302887730361529
 21
-0.5000298401592758
 31
0.0
  0
LINE
  5
4382
330
1F
100
AcDbEntity
  8
AM_0
100
AcDbLine
 10
-16.23202176427624
 20
1.500046670618324
 30
0.0
 11
-12.49998087405281
 21
0.5000493279630276
 31
0.0
  0
LINE
  5
45D8
330
1F
100
AcDbEntity
  8
AM_0
100
AcDbLine
 10
-16.23202176427624
 20
-1.499952530940261
 30
0.0
 11
-12.50000474021229
 21
-0.4999615832031243
 31
0.0
  0
DIMENSION
  5
45F7
330
1F
100
AcDbEntity
  8
AM_5
100
AcDbDimension
  2
*D28
 10
-12.50000015013653
 20
-0.4999787135990763
 30
0.0
 11
-18.3203421684086
 21
0.0000415588076697
 31
0.0
 70
    34
  1
<>
  3
AM_JIS$2
100
AcDb2LineAngularDimension
 13
-16.23189289937445
 23
1.499999574490402
 33
0.0
 14
-12.49998087405281
 24
0.5000493279630276
 34
0.0
 15
-16.23189289937445
 25
-1.499918001693893
 35
0.0
 16
-17.67345250901372
 26
0.6159148844152189
 36
0.0
1001
ACAD
1000
DSTYLE
1002
{
1070
   179
1070
     3
1002
}
1001
GENIUS_GENDTOL_13
1000

1000
h7
1000

1040
0.0
  0
SPLINE
  5
47E9
330
1F
100
AcDbEntity
  8
AM_0
100
AcDbSpline
210
0.0
220
0.0
230
1.0
 70
     8
 71
     3
 72
    46
 73
    42
 74
     0
 42
0.0000000001
 43
0.0000000001
 40
0.0
 40
0.0
 40
0.0
 40
0.0
 40
0.8427075293422856
 40
1.265518104770559
 40
1.68994884956506
 40
2.116467290673827
 40
2.54548530610122
 40
2.977344090263341
 40
3.412310401731622
 40
3.850575907619845
 40
4.292228523283339
 40
4.737291192035371
 40
5.185695533383685
 40
5.63729472003792
 40
6.091866727153825
 40
6.549120869352286
 40
7.008706717250554
 40
7.470222077277051
 40
7.933222198716569
 40
8.397230145652669
 40
8.861746885649248
 40
9.326263625646204
 40
9.790271572582303
 40
10.25327169402144
 40
10.71478705404793
 40
11.17437290194659
 40
11.6316270441445
 40
12.08619905126056
 40
12.53780120194721
 40
12.98620554329551
 40
13.43126821204755
 40
13.87292082771091
 40
14.3111802250952
 40
14.74614653656348
 40
15.17800532072561
 40
15.60702303167234
 40
16.03354172596774
 40
16.45797877828845
 40
16.88078920975347
 40
17.30249350532345
 40
17.72363667810562
 40
17.72363667810562
 40
17.72363667810562
 40
17.72363667810562
 10
-0.2585800937941244
 20
-0.5000298401593569
 30
0.0
 10
-0.3236826386318066
 20
-0.4988908015089351
 30
0.0
 10
-0.42144900037628
 20
-0.4971802744471056
 30
0.0
 10
-0.5514531950063772
 20
-0.4866488735677146
 30
0.0
 10
-0.649069390108738
 20
-0.4760304200043899
 30
0.0
 10
-0.7466772413499898
 20
-0.4623981293420832
 30
0.0
 10
-0.8442764915973874
 20
-0.4459332750875467
 30
0.0
 10
-0.9418666394654721
 20
-0.4267145732707718
 30
0.0
 10
-1.039447521504746
 20
-0.4048672215340618
 30
0.0
 10
-1.13701870344587
 20
-0.3805253658513185
 30
0.0
 10
-1.234580380309927
 20
-0.3538399834384905
 30
0.0
 10
-1.332132289686718
 20
-0.3249756257335112
 30
0.0
 10
-1.429675998798904
 20
-0.2941115936559902
 30
0.0
 10
-1.527211981728245
 20
-0.2614376248685226
 30
0.0
 10
-1.62474113541014
 20
-0.2271552034975377
 30
0.0
 10
-1.722264543649209
 20
-0.1914758302840402
 30
0.0
 10
-1.819783061145335
 20
-0.154618913827002
 30
0.0
 10
-1.917297637000246
 20
-0.1168111435639098
 30
0.0
 10
-2.01480930514695
 20
-0.0782852041671165
 30
0.0
 10
-2.112318956359786
 20
-0.0392780030824807
 30
0.0
 10
-2.209827787889599
 20
-0.0000298401673638
 30
0.0
 10
-2.307336619397987
 20
0.0392183227954204
 30
0.0
 10
-2.404846270675442
 20
0.0782255237371355
 30
0.0
 10
-2.502357938586646
 20
0.1167514636566448
 30
0.0
 10
-2.599872515312895
 20
0.1545592319812952
 30
0.0
 10
-2.697391029580419
 20
0.1914161556254529
 30
0.0
 10
-2.794914449777555
 20
0.2270955022225879
 30
0.0
 10
-2.892443771249746
 20
0.261378096576298
 30
0.0
 10
-2.98998013315699
 20
0.2940517685041266
 30
0.0
 10
-3.087524016272024
 20
0.3249159588419272
 30
0.0
 10
-3.185075923377424
 20
0.3537803251355412
 30
0.0
 10
-3.282637199469209
 20
0.3804654623326005
 30
0.0
 10
-3.380207731313678
 20
0.4048076945632032
 30
0.0
 10
-3.477788215034185
 20
0.4266551355486285
 30
0.0
 10
-3.575378306422088
 20
0.4458725799770409
 30
0.0
 10
-3.672977628223685
 20
0.4623422096882043
 30
0.0
 10
-3.77058610240562
 20
0.4759550332645972
 30
0.0
 10
-3.868201794516167
 20
0.486648238762809
 30
0.0
 10
-3.965823526062036
 20
0.4942772778230894
 30
0.0
 10
-4.063448801204211
 20
0.499077939622087
 30
0.0
 10
-4.128548192653449
 20
0.4996728851286968
 30
0.0
 10
-4.161076218530422
 20
0.4999701598405455
 30
0.0
  0
SPLINE
  5
47EA
330
1F
100
AcDbEntity
  8
AM_0
 48
0.5
100
AcDbSpline
210
0.0
220
0.0
230
1.0
 70
     8
 71
     3
 72
    21
 73
    17
 74
     0
 42
0.0000000001
 43
0.0000000001
 40
11.41400771384456
 40
11.41400771384456
 40
11.41400771384456
 40
11.41400771384456
 40
12.0033633515982
 40
13.08720139956839
 40
14.16337181880432
 40
15.23152222380919
 40
16.29148850140128
 40
17.34331105512262
 40
18.38723020264746
 40
19.42369128463655
 40
20.45333379090873
 40
21.47697865721768
 40
22.49561244472435
 40
23.5103574802404
 40
24.52244778960836
 40
25.53320666051913
 40
25.53320666051913
 40
25.53320666051913
 40
25.53320666051913
 10
-0.6068446492877797
 20
0.0904941188256073
 30
0.0
 10
-0.7985878824451357
 20
0.1953285421382445
 30
0.0
 10
-0.94531055302142
 20
0.2667390628776282
 30
0.0
 10
-1.01475054376447
 20
0.2940726008369228
 30
0.0
 10
-1.112294256652634
 20
0.3249366235353608
 30
0.0
 10
-1.20984615191072
 20
0.3538010162029407
 30
0.0
 10
-1.307407431127784
 20
0.3804861465057863
 30
0.0
 10
-1.404977962193699
 20
0.4048283802225196
 30
0.0
 10
-1.502558445937876
 20
0.4266758220693664
 30
0.0
 10
-1.600148537993928
 20
0.4458932616349867
 30
0.0
 10
-1.697747857125697
 20
0.4623629097644735
 30
0.0
 10
-1.795355860239018
 20
0.4759755979905144
 30
0.0
 10
-1.892971028592125
 20
0.4866690246786498
 30
0.0
 10
-1.990592286367238
 20
0.4942979465634495
 30
0.0
 10
-2.088218048876381
 20
0.4990986544018809
 30
0.0
 10
-2.153317932225864
 20
0.4996935789270977
 30
0.0
 10
-2.185846449543141
 20
0.4999908454002237
 30
0.0
  0
SPLINE
  5
47EB
330
1F
100
AcDbEntity
  8
AM_0
100
AcDbSpline
210
0.0
220
0.0
230
1.0
 70
     8
 71
     3
 72
    17
 73
    13
 74
     0
 42
0.0000000001
 43
0.0000000001
 40
1.580019955310467
 40
1.580019955310467
 40
1.580019955310467
 40
1.580019955310467
 40
2.030549285115227
 40
3.082371838836284
 40
4.126290986361125
 40
5.162752068350215
 40
6.192395305374981
 40
7.216039564037012
 40
8.234688489606833
 40
9.249433870634691
 40
10.26152376260694
 40
11.27226744710342
 40
11.27226744710342
 40
11.27226744710342
 40
11.27226744710352
 10
-1.45129816629809
 20
-0.3690445634545655
 30
0.0
 10
-1.465110524569173
 20
-0.3728451085500525
 30
0.0
 10
-1.511248441624193
 20
-0.3853019027356482
 30
0.0
 10
-1.590017307762213
 20
-0.4048408301275769
 30
0.0
 10
-1.687584201105731
 20
-0.4267218367906401
 30
0.0
 10
-1.785177954523518
 20
-0.4459304554633832
 30
0.0
 10
-1.882776179652723
 20
-0.4624021792874779
 30
0.0
 10
-1.980385037934336
 20
-0.4760171921480329
 30
0.0
 10
-2.078000639731402
 20
-0.4866977991702911
 30
0.0
 10
-2.17562231985701
 20
-0.494374786446778
 30
0.0
 10
-2.273247673166957
 20
-0.4989987363188759
 30
0.0
 10
-2.338347038384783
 20
-0.5000298430204487
 30
0.0
 10
-2.370875058046789
 20
-0.5000298401593569
 30
0.0
  0
LINE
  5
47EC
330
1F
100
AcDbEntity
  8
AM_11
 48
0.5
100
AcDbLine
 10
-5.607944429165259
 20
0.5000411939147315
 30
0.0
 11
-4.434358557286338
 21
0.4999701598406267
 31
0.0
  0
SPLINE
  5
47ED
330
1F
100
AcDbEntity
  8
AM_0
100
AcDbSpline
210
0.0
220
0.0
230
1.0
 70
     8
 71
     3
 72
    22
 73
    18
 74
     0
 42
0.0000000001
 43
0.0000000001
 40
17.17441611292
 40
17.17441611292
 40
17.17441611292
 40
17.17441611292
 40
17.38177636558528
 40
18.41823744757437
 40
19.46215659509824
 40
20.51397914882054
 40
21.57394542641293
 40
22.64209583141747
 40
23.71826625065247
 40
24.80210429862395
 40
25.8930771157021
 40
26.99048705697709
 40
28.09349309193389
 40
29.20112995599786
 40
30.31233024745139
 40
31.42594771747373
 40
32.5407895042663
 40
32.54078950426994
 40
32.54078950426994
 40
32.54078950426994
 10
-2.743489412728087
 20
-0.4490334589839336
 30
0.0
 10
-2.750026545559647
 20
-0.4478760080248208
 30
0.0
 10
-2.789213086749833
 20
-0.4408258477203049
 30
0.0
 10
-2.861000622057368
 20
-0.4266893587111278
 30
0.0
 10
-2.958581098380042
 20
-0.404841950928918
 30
0.0
 10
-3.056151631456793
 20
-0.3804997079808135
 30
0.0
 10
-3.153712910130113
 20
-0.3538145801833822
 30
0.0
 10
-3.251264805528844
 20
-0.3249501868240179
 30
0.0
 10
-3.348808518403357
 20
-0.294086164361074
 30
0.0
 10
-3.446344500408832
 20
-0.2614121931456617
 30
0.0
 10
-3.543873653983947
 20
-0.227129771768424
 30
0.0
 10
-3.64139706359266
 20
-0.1914504010540068
 30
0.0
 10
-3.73891557567812
 20
-0.1545934745320292
 30
0.0
 10
-3.836430171922163
 20
-0.1167857422426958
 30
0.0
 10
-3.93394171670669
 20
-0.0782596789434902
 30
0.0
 10
-4.031451654581055
 20
-0.039253011268727
 30
0.0
 10
-4.096445519808428
 20
-0.0130920666736482
 30
0.0
 10
-4.128960306704783
 20
-0.0000044088442745
 30
0.0
  0
SPLINE
  5
47EE
330
1F
100
AcDbEntity
  8
AM_0
100
AcDbSpline
210
0.0
220
0.0
230
1.0
 70
     8
 71
     3
 72
    11
 73
     7
 74
     0
 42
0.0000000001
 43
0.0000000001
 40
11.27226913003534
 40
11.27226913003534
 40
11.27226913003534
 40
11.2722691300354
 40
12.28301561507924
 40
13.29510212255852
 40
14.30984805882082
 40
15.18258238371378
 40
15.18258238371378
 40
15.18258238371378
 40
15.18258238371378
 10
-5.846318457551287
 20
-0.5000298401593569
 30
0.0
 10
-5.878722789668462
 20
-0.4975826948603901
 30
0.0
 10
-5.94347033317059
 20
-0.491658262595422
 30
0.0
 10
-6.040257304179445
 20
-0.4797072173123931
 30
0.0
 10
-6.132109846287435
 20
-0.4654330041026844
 30
0.0
 10
-6.191514678886944
 20
-0.4544599915805472
 30
0.0
 10
-6.218890117299822
 20
-0.4490396264801007
 30
0.0
  0
SPLINE
  5
47EF
330
1F
100
AcDbEntity
  8
AM_0
100
AcDbSpline
210
0.0
220
0.0
230
1.0
 70
     8
 71
     3
 72
    17
 73
    13
 74
     0
 42
0.0000000001
 43
0.0000000001
 40
1.580019955310467
 40
1.580019955310467
 40
1.580019955310467
 40
1.580019955310467
 40
2.030549285115227
 40
3.082371838836284
 40
4.126290986361125
 40
5.162752068350215
 40
6.192395305374981
 40
7.216039564037012
 40
8.234688489606833
 40
9.249433870634691
 40
10.26152376260694
 40
11.27226744710342
 40
11.27226744710342
 40
11.27226744710342
 40
11.27226744710352
 10
-4.926741565802589
 20
-0.3690445634545655
 30
0.0
 10
-4.940553924073844
 20
-0.3728451085500525
 30
0.0
 10
-4.986691841128519
 20
-0.3853019027356482
 30
0.0
 10
-5.065460707266711
 20
-0.4048408301275769
 30
0.0
 10
-5.163027600610055
 20
-0.4267218367906401
 30
0.0
 10
-5.26062135402784
 20
-0.4459304554633832
 30
0.0
 10
-5.358219579157394
 20
-0.4624021792874779
 30
0.0
 10
-5.45582843743866
 20
-0.4760171921480329
 30
0.0
 10
-5.553444039236072
 20
-0.4866977991702911
 30
0.0
 10
-5.651065719362199
 20
-0.494374786446778
 30
0.0
 10
-5.748691072671625
 20
-0.4989987363188759
 30
0.0
 10
-5.813790437889279
 20
-0.5000298430204487
 30
0.0
 10
-5.846318457551287
 20
-0.5000298401593569
 30
0.0
  0
LINE
  5
47F0
330
1F
100
AcDbEntity
  8
AM_11
 48
0.5
100
AcDbLine
 10
-5.846318457550943
 20
-0.5000298401592758
 30
0.0
 11
-4.007308152535747
 21
-0.5001008742334616
 31
0.0
  0
SPLINE
  5
47F1
330
1F
100
AcDbEntity
  8
AM_0
100
AcDbSpline
210
0.0
220
0.0
230
1.0
 70
     8
 71
     3
 72
    23
 73
    19
 74
     0
 42
0.0000000001
 43
0.0000000001
 40
16.03460024169435
 40
16.03460024169435
 40
16.03460024169435
 40
16.03460024169435
 40
16.35212704903564
 40
17.38177054169784
 40
18.41822485651776
 40
19.46214173629503
 40
20.51396345435107
 40
21.57393551351153
 40
22.64208202342361
 40
23.7182574881101
 40
24.80209208578934
 40
25.89306333925047
 40
26.99048218457928
 40
28.09348763352352
 40
29.20111863782268
 40
30.31232390128032
 40
31.42594612798585
 40
32.5407912310448
 40
32.5407912310486
 40
32.5407912310486
 40
32.5407912310486
 10
-5.607944429165257
 20
0.5000411939147314
 30
0.0
 10
-5.597914623668324
 20
0.4983532819644631
 30
0.0
 10
-5.555403900717464
 20
0.4910029004946554
 30
0.0
 10
-5.480520804430126
 20
0.4766009498140499
 30
0.0
 10
-5.383546998705783
 20
0.4551854066503193
 30
0.0
 10
-5.28666326681342
 20
0.4311393212868372
 30
0.0
 10
-5.189863883815985
 20
0.404601860201402
 30
0.0
 10
-5.093145414132166
 20
0.3757209703332638
 30
0.0
 10
-4.996502267666196
 20
0.3446617470286402
 30
0.0
 10
-4.899927714556372
 20
0.3116049471762006
 30
0.0
 10
-4.803416267089922
 20
0.2767377695062852
 30
0.0
 10
-4.70696018759452
 20
0.2402630980014836
 30
0.0
 10
-4.610551659382573
 20
0.2023929392114576
 30
0.0
 10
-4.514184259029662
 20
0.1633450306729773
 30
0.0
 10
-4.417849923592417
 20
0.1233464306267168
 30
0.0
 10
-4.321539730470306
 20
0.0826307015518798
 30
0.0
 10
-4.225245837296354
 20
0.0414337800729639
 30
0.0
 10
-4.161067151517505
 20
0.0138134968457359
 30
0.0
 10
-4.128960306704609
 20
-0.0000044088444369
 30
0.0
  0
LINE
  5
47F2
330
1F
100
AcDbEntity
  8
AM_11
 48
0.5
100
AcDbLine
 10
-9.083296811223425
 20
0.5000411939147315
 30
0.0
 11
-7.909710939344677
 21
0.4999701598406267
 31
0.0
  0
LINE
  5
47F3
330
1F
100
AcDbEntity
  8
AM_11
 48
0.5
100
AcDbLine
 10
-9.321827268850872
 20
-0.5000035109939795
 30
0.0
 11
-7.909817682402747
 21
-0.5000745450681655
 31
0.0
  0
SPLINE
  5
47F4
330
1F
100
AcDbEntity
  8
AM_0
100
AcDbSpline
210
0.0
220
0.0
230
1.0
 70
     8
 71
     3
 72
    17
 73
    13
 74
     0
 42
0.0000000001
 43
0.0000000001
 40
1.580019955310467
 40
1.580019955310467
 40
1.580019955310467
 40
1.580019955310467
 40
2.030549285115227
 40
3.082371838836284
 40
4.126290986361125
 40
5.162752068350215
 40
6.192395305374981
 40
7.216039564037012
 40
8.234688489606833
 40
9.249433870634691
 40
10.26152376260694
 40
11.27226744710342
 40
11.27226744710342
 40
11.27226744710342
 40
11.27226744710352
 10
-8.402250376400159
 20
-0.3690182342892692
 30
0.0
 10
-8.416062734671411
 20
-0.3728187793847562
 30
0.0
 10
-8.462200651726085
 20
-0.3852755735703519
 30
0.0
 10
-8.540969517864278
 20
-0.4048145009622805
 30
0.0
 10
-8.638536411207622
 20
-0.4266955076253439
 30
0.0
 10
-8.736130164625411
 20
-0.445904126298087
 30
0.0
 10
-8.833728389754959
 20
-0.4623758501221817
 30
0.0
 10
-8.931337248036223
 20
-0.4759908629827367
 30
0.0
 10
-9.02895284983364
 20
-0.4866714700049947
 30
0.0
 10
-9.126574529959594
 20
-0.4943484572814816
 30
0.0
 10
-9.224199883269191
 20
-0.4989724071535795
 30
0.0
 10
-9.289299248486845
 20
-0.5000035138551526
 30
0.0
 10
-9.321827268148679
 20
-0.5000035109940607
 30
0.0
  0
SPLINE
  5
47F5
330
1F
100
AcDbEntity
  8
AM_0
100
AcDbSpline
210
0.0
220
0.0
230
1.0
 70
     8
 71
     3
 72
    23
 73
    19
 74
     0
 42
0.0000000001
 43
0.0000000001
 40
16.03460024169435
 40
16.03460024169435
 40
16.03460024169435
 40
16.03460024169435
 40
16.35212704903564
 40
17.38177054169784
 40
18.41822485651776
 40
19.46214173629503
 40
20.51396345435107
 40
21.57393551351153
 40
22.64208202342361
 40
23.7182574881101
 40
24.80209208578934
 40
25.89306333925047
 40
26.99048218457928
 40
28.09348763352352
 40
29.20111863782268
 40
30.31232390128032
 40
31.42594612798585
 40
32.5407912310448
 40
32.5407912310486
 40
32.5407912310486
 40
32.5407912310486
 10
-9.083453240465184
 20
0.5000675230800277
 30
0.0
 10
-9.073423434968248
 20
0.4983796111297594
 30
0.0
 10
-9.030912712017389
 20
0.4910292296599516
 30
0.0
 10
-8.956029615730054
 20
0.4766272789793461
 30
0.0
 10
-8.859055810005706
 20
0.4552117358156155
 30
0.0
 10
-8.762172078113346
 20
0.4311656504521335
 30
0.0
 10
-8.665372695115911
 20
0.404628189366698
 30
0.0
 10
-8.568654225432089
 20
0.3757472994985601
 30
0.0
 10
-8.472011078966119
 20
0.3446880761939364
 30
0.0
 10
-8.375436525856295
 20
0.3116312763414967
 30
0.0
 10
-8.278925078389848
 20
0.2767640986715814
 30
0.0
 10
-8.182468998894446
 20
0.2402894271667799
 30
0.0
 10
-8.086060470682499
 20
0.2024192683767538
 30
0.0
 10
-7.989693070329759
 20
0.1633713598382735
 30
0.0
 10
-7.893358734892339
 20
0.123372759792013
 30
0.0
 10
-7.797048541770402
 20
0.082657030717176
 30
0.0
 10
-7.700754648596281
 20
0.0414601092382602
 30
0.0
 10
-7.636575962817433
 20
0.0138398260110322
 30
0.0
 10
-7.604469118004534
 20
0.0000219203208594
 30
0.0
  0
LINE
  5
47F6
330
1F
100
AcDbEntity
  8
AM_0
100
AcDbLine
 10
-7.909816945846684
 20
0.4999701598406267
 30
0.0
 11
-5.607944429165259
 21
0.5000411939147315
 31
0.0
  0
LINE
  5
47F7
330
1F
100
AcDbEntity
  8
AM_0
 48
0.5
100
AcDbLine
 10
-7.909817682402914
 20
-0.5000298401592758
 30
0.0
 11
-5.846318457832575
 21
-0.5000298401592758
 31
0.0
  0
SPLINE
  5
47F8
330
1F
100
AcDbEntity
  8
AM_0
100
AcDbSpline
210
0.0
220
0.0
230
1.0
 70
     8
 71
     3
 72
    22
 73
    18
 74
     0
 42
0.0000000001
 43
0.0000000001
 40
17.17441611292
 40
17.17441611292
 40
17.17441611292
 40
17.17441611292
 40
17.38177636558528
 40
18.41823744757437
 40
19.46215659509824
 40
20.51397914882054
 40
21.57394542641293
 40
22.64209583141747
 40
23.71826625065247
 40
24.80210429862395
 40
25.8930771157021
 40
26.99048705697709
 40
28.09349309193389
 40
29.20112995599786
 40
30.31233024745139
 40
31.42594771747373
 40
32.5407895042663
 40
32.54078950426994
 40
32.54078950426994
 40
32.54078950426994
 10
-6.218932812232581
 20
-0.4490334589839336
 30
0.0
 10
-6.225469945064316
 20
-0.4478760080248208
 30
0.0
 10
-6.264656486253984
 20
-0.4408258477203049
 30
0.0
 10
-6.336444021561866
 20
-0.4266893587111278
 30
0.0
 10
-6.434024497884193
 20
-0.404841950928918
 30
0.0
 10
-6.53159503096146
 20
-0.3804997079808135
 30
0.0
 10
-6.62915630963461
 20
-0.3538145801833822
 30
0.0
 10
-6.726708205033514
 20
-0.3249501868240179
 30
0.0
 10
-6.824251917908022
 20
-0.294086164361074
 30
0.0
 10
-6.921787899912983
 20
-0.2614121931456617
 30
0.0
 10
-7.019317053488792
 20
-0.227129771768424
 30
0.0
 10
-7.116840463097158
 20
-0.1914504010540068
 30
0.0
 10
-7.214358975182441
 20
-0.1545934745320292
 30
0.0
 10
-7.311873571426662
 20
-0.1167857422426958
 30
0.0
 10
-7.409385116211359
 20
-0.0782596789434902
 30
0.0
 10
-7.50689505408555
 20
-0.039253011268727
 30
0.0
 10
-7.571888919312924
 20
-0.0130920666736482
 30
0.0
 10
-7.604403706209107
 20
-0.0000044088442745
 30
0.0
  0
SPLINE
  5
47F9
330
1F
100
AcDbEntity
  8
AM_0
100
AcDbSpline
210
0.0
220
0.0
230
1.0
 70
     8
 71
     3
 72
    46
 73
    42
 74
     0
 42
0.0000000001
 43
0.0000000001
 40
0.0
 40
0.0
 40
0.0
 40
0.0
 40
0.8427075293422831
 40
1.265518104770557
 40
1.689948849565058
 40
2.116467290673825
 40
2.545485306101222
 40
2.97734409026334
 40
3.412310401731621
 40
3.850575907619841
 40
4.292228523283341
 40
4.737291192035375
 40
5.185695533383689
 40
5.637294720037917
 40
6.09186672715383
 40
6.549120869352283
 40
7.008706717250553
 40
7.470222077277046
 40
7.933222198716568
 40
8.397230145652669
 40
8.861746885649248
 40
9.326263625646204
 40
9.790271572582303
 40
10.25327169402144
 40
10.71478705404793
 40
11.17437290194658
 40
11.6316270441445
 40
12.08619905126055
 40
12.5378012019472
 40
12.98620554329551
 40
13.43126821204755
 40
13.87292082771092
 40
14.31118022509521
 40
14.74614653656349
 40
15.17800532072561
 40
15.60702303167235
 40
16.03354172596773
 40
16.45797877828844
 40
16.88078920975347
 40
17.30249350532346
 40
17.72363667810562
 40
17.72363667810562
 40
17.72363667810562
 40
17.72363667810562
 10
-3.734023493298451
 20
-0.5000298401593569
 30
0.0
 10
-3.799126038136303
 20
-0.4988908015089351
 30
0.0
 10
-3.896892399881123
 20
-0.4971802744470244
 30
0.0
 10
-4.02689659451122
 20
-0.4866488735677146
 30
0.0
 10
-4.124512789613235
 20
-0.4760304200043899
 30
0.0
 10
-4.222120640854488
 20
-0.4623981293420832
 30
0.0
 10
-4.319719891102403
 20
-0.4459332750875467
 30
0.0
 10
-4.417310038969796
 20
-0.4267145732707718
 30
0.0
 10
-4.514890921009245
 20
-0.4048672215340618
 30
0.0
 10
-4.612462102950368
 20
-0.3805253658513185
 30
0.0
 10
-4.710023779814945
 20
-0.3538399834384905
 30
0.0
 10
-4.807575689191216
 20
-0.3249756257335112
 30
0.0
 10
-4.90511939830323
 20
-0.2941115936559902
 30
0.0
 10
-5.002655381232745
 20
-0.2614376248685226
 30
0.0
 10
-5.100184534914464
 20
-0.2271552034975377
 30
0.0
 10
-5.197707943153536
 20
-0.1914758302840402
 30
0.0
 10
-5.295226460649661
 20
-0.154618913827002
 30
0.0
 10
-5.392741036505092
 20
-0.1168111435639098
 30
0.0
 10
-5.490252704651449
 20
-0.0782852041671165
 30
0.0
 10
-5.587762355864456
 20
-0.0392780030824807
 30
0.0
 10
-5.685271187394271
 20
-0.0000298401673638
 30
0.0
 10
-5.782780018902659
 20
0.0392183227954204
 30
0.0
 10
-5.880289670179769
 20
0.0782255237371355
 30
0.0
 10
-5.977801338091489
 20
0.1167514636566448
 30
0.0
 10
-6.075315914817221
 20
0.1545592319812952
 30
0.0
 10
-6.172834429084739
 20
0.1914161556254529
 30
0.0
 10
-6.270357849282053
 20
0.2270955022225879
 30
0.0
 10
-6.36788717075407
 20
0.261378096576298
 30
0.0
 10
-6.465423532661832
 20
0.2940517685041266
 30
0.0
 10
-6.562967415776691
 20
0.3249159588419272
 30
0.0
 10
-6.660519322881746
 20
0.3537803251355412
 30
0.0
 10
-6.758080598974225
 20
0.3804654623326005
 30
0.0
 10
-6.855651130818172
 20
0.4048076945632032
 30
0.0
 10
-6.953231614538853
 20
0.4266551355486285
 30
0.0
 10
-7.050821705926585
 20
0.4458725799770409
 30
0.0
 10
-7.148421027728006
 20
0.4623422096882043
 30
0.0
 10
-7.246029501910117
 20
0.4759550332645972
 30
0.0
 10
-7.343645194020666
 20
0.486648238762809
 30
0.0
 10
-7.441266925566533
 20
0.4942772778230894
 30
0.0
 10
-7.538892200708881
 20
0.499077939622087
 30
0.0
 10
-7.603991592158116
 20
0.4996728851286968
 30
0.0
 10
-7.636519618035438
 20
0.4999701598405455
 30
0.0
  0
SPLINE
  5
47FA
330
1F
100
AcDbEntity
  8
AM_0
100
AcDbSpline
210
0.0
220
0.0
230
1.0
 70
     8
 71
     3
 72
    55
 73
    51
 74
     0
 42
0.0000000001
 43
0.0000000001
 40
0.0
 40
0.0
 40
0.0
 40
0.0
 40
1.010743684496582
 40
2.022833576467832
 40
3.037578957496688
 40
4.056212745003489
 40
5.079857003664532
 40
6.109500240690281
 40
7.145961322679372
 40
8.189895241603872
 40
9.241717795325891
 40
10.30168407291828
 40
11.36983447792315
 40
12.44600489715814
 40
13.52984294512926
 40
14.62081576220742
 40
15.7182257034828
 40
16.82123173843959
 40
17.92886860250316
 40
19.0400688939571
 40
20.15368796660465
 40
21.26852814259644
 40
22.38336992938901
 40
23.49698739941135
 40
24.6081876908653
 40
25.71582455492886
 40
26.81883757994213
 40
27.91624752121713
 40
29.00722033829659
 40
30.09105838626677
 40
31.16722880550176
 40
32.23537921050758
 40
33.29534548809967
 40
34.347168041821
 40
35.39108718934584
 40
36.42754827133493
 40
37.45720575381954
 40
38.48085062012849
 40
39.49948440763516
 40
40.51422944315121
 40
41.52631975251916
 40
42.53706336719636
 40
43.54780698187354
 40
44.55989729124051
 40
45.57464232675757
 40
46.59327611426424
 40
47.6169209805722
 40
48.64656348684535
 40
49.68302456883444
 40
50.58557219878025
 40
50.58557219878025
 40
50.58557219878025
 40
50.58557219878025
 10
-4.007308152535919
 20
-0.5000298401593569
 30
0.0
 10
-4.039836172626943
 20
-0.4997323522725879
 30
0.0
 10
-4.10493553681326
 20
-0.4991369802754905
 30
0.0
 10
-4.202560892193482
 20
-0.4943376135905332
 30
0.0
 10
-4.300182080315172
 20
-0.4867078742957461
 30
0.0
 10
-4.397797226643761
 20
-0.4760145044932563
 30
0.0
 10
-4.495405357133507
 20
-0.4624024198459844
 30
0.0
 10
-4.593004546194661
 20
-0.4459321511247368
 30
0.0
 10
-4.690595120291676
 20
-0.4267146479306235
 30
0.0
 10
-4.788176213994218
 20
-0.4048675890579474
 30
0.0
 10
-4.8857471625964
 20
-0.3805251141230803
 30
0.0
 10
-4.983308452435932
 20
-0.3538400183247583
 30
0.0
 10
-5.080860344800952
 20
-0.324975616278664
 30
0.0
 10
-5.178404058524693
 20
-0.2941115962197907
 30
0.0
 10
-5.275940040198081
 20
-0.2614376241638266
 30
0.0
 10
-5.373469194246792
 20
-0.2271552037284032
 30
0.0
 10
-5.470992602283191
 20
-0.1914758300698218
 30
0.0
 10
-5.568511120223713
 20
-0.1546189144552842
 30
0.0
 10
-5.666025694497319
 20
-0.1168111412531437
 30
0.0
 10
-5.763537368550574
 20
-0.0782852128158426
 30
0.0
 10
-5.86104699765544
 20
-0.0392779707186802
 30
0.0
 10
-5.958555958796782
 20
-0.0000299421775888
 30
0.0
 10
-6.056064482205026
 20
0.0392187928525717
 30
0.0
 10
-6.153574438140117
 20
0.0782254275037448
 30
0.0
 10
-6.251085991814446
 20
0.1167514725568625
 30
0.0
 10
-6.348600739955442
 20
0.1545593897896699
 30
0.0
 10
-6.44611966244957
 20
0.1914159908609867
 30
0.0
 10
-6.543643224403083
 20
0.227095545463539
 30
0.0
 10
-6.641172392532314
 20
0.261377938099526
 30
0.0
 10
-6.73870837065659
 20
0.2940519170266415
 30
0.0
 10
-6.836252084629998
 20
0.3249159371307459
 30
0.0
 10
-6.933803979479799
 20
0.3537803322748311
 30
0.0
 10
-7.031365259249596
 20
0.3804654553210458
 30
0.0
 10
-7.128935788527908
 20
0.4048077153121879
 30
0.0
 10
-7.226516278803931
 20
0.4266550603269202
 30
0.0
 10
-7.324106816700187
 20
0.4458729499608661
 30
0.0
 10
-7.421706702652193
 20
0.4623413375486424
 30
0.0
 10
-7.519315155611494
 20
0.4759576354239484
 30
0.0
 10
-7.616930330877779
 20
0.4866383296168074
 30
0.0
 10
-7.714551586829524
 20
0.4943144015389293
 30
0.0
 10
-7.812176859435087
 20
0.4989398022939812
 30
0.0
 10
-7.909804277296578
 20
0.5004849956361484
 30
0.0
 10
-8.00743169501449
 20
0.4989398022915452
 30
0.0
 10
-8.105056968051314
 20
0.4943144015485927
 30
0.0
 10
-8.20267822241364
 20
0.4866383295801028
 30
0.0
 10
-8.300293403639864
 20
0.4759576355615908
 30
0.0
 10
-8.397901358333806
 20
0.4623414034126247
 30
0.0
 10
-8.495500859779061
 20
0.4458731183412233
 30
0.0
 10
-8.588654167705723
 20
0.4275274308470621
 30
0.0
 10
-8.649093094748501
 20
0.414111056148426
 30
0.0
 10
-8.677133234260482
 20
0.4075726022675211
 30
0.0
  0
ELLIPSE
  5
47FB
330
1F
100
AcDbEntity
  8
AM_0
100
AcDbEllipse
 10
-11.68019256164928
 20
0.1726607989246325
 30
0.0
 11
-0.3222811561369385
 21
0.0000000000000415
 31
0.0
210
0.0
220
0.0
230
1.0
 40
0.9480817362461234
 41
-0.399145659076142
 42
1.046270830457542
  0
ELLIPSE
  5
47FC
330
1F
100
AcDbEntity
  8
AM_0
100
AcDbEllipse
 10
-10.0977566701447
 20
3.046166490868644
 30
0.0
 11
3.741102718542539
 21
0.000000000000109
 31
0.0
210
0.0
220
0.0
230
1.0
 40
0.9480817362461138
 41
4.227479111204882
 42
4.732451991731493
  0
SPLINE
  5
47FD
330
1F
100
AcDbEntity
  8
AM_0
100
AcDbSpline
210
0.0
220
0.0
230
1.0
 70
     8
 71
     3
 72
    55
 73
    51
 74
     0
 42
0.0000000001
 43
0.0000000001
 40
0.0
 40
0.0
 40
0.0
 40
0.0
 40
1.010743684496582
 40
2.022833576467832
 40
3.037578957496688
 40
4.056212745003489
 40
5.079857003664532
 40
6.109500240690281
 40
7.145961322679372
 40
8.189895241603872
 40
9.241717795325891
 40
10.30168407291828
 40
11.36983447792315
 40
12.44600489715814
 40
13.52984294512926
 40
14.62081576220742
 40
15.7182257034828
 40
16.82123173843959
 40
17.92886860250316
 40
19.0400688939571
 40
20.15368796660465
 40
21.26852814259644
 40
22.38336992938901
 40
23.49698739941135
 40
24.6081876908653
 40
25.71582455492886
 40
26.81883757994213
 40
27.91624752121713
 40
29.00722033829659
 40
30.09105838626677
 40
31.16722880550176
 40
32.23537921050758
 40
33.29534548809967
 40
34.347168041821
 40
35.39108718934584
 40
36.42754827133493
 40
37.45720575381954
 40
38.48085062012849
 40
39.49948440763516
 40
40.51422944315121
 40
41.52631975251916
 40
42.53706336719636
 40
43.54780698187354
 40
44.55989729124051
 40
45.57464232675757
 40
46.59327611426424
 40
47.6169209805722
 40
48.64656348684535
 40
49.68302456883444
 40
50.58557219878025
 40
50.58557219878025
 40
50.58557219878025
 40
50.58557219878025
 10
-7.418776772404108
 20
-0.5000035108655135
 30
0.0
 10
-7.451026464622487
 20
-0.4997060229787444
 30
0.0
 10
-7.515568802359184
 20
-0.499110650981647
 30
0.0
 10
-7.612358820777686
 20
-0.4943112842966898
 30
0.0
 10
-7.709144707594707
 20
-0.4866815450019026
 30
0.0
 10
-7.805924604315743
 20
-0.4759881751994128
 30
0.0
 10
-7.902697545229362
 20
-0.4623760905521408
 30
0.0
 10
-7.999461621222414
 20
-0.4459058218308933
 30
0.0
 10
-8.096217155965589
 20
-0.42668831863678
 30
0.0
 10
-8.192963291433828
 20
-0.4048412597641037
 30
0.0
 10
-8.289699368608847
 20
-0.3804987848292368
 30
0.0
 10
-8.386425869666798
 20
-0.3538136890309148
 30
0.0
 10
-8.483143053660443
 20
-0.3249492869848205
 30
0.0
 10
-8.579852128993811
 20
-0.2940852669259472
 30
0.0
 10
-8.676553538436742
 20
-0.2614112948699831
 30
0.0
 10
-8.773248178675784
 20
-0.2271288744345596
 30
0.0
 10
-8.86993712206859
 20
-0.1914495007759782
 30
0.0
 10
-8.966621217207746
 20
-0.1545925851614407
 30
0.0
 10
-9.06330140242437
 20
-0.1167848119593001
 30
0.0
 10
-9.159978712236716
 20
-0.0782588835219991
 30
0.0
 10
-9.256653994598043
 20
-0.0392516414248366
 30
0.0
 10
-9.353328614711486
 20
-0.0000036128837452
 30
0.0
 10
-9.450002800837326
 20
0.0304043878932116
 30
0.0
 10
-9.546678407232677
 20
0.0691469080755649
 30
0.0
 10
-9.643355597695784
 20
0.1112594437962268
 30
0.0
 10
-9.740035955292086
 20
0.1463531047041879
 30
0.0
 10
-9.836720451523431
 20
0.1834767622747914
 30
0.0
 10
-9.933409547516532
 20
0.2185707797604532
 30
0.0
 10
-10.03010420171543
 20
0.2519097219652035
 30
0.0
 10
-10.12680560763945
 20
0.2887584581540049
 30
0.0
 10
-10.22351468322035
 20
0.3150785255461255
 30
0.0
 10
-10.32023186967751
 20
0.3392598400869087
 30
0.0
 10
-10.41695836075206
 20
0.3612938439123194
 30
0.0
 10
-10.51369402219118
 20
0.380879942048308
 30
0.0
 10
-10.61043955939616
 20
0.4011481732628522
 30
0.0
 10
-10.70719505824833
 20
0.4151556137863946
 30
0.0
 10
-10.80395982516924
 20
0.4305964965344469
 30
0.0
 10
-10.90073308579318
 20
0.4430556768245122
 30
0.0
 10
-10.99751301120414
 20
0.4567757157477939
 30
0.0
 10
-11.09429896527116
 20
0.4656459418115713
 30
0.0
 10
-11.19108890162311
 20
0.4731822108202391
 30
0.0
 10
-11.28788096487497
 20
0.4786278649626166
 30
0.0
 10
-11.38467302798431
 20
0.4786278649626166
 30
0.0
 10
-11.48146296476399
 20
0.4818937598218423
 30
0.0
 10
-11.57824891725503
 20
0.4795973996412908
 30
0.0
 10
-11.67502884857492
 20
0.4704629495256665
 30
0.0
 10
-11.76795100437485
 20
0.4579256787263955
 30
0.0
 10
-11.84390945037337
 20
0.4292892828043318
 30
0.0
 10
-11.8907987917954
 20
0.3984845380844728
 30
0.0
 10
-11.94114682620108
 20
0.3515624827807908
 30
0.0
 10
-11.97714027698439
 20
0.2914066566792541
 30
0.0
  0
SPLINE
  5
47FE
330
1F
100
AcDbEntity
  8
AM_0
100
AcDbSpline
210
0.0
220
0.0
230
1.0
 70
     8
 71
     3
 72
    46
 73
    42
 74
     0
 42
0.0000000001
 43
0.0000000001
 40
0.0
 40
0.0
 40
0.0
 40
0.0
 40
0.8427075293422831
 40
1.265518104770557
 40
1.689948849565058
 40
2.116467290673825
 40
2.545485306101222
 40
2.97734409026334
 40
3.412310401731621
 40
3.850575907619841
 40
4.292228523283341
 40
4.737291192035375
 40
5.185695533383689
 40
5.637294720037917
 40
6.09186672715383
 40
6.549120869352283
 40
7.008706717250553
 40
7.470222077277046
 40
7.933222198716568
 40
8.397230145652669
 40
8.861746885649248
 40
9.326263625646204
 40
9.790271572582303
 40
10.25327169402144
 40
10.71478705404793
 40
11.17437290194658
 40
11.6316270441445
 40
12.08619905126055
 40
12.5378012019472
 40
12.98620554329551
 40
13.43126821204755
 40
13.87292082771092
 40
14.31118022509521
 40
14.74614653656349
 40
15.17800532072561
 40
15.60702303167235
 40
16.03354172596773
 40
16.45797877828844
 40
16.88078920975347
 40
17.30249350532346
 40
17.72363667810562
 40
17.72363667810562
 40
17.72363667810562
 40
17.72363667810562
 10
-7.209535632754747
 20
-0.5000035108655135
 30
0.0
 10
-7.274638177592598
 20
-0.4988644722150916
 30
0.0
 10
-7.372404539337417
 20
-0.497153945153181
 30
0.0
 10
-7.502408733967515
 20
-0.486622544273871
 30
0.0
 10
-7.60002492906953
 20
-0.4760040907105463
 30
0.0
 10
-7.697632780310783
 20
-0.4623718000482397
 30
0.0
 10
-7.7952320305587
 20
-0.4459069457937032
 30
0.0
 10
-7.892822178426266
 20
-0.4266882439769283
 30
0.0
 10
-7.990403060465538
 20
-0.4048408922402182
 30
0.0
 10
-8.087974242406836
 20
-0.380499036557475
 30
0.0
 10
-8.185535919271238
 20
-0.353813654144647
 30
0.0
 10
-8.283087828647683
 20
-0.3249492964396674
 30
0.0
 10
-8.380631537759697
 20
-0.2940852643621467
 30
0.0
 10
-8.478167520689209
 20
-0.2614112955746789
 30
0.0
 10
-8.57569667437076
 20
-0.2271288742036941
 30
0.0
 10
-8.673220082610001
 20
-0.1914495009901967
 30
0.0
 10
-8.770738600106128
 20
-0.1545925845331585
 30
0.0
 10
-8.868253175961383
 20
-0.1167848142700663
 30
0.0
 10
-8.965764844107741
 20
-0.0782588748732729
 30
0.0
 10
-9.063274495320751
 20
-0.0392516737886371
 30
0.0
 10
-9.160783326850562
 20
-0.0000035108735202
 30
0.0
 10
-9.258292158358953
 20
0.039244652089264
 30
0.0
 10
-9.355801809636233
 20
0.0782518530309791
 30
0.0
 10
-9.453313477547782
 20
0.1167777929504884
 30
0.0
 10
-9.550828054273686
 20
0.1545855612751388
 30
0.0
 10
-9.64834656854104
 20
0.1914424849192965
 30
0.0
 10
-9.745869988738347
 20
0.2271218315164315
 30
0.0
 10
-9.843399310210369
 20
0.2614044258701416
 30
0.0
 10
-9.940935672118124
 20
0.2940780977979702
 30
0.0
 10
-10.03847955523298
 20
0.3249422881357709
 30
0.0
 10
-10.13603146233821
 20
0.3538066544293849
 30
0.0
 10
-10.23359273843051
 20
0.380491791626444
 30
0.0
 10
-10.33116327027446
 20
0.4048340238570466
 30
0.0
 10
-10.42874375399514
 20
0.426681464842472
 30
0.0
 10
-10.52633384538305
 20
0.4458989092708844
 30
0.0
 10
-10.62393316718447
 20
0.4623685389820479
 30
0.0
 10
-10.72154164136658
 20
0.4759813625584406
 30
0.0
 10
-10.81915733347713
 20
0.4866745680566524
 30
0.0
 10
-10.91677906502282
 20
0.4943036071169331
 30
0.0
 10
-11.01440434016517
 20
0.4991042689159305
 30
0.0
 10
-11.03565369584972
 20
0.4994357160028062
 30
0.0
 10
-11.04212209640802
 20
0.5000070800156741
 30
0.0
  0
LINE
  5
47FF
330
1F
100
AcDbEntity
  8
AM_0
 48
0.5
100
AcDbLine
 10
-4.434360141214942
 20
0.4999701598406267
 30
0.0
 11
-2.185846449543141
 21
0.4999701598406267
 31
0.0
  0
SPLINE
  5
4800
330
1F
100
AcDbEntity
  8
AM_0
100
AcDbSpline
210
0.0
220
0.0
230
1.0
 70
     8
 71
     3
 72
    55
 73
    51
 74
     0
 42
0.0000000001
 43
0.0000000001
 40
0.0
 40
0.0
 40
0.0
 40
0.0
 40
1.010743684496582
 40
2.022833576467832
 40
3.037578957496688
 40
4.056212745003489
 40
5.079857003664532
 40
6.109500240690281
 40
7.145961322679372
 40
8.189895241603872
 40
9.241717795325891
 40
10.30168407291828
 40
11.36983447792315
 40
12.44600489715814
 40
13.52984294512926
 40
14.62081576220742
 40
15.7182257034828
 40
16.82123173843959
 40
17.92886860250316
 40
19.0400688939571
 40
20.15368796660465
 40
21.26852814259644
 40
22.38336992938901
 40
23.49698739941135
 40
24.6081876908653
 40
25.71582455492886
 40
26.81883757994213
 40
27.91624752121713
 40
29.00722033829659
 40
30.09105838626677
 40
31.16722880550176
 40
32.23537921050758
 40
33.29534548809967
 40
34.347168041821
 40
35.39108718934584
 40
36.42754827133493
 40
37.45720575381954
 40
38.48085062012849
 40
39.49948440763516
 40
40.51422944315121
 40
41.52631975251916
 40
42.53706336719636
 40
43.54780698187354
 40
44.55989729124051
 40
45.57464232675757
 40
46.59327611426424
 40
47.6169209805722
 40
48.64656348684535
 40
49.68302456883444
 40
50.58557219878025
 40
50.58557219878025
 40
50.58557219878025
 40
50.58557219878025
 10
-0.5318647530312486
 20
-0.5000298401593569
 30
0.0
 10
-0.5643927731226186
 20
-0.4997323522725879
 30
0.0
 10
-0.6294921373089356
 20
-0.4991369802754905
 30
0.0
 10
-0.7271174926889838
 20
-0.4943376135905332
 30
0.0
 10
-0.8247386808106751
 20
-0.4867078742957461
 30
0.0
 10
-0.9223538271392637
 20
-0.4760145044932563
 30
0.0
 10
-1.01996195762918
 20
-0.4624024198459844
 30
0.0
 10
-1.11756114668999
 20
-0.4459321511247368
 30
0.0
 10
-1.215151720787523
 20
-0.4267146479306235
 30
0.0
 10
-1.312732814490067
 20
-0.4048675890579474
 30
0.0
 10
-1.410303763091732
 20
-0.3805251141230803
 30
0.0
 10
-1.507865052931433
 20
-0.3538400183247583
 30
0.0
 10
-1.605416945296458
 20
-0.324975616278664
 30
0.0
 10
-1.702960659020195
 20
-0.2941115962197907
 30
0.0
 10
-1.800496640693584
 20
-0.2614376241638266
 30
0.0
 10
-1.898025794742467
 20
-0.2271552037284032
 30
0.0
 10
-1.995549202778691
 20
-0.1914758300698218
 30
0.0
 10
-2.09306772071904
 20
-0.1546189144552842
 30
0.0
 10
-2.190582294992649
 20
-0.1168111412531437
 30
0.0
 10
-2.28809396904625
 20
-0.0782852128158426
 30
0.0
 10
-2.385603598150769
 20
-0.0392779707186802
 30
0.0
 10
-2.483112559292286
 20
-0.0000299421775888
 30
0.0
 10
-2.580621082700186
 20
0.0392187928525717
 30
0.0
 10
-2.678131038635276
 20
0.0782254275037448
 30
0.0
 10
-2.775642592309778
 20
0.1167514725568625
 30
0.0
 10
-2.873157340450775
 20
0.1545593897896699
 30
0.0
 10
-2.970676262945076
 20
0.1914159908609867
 30
0.0
 10
-3.068199824898932
 20
0.227095545463539
 30
0.0
 10
-3.165728993027645
 20
0.261377938099526
 30
0.0
 10
-3.263264971152267
 20
0.2940519170266415
 30
0.0
 10
-3.3608086851255
 20
0.3249159371307459
 30
0.0
 10
-3.458360579975303
 20
0.3537803322748311
 30
0.0
 10
-3.55592185974527
 20
0.3804654553210458
 30
0.0
 10
-3.653492389023235
 20
0.4048077153121879
 30
0.0
 10
-3.751072879299435
 20
0.4266550603269202
 30
0.0
 10
-3.848663417195692
 20
0.4458729499608661
 30
0.0
 10
-3.946263303147523
 20
0.4623413375486424
 30
0.0
 10
-4.043871756107169
 20
0.4759576354239484
 30
0.0
 10
-4.141486931373282
 20
0.4866383296168074
 30
0.0
 10
-4.239108187325201
 20
0.4943144015389293
 30
0.0
 10
-4.336733459930591
 20
0.4989398022939812
 30
0.0
 10
-4.434360877792082
 20
0.5004849956361484
 30
0.0
 10
-4.53198829550982
 20
0.4989398022915452
 30
0.0
 10
-4.629613568546991
 20
0.4943144015485927
 30
0.0
 10
-4.727234822909143
 20
0.4866383295801028
 30
0.0
 10
-4.824850004135541
 20
0.4759576355615908
 30
0.0
 10
-4.922457958829309
 20
0.4623414034126247
 30
0.0
 10
-5.02005746027491
 20
0.4458731183412233
 30
0.0
 10
-5.113210768201227
 20
0.4275274308470621
 30
0.0
 10
-5.173649695244004
 20
0.414111056148426
 30
0.0
 10
-5.201689834756156
 20
0.4075726022675211
 30
0.0
  0
LINE
  5
4801
330
1F
100
AcDbEntity
  8
AM_0
 48
0.5
100
AcDbLine
 10
-4.007308152535747
 20
-0.5000298401592758
 30
0.0
 11
-2.370875058046616
 21
-0.5000298401592758
 31
0.0
  0
SPLINE
  5
4802
330
1F
100
AcDbEntity
  8
AM_0
100
AcDbSpline
210
0.0
220
0.0
230
1.0
 70
     8
 71
     3
 72
    11
 73
     7
 74
     0
 42
0.0000000001
 43
0.0000000001
 40
11.27226913003534
 40
11.27226913003534
 40
11.27226913003534
 40
11.2722691300354
 40
12.28301561507924
 40
13.29510212255852
 40
14.30984805882082
 40
15.18258238371378
 40
15.18258238371378
 40
15.18258238371378
 40
15.18258238371378
 10
-2.370875058046789
 20
-0.5000298401593569
 30
0.0
 10
-2.403279390163965
 20
-0.4975826948603901
 30
0.0
 10
-2.468026933665918
 20
-0.491658262595422
 30
0.0
 10
-2.564813904675296
 20
-0.4797072173123931
 30
0.0
 10
-2.656666446782938
 20
-0.4654330041026844
 30
0.0
 10
-2.716071279382101
 20
-0.4544599915805472
 30
0.0
 10
-2.743446717794979
 20
-0.4490396264801007
 30
0.0
  0
VIEWPORT
  5
110
330
101
100
AcDbEntity
 67
     1
  8
0
100
AcDbViewport
 10
420.5
 20
297.0
 30
0.0
 40
948.9782706766916
 41
628.452
 68
     1
 69
     1
1001
ACAD
1000
MVIEW
1002
{
1070
    16
1010
0.0
1020
0.0
1030
0.0
1010
0.0
1020
0.0
1030
1.0
1040
0.0
1040
628.452
1040
420.5
1040
297.0
1040
50.0
1040
0.0
1040
0.0
1070
     0
1070
   100
1070
     1
1070
     1
1070
     0
1070
     0
1070
     0
1070
     0
1040
0.0
1040
0.0
1040
0.0
1040
10.0
1040
10.0
1040
10.0
1040
10.0
1070
     0
1002
{
1002
}
1002
}
  0
ENDSEC
  0
SECTION
  2
OBJECTS
  0
DICTIONARY
  5
C
330
0
100
AcDbDictionary
  3
ACAD_GROUP
350
D
  3
ACAD_LAYOUT
350
1A
  3
ACAD_MLINESTYLE
350
17
  3
ACAD_PLOTSETTINGS
350
19
  3
ACAD_PLOTSTYLENAME
350
E
  3
ACDBVARIABLEDICTIONARY
350
34
  3
ACMDICTIONARY
350
43
  3
AMG
350
2B
  3
AMGSNAPSETTINGS
350
6E
  3
DWGPROPS
350
485E
  3
ACDBHEADERROUNDTRIPXREC
350
486B
  0
DICTIONARY
  5
74
330
1F
100
AcDbDictionary
280
     1
  3
ACAD_INDEX
360
4860
  3
ACAD_LAYOUTSELFREF
360
488E
  0
DICTIONARY
  5
4893
330
101
100
AcDbDictionary
280
     1
  3
ACAD_LAYOUTSELFREF
360
4894
  0
DICTIONARY
  5
D
102
{ACAD_REACTORS
330
C
102
}
330
C
100
AcDbDictionary
  0
DICTIONARY
  5
1A
102
{ACAD_REACTORS
330
C
102
}
330
C
100
AcDbDictionary
  0
DICTIONARY
  5
17
102
{ACAD_REACTORS
330
C
102
}
330
C
100
AcDbDictionary
  3
STANDARD
350
18
  0
DICTIONARY
  5
19
102
{ACAD_REACTORS
330
C
102
}
330
C
100
AcDbDictionary
  0
ACDBDICTIONARYWDFLT
  5
E
102
{ACAD_REACTORS
330
C
102
}
330
C
100
AcDbDictionary
281
     1
  3
Normal
350
F
100
AcDbDictionaryWithDefault
340
F
  0
DICTIONARY
  5
34
102
{ACAD_REACTORS
330
C
102
}
330
C
100
AcDbDictionary
  3
INDEXCTL
350
35
  3
SORTENTS
350
B5E
  0
DICTIONARY
  5
43
102
{ACAD_REACTORS
330
C
102
}
330
C
100
AcDbDictionary
  3
ACMSTDDICTIONARY
350
260
  0
DICTIONARY
  5
2B
102
{ACAD_REACTORS
330
C
102
}
330
C
100
AcDbDictionary
  3
ACMGSETTINGS
350
2C
  0
DICTIONARY
  5
6E
102
{ACAD_REACTORS
330
C
102
}
330
C
100
AcDbDictionary
  0
XRECORD
  5
485E
102
{ACAD_REACTORS
330
C
102
}
330
C
100
AcDbXrecord
  1
DWGPROPS COOKIE
  2

  3

  4

  6

  7

  8

  9

300
AmdtFileType=82
301
=
302
=
303
=
304
=
305
=
306
=
307
=
308
=
309
=
 40
0.1996723958333333
 41
2452802.456869572
 42
2453001.086356898
  1

 90
        1
  0
DICTIONARY
  5
486B
102
{ACAD_REACTORS
330
C
102
}
330
C
100
AcDbDictionary
  3
TSTACKALIGN
350
486C
  3
TSTACKSIZE
350
486D
  3
HYPERLINKBASE
350
486E
  3
STYLESHEET
350
486F
  3
LAYOUTDICT
350
4870
  3
PLOTSETDICT
350
4871
  3
PLOTSTYLNAMDICT
350
4872
  3
LWETCUNION
350
4873
  3
INSUNITS
350
4874
  3
CEPSNTYPE
350
4875
  3
FINGERPRINTGUID
350
4876
  3
VERSIONGUID
350
4877
  3
PSVPSCALE
350
4878
  3
DIMSTYLEDATA
350
4879
  3
PUCSORTHOREF
350
487A
  3
PUCSORTHOVIEW
350
487B
  3
PUCSBASE
350
487C
  3
PUCSORGTOP
350
487D
  3
PUCSORGBOTTOM
350
487E
  3
PUCSORGLEFT
350
487F
  3
PUCSORGRIGHT
350
4880
  3
PUCSORGFRONT
350
4881
  3
PUCSORGBACK
350
4882
  3
UCSORTHOREF
350
4883
  3
UCSORTHOVIEW
350
4884
  3
UCSBASE
350
4885
  3
UCSORGTOP
350
4886
  3
UCSORGBOTTOM
350
4887
  3
UCSORGLEFT
350
4888
  3
UCSORGRIGHT
350
4889
  3
UCSORGFRONT
350
488A
  3
UCSORGBACK
350
488B
  0
DICTIONARY
  5
4860
102
{ACAD_REACTORS
330
74
102
}
330
74
100
AcDbDictionary
  3
*A1
350
4861
  0
XRECORD
  5
488E
102
{ACAD_REACTORS
330
74
102
}
330
74
100
AcDbXrecord
340
1F
  0
XRECORD
  5
4894
102
{ACAD_REACTORS
330
4893
102
}
330
4893
100
AcDbXrecord
340
101
  0
MLINESTYLE
  5
18
102
{ACAD_REACTORS
330
17
102
}
330
17
100
AcDbMlineStyle
  2
STANDARD
 70
     0
  3

 62
   256
 51
90.0
 52
90.0
 71
     2
 49
0.5
 62
   256
  6
BYLAYER
 49
-0.5
 62
   256
  6
BYLAYER
  0
ACDBPLACEHOLDER
  5
F
102
{ACAD_REACTORS
330
E
102
}
330
E
100
AcDbPlaceHolder
280
     0
  0
DICTIONARYVAR
  5
35
102
{ACAD_REACTORS
330
34
102
}
330
34
100
DictionaryVariables
280
     0
  1
1
  0
DICTIONARYVAR
  5
B5E
102
{ACAD_REACTORS
330
34
102
}
330
34
100
DictionaryVariables
280
     0
  1
96
  0
DICTIONARY
  5
260
102
{ACAD_REACTORS
330
43
102
}
330
43
100
AcDbDictionary
  0
DICTIONARY
  5
2C
102
{ACAD_REACTORS
330
2B
102
}
330
2B
100
AcDbDictionary
  3
DWGSETTINGS
350
2D
  0
XRECORD
  5
486C
102
{ACAD_REACTORS
330
486B
102
}
330
486B
100
AcDbXrecord
 90
        1
  0
XRECORD
  5
486D
102
{ACAD_REACTORS
330
486B
102
}
330
486B
100
AcDbXrecord
 90
       70
  0
XRECORD
  5
486E
102
{ACAD_REACTORS
330
486B
102
}
330
486B
100
AcDbXrecord
  1

  0
XRECORD
  5
486F
102
{ACAD_REACTORS
330
486B
102
}
330
486B
100
AcDbXrecord
  1
ASAMI.ctb
  0
XRECORD
  5
4870
102
{ACAD_REACTORS
330
486B
102
}
330
486B
100
AcDbXrecord
340
1A
  0
XRECORD
  5
4871
102
{ACAD_REACTORS
330
486B
102
}
330
486B
100
AcDbXrecord
340
19
  0
XRECORD
  5
4872
102
{ACAD_REACTORS
330
486B
102
}
330
486B
100
AcDbXrecord
340
E
  0
XRECORD
  5
4873
102
{ACAD_REACTORS
330
486B
102
}
330
486B
100
AcDbXrecord
 90
    10781
  0
XRECORD
  5
4874
102
{ACAD_REACTORS
330
486B
102
}
330
486B
100
AcDbXrecord
 90
        4
  0
XRECORD
  5
4875
102
{ACAD_REACTORS
330
486B
102
}
330
486B
100
AcDbXrecord
 90
        0
  0
XRECORD
  5
4876
102
{ACAD_REACTORS
330
486B
102
}
330
486B
100
AcDbXrecord
  1
{AFB28963-8C59-40AE-9337-C84526B81ACE}
  0
XRECORD
  5
4877
102
{ACAD_REACTORS
330
486B
102
}
330
486B
100
AcDbXrecord
  1
{C3F6089D-7446-44FC-AAA4-B98D864EF432}
  0
XRECORD
  5
4878
102
{ACAD_REACTORS
330
486B
102
}
330
486B
100
AcDbXrecord
 40
0.0
  0
XRECORD
  5
4879
102
{ACAD_REACTORS
330
486B
102
}
330
486B
100
AcDbXrecord
1000
DSTYLE
1002
{
1070
    79
 70
     2
1070
   341
340
59
1070
   342
340
59
1070
   371
 70
    -1
1070
   372
 70
    -1
1002
}
  0
XRECORD
  5
487A
102
{ACAD_REACTORS
330
486B
102
}
330
486B
100
AcDbXrecord
340
0
  0
XRECORD
  5
487B
102
{ACAD_REACTORS
330
486B
102
}
330
486B
100
AcDbXrecord
 70
     0
  0
XRECORD
  5
487C
102
{ACAD_REACTORS
330
486B
102
}
330
486B
100
AcDbXrecord
340
0
  0
XRECORD
  5
487D
102
{ACAD_REACTORS
330
486B
102
}
330
486B
100
AcDbXrecord
 10
0.0
 20
0.0
 30
0.0
  0
XRECORD
  5
487E
102
{ACAD_REACTORS
330
486B
102
}
330
486B
100
AcDbXrecord
 10
0.0
 20
0.0
 30
0.0
  0
XRECORD
  5
487F
102
{ACAD_REACTORS
330
486B
102
}
330
486B
100
AcDbXrecord
 10
0.0
 20
0.0
 30
0.0
  0
XRECORD
  5
4880
102
{ACAD_REACTORS
330
486B
102
}
330
486B
100
AcDbXrecord
 10
0.0
 20
0.0
 30
0.0
  0
XRECORD
  5
4881
102
{ACAD_REACTORS
330
486B
102
}
330
486B
100
AcDbXrecord
 10
0.0
 20
0.0
 30
0.0
  0
XRECORD
  5
4882
102
{ACAD_REACTORS
330
486B
102
}
330
486B
100
AcDbXrecord
 10
0.0
 20
0.0
 30
0.0
  0
XRECORD
  5
4883
102
{ACAD_REACTORS
330
486B
102
}
330
486B
100
AcDbXrecord
340
0
  0
XRECORD
  5
4884
102
{ACAD_REACTORS
330
486B
102
}
330
486B
100
AcDbXrecord
 70
     0
  0
XRECORD
  5
4885
102
{ACAD_REACTORS
330
486B
102
}
330
486B
100
AcDbXrecord
340
0
  0
XRECORD
  5
4886
102
{ACAD_REACTORS
330
486B
102
}
330
486B
100
AcDbXrecord
 10
0.0
 20
0.0
 30
0.0
  0
XRECORD
  5
4887
102
{ACAD_REACTORS
330
486B
102
}
330
486B
100
AcDbXrecord
 10
0.0
 20
0.0
 30
0.0
  0
XRECORD
  5
4888
102
{ACAD_REACTORS
330
486B
102
}
330
486B
100
AcDbXrecord
 10
0.0
 20
0.0
 30
0.0
  0
XRECORD
  5
4889
102
{ACAD_REACTORS
330
486B
102
}
330
486B
100
AcDbXrecord
 10
0.0
 20
0.0
 30
0.0
  0
XRECORD
  5
488A
102
{ACAD_REACTORS
330
486B
102
}
330
486B
100
AcDbXrecord
 10
0.0
 20
0.0
 30
0.0
  0
XRECORD
  5
488B
102
{ACAD_REACTORS
330
486B
102
}
330
486B
100
AcDbXrecord
 10
0.0
 20
0.0
 30
0.0
  0
LAYER_INDEX
  5
4861
102
{ACAD_REACTORS
330
4860
102
}
330
4860
100
AcDbIndex
 40
2453151.591409305
100
AcDbLayerIndex
  8
0
360
4862
 90
        0
  8
AM_0
360
4863
 90
       44
  8
AM_11
360
4864
 90
        6
  8
AM_7
360
4865
 90
        1
  8
AM_5
360
4866
 90
        7
  8
Defpoints
360
4867
 90
        0
  8
AM_6
360
4868
 90
        1
  8
AM_CL
360
4869
 90
        0
  0
XRECORD
  5
2D
102
{ACAD_REACTORS
330
2C
102
}
330
2C
100
AcDbXrecord
  1
VERSION
140
15.0
  1
PRODUCT
  2
AutoCAD Mechanical 2000
  0
IDBUFFER
  5
4862
330
0
100
AcDbIdBuffer
  0
IDBUFFER
  5
4863
330
0
100
AcDbIdBuffer
330
3CC1
330
3CC2
330
3CC3
330
3DC7
330
4382
330
45D8
330
47E9
330
47EA
330
47EB
330
47ED
330
47EE
330
47EF
330
47F1
330
47F4
330
47F5
330
47F6
330
47F7
330
47F8
330
47F9
330
47FA
330
47FB
330
47FC
330
47FD
330
47FE
330
47FF
330
4800
330
4801
330
4802
330
2714
330
2715
330
271F
330
2B58
330
2B59
330
2B64
330
2B65
330
2B88
330
2B89
330
2B8A
330
2BAB
330
3814
330
3819
330
38A3
330
38AD
330
3CC0
  0
IDBUFFER
  5
4864
330
0
100
AcDbIdBuffer
330
4360
330
4364
330
47EC
330
47F0
330
47F2
330
47F3
  0
IDBUFFER
  5
4865
330
0
100
AcDbIdBuffer
330
2704
  0
IDBUFFER
  5
4866
330
0
100
AcDbIdBuffer
330
2702
330
2703
330
2713
330
2716
330
274B
330
2753
330
45F7
  0
IDBUFFER
  5
4867
330
0
100
AcDbIdBuffer
  0
IDBUFFER
  5
4868
330
0
100
AcDbIdBuffer
330
3732
  0
IDBUFFER
  5
4869
330
0
100
AcDbIdBuffer
  0
ENDSEC
  0
EOF
