  0
SECTION
  2
HEADER
  9
$ACADVER
  1
AC1014
  9
$ACADMAINTVER
 70
     9
  9
$DWGCODEPAGE
  3
ANSI_932
  9
$INSBASE
 10
0.0
 20
0.0
 30
0.0
  9
$EXTMIN
 10
-81.40000134152343
 20
-24.75000718101109
 30
-0.00000001
  9
$EXTMAX
 10
14.53312382160967
 20
14.15705407066803
 30
0.00000001
  9
$LIMMIN
 10
-85.78188508376403
 20
-34.06754714813237
  9
$LIMMAX
 10
18.30462332990544
 20
23.30144247547983
  9
$ORTHOMODE
 70
     0
  9
$REGENMODE
 70
     1
  9
$FILLMODE
 70
     1
  9
$QTEXTMODE
 70
     0
  9
$MIRRTEXT
 70
     0
  9
$DRAGMODE
 70
     2
  9
$LTSCALE
 40
1.0
  9
$OSMODE
 70
    55
  9
$ATTMODE
 70
     1
  9
$TEXTSIZE
 40
2.5
  9
$TRACEWID
 40
1.0
  9
$TEXTSTYLE
  7
STANDARD
  9
$CLAYER
  8
AM_0
  9
$CELTYPE
  6
BYLAYER
  9
$CECOLOR
 62
   256
  9
$CELTSCALE
 40
1.0
  9
$DELOBJ
 70
     1
  9
$DISPSILH
 70
     0
  9
$DIMSCALE
 40
0.5
  9
$DIMASZ
 40
2.5
  9
$DIMEXO
 40
1.0
  9
$DIMDLI
 40
12.0
  9
$DIMRND
 40
0.0
  9
$DIMDLE
 40
0.0
  9
$DIMEXE
 40
1.0
  9
$DIMTP
 40
0.1
  9
$DIMTM
 40
0.1
  9
$DIMTXT
 40
3.2
  9
$DIMCEN
 40
0.0
  9
$DIMTSZ
 40
0.0
  9
$DIMTOL
 70
     0
  9
$DIMLIM
 70
     0
  9
$DIMTIH
 70
     0
  9
$DIMTOH
 70
     0
  9
$DIMSE1
 70
     0
  9
$DIMSE2
 70
     0
  9
$DIMTAD
 70
     3
  9
$DIMZIN
 70
     8
  9
$DIMBLK
  1
OPEN30
  9
$DIMASO
 70
     1
  9
$DIMSHO
 70
     1
  9
$DIMPOST
  1

  9
$DIMAPOST
  1
"
  9
$DIMALT
 70
     0
  9
$DIMALTD
 70
     2
  9
$DIMALTF
 40
0.0393701
  9
$DIMLFAC
 40
1.0
  9
$DIMTOFL
 70
     1
  9
$DIMTVP
 40
0.0
  9
$DIMTIX
 70
     0
  9
$DIMSOXD
 70
     0
  9
$DIMSAH
 70
     0
  9
$DIMBLK1
  1

  9
$DIMBLK2
  1

  9
$DIMSTYLE
  2
AM_JIS
  9
$DIMCLRD
 70
   256
  9
$DIMCLRE
 70
   256
  9
$DIMCLRT
 70
     2
  9
$DIMTFAC
 40
0.71
  9
$DIMGAP
 40
1.5
  9
$DIMJUST
 70
     0
  9
$DIMSD1
 70
     0
  9
$DIMSD2
 70
     0
  9
$DIMTOLJ
 70
     0
  9
$DIMTZIN
 70
     0
  9
$DIMALTZ
 70
     0
  9
$DIMALTTZ
 70
     0
  9
$DIMFIT
 70
     3
  9
$DIMUPT
 70
     0
  9
$DIMUNIT
 70
     2
  9
$DIMDEC
 70
     3
  9
$DIMTDEC
 70
     3
  9
$DIMALTU
 70
     2
  9
$DIMALTTD
 70
     2
  9
$DIMTXSTY
  7
ASAMI
  9
$DIMAUNIT
 70
     0
  9
$LUNITS
 70
     2
  9
$LUPREC
 70
     2
  9
$SKETCHINC
 40
1.0
  9
$FILLETRAD
 40
2.5
  9
$AUNITS
 70
     0
  9
$AUPREC
 70
     0
  9
$MENU
  1
.
  9
$ELEVATION
 40
0.0
  9
$PELEVATION
 40
0.0
  9
$THICKNESS
 40
0.0
  9
$LIMCHECK
 70
     0
  9
$BLIPMODE
 70
     0
  9
$CHAMFERA
 40
0.25
  9
$CHAMFERB
 40
0.25
  9
$CHAMFERC
 40
20.0
  9
$CHAMFERD
 40
0.0
  9
$SKPOLY
 70
     0
  9
$TDCREATE
 40
2452800.443498622
  9
$TDUPDATE
 40
2453151.685784849
  9
$TDINDWG
 40
0.0524200579
  9
$TDUSRTIMER
 40
0.0524200579
  9
$USRTIMER
 70
     1
  9
$ANGBASE
 50
0.0
  9
$ANGDIR
 70
     0
  9
$PDMODE
 70
     0
  9
$PDSIZE
 40
0.0
  9
$PLINEWID
 40
0.0
  9
$COORDS
 70
     1
  9
$SPLFRAME
 70
     0
  9
$SPLINETYPE
 70
     6
  9
$SPLINESEGS
 70
     8
  9
$ATTDIA
 70
     1
  9
$ATTREQ
 70
     1
  9
$HANDLING
 70
 12289
  9
$HANDSEED
  5
2E31
  9
$SURFTAB1
 70
     6
  9
$SURFTAB2
 70
     6
  9
$SURFTYPE
 70
     6
  9
$SURFU
 70
     6
  9
$SURFV
 70
     6
  9
$UCSNAME
  2

  9
$UCSORG
 10
0.0
 20
0.0
 30
0.0
  9
$UCSXDIR
 10
1.0
 20
0.000000000000002
 30
0.0
  9
$UCSYDIR
 10
-0.000000000000002
 20
1.0
 30
0.0
  9
$PUCSNAME
  2

  9
$PUCSORG
 10
0.0
 20
0.0
 30
0.0
  9
$PUCSXDIR
 10
1.0
 20
0.0
 30
0.0
  9
$PUCSYDIR
 10
0.0
 20
1.0
 30
0.0
  9
$USERI1
 70
     0
  9
$USERI2
 70
     0
  9
$USERI3
 70
     0
  9
$USERI4
 70
     0
  9
$USERI5
 70
     0
  9
$USERR1
 40
0.0
  9
$USERR2
 40
0.0
  9
$USERR3
 40
0.0
  9
$USERR4
 40
0.0
  9
$USERR5
 40
0.0
  9
$WORLDVIEW
 70
     1
  9
$SHADEDGE
 70
     3
  9
$SHADEDIF
 70
    70
  9
$TILEMODE
 70
     1
  9
$MAXACTVP
 70
    64
  9
$PINSBASE
 10
0.0
 20
0.0
 30
0.0
  9
$PLIMCHECK
 70
     0
  9
$PEXTMIN
 10
1.000000000000000E+20
 20
1.000000000000000E+20
 30
1.000000000000000E+20
  9
$PEXTMAX
 10
-1.000000000000000E+20
 20
-1.000000000000000E+20
 30
-1.000000000000000E+20
  9
$PLIMMIN
 10
0.0
 20
0.0
  9
$PLIMMAX
 10
841.0
 20
594.0
  9
$UNITMODE
 70
     0
  9
$VISRETAIN
 70
     1
  9
$PLINEGEN
 70
     0
  9
$PSLTSCALE
 70
     0
  9
$TREEDEPTH
 70
  3020
  9
$PICKSTYLE
 70
     0
  9
$CMLSTYLE
  2
STANDARD
  9
$CMLJUST
 70
     0
  9
$CMLSCALE
 40
20.0
  9
$PROXYGRAPHICS
 70
     1
  9
$MEASUREMENT
 70
     1
  0
ENDSEC
  0
SECTION
  2
CLASSES
  0
CLASS
  1
ACDBDICTIONARYWDFLT
  2
AcDbDictionaryWithDefault
  3
AutoCAD 2000
 90
        0
280
     0
281
     0
  0
CLASS
  1
ACDBPLACEHOLDER
  2
AcDbPlaceHolder
  3
AutoCAD 2000
 90
        0
280
     0
281
     0
  0
CLASS
  1
LAYOUT
  2
AcDbLayout
  3
AutoCAD 2000
 90
        0
280
     0
281
     0
  0
CLASS
  1
AMGSETTINGSOBJ
  2
AmgSettingsObj
  3
"AcadM|Product Description: AutoCAD Mechanical 2000|Company: Autodesk"
 90
        0
280
     0
281
     0
  0
CLASS
  1
ACME_DOCUMENT
  2
AcMeDbDoc
  3
AcMeServices
 90
        0
280
     0
281
     0
  0
CLASS
  1
ACMESCOPE
  2
AcMeScope
  3
AcMeServices
 90
        0
280
     0
281
     0
  0
CLASS
  1
ACMECOMMANDHISTORY
  2
AcMeCommandHistory
  3
AcMeServices
 90
        0
280
     0
281
     0
  0
CLASS
  1
DICTIONARYVAR
  2
AcDbDictionaryVar
  3
AutoCAD 2000
 90
        0
280
     0
281
     0
  0
CLASS
  1
ACIMSYSVARMAN
  2
AcImSysVarManager
  3
AcMeServices
 90
        0
280
     0
281
     0
  0
CLASS
  1
ACIMREALSYSVAR
  2
AcImRealSysVar
  3
AcMeServices
 90
        0
280
     0
281
     0
  0
CLASS
  1
ACIMINTSYSVAR
  2
AcImIntSysVar
  3
AcMeServices
 90
        0
280
     0
281
     0
  0
CLASS
  1
ACMEDRAWINGMAN
  2
AcMeDrawingMan
  3
AcMeServices
 90
        0
280
     0
281
     0
  0
CLASS
  1
ACMEVIEW
  2
AcMeView
  3
AcMeServices
 90
        0
280
     0
281
     0
  0
CLASS
  1
ACDBENTITYCACHE
  2
AcMeEntityCache
  3
AcMeServices
 90
        0
280
     0
281
     0
  0
CLASS
  1
GSMANAGER
  2
AcMeGSManager
  3
AcMeServices
 90
        0
280
     0
281
     0
  0
CLASS
  1
AmdtInternalReactor
  2
AmdtInternalReactor
  3
AcMeServices
 90
        0
280
     0
281
     0
  0
CLASS
  1
ACMESTATEMGR
  2
AcMeStateMgr
  3
AcMeServices
 90
        0
280
     0
281
     0
  0
CLASS
  1
ACME_DATABASE
  2
AcMeDbDatabase
  3
AcMeServices
 90
        0
280
     0
281
     0
  0
CLASS
  1
ACRFINSADJUSTERMGR
  2
AcRfInsAdjusterMgr
  3
AcMeServices
 90
        0
280
     0
281
     0
  0
CLASS
  1
ACMDATADICTIONARY
  2
AcmDataDictionary
  3
"AcmSymBB|Product Description: AutoCAD Mechanical 2000|Company: Autodesk"
 90
        0
280
     0
281
     0
  0
CLASS
  1
ACMDATAENTRYBLOCK
  2
AcmDataEntryBlock
  3
"AcmSymBB|Product Description: AutoCAD Mechanical 2000|Company: Autodesk"
 90
        0
280
     0
281
     0
  0
CLASS
  1
AMGOBJPROPCFG
  2
AmgObjPropCfg
  3
"AmgLay|Product Description: AutoCAD Mechanical 2000|Company: Autodesk"
 90
        1
280
     0
281
     0
  0
CLASS
  1
ACAMGFILTERDAT
  2
AcAmgFilterDat
  3
"AcadM|Product Description: AutoCAD Mechanical 2000|Company: Autodesk"
 90
        0
280
     0
281
     0
  0
CLASS
  1
LAYER_INDEX
  2
AcDbLayerIndex
  3
AutoCAD 2000
 90
        0
280
     0
281
     0
  0
CLASS
  1
IDBUFFER
  2
AcDbIdBuffer
  3
AutoCAD 2000
 90
        0
280
     0
281
     0
  0
CLASS
  1
ACIMSTRSYSVAR
  2
AcImStrSysVar
  3
AcMeServices
 90
        0
280
     0
281
     0
  0
CLASS
  1
ACMSTANDARDJIS
  2
AcmStandardJIS
  3
"AcmSymBB|Product Description: AutoCAD Mechanical 2000|Company: Autodesk"
 90
        0
280
     0
281
     0
  0
CLASS
  1
ACMSURFSTANDARDJIS
  2
AcmSurfTextStdJIS
  3
"AcmSymBB|Product Description: AutoCAD Mechanical 2000|Company: Autodesk"
 90
        0
280
     0
281
     0
  0
CLASS
  1
ACMFCFSTANDARDJIS
  2
AcmFCFStdJIS
  3
"AcmSymBB|Product Description: AutoCAD Mechanical 2000|Company: Autodesk"
 90
        0
280
     0
281
     0
  0
CLASS
  1
ACMWELDSTANDARDJIS
  2
AcmWeldingStdJIS
  3
"AcmSymBB|Product Description: AutoCAD Mechanical 2000|Company: Autodesk"
 90
        0
280
     0
281
     0
  0
CLASS
  1
ACMIDSTANDARDJIS
  2
AcmIdStdJIS
  3
"AcmSymBB|Product Description: AutoCAD Mechanical 2000|Company: Autodesk"
 90
        0
280
     0
281
     0
  0
CLASS
  1
ACMDATUMSTANDARDJIS
  2
AcmDatumStdJIS
  3
"AcmSymBB|Product Description: AutoCAD Mechanical 2000|Company: Autodesk"
 90
        0
280
     0
281
     0
  0
CLASS
  1
ACMBOMSTANDARDJIS
  2
AcmBOMStdJIS
  3
"AcmSymBB|Product Description: AutoCAD Mechanical 2000|Company: Autodesk"
 90
        0
280
     0
281
     0
  0
CLASS
  1
ACMSTANDARDANSI
  2
AcmStandardANSI
  3
"AcmSymBB|Product Description: AutoCAD Mechanical 2000|Company: Autodesk"
 90
        0
280
     0
281
     0
  0
CLASS
  1
ACMSURFSTANDARDANSI
  2
AcmSurfTextStdANSI
  3
"AcmSymBB|Product Description: AutoCAD Mechanical 2000|Company: Autodesk"
 90
        0
280
     0
281
     0
  0
CLASS
  1
ACMFCFSTANDARDANSI
  2
AcmFCFStdANSI
  3
"AcmSymBB|Product Description: AutoCAD Mechanical 2000|Company: Autodesk"
 90
        0
280
     0
281
     0
  0
CLASS
  1
ACMWELDSTANDARDANSI
  2
AcmWeldingStdANSI
  3
"AcmSymBB|Product Description: AutoCAD Mechanical 2000|Company: Autodesk"
 90
        0
280
     0
281
     0
  0
CLASS
  1
ACMIDSTANDARDANSI
  2
AcmIdStdANSI
  3
"AcmSymBB|Product Description: AutoCAD Mechanical 2000|Company: Autodesk"
 90
        0
280
     0
281
     0
  0
CLASS
  1
ACMDATUMSTANDARDANSI
  2
AcmDatumStdANSI
  3
"AcmSymBB|Product Description: AutoCAD Mechanical 2000|Company: Autodesk"
 90
        0
280
     0
281
     0
  0
CLASS
  1
ACMBOMSTANDARDANSI
  2
AcmBOMStdANSI
  3
"AcmSymBB|Product Description: AutoCAD Mechanical 2000|Company: Autodesk"
 90
        0
280
     0
281
     0
  0
CLASS
  1
ACMSTANDARDBSI
  2
AcmStandardBSI
  3
"AcmSymBB|Product Description: AutoCAD Mechanical 2000|Company: Autodesk"
 90
        0
280
     0
281
     0
  0
CLASS
  1
ACMSURFSTANDARDBSI
  2
AcmSurfTextStdBSI
  3
"AcmSymBB|Product Description: AutoCAD Mechanical 2000|Company: Autodesk"
 90
        0
280
     0
281
     0
  0
CLASS
  1
ACMFCFSTANDARDBSI
  2
AcmFCFStdBSI
  3
"AcmSymBB|Product Description: AutoCAD Mechanical 2000|Company: Autodesk"
 90
        0
280
     0
281
     0
  0
CLASS
  1
ACMWELDSTANDARDBSI
  2
AcmWeldingStdBSI
  3
"AcmSymBB|Product Description: AutoCAD Mechanical 2000|Company: Autodesk"
 90
        0
280
     0
281
     0
  0
CLASS
  1
ACMIDSTANDARDBSI
  2
AcmIdStdBSI
  3
"AcmSymBB|Product Description: AutoCAD Mechanical 2000|Company: Autodesk"
 90
        0
280
     0
281
     0
  0
CLASS
  1
ACMDATUMSTANDARDBSI
  2
AcmDatumStdBSI
  3
"AcmSymBB|Product Description: AutoCAD Mechanical 2000|Company: Autodesk"
 90
        0
280
     0
281
     0
  0
CLASS
  1
ACMBOMSTANDARDBSI
  2
AcmBOMStdBSI
  3
"AcmSymBB|Product Description: AutoCAD Mechanical 2000|Company: Autodesk"
 90
        0
280
     0
281
     0
  0
CLASS
  1
LONG_TRANSACTION
  2
AcDbLongTransaction
  3
AutoCAD 2000
 90
        0
280
     0
281
     0
  0
CLASS
  1
LWPOLYLINE
  2
AcDbPolyline
  3
AutoCAD 2000
 90
        0
280
     0
281
     1
  0
CLASS
  1
HATCH
  2
AcDbHatch
  3
AutoCAD 2000
 90
        0
280
     0
281
     1
  0
CLASS
  1
XRECORD
  2
AcDbXrecord
  3
AutoCAD 2000
 90
        0
280
     0
281
     0
  0
ENDSEC
  0
SECTION
  2
TABLES
  0
TABLE
  2
VPORT
  5
8
330
0
100
AcDbSymbolTable
 70
     3
  0
VPORT
  5
2DFB
330
8
100
AcDbSymbolTableRecord
100
AcDbViewportTableRecord
  2
*ACTIVE
 70
     0
 10
0.0
 20
0.0
 11
1.0
 21
1.0
 12
-31.63874682588794
 22
-5.295514071512226
 13
0.0
 23
0.0
 14
2.5
 24
2.5
 15
10.0
 25
10.0
 16
0.0
 26
0.0
 36
1.0
 17
0.0
 27
0.0
 37
0.0
 40
63.8706618334683
 41
1.56570841889117
 42
50.0
 43
0.0
 44
0.0
 50
0.0
 51
0.0
 71
     0
 72
   100
 73
     1
 74
     1
 75
     0
 76
     0
 77
     0
 78
     0
  0
ENDTAB
  0
TABLE
  2
LTYPE
  5
5
330
0
100
AcDbSymbolTable
 70
    10
  0
LTYPE
  5
14
330
5
100
AcDbSymbolTableRecord
100
AcDbLinetypeTableRecord
  2
BYBLOCK
 70
     0
  3

 72
    65
 73
     0
 40
0.0
  0
LTYPE
  5
15
330
5
100
AcDbSymbolTableRecord
100
AcDbLinetypeTableRecord
  2
BYLAYER
 70
     0
  3

 72
    65
 73
     0
 40
0.0
  0
LTYPE
  5
16
330
5
100
AcDbSymbolTableRecord
100
AcDbLinetypeTableRecord
  2
CONTINUOUS
 70
     0
  3
Solid line
 72
    65
 73
     0
 40
0.0
  0
LTYPE
  5
4B
330
5
100
AcDbSymbolTableRecord
100
AcDbLinetypeTableRecord
  2
AM_ISO02W050
 70
     0
  3
__ __ __ __ __ __ __ __ __ __ __ __ __ __ __
 72
    65
 73
     2
 40
7.5
 49
6.0
 74
     0
 49
-1.5
 74
     0
  0
LTYPE
  5
4C
330
5
100
AcDbSymbolTableRecord
100
AcDbLinetypeTableRecord
  2
AM_ISO08W050
 70
     0
  3
____ . ____ . ____ . ____ . ____ . ____ . ____
 72
    65
 73
     4
 40
18.0
 49
12.0
 74
     0
 49
-1.5
 74
     0
 49
3.0
 74
     0
 49
-1.5
 74
     0
  0
LTYPE
  5
4D
330
5
100
AcDbSymbolTableRecord
100
AcDbLinetypeTableRecord
  2
AM_ISO09W050
 70
     0
  3
_____ . . _____ . . _____ . . ____ .. ____
 72
    65
 73
     6
 40
22.5
 49
12.0
 74
     0
 49
-1.5
 74
     0
 49
3.0
 74
     0
 49
-1.5
 74
     0
 49
3.0
 74
     0
 49
-1.5
 74
     0
  0
LTYPE
  5
4E
330
5
100
AcDbSymbolTableRecord
100
AcDbLinetypeTableRecord
  2
AMCONSTR
 70
     0
  3
_______________________
 72
    65
 73
     2
 40
9999.0
 49
9999.0
 74
     0
 49
0.0
 74
     0
  0
LTYPE
  5
4F
330
5
100
AcDbSymbolTableRecord
100
AcDbLinetypeTableRecord
  2
AM_ISO02W050X2
 70
     0
  3
 _ _ _ _ _ _ _ _ _ _ _ _
 72
    65
 73
     2
 40
3.75
 49
3.0
 74
     0
 49
-0.75
 74
     0
  0
LTYPE
  5
50
330
5
100
AcDbSymbolTableRecord
100
AcDbLinetypeTableRecord
  2
AM_ISO08W050X2
 70
     0
  3
__ . __ . __ . __ . __ . __
 72
    65
 73
     4
 40
9.0
 49
6.0
 74
     0
 49
-0.75
 74
     0
 49
1.5
 74
     0
 49
-0.75
 74
     0
  0
LTYPE
  5
53
330
5
100
AcDbSymbolTableRecord
100
AcDbLinetypeTableRecord
  2
AMZIGZAG
 70
     0
  3
/\/-/\/-/\/-/\/-/\/-/\/
 72
    65
 73
     2
 40
11.00009999999999
 49
0.0001
 74
     4
 75
   135
340
52
 46
0.04
 50
0.0
 44
0.0
 45
0.0
 49
-11.0
 74
     0
  0
LTYPE
  5
166
330
5
100
AcDbSymbolTableRecord
100
AcDbLinetypeTableRecord
  2
ACJISTGL
 70
     0
  3
_ _ _ _ _
 72
    65
 73
     2
 40
3.0
 49
2.0
 74
     0
 49
-1.0
 74
     0
  0
LTYPE
  5
26A
330
5
100
AcDbSymbolTableRecord
100
AcDbLinetypeTableRecord
  2
ACJISTGB
 70
     0
  3
__ . . __ . .
 72
    65
 73
     6
 40
9.0
 49
4.0
 74
     0
 49
-1.0
 74
     0
 49
1.0
 74
     0
 49
-1.0
 74
     0
 49
1.0
 74
     0
 49
-1.0
 74
     0
  0
ENDTAB
  0
TABLE
  2
LAYER
  5
2
330
0
100
AcDbSymbolTable
 70
     8
  0
LAYER
  5
10
330
2
100
AcDbSymbolTableRecord
100
AcDbLayerTableRecord
  2
0
 70
     0
 62
     7
  6
CONTINUOUS
  0
LAYER
  5
3F9
330
2
100
AcDbSymbolTableRecord
100
AcDbLayerTableRecord
  2
AM_0
 70
     0
 62
     7
  6
CONTINUOUS
  0
LAYER
  5
C7C
330
2
100
AcDbSymbolTableRecord
100
AcDbLayerTableRecord
  2
AM_7
 70
     0
 62
     4
  6
AM_ISO08W050
  0
LAYER
  5
C97
330
2
100
AcDbSymbolTableRecord
100
AcDbLayerTableRecord
  2
AM_11
 70
     0
 62
     3
  6
AM_ISO09W050
  0
LAYER
  5
CC5
330
2
100
AcDbSymbolTableRecord
100
AcDbLayerTableRecord
  2
AM_5
 70
     0
 62
     3
  6
CONTINUOUS
  0
LAYER
  5
CC7
330
2
100
AcDbSymbolTableRecord
100
AcDbLayerTableRecord
  2
DEFPOINTS
 70
     0
 62
     7
  6
CONTINUOUS
  0
LAYER
  5
19BC
330
2
100
AcDbSymbolTableRecord
100
AcDbLayerTableRecord
  2
AM_6
 70
     0
 62
     2
  6
CONTINUOUS
  0
LAYER
  5
2D90
330
2
100
AcDbSymbolTableRecord
100
AcDbLayerTableRecord
  2
AM_CL
 70
     0
 62
     1
  6
AMCONSTR
  0
ENDTAB
  0
TABLE
  2
STYLE
  5
3
330
0
100
AcDbSymbolTable
 70
     5
  0
STYLE
  5
11
330
3
100
AcDbSymbolTableRecord
100
AcDbTextStyleTableRecord
  2
STANDARD
 70
     0
 40
0.0
 41
1.0
 50
0.0
 71
     0
 42
2.5
  3
simplex.shx
  4
EXTFONT.SHX
  0
STYLE
  5
52
330
3
100
AcDbSymbolTableRecord
100
AcDbTextStyleTableRecord
  2

 70
     1
 40
0.0
 41
1.0
 50
0.0
 71
     0
 42
2.5
  3
ltypeshp.shx
  4

  0
STYLE
  5
6B
330
3
100
AcDbSymbolTableRecord
100
AcDbTextStyleTableRecord
  2
ASAMI
 70
     0
 40
0.0
 41
1.0
 50
0.0
 71
     0
 42
2.5
  3
simplex.shx
  4
EXTFONT.SHX
  0
STYLE
  5
262
330
3
100
AcDbSymbolTableRecord
100
AcDbTextStyleTableRecord
  2
ACJISTS
 70
     0
 40
1.0
 41
1.0
 50
0.0
 71
     0
 42
2.5
  3
simplex.shx
  4
bigfont.shx
  0
STYLE
  5
269
330
3
100
AcDbSymbolTableRecord
100
AcDbTextStyleTableRecord
  2
ACJISGDT
 70
     0
 40
0.0
 41
1.0
 50
0.0
 71
     0
 42
2.5
  3
amgdtans.shx
  4

  0
ENDTAB
  0
TABLE
  2
VIEW
  5
6
330
0
100
AcDbSymbolTable
 70
     0
  0
ENDTAB
  0
TABLE
  2
UCS
  5
7
330
0
100
AcDbSymbolTable
 70
     0
  0
ENDTAB
  0
TABLE
  2
APPID
  5
9
330
0
100
AcDbSymbolTable
 70
    18
  0
APPID
  5
12
330
9
100
AcDbSymbolTableRecord
100
AcDbRegAppTableRecord
  2
ACAD
 70
     0
  0
APPID
  5
30
330
9
100
AcDbSymbolTableRecord
100
AcDbRegAppTableRecord
  2
MCAD_NO_VIS
 70
     0
  0
APPID
  5
31
330
9
100
AcDbSymbolTableRecord
100
AcDbRegAppTableRecord
  2
ACAD_TEMP_GRAPHIC
 70
     0
  0
APPID
  5
2C2
330
9
100
AcDbSymbolTableRecord
100
AcDbRegAppTableRecord
  2
GENIUS_GENDTOL_13
 70
     0
  0
APPID
  5
339
330
9
100
AcDbSymbolTableRecord
100
AcDbRegAppTableRecord
  2
GENIUS_GENODEF_13
 70
     0
  0
APPID
  5
33A
330
9
100
AcDbSymbolTableRecord
100
AcDbRegAppTableRecord
  2
GENIUS_GENOBJ-N-RSBK_13
 70
     0
  0
APPID
  5
33B
330
9
100
AcDbSymbolTableRecord
100
AcDbRegAppTableRecord
  2
GENIUS_GENOBJ-N-LIB_13
 70
     0
  0
APPID
  5
33C
330
9
100
AcDbSymbolTableRecord
100
AcDbRegAppTableRecord
  2
GENIUS_GENSCALE_13
 70
     0
  0
APPID
  5
378
330
9
100
AcDbSymbolTableRecord
100
AcDbRegAppTableRecord
  2
GENIUS_GENDIMSH_14
 70
     0
  0
APPID
  5
C82
330
9
100
AcDbSymbolTableRecord
100
AcDbRegAppTableRecord
  2
GENIUS_GENOBJ-N-CRS_13
 70
     0
  0
APPID
  5
C83
330
9
100
AcDbSymbolTableRecord
100
AcDbRegAppTableRecord
  2
GENIUS_GENOENT_13
 70
     0
  0
APPID
  5
C84
330
9
100
AcDbSymbolTableRecord
100
AcDbRegAppTableRecord
  2
GENIUS_GENOREF_13
 70
     0
  0
APPID
  5
C85
330
9
100
AcDbSymbolTableRecord
100
AcDbRegAppTableRecord
  2
GENIUS_GENOLIS_13
 70
     0
  0
APPID
  5
CA0
330
9
100
AcDbSymbolTableRecord
100
AcDbRegAppTableRecord
  2
GENIUS_GENOBJ-N-CEN_13
 70
     0
  0
APPID
  5
1B5D
330
9
100
AcDbSymbolTableRecord
100
AcDbRegAppTableRecord
  2
GENIUS_GENFIL_13
 70
     0
  0
APPID
  5
1B5E
330
9
100
AcDbSymbolTableRecord
100
AcDbRegAppTableRecord
  2
GENIUS_GENOBJ-N-CHA_13
 70
     0
  0
APPID
  5
1FBC
330
9
100
AcDbSymbolTableRecord
100
AcDbRegAppTableRecord
  2
GENIUS_GENREC_14
 70
     0
  0
APPID
  5
1FBD
330
9
100
AcDbSymbolTableRecord
100
AcDbRegAppTableRecord
  2
GENIUS_GENOBJ-N-REC_13
 70
     0
  0
ENDTAB
  0
TABLE
  2
DIMSTYLE
  5
A
330
0
100
AcDbSymbolTable
 70
     9
  0
DIMSTYLE
105
58
330
A
100
AcDbSymbolTableRecord
100
AcDbDimStyleTableRecord
  2
AM_JIS
 70
     0
  3

  4
"
  5
OPEN30
  6

  7

 40
0.5
 41
2.5
 42
1.0
 43
12.0
 44
1.0
 45
0.0
 46
0.0
 47
0.1
 48
0.1
140
3.2
141
0.0
142
0.0
143
0.0393701
144
1.0
145
0.0
146
0.71
147
1.5
 71
     0
 72
     0
 73
     0
 74
     0
 75
     0
 76
     0
 77
     3
 78
     8
170
     0
171
     2
172
     1
173
     0
174
     0
175
     0
176
   256
177
   256
178
     2
270
     2
271
     3
272
     3
273
     2
274
     2
340
6B
275
     0
280
     0
281
     0
282
     0
283
     0
284
     0
285
     0
286
     0
287
     3
288
     0
  0
DIMSTYLE
105
5F
330
A
100
AcDbSymbolTableRecord
100
AcDbDimStyleTableRecord
  2
AM_JIS$3
 70
     0
  3

  4
"
  5
OPEN30
  6

  7

 40
0.5
 41
2.5
 42
1.0
 43
10.0
 44
1.0
 45
0.0
 46
0.0
 47
0.1
 48
0.1
140
3.2
141
0.0
142
0.0
143
0.0393701
144
1.0
145
0.0
146
0.71
147
1.5
 71
     0
 72
     0
 73
     0
 74
     1
 75
     0
 76
     0
 77
     3
 78
     8
170
     0
171
     2
172
     0
173
     0
174
     0
175
     0
176
   256
177
   256
178
     2
270
     2
271
     2
272
     3
273
     2
274
     2
340
6B
275
     0
280
     0
281
     0
282
     0
283
     0
284
     0
285
     0
286
     0
287
     0
288
     1
  0
DIMSTYLE
105
60
330
A
100
AcDbSymbolTableRecord
100
AcDbDimStyleTableRecord
  2
AM_JIS$4
 70
     0
  3

  4
"
  5
OPEN30
  6

  7

 40
0.5
 41
2.5
 42
1.0
 43
10.0
 44
1.0
 45
0.0
 46
0.0
 47
0.1
 48
0.1
140
3.2
141
0.0
142
0.0
143
0.0393701
144
1.0
145
0.0
146
0.71
147
1.5
 71
     0
 72
     0
 73
     0
 74
     1
 75
     0
 76
     0
 77
     3
 78
     8
170
     0
171
     2
172
     0
173
     0
174
     0
175
     0
176
   256
177
   256
178
     2
270
     2
271
     2
272
     3
273
     2
274
     2
340
6B
275
     0
280
     0
281
     0
282
     0
283
     0
284
     0
285
     0
286
     0
287
     0
288
     1
  0
DIMSTYLE
105
61
330
A
100
AcDbSymbolTableRecord
100
AcDbDimStyleTableRecord
  2
AM_JIS$6
 70
     0
  3

  4
"
  5
OPEN30
  6

  7

 40
0.5
 41
2.5
 42
1.0
 43
10.0
 44
1.0
 45
0.0
 46
0.0
 47
0.1
 48
0.1
140
3.2
141
0.0
142
0.0
143
0.0393701
144
1.0
145
0.0
146
0.71
147
1.5
 71
     0
 72
     0
 73
     0
 74
     0
 75
     0
 76
     0
 77
     0
 78
     8
170
     0
171
     2
172
     1
173
     0
174
     0
175
     0
176
   256
177
   256
178
     2
270
     2
271
     2
272
     2
273
     2
274
     2
340
6B
275
     0
280
     0
281
     0
282
     0
283
     0
284
     0
285
     0
286
     0
287
     3
288
     0
  0
DIMSTYLE
105
62
330
A
100
AcDbSymbolTableRecord
100
AcDbDimStyleTableRecord
  2
AM_JIS$7
 70
     0
  3

  4
"
  5
OPEN30
  6

  7

 40
0.5
 41
2.5
 42
1.0
 43
10.0
 44
1.0
 45
0.0
 46
0.0
 47
0.1
 48
0.1
140
3.2
141
0.0
142
0.0
143
0.0393701
144
1.0
145
0.0
146
0.71
147
1.5
 71
     0
 72
     0
 73
     0
 74
     0
 75
     0
 76
     0
 77
     3
 78
     8
170
     0
171
     2
172
     1
173
     0
174
     0
175
     0
176
   256
177
   256
178
     2
270
     2
271
     2
272
     3
273
     2
274
     2
340
6B
275
     0
280
     0
281
     0
282
     0
283
     0
284
     0
285
     0
286
     0
287
     3
288
     0
  0
DIMSTYLE
105
63
330
A
100
AcDbSymbolTableRecord
100
AcDbDimStyleTableRecord
  2
AM_JIS$SF
 70
     0
  3

  4
"
  5
OPEN30
  6

  7

 40
0.5
 41
2.5
 42
1.0
 43
10.0
 44
1.0
 45
0.0
 46
0.0
 47
0.1
 48
0.1
140
3.2
141
0.0
142
0.0
143
0.0393701
144
1.0
145
0.0
146
0.71
147
1.5
 71
     0
 72
     0
 73
     0
 74
     0
 75
     1
 76
     1
 77
     3
 78
     8
170
     0
171
     2
172
     1
173
     0
174
     0
175
     0
176
   256
177
   256
178
     2
270
     2
271
     2
272
     2
273
     2
274
     2
340
6B
275
     0
280
     0
281
     0
282
     0
283
     0
284
     0
285
     0
286
     0
287
     3
288
     0
  0
DIMSTYLE
105
68
330
A
100
AcDbSymbolTableRecord
100
AcDbDimStyleTableRecord
  2
AM_JIS$SH
 70
     0
  3

  4
"
  5

  6
GENAXEH
  7
OPEN30
 40
0.5
 41
2.5
 42
1.0
 43
10.0
 44
1.0
 45
0.0
 46
0.0
 47
0.1
 48
0.1
140
3.2
141
0.0
142
0.0
143
0.0393701
144
2.0
145
0.0
146
0.71
147
1.5
 71
     0
 72
     0
 73
     0
 74
     0
 75
     1
 76
     1
 77
     3
 78
     8
170
     0
171
     2
172
     1
173
     1
174
     0
175
     0
176
   256
177
   256
178
     2
270
     2
271
     2
272
     2
273
     2
274
     2
340
6B
275
     0
280
     0
281
     0
282
     0
283
     0
284
     0
285
     0
286
     0
287
     3
288
     0
  0
DIMSTYLE
105
B34
102
{ACAD_REACTORS
330
2852
102
}
330
A
100
AcDbSymbolTableRecord
100
AcDbDimStyleTableRecord
  2
AM_JIS$2
 70
     0
  3

  4
"
  5
OPEN30
  6

  7

 40
0.5
 41
2.5
 42
1.0
 43
12.0
 44
1.0
 45
0.0
 46
0.0
 47
0.1
 48
0.1
140
3.2
141
0.0
142
0.0
143
0.0393701
144
1.0
145
0.0
146
0.71
147
1.5
 71
     0
 72
     0
 73
     0
 74
     0
 75
     0
 76
     0
 77
     3
 78
     8
170
     0
171
     2
172
     1
173
     0
174
     0
175
     0
176
   256
177
   256
178
     2
270
     2
271
     3
272
     3
273
     2
274
     2
340
6B
275
     0
280
     0
281
     0
282
     0
283
     0
284
     0
285
     0
286
     0
287
     3
288
     0
  0
DIMSTYLE
105
BA5
102
{ACAD_REACTORS
330
CC6
330
DF5
330
1DEF
330
1C71
102
}
330
A
100
AcDbSymbolTableRecord
100
AcDbDimStyleTableRecord
  2
AM_JIS$0
 70
     0
  3

  4
"
  5
OPEN30
  6

  7

 40
0.5
 41
2.5
 42
0.0
 43
10.0
 44
1.0
 45
0.0
 46
0.0
 47
0.1
 48
0.1000000001
140
3.799999999999999
141
0.0
142
0.0
143
0.0393701
144
1.0
145
0.0
146
0.71
147
1.5
 71
     0
 72
     0
 73
     0
 74
     0
 75
     0
 76
     0
 77
     3
 78
     1
170
     0
171
     2
172
     1
173
     0
174
     0
175
     0
176
     3
177
     3
178
     2
270
     2
271
     2
272
     2
273
     2
274
     2
340
11
275
     1
280
     0
281
     0
282
     0
283
     0
284
     8
285
     0
286
     0
287
     0
288
     0
  0
ENDTAB
  0
TABLE
  2
BLOCK_RECORD
  5
1
330
0
100
AcDbSymbolTable
 70
    10
  0
BLOCK_RECORD
  5
1F
102
{ACAD_XDICTIONARY
360
74
102
}
330
1
100
AcDbSymbolTableRecord
100
AcDbBlockTableRecord
  2
*MODEL_SPACE
  0
BLOCK_RECORD
  5
101
102
{ACAD_XDICTIONARY
360
2E24
102
}
330
1
100
AcDbSymbolTableRecord
100
AcDbBlockTableRecord
  2
*PAPER_SPACE
  0
BLOCK_RECORD
  5
59
330
1
100
AcDbSymbolTableRecord
100
AcDbBlockTableRecord
  2
_OPEN30
  0
BLOCK_RECORD
  5
64
330
1
100
AcDbSymbolTableRecord
100
AcDbBlockTableRecord
  2
GENAXEH
  0
BLOCK_RECORD
  5
CC8
330
1
100
AcDbSymbolTableRecord
100
AcDbBlockTableRecord
  2
*D5
  0
BLOCK_RECORD
  5
DF6
330
1
100
AcDbSymbolTableRecord
100
AcDbBlockTableRecord
  2
*D6
  0
BLOCK_RECORD
  5
1C72
330
1
100
AcDbSymbolTableRecord
100
AcDbBlockTableRecord
  2
*D7
  0
BLOCK_RECORD
  5
1DF0
330
1
100
AcDbSymbolTableRecord
100
AcDbBlockTableRecord
  2
*D8
  0
BLOCK_RECORD
  5
2853
330
1
100
AcDbSymbolTableRecord
100
AcDbBlockTableRecord
  2
*D9
  0
ENDTAB
  0
ENDSEC
  0
SECTION
  2
BLOCKS
  0
BLOCK
  5
20
330
1F
100
AcDbEntity
  8
0
100
AcDbBlockBegin
  2
*MODEL_SPACE
 70
     0
 10
0.0
 20
0.0
 30
0.0
  3
*MODEL_SPACE
  1

  0
ENDBLK
  5
21
330
1F
100
AcDbEntity
  8
0
100
AcDbBlockEnd
  0
BLOCK
  5
103
330
101
100
AcDbEntity
 67
     1
  8
0
100
AcDbBlockBegin
  2
*PAPER_SPACE
 70
     0
 10
0.0
 20
0.0
 30
0.0
  3
*PAPER_SPACE
  1

  0
ENDBLK
  5
104
330
101
100
AcDbEntity
 67
     1
  8
0
100
AcDbBlockEnd
  0
BLOCK
  5
5D
330
59
100
AcDbEntity
  8
0
100
AcDbBlockBegin
  2
_OPEN30
 70
     0
 10
0.0
 20
0.0
 30
0.0
  3
_OPEN30
  1

  0
LINE
  5
5A
330
59
100
AcDbEntity
  8
0
 62
     0
100
AcDbLine
 10
-1.0
 20
0.26794919
 30
0.0
 11
0.0
 21
0.0
 31
0.0
  0
LINE
  5
5B
330
59
100
AcDbEntity
  8
0
 62
     0
100
AcDbLine
 10
0.0
 20
0.0
 30
0.0
 11
-1.0
 21
-0.26794919
 31
0.0
  0
LINE
  5
5C
330
59
100
AcDbEntity
  8
0
 62
     0
100
AcDbLine
 10
0.0
 20
0.0
 30
0.0
 11
-1.0
 21
0.0
 31
0.0
  0
ENDBLK
  5
5E
330
59
100
AcDbEntity
  8
0
100
AcDbBlockEnd
  0
BLOCK
  5
66
330
64
100
AcDbEntity
  8
0
100
AcDbBlockBegin
  2
GENAXEH
 70
     0
 10
0.0
 20
0.0
 30
0.0
  3
GENAXEH
  1

  0
LINE
  5
65
330
64
100
AcDbEntity
  8
0
100
AcDbLine
 10
-1.0
 20
0.0
 30
0.0
 11
1.0
 21
0.0
 31
0.0
  0
ENDBLK
  5
67
330
64
100
AcDbEntity
  8
0
100
AcDbBlockEnd
  0
BLOCK
  5
CD2
330
CC8
100
AcDbEntity
  8
0
100
AcDbBlockBegin
  2
*D5
 70
     1
 10
0.0
 20
0.0
 30
0.0
  3
*D5
  1

  0
LINE
  5
2DAE
330
CC8
100
AcDbEntity
  8
AM_5
 62
     3
100
AcDbLine
 10
-71.0
 20
-1.250006209471289
 30
0.0
 11
-71.0
 21
-14.00000718101106
 31
0.0
  0
LINE
  5
2DAF
330
CC8
100
AcDbEntity
  8
AM_5
 62
     3
100
AcDbLine
 10
-0.9999961853027222
 20
-0.7999993701436204
 30
0.0
 11
-0.9999961853027231
 21
-14.00000718101106
 31
0.0
  0
LINE
  5
2DB0
330
CC8
100
AcDbEntity
  8
AM_5
 62
     3
100
AcDbLine
 10
-69.75
 20
-13.50000718101106
 30
0.0
 11
-2.249996185302723
 21
-13.50000718101106
 31
0.0
  0
INSERT
  5
2DB1
330
CC8
100
AcDbEntity
  8
AM_5
 62
     3
100
AcDbBlockReference
  2
_OPEN30
 10
-71.0
 20
-13.50000718101106
 30
0.0
 41
1.25
 42
1.25
 43
1.25
 50
180.0
  0
INSERT
  5
2DB2
330
CC8
100
AcDbEntity
  8
AM_5
 62
     3
100
AcDbBlockReference
  2
_OPEN30
 10
-0.9999961853027231
 20
-13.50000718101106
 30
0.0
 41
1.25
 42
1.25
 43
1.25
  0
MTEXT
  5
2DB3
330
CC8
100
AcDbEntity
  8
AM_5
 62
     2
100
AcDbMText
 10
-35.99999809265136
 20
-11.80000718101106
 30
0.0
 40
1.9
 41
0.0
 71
     5
 72
     1
  1
70
1001
ACAD
1000
MTEXTBEGIN
1070
    73
1070
     1
1070
    44
1040
1.0
1070
    74
1070
     0
1000
MTEXTEND
  0
POINT
  5
2DB4
330
CC8
100
AcDbEntity
  8
DEFPOINTS
 62
     0
100
AcDbPoint
 10
-71.0
 20
-1.250006209471289
 30
0.0
  0
POINT
  5
2DB5
330
CC8
100
AcDbEntity
  8
DEFPOINTS
 62
     0
100
AcDbPoint
 10
-0.9999961853027222
 20
-0.7999993701436204
 30
0.0
  0
POINT
  5
2DB6
330
CC8
100
AcDbEntity
  8
DEFPOINTS
 62
     0
100
AcDbPoint
 10
-0.9999961853027231
 20
-13.50000718101106
 30
0.0
  0
ENDBLK
  5
CD3
330
CC8
100
AcDbEntity
  8
0
100
AcDbBlockEnd
  0
BLOCK
  5
E00
330
DF6
100
AcDbEntity
  8
0
100
AcDbBlockBegin
  2
*D6
 70
     1
 10
0.0
 20
0.0
 30
0.0
  3
*D6
  1

  0
LINE
  5
2DC2
330
DF6
100
AcDbEntity
  8
AM_5
 62
     3
100
AcDbLine
 10
-22.99999618530275
 20
-1.500000745136713
 30
0.0
 11
-22.99999618530275
 21
-9.00000718101104
 31
0.0
  0
LINE
  5
2DC3
330
DF6
100
AcDbEntity
  8
AM_5
 62
     3
100
AcDbLine
 10
-0.9999961853027222
 20
-0.7999993701436204
 30
0.0
 11
-0.999996185302723
 21
-9.00000718101104
 31
0.0
  0
LINE
  5
2DC4
330
DF6
100
AcDbEntity
  8
AM_5
 62
     3
100
AcDbLine
 10
-21.74999618530275
 20
-8.50000718101104
 30
0.0
 11
-2.249996185302722
 21
-8.50000718101104
 31
0.0
  0
INSERT
  5
2DC5
330
DF6
100
AcDbEntity
  8
AM_5
 62
     3
100
AcDbBlockReference
  2
_OPEN30
 10
-22.99999618530275
 20
-8.50000718101104
 30
0.0
 41
1.25
 42
1.25
 43
1.25
 50
180.0
  0
INSERT
  5
2DC6
330
DF6
100
AcDbEntity
  8
AM_5
 62
     3
100
AcDbBlockReference
  2
_OPEN30
 10
-0.9999961853027228
 20
-8.50000718101104
 30
0.0
 41
1.25
 42
1.25
 43
1.25
  0
MTEXT
  5
2DC7
330
DF6
100
AcDbEntity
  8
AM_5
 62
     2
100
AcDbMText
 10
-11.99999618530273
 20
-6.80000718101104
 30
0.0
 40
1.9
 41
0.0
 71
     5
 72
     1
  1
22
1001
ACAD
1000
MTEXTBEGIN
1070
    73
1070
     1
1070
    44
1040
1.0
1070
    74
1070
     0
1000
MTEXTEND
  0
POINT
  5
2DC8
330
DF6
100
AcDbEntity
  8
DEFPOINTS
 62
     0
100
AcDbPoint
 10
-22.99999618530275
 20
-1.500000745136713
 30
0.0
  0
POINT
  5
2DC9
330
DF6
100
AcDbEntity
  8
DEFPOINTS
 62
     0
100
AcDbPoint
 10
-0.9999961853027222
 20
-0.7999993701436204
 30
0.0
  0
POINT
  5
2DCA
330
DF6
100
AcDbEntity
  8
DEFPOINTS
 62
     0
100
AcDbPoint
 10
-0.9999961853027228
 20
-8.50000718101104
 30
0.0
  0
ENDBLK
  5
E01
330
DF6
100
AcDbEntity
  8
0
100
AcDbBlockEnd
  0
BLOCK
  5
1C7E
330
1C72
100
AcDbEntity
  8
0
100
AcDbBlockBegin
  2
*D7
 70
     1
 10
0.0
 20
0.0
 30
0.0
  3
*D7
  1

  0
LINE
  5
2DCB
330
1C72
100
AcDbEntity
  8
AM_5
 62
     3
100
AcDbLine
 10
-0.9999961853027222
 20
-0.7999993701436204
 30
0.0
 11
7.795959622153484
 21
-0.7999993701436229
 31
0.0
  0
LINE
  5
2DCC
330
1C72
100
AcDbEntity
  8
AM_5
 62
     3
100
AcDbLine
 10
-0.9999961853027221
 20
0.8000006298564457
 30
0.0
 11
7.795959622153484
 21
0.800000629856443
 31
0.0
  0
LINE
  5
2DCD
330
1C72
100
AcDbEntity
  8
AM_5
 62
     3
100
AcDbLine
 10
7.295959622153483
 20
-2.049999370143622
 30
0.0
 11
7.295959622153483
 21
-3.299999370143622
 31
0.0
  0
LINE
  5
2DCE
330
1C72
100
AcDbEntity
  8
AM_5
 62
     3
100
AcDbLine
 10
7.295959622153485
 20
2.050000629856443
 30
0.0
 11
7.295959622153486
 21
10.19761972276292
 31
0.0
  0
LINE
  5
2DCF
330
1C72
100
AcDbEntity
  8
AM_5
 62
     3
100
AcDbLine
 10
7.295959622153484
 20
-0.7999993701436229
 30
0.0
 11
7.295959622153484
 21
0.8000006298564432
 31
0.0
  0
INSERT
  5
2DD0
330
1C72
100
AcDbEntity
  8
AM_5
 62
     3
100
AcDbBlockReference
  2
_OPEN30
 10
7.295959622153484
 20
-0.7999993701436229
 30
0.0
 41
1.25
 42
1.25
 43
1.25
 50
90.0
  0
INSERT
  5
2DD1
330
1C72
100
AcDbEntity
  8
AM_5
 62
     3
100
AcDbBlockReference
  2
_OPEN30
 10
7.295959622153484
 20
0.8000006298564432
 30
0.0
 41
1.25
 42
1.25
 43
1.25
 50
270.0
  0
MTEXT
  5
2DD2
330
1C72
100
AcDbEntity
  8
AM_5
 62
     2
100
AcDbMText
 10
5.595959622153483
 20
6.823810198953403
 30
0.0
 40
1.9
 41
0.0
 71
     5
 72
     1
  1
%%c1.6
 11
0.0000000000000001
 21
1.0
 31
0.0
1001
ACAD
1000
MTEXTBEGIN
1070
    73
1070
     1
1070
    44
1040
1.0
1070
    74
1070
     0
1000
MTEXTEND
  0
POINT
  5
2DD3
330
1C72
100
AcDbEntity
  8
DEFPOINTS
 62
     0
100
AcDbPoint
 10
-0.9999961853027222
 20
-0.7999993701436204
 30
0.0
  0
POINT
  5
2DD4
330
1C72
100
AcDbEntity
  8
DEFPOINTS
 62
     0
100
AcDbPoint
 10
-0.9999961853027221
 20
0.8000006298564457
 30
0.0
  0
POINT
  5
2DD5
330
1C72
100
AcDbEntity
  8
DEFPOINTS
 62
     0
100
AcDbPoint
 10
7.295959622153484
 20
0.8000006298564432
 30
0.0
  0
ENDBLK
  5
1C7F
330
1C72
100
AcDbEntity
  8
0
100
AcDbBlockEnd
  0
BLOCK
  5
1DFC
330
1DF0
100
AcDbEntity
  8
0
100
AcDbBlockBegin
  2
*D8
 70
     1
 10
0.0
 20
0.0
 30
0.0
  3
*D8
  1

  0
LINE
  5
2DB7
330
1DF0
100
AcDbEntity
  8
AM_5
 62
     3
100
AcDbLine
 10
-70.75000000000002
 20
-1.500006181011356
 30
0.0
 11
-79.25000134152343
 21
-1.500006181011372
 31
0.0
  0
LINE
  5
2DB8
330
1DF0
100
AcDbEntity
  8
AM_5
 62
     3
100
AcDbLine
 10
-70.75000000000002
 20
1.500013847201647
 30
0.0
 11
-79.25000134152343
 21
1.500013847201631
 31
0.0
  0
LINE
  5
2DB9
330
1DF0
100
AcDbEntity
  8
AM_5
 62
     3
100
AcDbLine
 10
-78.75000134152343
 20
-2.750006181011372
 30
0.0
 11
-78.75000134152341
 21
-4.000006181011372
 31
0.0
  0
LINE
  5
2DBA
330
1DF0
100
AcDbEntity
  8
AM_5
 62
     3
100
AcDbLine
 10
-78.75000134152343
 20
2.750013847201632
 30
0.0
 11
-78.75000134152344
 21
4.000013847201632
 31
0.0
  0
LINE
  5
2DBB
330
1DF0
100
AcDbEntity
  8
AM_5
 62
     3
100
AcDbLine
 10
-78.75000134152343
 20
-1.500006181011372
 30
0.0
 11
-78.75000134152343
 21
1.500013847201632
 31
0.0
  0
INSERT
  5
2DBC
330
1DF0
100
AcDbEntity
  8
AM_5
 62
     3
100
AcDbBlockReference
  2
_OPEN30
 10
-78.75000134152343
 20
-1.500006181011372
 30
0.0
 41
1.25
 42
1.25
 43
1.25
 50
90.0000000000001
  0
INSERT
  5
2DBD
330
1DF0
100
AcDbEntity
  8
AM_5
 62
     3
100
AcDbBlockReference
  2
_OPEN30
 10
-78.75000134152343
 20
1.500013847201632
 30
0.0
 41
1.25
 42
1.25
 43
1.25
 50
270.0000000000001
  0
MTEXT
  5
2DBE
330
1DF0
100
AcDbEntity
  8
AM_5
 62
     2
100
AcDbMText
 10
-80.45000134152344
 20
0.00000383309513
 30
0.0
 40
1.9
 41
0.0
 71
     5
 72
     1
  1
%%c3
 11
-0.000000000000002
 21
1.0
 31
0.0
1001
ACAD
1000
MTEXTBEGIN
1070
    73
1070
     1
1070
    44
1040
1.0
1070
    74
1070
     0
1000
MTEXTEND
  0
POINT
  5
2DBF
330
1DF0
100
AcDbEntity
  8
DEFPOINTS
 62
     0
100
AcDbPoint
 10
-70.75000000000002
 20
-1.500006181011199
 30
0.0
  0
POINT
  5
2DC0
330
1DF0
100
AcDbEntity
  8
DEFPOINTS
 62
     0
100
AcDbPoint
 10
-70.75000000000002
 20
1.500013847201805
 30
0.0
  0
POINT
  5
2DC1
330
1DF0
100
AcDbEntity
  8
DEFPOINTS
 62
     0
100
AcDbPoint
 10
-78.75000134152343
 20
1.500013847201807
 30
0.0
  0
ENDBLK
  5
1DFD
330
1DF0
100
AcDbEntity
  8
0
100
AcDbBlockEnd
  0
BLOCK
  5
2863
330
2853
100
AcDbEntity
  8
0
100
AcDbBlockBegin
  2
*D9
 70
     1
 10
0.0
 20
0.0
 30
0.0
  3
*D9
  1

  0
LINE
  5
2E26
330
2853
100
AcDbEntity
  8
AM_5
100
AcDbLine
 10
0.171011001972167
 20
-0.4698462519077086
 30
0.0
 11
5.152747667731814
 21
-14.15705536448396
 31
0.0
  0
LINE
  5
2E27
330
2853
100
AcDbEntity
  8
AM_5
100
AcDbLine
 10
0.1710109349301669
 20
0.469847329374186
 30
0.0
 11
5.15275746982478
 21
14.15705407066803
 31
0.0
  0
ARC
  5
2E28
330
2853
100
AcDbEntity
  8
AM_5
100
AcDbCircle
 10
0.0000005392089084
 20
0.0000011369289788
 30
0.0
 40
14.56562483784524
100
AcDbArc
 50
294.9185475348761
 51
65.08141279454486
  0
INSERT
  5
2E29
330
2853
100
AcDbEntity
  8
AM_5
100
AcDbBlockReference
  2
_OPEN30
 10
4.981737597323746
 20
-13.68720905363431
 30
0.0
 41
1.25
 42
1.25
 43
1.25
 50
202.4592736909312
  0
INSERT
  5
2E2A
330
2853
100
AcDbEntity
  8
AM_5
100
AcDbBlockReference
  2
_OPEN30
 10
4.981747074103521
 20
13.68720787822282
 30
0.0
 41
1.25
 42
1.25
 43
1.25
 50
157.5406866384896
  0
MTEXT
  5
2E2B
330
2853
100
AcDbEntity
  8
AM_5
 62
     2
100
AcDbMText
 10
13.01562537705327
 20
-0.0000039055608481
 30
0.0
 40
1.6
 41
0.0
 71
     5
 72
     1
  1
140°
  7
ASAMI
 11
-0.000000000000002
 21
1.0
 31
0.0
  0
POINT
  5
2E2C
330
2853
100
AcDbEntity
  8
DEFPOINTS
 62
     0
100
AcDbPoint
 10
13.37439452992763
 20
5.76914425336154
 30
0.0
  0
POINT
  5
2E2D
330
2853
100
AcDbEntity
  8
DEFPOINTS
 62
     0
100
AcDbPoint
 10
0.0000004774336211
 20
0.0000009672031361
 30
0.0
  0
POINT
  5
2E2E
330
2853
100
AcDbEntity
  8
DEFPOINTS
 62
     0
100
AcDbPoint
 10
0.000000931564099
 20
0.0000000589419433
 30
0.0
  0
POINT
  5
2E2F
330
2853
100
AcDbEntity
  8
DEFPOINTS
 62
     0
100
AcDbPoint
 10
-0.1264197961097417
 20
0.3473381564630156
 30
0.0
  0
POINT
  5
2E30
330
2853
100
AcDbEntity
  8
DEFPOINTS
 62
     0
100
AcDbPoint
 10
-0.1264215931311837
 20
-0.3473400715997372
 30
0.0
  0
ENDBLK
  5
2864
330
2853
100
AcDbEntity
  8
0
100
AcDbBlockEnd
  0
ENDSEC
  0
SECTION
  2
ENTITIES
  0
LINE
  5
C1D
330
1F
100
AcDbEntity
  8
AM_0
 48
0.5
100
AcDbLine
 10
-0.0000000000000003
 20
0.0
 30
0.0
 11
-0.1264207276738411
 21
0.3473380975210723
 31
0.0
  0
LINE
  5
C20
330
1F
100
AcDbEntity
  8
AM_0
 48
0.5
100
AcDbLine
 10
-0.0000000000000003
 20
0.0
 30
0.0
 11
-0.1264220705648051
 21
-0.3473410388028733
 31
0.0
  0
LINE
  5
C2E
330
1F
100
AcDbEntity
  8
AM_0
 48
0.5
100
AcDbLine
 10
-70.75000000000001
 20
-1.500006181011199
 30
0.0
 11
-70.75000000000001
 21
1.500013847201805
 31
0.0
  0
LINE
  5
C30
330
1F
100
AcDbEntity
  8
AM_0
 48
0.5
100
AcDbLine
 10
-71.00000000000001
 20
-1.250006209471274
 30
0.0
 11
-71.00000000000001
 21
1.250005235204411
 31
0.0
  0
LINE
  5
C9F
330
1F
100
AcDbEntity
  8
AM_7
100
AcDbLine
 10
-71.75
 20
-0.0000000000000741
 30
0.0
 11
0.2959585652317782
 21
0.0000000000000005
 31
0.0
1001
GENIUS_GENODEF_13
1002
{
1000
HIER
1070
     0
1002
}
1002
{
1000
MANEDIT
1070
     0
1002
}
1002
{
1000
NOSEL
1070
     0
1002
}
1002
{
1000
BEHIND
1070
     0
1002
}
1002
{
1000
REACTOR
1002
}
1001
GENIUS_GENOBJ-N-CEN_13
1002
{
1000
OWNER
1000
GEN
1002
}
  0
DIMENSION
  5
CC6
330
1F
100
AcDbEntity
  8
AM_5
100
AcDbDimension
  2
*D5
 10
-0.9999961853027231
 20
-13.50000718101106
 30
0.0
 11
-35.99999809265136
 21
-11.80000718101106
 31
0.0
 70
    32
  1
<>
  3
AM_JIS$0
100
AcDbAlignedDimension
 13
-71.0
 23
-1.250006209471289
 33
0.0
 14
-0.9999961853027222
 24
-0.7999993701436204
 34
0.0
 50
0.0000000000001132
100
AcDbRotatedDimension
1001
GENIUS_GENDTOL_13
1000

1000
h7
1000

1040
0.0
1001
ACAD
1000
DSTYLE
1002
{
1070
   271
1070
     0
1002
}
  0
DIMENSION
  5
DF5
330
1F
100
AcDbEntity
  8
AM_5
100
AcDbDimension
  2
*D6
 10
-0.9999961853027228
 20
-8.50000718101104
 30
0.0
 11
-11.99999618530273
 21
-6.80000718101104
 31
0.0
 70
    32
  1
<>
  3
AM_JIS$0
100
AcDbAlignedDimension
 13
-22.99999618530275
 23
-1.500000745136713
 33
0.0
 14
-0.9999961853027222
 24
-0.7999993701436204
 34
0.0
 50
0.0000000000001527
100
AcDbRotatedDimension
1001
GENIUS_GENDTOL_13
1000

1000
h7
1000

1040
0.0
1001
ACAD
1000
DSTYLE
1002
{
1070
   271
1070
     0
1002
}
  0
ARC
  5
144A
330
1F
100
AcDbEntity
  8
AM_11
 48
0.5
100
AcDbCircle
 10
-24.61968231200996
 20
-6.625446930970555
 30
0.0
 40
7.325448036193749
100
AcDbArc
 50
64.74833051131179
 51
115.2516644797366
  0
ARC
  5
144B
330
1F
100
AcDbEntity
  8
AM_11
 48
0.5
100
AcDbCircle
 10
-24.61968231200995
 20
6.625451430235442
 30
0.0
 40
7.325448036193749
100
AcDbArc
 50
244.7482808787518
 51
295.2516148471758
  0
ARC
  5
144E
330
1F
100
AcDbEntity
  8
AM_11
 48
0.5
100
AcDbCircle
 10
-18.36968231200995
 20
-6.625446930970555
 30
0.0
 40
7.325448036193749
100
AcDbArc
 50
64.74833051131179
 51
115.2516644797366
  0
ARC
  5
144F
330
1F
100
AcDbEntity
  8
AM_11
 48
0.5
100
AcDbCircle
 10
-18.36968231200995
 20
6.625451430235442
 30
0.0
 40
7.325448036193749
100
AcDbArc
 50
244.7482808787518
 51
295.2516148471758
  0
ARC
  5
1450
330
1F
100
AcDbEntity
  8
AM_11
 48
0.5
100
AcDbCircle
 10
-12.11968231201171
 20
6.625451430235442
 30
0.0
 40
7.325448036193749
100
AcDbArc
 50
244.7482808787518
 51
295.2516148471758
  0
ARC
  5
1451
330
1F
100
AcDbEntity
  8
AM_11
 48
0.5
100
AcDbCircle
 10
-12.11968231201171
 20
-6.625446930970555
 30
0.0
 40
7.325448036193749
100
AcDbArc
 50
64.74833051131179
 51
115.2516644797366
  0
ARC
  5
1452
330
1F
100
AcDbEntity
  8
AM_11
 48
0.5
100
AcDbCircle
 10
-5.869682312011709
 20
-6.625446930970555
 30
0.0
 40
7.325448036193749
100
AcDbArc
 50
64.74833051131179
 51
115.2516644797366
  0
ARC
  5
1453
330
1F
100
AcDbEntity
  8
AM_11
 48
0.5
100
AcDbCircle
 10
-5.869682312011709
 20
6.625451430235442
 30
0.0
 40
7.325448036193749
100
AcDbArc
 50
244.7482808787518
 51
295.2516148471758
  0
ARC
  5
18B8
330
1F
100
AcDbEntity
  8
AM_11
 48
0.5
100
AcDbCircle
 10
-30.8696823120099
 20
6.625451430235421
 30
0.0
 40
7.325448036193749
100
AcDbArc
 50
244.7482808787518
 51
295.2516148471758
  0
ARC
  5
18B9
330
1F
100
AcDbEntity
  8
AM_11
 48
0.5
100
AcDbCircle
 10
-30.86968231200991
 20
-6.625446930970577
 30
0.0
 40
7.325448036193749
100
AcDbArc
 50
64.74833051131179
 51
115.2516644797366
  0
ARC
  5
18BA
330
1F
100
AcDbEntity
  8
AM_11
 48
0.5
100
AcDbCircle
 10
-37.11969507921032
 20
6.625457452091307
 30
0.0
 40
7.325448036193749
100
AcDbArc
 50
244.7482808787518
 51
295.2516148471758
  0
ARC
  5
18BB
330
1F
100
AcDbEntity
  8
AM_11
 48
0.5
100
AcDbCircle
 10
-37.11969507921033
 20
-6.625440909114692
 30
0.0
 40
7.325448036193749
100
AcDbArc
 50
64.74833051131179
 51
115.2516644797366
  0
TEXT
  5
19BD
330
1F
100
AcDbEntity
  8
AM_6
100
AcDbText
 10
-46.59523618788943
 20
-24.75000718101109
 30
0.0
 40
2.5
  1
MDW016LHK
 50
0.0000000000001527
 72
     4
 11
-35.99999809265133
 21
-23.50000718101106
 31
0.0
100
AcDbText
  0
LINE
  5
1B5C
330
1F
100
AcDbEntity
  8
AM_0
 48
0.5
100
AcDbLine
 10
-70.75000000000001
 20
1.500005264989105
 30
0.0
 11
-71.00000000000001
 21
1.250005235204411
 31
0.0
1001
GENIUS_GENFIL_13
1070
     0
1040
0.25
1040
0.25
1040
20.0
1040
0.0
1002
{
1002
}
1001
GENIUS_GENODEF_13
1002
{
1000
HIER
1070
     0
1002
}
1002
{
1000
MANEDIT
1070
     0
1002
}
1002
{
1000
NOSEL
1070
     0
1002
}
1002
{
1000
BEHIND
1070
     0
1002
}
1002
{
1000
REACTOR
1002
}
1001
GENIUS_GENOBJ-N-CHA_13
1002
{
1000
OWNER
1000
GEN
1002
}
  0
LINE
  5
1B60
330
1F
100
AcDbEntity
  8
AM_0
 48
0.5
100
AcDbLine
 10
-71.00000000000001
 20
-1.250006209471274
 30
0.0
 11
-70.75000000000001
 21
-1.500006181011199
 31
0.0
1001
GENIUS_GENFIL_13
1070
     0
1040
0.25
1040
0.25
1040
20.0
1040
0.0
1002
{
1002
}
1001
GENIUS_GENODEF_13
1002
{
1000
HIER
1070
     0
1002
}
1002
{
1000
MANEDIT
1070
     0
1002
}
1002
{
1000
NOSEL
1070
     0
1002
}
1002
{
1000
BEHIND
1070
     0
1002
}
1002
{
1000
REACTOR
1002
}
1001
GENIUS_GENOBJ-N-CHA_13
1002
{
1000
OWNER
1000
GEN
1002
}
  0
LINE
  5
1C15
330
1F
100
AcDbEntity
  8
AM_0
 48
0.5
100
AcDbLine
 10
-22.99999618530275
 20
-1.500000745136711
 30
0.0
 11
-22.99999618530275
 21
1.500010953865678
 31
0.0
  0
LINE
  5
1C1A
330
1F
100
AcDbEntity
  8
AM_0
 48
0.5
100
AcDbLine
 10
-22.99999618530276
 20
1.500012098797339
 30
0.0
 11
-70.75000000000001
 21
1.500005264989105
 31
0.0
  0
LINE
  5
1C1E
330
1F
100
AcDbEntity
  8
AM_0
 48
0.5
100
AcDbLine
 10
-22.99999618530275
 20
-1.499999651123733
 30
0.0
 11
-70.75000000000001
 21
-1.500006181011199
 31
0.0
  0
ARC
  5
1C22
330
1F
100
AcDbEntity
  8
AM_11
 48
0.5
100
AcDbCircle
 10
-49.61969507914653
 20
6.625457452091293
 30
0.0
 40
7.325448036193749
100
AcDbArc
 50
244.7482808787518
 51
295.2516148471758
  0
ARC
  5
1C23
330
1F
100
AcDbEntity
  8
AM_11
 48
0.5
100
AcDbCircle
 10
-49.61969507914655
 20
-6.625440909114706
 30
0.0
 40
7.325448036193749
100
AcDbArc
 50
64.74833051131179
 51
115.2516644797366
  0
ARC
  5
1C24
330
1F
100
AcDbEntity
  8
AM_11
 48
0.5
100
AcDbCircle
 10
-43.3696823119461
 20
6.625451430235407
 30
0.0
 40
7.325448036193749
100
AcDbArc
 50
244.7482808787518
 51
295.2516148471758
  0
ARC
  5
1C25
330
1F
100
AcDbEntity
  8
AM_11
 48
0.5
100
AcDbCircle
 10
-43.36968231194612
 20
-6.625446930970591
 30
0.0
 40
7.325448036193749
100
AcDbArc
 50
64.74833051131179
 51
115.2516644797366
  0
ARC
  5
1C26
330
1F
100
AcDbEntity
  8
AM_11
 48
0.5
100
AcDbCircle
 10
-62.11969507908265
 20
6.625457452091239
 30
0.0
 40
7.325448036193749
100
AcDbArc
 50
244.7482808787518
 51
295.2516148471758
  0
ARC
  5
1C27
330
1F
100
AcDbEntity
  8
AM_11
 48
0.5
100
AcDbCircle
 10
-62.11969507908267
 20
-6.62544090911476
 30
0.0
 40
7.325448036193749
100
AcDbArc
 50
64.74833051131179
 51
115.2516644797366
  0
ARC
  5
1C28
330
1F
100
AcDbEntity
  8
AM_11
 48
0.5
100
AcDbCircle
 10
-55.86968231188222
 20
6.625451430235353
 30
0.0
 40
7.325448036193749
100
AcDbArc
 50
244.7482808787518
 51
295.2516148471758
  0
ARC
  5
1C29
330
1F
100
AcDbEntity
  8
AM_11
 48
0.5
100
AcDbCircle
 10
-55.86968231188224
 20
-6.625446930970645
 30
0.0
 40
7.325448036193749
100
AcDbArc
 50
64.74833051131179
 51
115.2516644797366
  0
ARC
  5
1C2C
330
1F
100
AcDbEntity
  8
AM_11
 48
0.5
100
AcDbCircle
 10
-68.36968231181839
 20
6.625451430235318
 30
0.0
 40
7.325448036193749
100
AcDbArc
 50
248.957166746083
 51
295.2516148471758
  0
ARC
  5
1C2D
330
1F
100
AcDbEntity
  8
AM_11
 48
0.5
100
AcDbCircle
 10
-68.36968231181839
 20
-6.62544693097068
 30
0.0
 40
7.325448036193749
100
AcDbArc
 50
64.74833051131179
 51
111.0428332539169
  0
DIMENSION
  5
1C71
330
1F
100
AcDbEntity
  8
AM_5
100
AcDbDimension
  2
*D7
 10
7.295959622153484
 20
0.8000006298564432
 30
0.0
 11
7.295959622153484
 21
6.823810198953402
 31
0.0
 70
   160
  1
%%c<>
  3
AM_JIS$0
100
AcDbAlignedDimension
 13
-0.9999961853027222
 23
-0.7999993701436204
 33
0.0
 14
-0.9999961853027221
 24
0.8000006298564457
 34
0.0
 50
89.99999999999991
100
AcDbRotatedDimension
1001
GENIUS_GENDTOL_13
1000

1000
h7
1000

1040
0.0
1001
ACAD
1000
DSTYLE
1002
{
1070
   271
1070
     1
1002
}
  0
LINE
  5
1C85
330
1F
100
AcDbEntity
  8
AM_0
 48
0.5
100
AcDbLine
 10
-0.7801604883265365
 20
0.7545235093269123
 30
0.0
 11
-0.9999961853027221
 21
0.8000006298564457
 31
0.0
  0
ELLIPSE
  5
1C86
330
1F
100
AcDbEntity
  8
AM_0
 48
0.5
100
AcDbEllipse
 10
0.4043207807363937
 20
1.63789147893247
 30
0.0
 11
1.465057204837862
 21
0.3500894754155069
 31
0.0
210
0.0
220
0.0
230
1.0
 40
0.8940184560942867
 41
3.590053636699332
 42
4.139783211904274
  0
LINE
  5
1CF2
330
1F
100
AcDbEntity
  8
AM_0
100
AcDbLine
 10
-22.99999618530275
 20
-1.500000745136711
 30
0.0
 11
-21.78755823844599
 21
-0.7999993701432335
 31
0.0
  0
LINE
  5
1CF3
330
1F
100
AcDbEntity
  8
AM_0
100
AcDbLine
 10
-22.99999618530275
 20
1.500010953865678
 30
0.0
 11
-21.78773959369706
 21
0.8001142843752427
 31
0.0
  0
LINE
  5
1CF4
330
1F
100
AcDbEntity
  8
AM_0
100
AcDbLine
 10
-21.78773959369706
 20
0.8001142843752425
 30
0.0
 11
-21.78774012482061
 21
-0.8001043822905803
 31
0.0
  0
DIMENSION
  5
1DEF
330
1F
100
AcDbEntity
  8
AM_5
100
AcDbDimension
  2
*D8
 10
-78.75000134152343
 20
1.500013847201807
 30
0.0
 11
-78.75000134152343
 21
0.0000038330952924
 31
0.0
 70
   160
  1
%%c<>
 51
359.9999999999998
  3
AM_JIS$0
100
AcDbAlignedDimension
 13
-70.75000000000002
 23
-1.500006181011199
 33
0.0
 14
-70.75000000000002
 24
1.500013847201805
 34
0.0
 50
270.0000065225689
100
AcDbRotatedDimension
1001
ACAD
1000
DSTYLE
1002
{
1070
   271
1070
     0
1002
}
1001
GENIUS_GENDTOL_13
1000

1000
h7
1000

1040
0.0
  0
DIMENSION
  5
2852
330
1F
100
AcDbEntity
  8
AM_5
100
AcDbDimension
  2
*D9
 10
-0.1264215931311837
 20
-0.3473400715997372
 30
0.0
 11
13.01562537705327
 21
-0.0000039055608765
 31
0.0
 70
    34
  1
<>
 51
359.9999999999998
  3
AM_JIS$2
100
AcDb2LineAngularDimension
 13
0.000000931564099
 23
0.0000000589419433
 33
0.0
 14
-0.1264197961097417
 24
0.3473381564630156
 34
0.0
 15
0.0000004774336211
 25
0.0000009672031361
 35
0.0
 16
13.37439452992763
 26
5.76914425336154
 36
0.0
1001
GENIUS_GENDTOL_13
1000

1000
h7
1000

1040
0.0
1001
ACAD
1000
DSTYLE
1002
{
1070
   271
1070
     0
1002
}
  0
ELLIPSE
  5
2C98
330
1F
100
AcDbEntity
  8
AM_11
 48
0.5
100
AcDbEllipse
 10
0.3803176879883224
 20
5.928035555357021
 30
0.0
 11
-7.325448036193943
 21
0.0000000000006641
 31
0.0
210
0.0
220
0.0
230
1.0
 40
0.8947368421052424
 41
1.130070686340396
 42
1.291800737381081
  0
ELLIPSE
  5
2CCC
330
1F
100
AcDbEntity
  8
AM_0
 48
0.5
100
AcDbEllipse
 10
0.4043207807363971
 20
-1.637891478932469
 30
0.0
 11
1.465057204837863
 21
-0.3500894754155038
 31
0.0
210
0.0
220
0.0
230
-1.0
 40
0.8940184560942867
 41
3.590053636699332
 42
4.139783211904274
  0
LINE
  5
2CCD
330
1F
100
AcDbEntity
  8
AM_0
 48
0.5
100
AcDbLine
 10
-0.780160488326535
 20
-0.7545235093269137
 30
0.0
 11
-0.9999961853027222
 21
-0.7999993701436204
 31
0.0
  0
LINE
  5
2D26
330
1F
100
AcDbEntity
  8
AM_0
100
AcDbLine
 10
-19.60319602246261
 20
-0.7999993701432434
 30
0.0
 11
-21.78774012478576
 21
-0.7999993701432335
 31
0.0
  0
LINE
  5
2D27
330
1F
100
AcDbEntity
  8
AM_0
100
AcDbLine
 10
-19.0112897426483
 20
0.8001142843752299
 30
0.0
 11
-21.78773959369706
 21
0.8001142843752425
 31
0.0
  0
LINE
  5
2D28
330
1F
100
AcDbEntity
  8
AM_0
 48
0.5
100
AcDbLine
 10
-1.72333114177383
 20
0.8000006298564553
 30
0.0
 11
-0.9999961853027221
 21
0.8000006298564457
 31
0.0
  0
LINE
  5
2D29
330
1F
100
AcDbEntity
  8
AM_0
 48
0.5
100
AcDbLine
 10
-1.723331141773868
 20
-0.7999993701435444
 30
0.0
 11
-0.9999961853027647
 21
-0.7999993701435543
 31
0.0
  0
LINE
  5
2D2A
330
1F
100
AcDbEntity
  8
AM_0
 48
0.5
100
AcDbLine
 10
-0.0000000000000003
 20
0.0000000000000002
 30
0.0
 11
-1.13885740899922
 21
0.3071762948995334
 31
0.0
  0
LINE
  5
2D2B
330
1F
100
AcDbEntity
  8
AM_0
 48
0.5
100
AcDbLine
 10
-9.456546168273264
 20
0.8000006298565914
 30
0.0
 11
-5.215656391952624
 21
0.8000006298565196
 31
0.0
  0
LINE
  5
2D2C
330
1F
100
AcDbEntity
  8
AM_0
 48
0.5
100
AcDbLine
 10
-8.578865768487684
 20
-0.7999993701434396
 30
0.0
 11
-5.215656391952661
 21
-0.7999993701434801
 31
0.0
  0
LINE
  5
2D2D
330
1F
100
AcDbEntity
  8
AM_11
 48
0.5
100
AcDbLine
 10
-12.35841332359315
 20
-0.7999993701433753
 30
0.0
 11
-8.578865768487686
 21
-0.8001130246619318
 31
0.0
  0
LINE
  5
2D2E
330
1F
100
AcDbEntity
  8
AM_11
 48
0.5
100
AcDbLine
 10
-11.86850526069137
 20
0.8001142843751265
 30
0.0
 11
-9.456542912971187
 21
0.8000006298565914
 31
0.0
  0
LINE
  5
2D2F
330
1F
100
AcDbEntity
  8
AM_11
 48
0.5
100
AcDbLine
 10
-19.0112897426483
 20
0.8001142843752296
 30
0.0
 11
-16.59933065023019
 21
0.8000006298566956
 31
0.0
  0
LINE
  5
2D30
330
1F
100
AcDbEntity
  8
AM_0
 48
0.5
100
AcDbLine
 10
-17.23072813974767
 20
0.4053457836652395
 30
0.0
 11
-19.99999618530275
 21
-0.0102105471662562
 31
0.0
  0
LINE
  5
2D31
330
1F
100
AcDbEntity
  8
AM_11
 48
0.5
100
AcDbLine
 10
-19.60319602246261
 20
-0.7999993701432434
 30
0.0
 11
-16.75806057816932
 21
-0.7999993701433038
 31
0.0
  0
LINE
  5
2D32
330
1F
100
AcDbEntity
  8
AM_0
100
AcDbLine
 10
-16.59933065023019
 20
0.8000006298566956
 30
0.0
 11
-11.86850526069137
 21
0.8001142843751265
 31
0.0
  0
LINE
  5
2D33
330
1F
100
AcDbEntity
  8
AM_0
 48
0.5
100
AcDbLine
 10
-16.75806057816932
 20
-0.7999993701433038
 30
0.0
 11
-12.69840911625206
 21
-0.799999370143354
 31
0.0
  0
LINE
  5
2D34
330
1F
100
AcDbEntity
  8
AM_11
 48
0.5
100
AcDbLine
 10
-5.215656391952661
 20
-0.7999993701434801
 30
0.0
 11
-1.436108836846714
 21
-0.7999993701435439
 31
0.0
  0
LINE
  5
2D35
330
1F
100
AcDbEntity
  8
AM_11
 48
0.5
100
AcDbLine
 10
-5.215656391952624
 20
0.8000006298565196
 30
0.0
 11
-1.436108836846676
 21
0.8000006298564558
 31
0.0
  0
SPLINE
  5
2D36
330
1F
100
AcDbEntity
  8
AM_0
100
AcDbSpline
210
0.0
220
0.0
230
1.0
 70
     8
 71
     3
 72
    22
 73
    18
 74
     0
 42
0.0000000001
 43
0.0000000001
 40
17.17441611292
 40
17.17441611292
 40
17.17441611292
 40
17.17441611292
 40
17.38177636558528
 40
18.41823744757437
 40
19.46215659509824
 40
20.51397914882054
 40
21.57394542641293
 40
22.64209583141747
 40
23.71826625065247
 40
24.80210429862395
 40
25.8930771157021
 40
26.99048705697709
 40
28.09349309193389
 40
29.20112995599786
 40
30.31233024745139
 40
31.42594771747373
 40
32.5407895042663
 40
32.54078950426994
 40
32.54078950426994
 40
32.54078950426994
 10
-13.12421309610837
 20
-0.7184051602626099
 30
0.0
 10
-13.13764825976365
 20
-0.7165532387280253
 30
0.0
 10
-13.21818472850681
 20
-0.7052729822408593
 30
0.0
 10
-13.36572300103233
 20
-0.6826545998260211
 30
0.0
 10
-13.56627111634465
 20
-0.6476987473745108
 30
0.0
 10
-13.76679879622499
 20
-0.6087511586577305
 30
0.0
 10
-13.96730745638753
 20
-0.5660549541816263
 30
0.0
 10
-14.16779683197429
 20
-0.5198719248067664
 30
0.0
 10
-14.36826939077698
 20
-0.4704894888658802
 30
0.0
 10
-14.5687260610399
 20
-0.4182111349214264
 30
0.0
 10
-14.76916869746393
 20
-0.3633592607176586
 30
0.0
 10
-14.96959952884411
 20
-0.3062722675746562
 30
0.0
 10
-15.17002029479911
 20
-0.2473011851396099
 30
0.0
 10
-15.37043301288799
 20
-0.1868088134765756
 30
0.0
 10
-15.57083945959506
 20
-0.1251671121978537
 30
0.0
 10
-15.77124260376753
 20
-0.0627564439181664
 30
0.0
 10
-15.904818475391
 20
-0.0208989325659844
 30
0.0
 10
-15.97164310545635
 20
0.000041319960954
 30
0.0
  0
SPLINE
  5
2D37
330
1F
100
AcDbEntity
  8
AM_0
100
AcDbSpline
210
0.0
220
0.0
230
1.0
 70
     8
 71
     3
 72
    23
 73
    19
 74
     0
 42
0.0000000001
 43
0.0000000001
 40
16.03460024169435
 40
16.03460024169435
 40
16.03460024169435
 40
16.03460024169435
 40
16.35212704903564
 40
17.38177054169784
 40
18.41822485651776
 40
19.46214173629503
 40
20.51396345435107
 40
21.57393551351153
 40
22.64208202342361
 40
23.7182574881101
 40
24.80209208578934
 40
25.89306333925047
 40
26.99048218457928
 40
28.09348763352352
 40
29.20111863782268
 40
30.31232390128032
 40
31.42594612798585
 40
32.5407912310448
 40
32.5407912310486
 40
32.5407912310486
 40
32.5407912310486
 10
-19.0112897426483
 20
0.8001142843752299
 30
0.0
 10
-18.99067641234749
 20
0.7974136252549222
 30
0.0
 10
-18.90330806070917
 20
0.7856530149031335
 30
0.0
 10
-18.7494077684056
 20
0.7626098938142155
 30
0.0
 10
-18.55010648698499
 20
0.7283450247521132
 30
0.0
 10
-18.35099032596906
 20
0.6898712881708146
 30
0.0
 10
-18.15204751942506
 20
0.6474113504340019
 30
0.0
 10
-17.95327100652022
 20
0.6012019266451091
 30
0.0
 10
-17.75464929844851
 20
0.5515071693576365
 30
0.0
 10
-17.5561685639491
 20
0.4986162895937729
 30
0.0
 10
-17.35781752463378
 20
0.4428288053218884
 30
0.0
 10
-17.15958027798051
 20
0.3844693309141845
 30
0.0
 10
-16.96144075907724
 20
0.3238770768500336
 30
0.0
 10
-16.76338576645296
 20
0.2614004231884046
 30
0.0
 10
-16.56539872908699
 20
0.1974026631145097
 30
0.0
 10
-16.36746130918658
 20
0.1322574965947697
 30
0.0
 10
-16.16955738905825
 20
0.0663424222284776
 30
0.0
 10
-16.03765688025531
 20
0.0221499690648939
 30
0.0
 10
-15.97167065577143
 20
0.0000413199606661
 30
0.0
  0
SPLINE
  5
2D38
330
1F
100
AcDbEntity
  8
AM_0
100
AcDbSpline
210
0.0
220
0.0
230
1.0
 70
     8
 71
     3
 72
    17
 73
    13
 74
     0
 42
0.0000000001
 43
0.0000000001
 40
1.580019955310467
 40
1.580019955310467
 40
1.580019955310467
 40
1.580019955310467
 40
2.030549285115227
 40
3.082371838836284
 40
4.126290986361125
 40
5.162752068350215
 40
6.192395305374981
 40
7.216039564037012
 40
8.234688489606833
 40
9.249433870634691
 40
10.26152376260694
 40
11.27226744710342
 40
11.27226744710342
 40
11.27226744710342
 40
11.27226744710352
 10
-10.46849210702293
 20
-0.590422927415696
 30
0.0
 10
-10.49687936770924
 20
-0.5965037995683759
 30
0.0
 10
-10.59170235544794
 20
-0.6164346702653621
 30
0.0
 10
-10.7535887106348
 20
-0.6476969540925112
 30
0.0
 10
-10.95410891010832
 20
-0.6827065647532832
 30
0.0
 10
-11.15468431260502
 20
-0.7134403546298348
 30
0.0
 10
-11.35526890539664
 20
-0.7397951127482422
 30
0.0
 10
-11.55587535152016
 20
-0.7615791333252057
 30
0.0
 10
-11.75649565696739
 20
-0.7786681045607185
 30
0.0
 10
-11.95712845464079
 20
-0.7909512842031328
 30
0.0
 10
-12.1577688014678
 20
-0.7983496039986228
 30
0.0
 10
-12.29156149745098
 20
-0.7999993747210189
 30
0.0
 10
-12.35841332359361
 20
-0.7999993701433756
 30
0.0
  0
SPLINE
  5
2D39
330
1F
100
AcDbEntity
  8
AM_0
100
AcDbSpline
210
0.0
220
0.0
230
1.0
 70
     8
 71
     3
 72
    11
 73
     7
 74
     0
 42
0.0000000001
 43
0.0000000001
 40
11.27226913003534
 40
11.27226913003534
 40
11.27226913003534
 40
11.2722691300354
 40
12.28301561507924
 40
13.29510212255852
 40
14.30984805882082
 40
15.18258238371378
 40
15.18258238371378
 40
15.18258238371378
 40
15.18258238371378
 10
-12.35841332359362
 20
-0.7999993701433756
 30
0.0
 10
-12.42501094618138
 20
-0.7960839376648929
 30
0.0
 10
-12.55808057557672
 20
-0.7866048460410653
 30
0.0
 10
-12.75699787291127
 20
-0.7674831735880522
 30
0.0
 10
-12.94577389553989
 20
-0.7446444324525439
 30
0.0
 10
-13.06786314604587
 20
-0.7270876124171391
 30
0.0
 10
-13.12412534916726
 20
-0.7184150282564927
 30
0.0
  0
SPLINE
  5
2D3A
330
1F
100
AcDbEntity
  8
AM_0
100
AcDbSpline
210
0.0
220
0.0
230
1.0
 70
     8
 71
     3
 72
    55
 73
    51
 74
     0
 42
0.0000000001
 43
0.0000000001
 40
0.0
 40
0.0
 40
0.0
 40
0.0
 40
1.010743684496582
 40
2.022833576467832
 40
3.037578957496688
 40
4.056212745003489
 40
5.079857003664532
 40
6.109500240690281
 40
7.145961322679372
 40
8.189895241603872
 40
9.241717795325891
 40
10.30168407291828
 40
11.36983447792315
 40
12.44600489715814
 40
13.52984294512926
 40
14.62081576220742
 40
15.7182257034828
 40
16.82123173843959
 40
17.92886860250316
 40
19.0400688939571
 40
20.15368796660465
 40
21.26852814259644
 40
22.38336992938901
 40
23.49698739941135
 40
24.6081876908653
 40
25.71582455492886
 40
26.81883757994213
 40
27.91624752121713
 40
29.00722033829659
 40
30.09105838626677
 40
31.16722880550176
 40
32.23537921050758
 40
33.29534548809967
 40
34.347168041821
 40
35.39108718934584
 40
36.42754827133493
 40
37.45720575381954
 40
38.48085062012849
 40
39.49948440763516
 40
40.51422944315121
 40
41.52631975251916
 40
42.53706336719636
 40
43.54780698187354
 40
44.55989729124051
 40
45.57464232675757
 40
46.59327611426424
 40
47.6169209805722
 40
48.64656348684535
 40
49.68302456883444
 40
50.58557219878025
 40
50.58557219878025
 40
50.58557219878025
 40
50.58557219878025
 10
-8.578865768487684
 20
-0.7999993701434397
 30
0.0
 10
-8.645717595512296
 20
-0.799523389524623
 30
0.0
 10
-8.779510289375094
 20
-0.7985707943293671
 30
0.0
 10
-8.980150640457795
 20
-0.7908918076332734
 30
0.0
 10
-9.18078242696041
 20
-0.7786842247616108
 30
0.0
 10
-9.381401796325187
 20
-0.7615748330776402
 30
0.0
 10
-9.582006746686628
 20
-0.7397954976418145
 30
0.0
 10
-9.782593320557579
 20
-0.7134430676880421
 30
0.0
 10
-9.98316218889124
 20
-0.6826950625772943
 30
0.0
 10
-10.18371157304709
 20
-0.6477397683810788
 30
0.0
 10
-10.38424010691832
 20
-0.6087918084852316
 30
0.0
 10
-10.58474879002882
 20
-0.5660956552079188
 30
0.0
 10
-10.78523815938081
 20
-0.5199126119342518
 30
0.0
 10
-10.98571071992839
 20
-0.4705301798399032
 30
0.0
 10
-11.18616738950961
 20
-0.4182518245505908
 30
0.0
 10
-11.38661002690661
 20
-0.363399951853814
 30
0.0
 10
-11.58704085505538
 20
-0.3063129540002166
 30
0.0
 10
-11.78746163304387
 20
-0.2473418890167556
 30
0.0
 10
-11.98787430597858
 20
-0.1868494518933894
 30
0.0
 10
-12.18828101836026
 20
-0.125207966393752
 30
0.0
 10
-12.38868352794657
 20
-0.0627963790382645
 30
0.0
 10
-12.58908466473132
 20
0.0000004666275675
 30
0.0
 10
-12.78948490188266
 20
0.0627984426757567
 30
0.0
 10
-12.98988808317449
 20
0.1252090581177469
 30
0.0
 10
-13.1902945481514
 20
0.1868507302026516
 30
0.0
 10
-13.39070757841969
 20
0.2473433977752402
 30
0.0
 10
-13.59112918784971
 20
0.3063139594892776
 30
0.0
 10
-13.79156033233128
 20
0.3634012468533836
 30
0.0
 10
-13.99200299866554
 20
0.4182530750709475
 30
0.0
 10
-14.19245966095278
 20
0.4705314413542011
 30
0.0
 10
-14.39293222201369
 20
0.5199138735207867
 30
0.0
 10
-14.5934215964723
 20
0.5660969057513919
 30
0.0
 10
-14.79393025888811
 20
0.6087931026254053
 30
0.0
 10
-14.99445793096136
 20
0.6477407186112655
 30
0.0
 10
-15.19500607495091
 20
0.6826964706346235
 30
0.0
 10
-15.39557486888393
 20
0.7134450940490722
 30
0.0
 10
-15.59616287501024
 20
0.7397945141895323
 30
0.0
 10
-15.79676848811375
 20
0.7615805907900832
 30
0.0
 10
-15.99738791695108
 20
0.7786697014985668
 30
0.0
 10
-16.19801984285877
 20
0.7909514165739923
 30
0.0
 10
-16.39866002382236
 20
0.7983520577820161
 30
0.0
 10
-16.59930461373224
 20
0.8008243671294222
 30
0.0
 10
-16.79994920334691
 20
0.7983520577781459
 30
0.0
 10
-17.00058938519789
 20
0.7909514165895545
 30
0.0
 10
-17.20122130783848
 20
0.778669701439978
 30
0.0
 10
-17.4018407489249
 20
0.7615805910103294
 30
0.0
 10
-17.60244533798885
 20
0.7397946195720915
 30
0.0
 10
-17.80303255387478
 20
0.7134453634576858
 30
0.0
 10
-17.9944819200165
 20
0.6840922634669548
 30
0.0
 10
-18.11869644905661
 20
0.6626260639491092
 30
0.0
 10
-18.17632475078485
 20
0.6521645377397876
 30
0.0
  0
SPLINE
  5
2D3B
330
1F
100
AcDbEntity
  8
AM_0
100
AcDbSpline
210
0.0
220
0.0
230
1.0
 70
     8
 71
     3
 72
    46
 73
    42
 74
     0
 42
0.0000000001
 43
0.0000000001
 40
0.0
 40
0.0
 40
0.0
 40
0.0
 40
0.5056245176053715
 40
0.759310862862336
 40
1.013969309739036
 40
1.269880374404297
 40
1.527291183660732
 40
1.786406454158005
 40
2.047386241038974
 40
2.310345544571907
 40
2.575337113970003
 40
2.842374715221223
 40
3.111417320030211
 40
3.382376832022752
 40
3.655120036292296
 40
3.929472521611371
 40
4.205224030350333
 40
4.482133246366229
 40
4.759933319229942
 40
5.038338087391601
 40
5.317048131389549
 40
5.595758175387723
 40
5.874162943549382
 40
6.151963016412868
 40
6.428872232428759
 40
6.704623741167953
 40
6.978976226486702
 40
7.251719430756334
 40
7.522680721168324
 40
7.791723325977308
 40
8.058760927228528
 40
8.323752496626548
 40
8.586708135057122
 40
8.84768792193809
 40
9.106803192435362
 40
9.364213819003406
 40
9.620125035580642
 40
9.874787266973068
 40
10.12847352585207
 40
10.38149610319407
 40
10.63418200686337
 40
10.63418200686337
 40
10.63418200686337
 40
10.63418200686337
 10
-8.017209119337088
 20
-0.7999993701434489
 30
0.0
 10
-8.151008350097688
 20
-0.7981769083027157
 30
0.0
 10
-8.35193849850169
 20
-0.7954400650037094
 30
0.0
 10
-8.619124079044009
 20
-0.7785898235966096
 30
0.0
 10
-8.819745603855759
 20
-0.7616002978953419
 30
0.0
 10
-9.020349980303018
 20
-0.7397886328357052
 30
0.0
 10
-9.22093667992517
 20
-0.7134448660283784
 30
0.0
 10
-9.421504672269009
 20
-0.6826949431214994
 30
0.0
 10
-9.622053621413275
 20
-0.647739180342871
 30
0.0
 10
-9.822582634844309
 20
-0.6087922112505164
 30
0.0
 10
-10.02309211337152
 20
-0.5660955993899773
 30
0.0
 10
-10.22358151768538
 20
-0.5199126270620135
 30
0.0
 10
-10.42405406875542
 20
-0.4705301757378419
 30
0.0
 10
-10.62451074091834
 20
-0.4182518256779955
 30
0.0
 10
-10.82495337756016
 20
-0.3633999514844135
 30
0.0
 10
-11.02538420612595
 20
-0.3063129543428845
 30
0.0
 10
-11.22580498320164
 20
-0.247341888011526
 30
0.0
 10
-11.42621765938705
 20
-0.1868494555906645
 30
0.0
 10
-11.6266243596279
 20
-0.1252079525557391
 30
0.0
 10
-11.82702691465246
 20
-0.0627964308202352
 30
0.0
 10
-12.02742778505776
 20
0.0000006298439122
 30
0.0
 10
-12.22782865541902
 20
0.062797690584371
 30
0.0
 10
-12.42823121057564
 20
0.1252092120910529
 30
0.0
 10
-12.6286379103338
 20
0.1868507159622205
 30
0.0
 10
-12.82905058830903
 20
0.2473431452817655
 30
0.0
 10
-13.02947135874829
 20
0.3063142231124884
 30
0.0
 10
-13.22990221189099
 20
0.3634011776678268
 30
0.0
 10
-13.43034519337699
 20
0.4182533286337581
 30
0.0
 10
-13.63080264441782
 20
0.4705312037182939
 30
0.0
 10
-13.83127555310017
 20
0.5199139082587639
 30
0.0
 10
-14.03176495274607
 20
0.5660968943286195
 30
0.0
 10
-14.23227360760311
 20
0.6087931138437838
 30
0.0
 10
-14.43280128495056
 20
0.6477406854127583
 30
0.0
 10
-14.63334941546747
 20
0.682696590989503
 30
0.0
 10
-14.83391729173308
 20
0.713444502074991
 30
0.0
 10
-15.03450413841314
 20
0.7397959096127967
 30
0.0
 10
-15.235109795133
 20
0.7615764273350442
 30
0.0
 10
-15.43573028619289
 20
0.7786855561322433
 30
0.0
 10
-15.63636318954494
 20
0.7908920186287082
 30
0.0
 10
-15.83700337572213
 20
0.7985730775069855
 30
0.0
 10
-15.97079612561591
 20
0.7995249903176732
 30
0.0
 10
-16.03764796453249
 20
0.8000006298566862
 30
0.0
  0
SPLINE
  5
2D3C
330
1F
100
AcDbEntity
  8
AM_0
100
AcDbSpline
210
0.0
220
0.0
230
1.0
 70
     8
 71
     3
 72
    23
 73
    19
 74
     0
 42
0.0000000001
 43
0.0000000001
 40
16.03460024169435
 40
16.03460024169435
 40
16.03460024169435
 40
16.03460024169435
 40
16.35212704903564
 40
17.38177054169784
 40
18.41822485651776
 40
19.46214173629503
 40
20.51396345435107
 40
21.57393551351153
 40
22.64208202342361
 40
23.7182574881101
 40
24.80209208578934
 40
25.89306333925047
 40
26.99048218457928
 40
28.09348763352352
 40
29.20111863782268
 40
30.31232390128032
 40
31.42594612798585
 40
32.5407912310448
 40
32.5407912310486
 40
32.5407912310486
 40
32.5407912310486
 10
-11.86850526069137
 20
0.8001142843751265
 30
0.0
 10
-11.84789193039055
 20
0.7974136252548188
 30
0.0
 10
-11.76052357875223
 20
0.7856530149030298
 30
0.0
 10
-11.60662328644867
 20
0.7626098938141116
 30
0.0
 10
-11.40732200502805
 20
0.7283450247520101
 30
0.0
 10
-11.20820584401212
 20
0.6898712881707111
 30
0.0
 10
-11.00926303746811
 20
0.6474113504338983
 30
0.0
 10
-10.81048652456327
 20
0.6012019266450058
 30
0.0
 10
-10.61186481649156
 20
0.551507169357533
 30
0.0
 10
-10.41338408199214
 20
0.4986162895936692
 30
0.0
 10
-10.21503304267682
 20
0.4428288053217847
 30
0.0
 10
-10.01679579602355
 20
0.3844693309140808
 30
0.0
 10
-9.818656277120293
 20
0.3238770768499301
 30
0.0
 10
-9.620601284496023
 20
0.2614004231883009
 30
0.0
 10
-9.42261424713005
 20
0.1974026631144059
 30
0.0
 10
-9.224676827229641
 20
0.1322574965946661
 30
0.0
 10
-9.026772907101314
 20
0.066342422228374
 30
0.0
 10
-8.894872398298371
 20
0.0221499690647903
 30
0.0
 10
-8.828886173814494
 20
0.0000413199605625
 30
0.0
  0
SPLINE
  5
2D3D
330
1F
100
AcDbEntity
  8
AM_0
100
AcDbSpline
210
0.0
220
0.0
230
1.0
 70
     8
 71
     3
 72
    17
 73
    13
 74
     0
 42
0.0000000001
 43
0.0000000001
 40
1.580019955310467
 40
1.580019955310467
 40
1.580019955310467
 40
1.580019955310467
 40
2.030549285115227
 40
3.082371838836284
 40
4.126290986361125
 40
5.162752068350215
 40
6.192395305374981
 40
7.216039564037012
 40
8.234688489606833
 40
9.249433870634691
 40
10.26152376260694
 40
11.27226744710342
 40
11.27226744710342
 40
11.27226744710342
 40
11.27226744710352
 10
-3.325735175381955
 20
-0.5904229274158002
 30
0.0
 10
-3.354122436068266
 20
-0.59650379956848
 30
0.0
 10
-3.448945423806974
 20
-0.616434670265466
 30
0.0
 10
-3.610831778993832
 20
-0.6476969540926155
 30
0.0
 10
-3.811351978467353
 20
-0.6827065647533875
 30
0.0
 10
-4.011927380964053
 20
-0.7134403546299387
 30
0.0
 10
-4.212511973755676
 20
-0.7397951127483463
 30
0.0
 10
-4.413118419879191
 20
-0.7615791333253109
 30
0.0
 10
-4.613738725326423
 20
-0.7786681045608225
 30
0.0
 10
-4.814371522999825
 20
-0.7909512842032369
 30
0.0
 10
-5.015011869826831
 20
-0.7983496039987271
 30
0.0
 10
-5.148804565810007
 20
-0.7999993747211232
 30
0.0
 10
-5.215656391952644
 20
-0.7999993701434801
 30
0.0
  0
SPLINE
  5
2D3E
330
1F
100
AcDbEntity
  8
AM_0
100
AcDbSpline
210
0.0
220
0.0
230
1.0
 70
     8
 71
     3
 72
    11
 73
     7
 74
     0
 42
0.0000000001
 43
0.0000000001
 40
11.27226913003534
 40
11.27226913003534
 40
11.27226913003534
 40
11.2722691300354
 40
12.28301561507924
 40
13.29510212255852
 40
14.30984805882082
 40
15.18258238371378
 40
15.18258238371378
 40
15.18258238371378
 40
15.18258238371378
 10
-5.215656391952655
 20
-0.7999993701434801
 30
0.0
 10
-5.282254014540415
 20
-0.796083937664997
 30
0.0
 10
-5.41532364393575
 20
-0.7866048460411692
 30
0.0
 10
-5.614240941270304
 20
-0.767483173588156
 30
0.0
 10
-5.803016963898927
 20
-0.7446444324526479
 30
0.0
 10
-5.9251062144049
 20
-0.7270876124172434
 30
0.0
 10
-5.981368417526281
 20
-0.7184150282565968
 30
0.0
  0
SPLINE
  5
2D3F
330
1F
100
AcDbEntity
  8
AM_0
100
AcDbSpline
210
0.0
220
0.0
230
1.0
 70
     8
 71
     3
 72
    22
 73
    18
 74
     0
 42
0.0000000001
 43
0.0000000001
 40
17.17441611292
 40
17.17441611292
 40
17.17441611292
 40
17.17441611292
 40
17.38177636558528
 40
18.41823744757437
 40
19.46215659509824
 40
20.51397914882054
 40
21.57394542641293
 40
22.64209583141747
 40
23.71826625065247
 40
24.80210429862395
 40
25.8930771157021
 40
26.99048705697709
 40
28.09349309193389
 40
29.20112995599786
 40
30.31233024745139
 40
31.42594771747373
 40
32.5407895042663
 40
32.54078950426994
 40
32.54078950426994
 40
32.54078950426994
 10
-5.981456164467395
 20
-0.7184051602627139
 30
0.0
 10
-5.994891328122673
 20
-0.7165532387281293
 30
0.0
 10
-6.075427796865833
 20
-0.7052729822409633
 30
0.0
 10
-6.222966069391357
 20
-0.682654599826125
 30
0.0
 10
-6.423514184703678
 20
-0.6476987473746149
 30
0.0
 10
-6.624041864584022
 20
-0.608751158657835
 30
0.0
 10
-6.824550524746569
 20
-0.5660549541817303
 30
0.0
 10
-7.025039900333322
 20
-0.5198719248068706
 30
0.0
 10
-7.225512459136012
 20
-0.4704894888659842
 30
0.0
 10
-7.425969129398938
 20
-0.4182111349215309
 30
0.0
 10
-7.626411765822972
 20
-0.3633592607177624
 30
0.0
 10
-7.826842597203148
 20
-0.3062722675747604
 30
0.0
 10
-8.027263363158148
 20
-0.247301185139714
 30
0.0
 10
-8.227676081247029
 20
-0.1868088134766797
 30
0.0
 10
-8.428082527954094
 20
-0.1251671121979576
 30
0.0
 10
-8.628485672126565
 20
-0.0627564439182704
 30
0.0
 10
-8.762061543750029
 20
-0.0208989325660885
 30
0.0
 10
-8.828886173815382
 20
0.00004131996085
 30
0.0
  0
SPLINE
  5
2D40
330
1F
100
AcDbEntity
  8
AM_0
100
AcDbSpline
210
0.0
220
0.0
230
1.0
 70
     8
 71
     3
 72
    55
 73
    51
 74
     0
 42
0.0000000001
 43
0.0000000001
 40
0.0
 40
0.0
 40
0.0
 40
0.0
 40
1.010743684496582
 40
2.022833576467832
 40
3.037578957496688
 40
4.056212745003489
 40
5.079857003664532
 40
6.109500240690281
 40
7.145961322679372
 40
8.189895241603872
 40
9.241717795325891
 40
10.30168407291828
 40
11.36983447792315
 40
12.44600489715814
 40
13.52984294512926
 40
14.62081576220742
 40
15.7182257034828
 40
16.82123173843959
 40
17.92886860250316
 40
19.0400688939571
 40
20.15368796660465
 40
21.26852814259644
 40
22.38336992938901
 40
23.49698739941135
 40
24.6081876908653
 40
25.71582455492886
 40
26.81883757994213
 40
27.91624752121713
 40
29.00722033829659
 40
30.09105838626677
 40
31.16722880550176
 40
32.23537921050758
 40
33.29534548809967
 40
34.347168041821
 40
35.39108718934584
 40
36.42754827133493
 40
37.45720575381954
 40
38.48085062012849
 40
39.49948440763516
 40
40.51422944315121
 40
41.52631975251916
 40
42.53706336719636
 40
43.54780698187354
 40
44.55989729124051
 40
45.57464232675757
 40
46.59327611426424
 40
47.6169209805722
 40
48.64656348684535
 40
49.68302456883444
 40
50.58557219878025
 40
50.58557219878025
 40
50.58557219878025
 40
50.58557219878025
 10
-1.436108836846714
 20
-0.7999993701435441
 30
0.0
 10
-1.502960663871326
 20
-0.7995233895247271
 30
0.0
 10
-1.636753357734124
 20
-0.7985707943294709
 30
0.0
 10
-1.837393708816823
 20
-0.7908918076333774
 30
0.0
 10
-2.038025495319441
 20
-0.7786842247617147
 30
0.0
 10
-2.238644864684216
 20
-0.7615748330777442
 30
0.0
 10
-2.439249815045656
 20
-0.7397954976419186
 30
0.0
 10
-2.639836388916608
 20
-0.7134430676881461
 30
0.0
 10
-2.840405257250269
 20
-0.6826950625773988
 30
0.0
 10
-3.040954641406119
 20
-0.6477397683811829
 30
0.0
 10
-3.24148317527735
 20
-0.6087918084853356
 30
0.0
 10
-3.441991858387845
 20
-0.5660956552080229
 30
0.0
 10
-3.642481227739843
 20
-0.5199126119343557
 30
0.0
 10
-3.842953788287419
 20
-0.4705301798400071
 30
0.0
 10
-4.043410457868633
 20
-0.4182518245506949
 30
0.0
 10
-4.243853095265643
 20
-0.3633999518539179
 30
0.0
 10
-4.444283923414413
 20
-0.3063129540003207
 30
0.0
 10
-4.644704701402913
 20
-0.2473418890168596
 30
0.0
 10
-4.84511737433762
 20
-0.1868494518934933
 30
0.0
 10
-5.045524086719298
 20
-0.1252079663938561
 30
0.0
 10
-5.245926596305596
 20
-0.0627963790383685
 30
0.0
 10
-5.446327733090357
 20
0.0000004666274634
 30
0.0
 10
-5.646727970241694
 20
0.0627984426756526
 30
0.0
 10
-5.847131151533521
 20
0.1252090581176428
 30
0.0
 10
-6.047537616510429
 20
0.1868507302025474
 30
0.0
 10
-6.247950646778711
 20
0.2473433977751362
 30
0.0
 10
-6.448372256208738
 20
0.3063139594891734
 30
0.0
 10
-6.648803400690312
 20
0.3634012468532793
 30
0.0
 10
-6.849246067024567
 20
0.4182530750708433
 30
0.0
 10
-7.049702729311805
 20
0.470531441354097
 30
0.0
 10
-7.250175290372713
 20
0.5199138735206827
 30
0.0
 10
-7.450664664831334
 20
0.5660969057512871
 30
0.0
 10
-7.651173327247143
 20
0.6087931026253007
 30
0.0
 10
-7.851700999320398
 20
0.6477407186111615
 30
0.0
 10
-8.052249143309946
 20
0.6826964706345193
 30
0.0
 10
-8.252817937242967
 20
0.7134450940489678
 30
0.0
 10
-8.453405943369284
 20
0.739794514189428
 30
0.0
 10
-8.654011556472791
 20
0.7615805907899793
 30
0.0
 10
-8.854630985310125
 20
0.7786697014984624
 30
0.0
 10
-9.055262911217804
 20
0.7909514165738875
 30
0.0
 10
-9.255903092181396
 20
0.7983520577819122
 30
0.0
 10
-9.456547682091287
 20
0.8008243671293183
 30
0.0
 10
-9.657192271705953
 20
0.7983520577780419
 30
0.0
 10
-9.857832453556925
 20
0.7909514165894496
 30
0.0
 10
-10.05846437619752
 20
0.7786697014398739
 30
0.0
 10
-10.25908381728394
 20
0.7615805910102252
 30
0.0
 10
-10.45968840634789
 20
0.7397946195719875
 30
0.0
 10
-10.66027562223381
 20
0.7134453634575814
 30
0.0
 10
-10.85172498837553
 20
0.6840922634668508
 30
0.0
 10
-10.97593951741563
 20
0.6626260639490049
 30
0.0
 10
-11.03356781914387
 20
0.6521645377396837
 30
0.0
  0
SPLINE
  5
2D41
330
1F
100
AcDbEntity
  8
AM_0
 48
0.5
100
AcDbSpline
210
0.0
220
0.0
230
1.0
 70
     8
 71
     3
 72
    16
 73
    12
 74
     0
 42
0.0000000001
 43
0.0000000001
 40
0.0
 40
0.0
 40
0.0
 40
0.0
 40
1.010743614677189
 40
2.022833924044153
 40
3.037578959561199
 40
4.056212747067873
 40
5.079857613375832
 40
6.109500119648989
 40
7.14596120163808
 40
8.18989512056258
 40
8.545190612624931
 40
8.545190612624931
 40
8.545190612624931
 40
8.545190612624931
 10
-1.436108836846676
 20
0.8000006298564558
 30
0.0
 10
-1.502956959510505
 20
0.7999958225370457
 30
0.0
 10
-1.636755154033098
 20
0.7983542925396712
 30
0.0
 10
-1.837393142444514
 20
0.7909508130872504
 30
0.0
 10
-2.038025662044247
 20
0.7786698740989326
 30
0.0
 10
-2.238644915887363
 20
0.7615805064577251
 30
0.0
 10
-2.439249654748083
 20
0.7397947852332802
 30
0.0
 10
-2.639836456401336
 20
0.7134447807546575
 30
0.0
 10
-2.840405395173186
 20
0.6826964655872859
 30
0.0
 10
-2.996357041143004
 20
0.6555134289726552
 30
0.0
 10
-3.085495813400523
 20
0.6387951884053971
 30
0.0
 10
-3.108100908214484
 20
0.6344809250859833
 30
0.0
  0
SPLINE
  5
2D42
330
1F
100
AcDbEntity
  8
AM_0
 48
0.5
100
AcDbSpline
210
0.0
220
0.0
230
1.0
 70
     8
 71
     3
 72
    17
 73
    13
 74
     0
 42
0.0000000001
 43
0.0000000001
 40
0.0
 40
0.0
 40
0.0
 40
0.0
 40
1.010743614677189
 40
2.022833924044153
 40
3.037578959561199
 40
4.056212747067873
 40
5.079857613375832
 40
6.109500119648989
 40
7.14596120163808
 40
8.18989512056258
 40
9.241717674284874
 40
9.693948937866434
 40
9.693948937866434
 40
9.693948937866434
 40
9.693948937866434
 10
-1.436108836846676
 20
0.8000006298564558
 30
0.0
 10
-1.502960676037523
 20
0.7995249922524211
 30
0.0
 10
-1.636753426480163
 20
0.7985730833142732
 30
0.0
 10
-1.837393608532584
 20
0.7908919953369237
 30
0.0
 10
-2.038025530345174
 20
0.7786857045432729
 30
0.0
 10
-2.238644974559662
 20
0.7615762792812233
 30
0.0
 10
-2.439249551856593
 20
0.7397957626296059
 30
0.0
 10
-2.639836812049359
 20
0.7134451368585467
 30
0.0
 10
-2.840404062919807
 20
0.6826940296605914
 30
0.0
 10
-3.04095908728237
 20
0.6477494654090398
 30
0.0
 10
-3.202852332676286
 20
0.616269695292663
 30
0.0
 10
-3.297925538347372
 20
0.5965903119809041
 30
0.0
 10
-3.32646141394929
 20
0.5905665844887487
 30
0.0
  0
SPLINE
  5
2D43
330
1F
100
AcDbEntity
  8
AM_0
 48
0.5
100
AcDbSpline
210
0.0
220
0.0
230
1.0
 70
     8
 71
     3
 72
    26
 73
    22
 74
     0
 42
0.0000000001
 43
0.0000000001
 40
0.0
 40
0.0
 40
0.0
 40
0.0
 40
0.2526859211241313
 40
0.5057083941171959
 40
0.7593947393741639
 40
1.01405318625086
 40
1.26996425091637
 40
1.527375060172565
 40
1.786490330669834
 40
2.047470117551047
 40
2.310425755981314
 40
2.575417325379407
 40
2.842456731169063
 40
3.111495753801943
 40
3.382458822635121
 40
3.655202026904655
 40
3.929554512223505
 40
4.205306020962704
 40
4.482215236978595
 40
4.76001530984208
 40
5.029821427366006
 40
5.029821427366006
 40
5.029821427366006
 40
5.029821427366006
 10
-16.0376755148485
 20
-0.7999993701433138
 30
0.0
 10
-16.10452734188115
 20
-0.7995233895452395
 30
0.0
 10
-16.23832003576011
 20
-0.7985707943914905
 30
0.0
 10
-16.43896038672186
 20
-0.790891807383493
 30
0.0
 10
-16.63959217368597
 20
-0.7786842257019729
 30
0.0
 10
-16.84021154131607
 20
-0.7615748295443262
 30
0.0
 10
-17.04081649820058
 20
-0.7397955109313311
 30
0.0
 10
-17.24140304751057
 20
-0.7134430176355276
 30
0.0
 10
-17.44197105580474
 20
-0.6826953973264564
 30
0.0
 10
-17.64251915521368
 20
-0.6477393955641331
 30
0.0
 10
-17.84304687162227
 20
-0.608791908498998
 30
0.0
 10
-18.04355585538111
 20
-0.5660953485300727
 30
0.0
 10
-18.24404527564647
 20
-0.5199133531526093
 30
0.0
 10
-18.4445174040199
 20
-0.4705292141781723
 30
0.0
 10
-18.64497492095199
 20
-0.4182523669314634
 30
0.0
 10
-18.84541825955605
 20
-0.3633999362398034
 30
0.0
 10
-19.04584891403188
 20
-0.3063127076991392
 30
0.0
 10
-19.24627056505261
 20
-0.2473428971843561
 30
0.0
 10
-19.44667990042798
 20
-0.1868456451604701
 30
0.0
 10
-19.64503059651561
 20
-0.1258582622076941
 30
0.0
 10
-19.77644539540302
 20
-0.0848865105386804
 30
0.0
 10
-19.99999618530275
 20
-0.0102105471662562
 30
0.0
  0
SPLINE
  5
2D44
330
1F
100
AcDbEntity
  8
AM_0
100
AcDbSpline
210
0.0
220
0.0
230
1.0
 70
     8
 71
     3
 72
    13
 73
     9
 74
     0
 42
0.0000000001
 43
0.0000000001
 40
16.03460056234195
 40
16.03460056234195
 40
16.03460056234195
 40
16.03460056234195
 40
16.35212717791071
 40
17.38177067057215
 40
18.41822498539278
 40
19.46214186516937
 40
20.5139635832251
 40
21.34083983469381
 40
21.34083983469381
 40
21.34083983469381
 40
21.34083983469381
 10
-19.60319601000549
 20
-0.7999993701432464
 30
0.0
 10
-19.54639220473895
 20
-0.7973715470340338
 30
0.0
 10
-19.45902378080511
 20
-0.7856112593554762
 30
0.0
 10
-19.30512357239497
 20
-0.7625678692327137
 30
0.0
 10
-19.10582226589318
 20
-0.7283030951788909
 30
0.0
 10
-18.90670611166972
 20
-0.6898293328677476
 30
0.0
 10
-18.72245816591524
 20
-0.6505056946635385
 30
0.0
 10
-18.60491122111261
 20
-0.6234285712418571
 30
0.0
 10
-18.55334408093596
 20
-0.6111894647284629
 30
0.0
  0
SPLINE
  5
2D45
330
1F
100
AcDbEntity
  8
AM_0
 48
0.5
100
AcDbSpline
210
0.0
220
0.0
230
1.0
 70
     8
 71
     3
 72
    22
 73
    18
 74
     0
 42
0.0000000001
 43
0.0000000001
 40
0.0
 40
0.0
 40
0.0
 40
0.0
 40
1.010743684496582
 40
2.022833993863546
 40
3.037578683882831
 40
4.056212471389632
 40
5.079857945358201
 40
6.109499720892564
 40
7.145961650132166
 40
8.189873411961459
 40
9.241710626092514
 40
10.30166235592959
 40
11.36982472628033
 40
12.44598212828784
 40
13.52983440361964
 40
14.62080578343036
 40
14.90544694398022
 40
14.90544694398022
 40
14.90544694398022
 40
14.90544694398022
 10
-16.75806057816932
 20
-0.7999993701433038
 30
0.0
 10
-16.82491241796817
 20
-0.7995235317246622
 30
0.0
 10
-16.95870516500353
 20
-0.7985712209226539
 30
0.0
 10
-17.15934530585283
 20
-0.7908900951564285
 30
0.0
 10
-17.35997730946026
 20
-0.7786845674748047
 30
0.0
 10
-17.56059678550137
 20
-0.7615751600184497
 30
0.0
 10
-17.76120118948167
 20
-0.7397937926653825
 30
0.0
 10
-17.96178842863596
 20
-0.7134435778584124
 30
0.0
 10
-18.16235556364926
 20
-0.6826948402124269
 30
0.0
 10
-18.36290397369119
 20
-0.6477383323588622
 30
0.0
 10
-18.56343185252814
 20
-0.6087923168888219
 30
0.0
 10
-18.76394024809912
 20
-0.5660938236394689
 30
0.0
 10
-18.96443045294656
 20
-0.5199145626453379
 30
0.0
 10
-19.16490231647878
 20
-0.4705290676581229
 30
0.0
 10
-19.36535959429999
 20
-0.4182519466403413
 30
0.0
 10
-19.51601724742468
 20
-0.3770257805425255
 30
0.0
 10
-19.5999689491511
 20
-0.3534622291804743
 30
0.0
 10
-19.5878497209873
 20
-0.3568859173132734
 30
0.0
  0
SPLINE
  5
2D46
330
1F
100
AcDbEntity
  8
AM_0
100
AcDbSpline
210
0.0
220
0.0
230
1.0
 70
     8
 71
     3
 72
    46
 73
    42
 74
     0
 42
0.0000000001
 43
0.0000000001
 40
0.0
 40
0.0
 40
0.0
 40
0.0
 40
0.5056245176053715
 40
0.759310862862336
 40
1.013969309739036
 40
1.269880374404297
 40
1.527291183660732
 40
1.786406454158005
 40
2.047386241038974
 40
2.310345544571907
 40
2.575337113970003
 40
2.842374715221223
 40
3.111417320030211
 40
3.382376832022752
 40
3.655120036292296
 40
3.929472521611371
 40
4.205224030350333
 40
4.482133246366229
 40
4.759933319229942
 40
5.038338087391601
 40
5.317048131389549
 40
5.595758175387723
 40
5.874162943549383
 40
6.151963016412869
 40
6.428872232428759
 40
6.704623741167955
 40
6.978976226486705
 40
7.251719430756336
 40
7.522680721168327
 40
7.791723325977311
 40
8.058760927228529
 40
8.32375249662655
 40
8.586708135057122
 40
8.84768792193809
 40
9.106803192435362
 40
9.364213819003406
 40
9.620125035580644
 40
9.87478726697307
 40
10.12847352585208
 40
10.38149610319407
 40
10.63418200686337
 40
10.63418200686337
 40
10.63418200686337
 40
10.63418200686337
 10
-0.9999961853027375
 20
-0.7999993701435981
 30
0.0
 10
-1.008251418456718
 20
-0.7981769083028196
 30
0.0
 10
-1.209181566860717
 20
-0.7954400650038137
 30
0.0
 10
-1.476367147403039
 20
-0.7785898235967136
 30
0.0
 10
-1.676988672214787
 20
-0.7616002978954456
 30
0.0
 10
-1.877593048662046
 20
-0.7397886328358094
 30
0.0
 10
-2.078179748284201
 20
-0.7134448660284828
 30
0.0
 10
-2.278747740628038
 20
-0.6826949431216035
 30
0.0
 10
-2.479296689772302
 20
-0.6477391803429748
 30
0.0
 10
-2.679825703203337
 20
-0.6087922112506205
 30
0.0
 10
-2.880335181730549
 20
-0.5660955993900815
 30
0.0
 10
-3.080824586044403
 20
-0.5199126270621175
 30
0.0
 10
-3.281297137114449
 20
-0.4705301757379464
 30
0.0
 10
-3.481753809277362
 20
-0.4182518256780997
 30
0.0
 10
-3.68219644591919
 20
-0.3633999514845179
 30
0.0
 10
-3.882627274484982
 20
-0.3063129543429885
 30
0.0
 10
-4.08304805156067
 20
-0.24734188801163
 30
0.0
 10
-4.28346072774609
 20
-0.1868494555907685
 30
0.0
 10
-4.483867427986929
 20
-0.1252079525558432
 30
0.0
 10
-4.684269983011489
 20
-0.0627964308203393
 30
0.0
 10
-4.884670853416787
 20
0.0000006298438083
 30
0.0
 10
-5.085071723778055
 20
0.0627976905842667
 30
0.0
 10
-5.285474278934672
 20
0.1252092120909491
 30
0.0
 10
-5.485880978692831
 20
0.1868507159621162
 30
0.0
 10
-5.68629365666805
 20
0.2473431452816617
 30
0.0
 10
-5.886714427107325
 20
0.3063142231123841
 30
0.0
 10
-6.087145280250014
 20
0.3634011776677224
 30
0.0
 10
-6.287588261736018
 20
0.4182533286336541
 30
0.0
 10
-6.48804571277685
 20
0.4705312037181896
 30
0.0
 10
-6.688518621459199
 20
0.5199139082586596
 30
0.0
 10
-6.889008021105095
 20
0.5660968943285156
 30
0.0
 10
-7.089516675962146
 20
0.6087931138436793
 30
0.0
 10
-7.290044353309599
 20
0.6477406854126543
 30
0.0
 10
-7.490592483826509
 20
0.6826965909893991
 30
0.0
 10
-7.691160360092123
 20
0.7134445020748866
 30
0.0
 10
-7.891747206772172
 20
0.7397959096126935
 30
0.0
 10
-8.09235286349204
 20
0.7615764273349399
 30
0.0
 10
-8.29297335455193
 20
0.7786855561321396
 30
0.0
 10
-8.493606257903978
 20
0.7908920186286036
 30
0.0
 10
-8.694246444081173
 20
0.7985730775068816
 30
0.0
 10
-8.82803919397495
 20
0.7995249903175696
 30
0.0
 10
-8.894891032891523
 20
0.8000006298565821
 30
0.0
  0
SPLINE
  5
2D47
330
1F
100
AcDbEntity
  8
AM_0
 48
0.5
100
AcDbSpline
210
0.0
220
0.0
230
1.0
 70
     8
 71
     3
 72
    24
 73
    20
 74
     0
 42
0.0000000001
 43
0.0000000001
 40
8.3014535814162
 40
8.3014535814162
 40
8.3014535814162
 40
8.3014535814162
 40
8.711974558287883
 40
9.814980593243754
 40
10.91239053451967
 40
12.0033633515982
 40
13.08720139956839
 40
14.16337181880432
 40
15.23152222380919
 40
16.29148850140128
 40
17.34331105512262
 40
18.38723020264746
 40
19.42369128463655
 40
20.45333379090873
 40
21.47697865721768
 40
22.49561244472435
 40
23.5103574802404
 40
24.52244778960836
 40
25.53320666051913
 40
25.53320666051913
 40
25.53320666051913
 40
25.53320666051913
 10
-2.061687752026693
 20
0.2576188509075966
 30
0.0
 10
-2.086470445047822
 20
0.2650714261340528
 30
0.0
 10
-2.177905438543366
 20
0.2924502102990869
 30
0.0
 10
-2.336090927308552
 20
0.3389941529853178
 30
0.0
 10
-2.407912134841561
 20
0.3634012096000663
 30
0.0
 10
-2.608354770497667
 20
0.4182530850027077
 30
0.0
 10
-2.808811440943731
 20
0.4705314385550519
 30
0.0
 10
-3.009283999774305
 20
0.5199138748726542
 30
0.0
 10
-3.209773375071755
 20
0.5660969031408408
 30
0.0
 10
-3.410282036350853
 20
0.6087931116255283
 30
0.0
 10
-3.61080971209894
 20
0.6477406855721294
 30
0.0
 10
-3.811357842664233
 20
0.6826965925270086
 30
0.0
 10
-4.011925720303151
 20
0.7134444958320607
 30
0.0
 10
-4.212512561496208
 20
0.7397959328391217
 30
0.0
 10
-4.4131172500719
 20
0.7615762340009287
 30
0.0
 10
-4.61373666470183
 20
0.7786857167019154
 30
0.0
 10
-4.814368594356437
 20
0.7908919917175293
 30
0.0
 10
-5.015009782174933
 20
0.7985731242590921
 30
0.0
 10
-5.148803543025274
 20
0.7995250034995479
 30
0.0
 10
-5.215656391952624
 20
0.8000006298565196
 30
0.0
  0
SPLINE
  5
2D48
330
1F
100
AcDbEntity
  8
AM_0
 48
0.5
100
AcDbSpline
210
0.0
220
0.0
230
1.0
 70
     8
 71
     3
 72
    10
 73
     6
 74
     0
 42
0.0000000001
 43
0.0000000001
 40
0.0
 40
0.0
 40
0.0
 40
0.0
 40
2.69986029516136
 40
4.147722969032201
 40
6.285750005020438
 40
6.285750005020438
 40
6.285750005020438
 40
6.285750005020438
 10
-2.061687752026693
 20
0.2576188509075966
 30
0.0
 10
-1.832729481049017
 20
0.0704708372843681
 30
0.0
 10
-1.569474097980381
 20
-0.0437134785696737
 30
0.0
 10
-0.9469104807551506
 20
0.0115651490757174
 30
0.0
 10
-1.064157318257919
 20
0.1977508814365775
 30
0.0
 10
-1.141626537272315
 20
0.3112368196767347
 30
0.0
  0
ELLIPSE
  5
2D49
330
1F
100
AcDbEntity
  8
AM_0
 48
0.5
100
AcDbEllipse
 10
0.479533005594277
 20
0.960449848606421
 30
0.0
 11
2.713074252803787
 21
0.2525713508947547
 31
0.0
210
0.0
220
0.0
230
1.0
 40
0.559574491614169
 41
3.450985496130483
 42
3.983482691347314
  0
ELLIPSE
  5
2D4A
330
1F
100
AcDbEntity
  8
AM_0
 48
0.5
100
AcDbEllipse
 10
1.045150884825912
 20
-0.1778283496357204
 30
0.0
 11
-2.276220913533812
 21
0.7537593676085518
 31
0.0
210
0.0
220
0.0
230
1.0
 40
0.750536544893711
 41
0.5025783539888847
 42
0.7552125806708845
  0
ELLIPSE
  5
2D4B
330
1F
100
AcDbEntity
  8
AM_0
 48
0.5
100
AcDbEllipse
 10
-0.6238678077291772
 20
-0.2084909210835417
 30
0.0
 11
-0.0890724019802952
 21
0.1125363721988763
 31
0.0
210
0.0
220
0.0
230
1.0
 40
0.7705910092763734
 41
1.346113611091114
 42
4.481455500803088
  0
ELLIPSE
  5
2D4C
330
1F
100
AcDbEntity
  8
AM_0
 48
0.5
100
AcDbEllipse
 10
-0.6238678077291772
 20
-0.2084909210835417
 30
0.0
 11
-0.213894211339259
 21
0.0539403972613862
 31
0.0
210
0.0
220
0.0
230
1.0
 40
0.3262019338085742
 41
4.284880031841795
 42
7.428320373171306
  0
ELLIPSE
  5
2D4D
330
1F
100
AcDbEntity
  8
AM_0
 48
0.5
100
AcDbEllipse
 10
-2.472926585543742
 20
1.342690617816216
 30
0.0
 11
-3.133256436655176
 21
0.6559642294676915
 31
0.0
210
0.0
220
0.0
230
1.0
 40
0.4676417202689318
 41
2.337923770914647
 42
2.571885379055023
  0
ELLIPSE
  5
2D4E
330
1F
100
AcDbEntity
  8
AM_0
 48
0.5
100
AcDbEllipse
 10
-0.7280550258801758
 20
-0.9044896849948628
 30
0.0
 11
1.8874621753784
 21
0.2929827221688897
 31
0.0
210
0.0
220
0.0
230
1.0
 40
0.3392004175754171
 41
1.518276914603728
 42
1.782654293149657
  0
ELLIPSE
  5
2D4F
330
1F
100
AcDbEntity
  8
AM_0
 48
0.5
100
AcDbEllipse
 10
-19.60319588543543
 20
-0.533332703476593
 30
0.0
 11
-0.3968253968254003
 21
0.0000000000000126
 31
0.0
210
0.0
220
0.0
230
1.0
 40
0.6719999999999932
 41
0.0112467747891818
 42
1.570796012878382
  0
ELLIPSE
  5
2D50
330
1F
100
AcDbEntity
  8
AM_0
 48
0.5
100
AcDbEllipse
 10
-19.70247489554198
 20
-0.5414575000260588
 30
0.0
 11
-0.2976190476190461
 21
0.0000000000000046
 31
0.0
210
0.0
220
0.0
230
1.0
 40
0.6720000000000051
 41
4.317028824483074
 42
6.25755390506936
  0
VIEWPORT
  5
110
330
101
100
AcDbEntity
 67
     1
  8
0
100
AcDbViewport
 10
420.5
 20
297.0
 30
0.0
 40
948.9782706766916
 41
628.452
 68
     1
 69
     1
1001
ACAD
1000
MVIEW
1002
{
1070
    16
1010
0.0
1020
0.0
1030
0.0
1010
0.0
1020
0.0
1030
1.0
1040
0.0
1040
628.452
1040
420.5
1040
297.0
1040
50.0
1040
0.0
1040
0.0
1070
     0
1070
   100
1070
     1
1070
     1
1070
     0
1070
     0
1070
     0
1070
     0
1040
0.0
1040
0.0
1040
0.0
1040
10.0
1040
10.0
1040
10.0
1040
10.0
1070
     0
1002
{
1002
}
1002
}
  0
ENDSEC
  0
SECTION
  2
OBJECTS
  0
DICTIONARY
  5
C
330
0
100
AcDbDictionary
  3
ACAD_GROUP
350
D
  3
ACAD_LAYOUT
350
1A
  3
ACAD_MLINESTYLE
350
17
  3
ACAD_PLOTSETTINGS
350
19
  3
ACAD_PLOTSTYLENAME
350
E
  3
ACDBVARIABLEDICTIONARY
350
34
  3
ACMDICTIONARY
350
43
  3
AMG
350
2B
  3
AMGSNAPSETTINGS
350
6E
  3
DWGPROPS
350
2DEF
  3
ACDBHEADERROUNDTRIPXREC
350
2DFC
  0
DICTIONARY
  5
74
330
1F
100
AcDbDictionary
280
     1
  3
ACAD_INDEX
360
2DF1
  3
ACAD_LAYOUTSELFREF
360
2E1F
  0
DICTIONARY
  5
2E24
330
101
100
AcDbDictionary
280
     1
  3
ACAD_LAYOUTSELFREF
360
2E25
  0
DICTIONARY
  5
D
102
{ACAD_REACTORS
330
C
102
}
330
C
100
AcDbDictionary
  0
DICTIONARY
  5
1A
102
{ACAD_REACTORS
330
C
102
}
330
C
100
AcDbDictionary
  0
DICTIONARY
  5
17
102
{ACAD_REACTORS
330
C
102
}
330
C
100
AcDbDictionary
  3
STANDARD
350
18
  0
DICTIONARY
  5
19
102
{ACAD_REACTORS
330
C
102
}
330
C
100
AcDbDictionary
  0
ACDBDICTIONARYWDFLT
  5
E
102
{ACAD_REACTORS
330
C
102
}
330
C
100
AcDbDictionary
281
     1
  3
Normal
350
F
100
AcDbDictionaryWithDefault
340
F
  0
DICTIONARY
  5
34
102
{ACAD_REACTORS
330
C
102
}
330
C
100
AcDbDictionary
  3
INDEXCTL
350
35
  3
SORTENTS
350
B5E
  0
DICTIONARY
  5
43
102
{ACAD_REACTORS
330
C
102
}
330
C
100
AcDbDictionary
  3
ACMSTDDICTIONARY
350
260
  0
DICTIONARY
  5
2B
102
{ACAD_REACTORS
330
C
102
}
330
C
100
AcDbDictionary
  3
ACMGSETTINGS
350
2C
  0
DICTIONARY
  5
6E
102
{ACAD_REACTORS
330
C
102
}
330
C
100
AcDbDictionary
  0
XRECORD
  5
2DEF
102
{ACAD_REACTORS
330
C
102
}
330
C
100
AcDbXrecord
  1
DWGPROPS COOKIE
  2

  3

  4

  6

  7

  8

  9

300
AmdtFileType=82
301
=
302
=
303
=
304
=
305
=
306
=
307
=
308
=
309
=
 40
0.0522591087962963
 41
2452800.443498622
 42
2452946.649367766
  1

 90
        1
  0
DICTIONARY
  5
2DFC
102
{ACAD_REACTORS
330
C
102
}
330
C
100
AcDbDictionary
  3
TSTACKALIGN
350
2DFD
  3
TSTACKSIZE
350
2DFE
  3
HYPERLINKBASE
350
2DFF
  3
STYLESHEET
350
2E00
  3
LAYOUTDICT
350
2E01
  3
PLOTSETDICT
350
2E02
  3
PLOTSTYLNAMDICT
350
2E03
  3
LWETCUNION
350
2E04
  3
INSUNITS
350
2E05
  3
CEPSNTYPE
350
2E06
  3
FINGERPRINTGUID
350
2E07
  3
VERSIONGUID
350
2E08
  3
PSVPSCALE
350
2E09
  3
DIMSTYLEDATA
350
2E0A
  3
PUCSORTHOREF
350
2E0B
  3
PUCSORTHOVIEW
350
2E0C
  3
PUCSBASE
350
2E0D
  3
PUCSORGTOP
350
2E0E
  3
PUCSORGBOTTOM
350
2E0F
  3
PUCSORGLEFT
350
2E10
  3
PUCSORGRIGHT
350
2E11
  3
PUCSORGFRONT
350
2E12
  3
PUCSORGBACK
350
2E13
  3
UCSORTHOREF
350
2E14
  3
UCSORTHOVIEW
350
2E15
  3
UCSBASE
350
2E16
  3
UCSORGTOP
350
2E17
  3
UCSORGBOTTOM
350
2E18
  3
UCSORGLEFT
350
2E19
  3
UCSORGRIGHT
350
2E1A
  3
UCSORGFRONT
350
2E1B
  3
UCSORGBACK
350
2E1C
  0
DICTIONARY
  5
2DF1
102
{ACAD_REACTORS
330
74
102
}
330
74
100
AcDbDictionary
  3
*A1
350
2DF2
  0
XRECORD
  5
2E1F
102
{ACAD_REACTORS
330
74
102
}
330
74
100
AcDbXrecord
340
1F
  0
XRECORD
  5
2E25
102
{ACAD_REACTORS
330
2E24
102
}
330
2E24
100
AcDbXrecord
340
101
  0
MLINESTYLE
  5
18
102
{ACAD_REACTORS
330
17
102
}
330
17
100
AcDbMlineStyle
  2
STANDARD
 70
     0
  3

 62
   256
 51
90.0
 52
90.0
 71
     2
 49
0.5
 62
   256
  6
BYLAYER
 49
-0.5
 62
   256
  6
BYLAYER
  0
ACDBPLACEHOLDER
  5
F
102
{ACAD_REACTORS
330
E
102
}
330
E
100
AcDbPlaceHolder
280
     0
  0
DICTIONARYVAR
  5
35
102
{ACAD_REACTORS
330
34
102
}
330
34
100
DictionaryVariables
280
     0
  1
1
  0
DICTIONARYVAR
  5
B5E
102
{ACAD_REACTORS
330
34
102
}
330
34
100
DictionaryVariables
280
     0
  1
96
  0
DICTIONARY
  5
260
102
{ACAD_REACTORS
330
43
102
}
330
43
100
AcDbDictionary
  0
DICTIONARY
  5
2C
102
{ACAD_REACTORS
330
2B
102
}
330
2B
100
AcDbDictionary
  3
DWGSETTINGS
350
2D
  0
XRECORD
  5
2DFD
102
{ACAD_REACTORS
330
2DFC
102
}
330
2DFC
100
AcDbXrecord
 90
        1
  0
XRECORD
  5
2DFE
102
{ACAD_REACTORS
330
2DFC
102
}
330
2DFC
100
AcDbXrecord
 90
       70
  0
XRECORD
  5
2DFF
102
{ACAD_REACTORS
330
2DFC
102
}
330
2DFC
100
AcDbXrecord
  1

  0
XRECORD
  5
2E00
102
{ACAD_REACTORS
330
2DFC
102
}
330
2DFC
100
AcDbXrecord
  1
ASAMI.ctb
  0
XRECORD
  5
2E01
102
{ACAD_REACTORS
330
2DFC
102
}
330
2DFC
100
AcDbXrecord
340
1A
  0
XRECORD
  5
2E02
102
{ACAD_REACTORS
330
2DFC
102
}
330
2DFC
100
AcDbXrecord
340
19
  0
XRECORD
  5
2E03
102
{ACAD_REACTORS
330
2DFC
102
}
330
2DFC
100
AcDbXrecord
340
E
  0
XRECORD
  5
2E04
102
{ACAD_REACTORS
330
2DFC
102
}
330
2DFC
100
AcDbXrecord
 90
    10781
  0
XRECORD
  5
2E05
102
{ACAD_REACTORS
330
2DFC
102
}
330
2DFC
100
AcDbXrecord
 90
        4
  0
XRECORD
  5
2E06
102
{ACAD_REACTORS
330
2DFC
102
}
330
2DFC
100
AcDbXrecord
 90
        0
  0
XRECORD
  5
2E07
102
{ACAD_REACTORS
330
2DFC
102
}
330
2DFC
100
AcDbXrecord
  1
{AFB28963-8C59-40AE-9337-C84526B81ACE}
  0
XRECORD
  5
2E08
102
{ACAD_REACTORS
330
2DFC
102
}
330
2DFC
100
AcDbXrecord
  1
{F5C53566-6EB0-45C2-A32E-DEA11DE324FB}
  0
XRECORD
  5
2E09
102
{ACAD_REACTORS
330
2DFC
102
}
330
2DFC
100
AcDbXrecord
 40
0.0
  0
XRECORD
  5
2E0A
102
{ACAD_REACTORS
330
2DFC
102
}
330
2DFC
100
AcDbXrecord
1000
DSTYLE
1002
{
1070
    79
 70
     2
1070
   341
340
59
1070
   342
340
59
1070
   371
 70
    -1
1070
   372
 70
    -1
1002
}
  0
XRECORD
  5
2E0B
102
{ACAD_REACTORS
330
2DFC
102
}
330
2DFC
100
AcDbXrecord
340
0
  0
XRECORD
  5
2E0C
102
{ACAD_REACTORS
330
2DFC
102
}
330
2DFC
100
AcDbXrecord
 70
     0
  0
XRECORD
  5
2E0D
102
{ACAD_REACTORS
330
2DFC
102
}
330
2DFC
100
AcDbXrecord
340
0
  0
XRECORD
  5
2E0E
102
{ACAD_REACTORS
330
2DFC
102
}
330
2DFC
100
AcDbXrecord
 10
0.0
 20
0.0
 30
0.0
  0
XRECORD
  5
2E0F
102
{ACAD_REACTORS
330
2DFC
102
}
330
2DFC
100
AcDbXrecord
 10
0.0
 20
0.0
 30
0.0
  0
XRECORD
  5
2E10
102
{ACAD_REACTORS
330
2DFC
102
}
330
2DFC
100
AcDbXrecord
 10
0.0
 20
0.0
 30
0.0
  0
XRECORD
  5
2E11
102
{ACAD_REACTORS
330
2DFC
102
}
330
2DFC
100
AcDbXrecord
 10
0.0
 20
0.0
 30
0.0
  0
XRECORD
  5
2E12
102
{ACAD_REACTORS
330
2DFC
102
}
330
2DFC
100
AcDbXrecord
 10
0.0
 20
0.0
 30
0.0
  0
XRECORD
  5
2E13
102
{ACAD_REACTORS
330
2DFC
102
}
330
2DFC
100
AcDbXrecord
 10
0.0
 20
0.0
 30
0.0
  0
XRECORD
  5
2E14
102
{ACAD_REACTORS
330
2DFC
102
}
330
2DFC
100
AcDbXrecord
340
0
  0
XRECORD
  5
2E15
102
{ACAD_REACTORS
330
2DFC
102
}
330
2DFC
100
AcDbXrecord
 70
     0
  0
XRECORD
  5
2E16
102
{ACAD_REACTORS
330
2DFC
102
}
330
2DFC
100
AcDbXrecord
340
0
  0
XRECORD
  5
2E17
102
{ACAD_REACTORS
330
2DFC
102
}
330
2DFC
100
AcDbXrecord
 10
0.0
 20
0.0
 30
0.0
  0
XRECORD
  5
2E18
102
{ACAD_REACTORS
330
2DFC
102
}
330
2DFC
100
AcDbXrecord
 10
0.0
 20
0.0
 30
0.0
  0
XRECORD
  5
2E19
102
{ACAD_REACTORS
330
2DFC
102
}
330
2DFC
100
AcDbXrecord
 10
0.0
 20
0.0
 30
0.0
  0
XRECORD
  5
2E1A
102
{ACAD_REACTORS
330
2DFC
102
}
330
2DFC
100
AcDbXrecord
 10
0.0
 20
0.0
 30
0.0
  0
XRECORD
  5
2E1B
102
{ACAD_REACTORS
330
2DFC
102
}
330
2DFC
100
AcDbXrecord
 10
0.0
 20
0.0
 30
0.0
  0
XRECORD
  5
2E1C
102
{ACAD_REACTORS
330
2DFC
102
}
330
2DFC
100
AcDbXrecord
 10
0.0
 20
0.0
 30
0.0
  0
LAYER_INDEX
  5
2DF2
102
{ACAD_REACTORS
330
2DF1
102
}
330
2DF1
100
AcDbIndex
 40
2453151.685784849
100
AcDbLayerIndex
  8
0
360
2DF3
 90
        0
  8
AM_0
360
2DF4
 90
       53
  8
AM_7
360
2DF5
 90
        1
  8
AM_11
360
2DF6
 90
       29
  8
AM_5
360
2DF7
 90
        5
  8
Defpoints
360
2DF8
 90
        0
  8
AM_6
360
2DF9
 90
        1
  8
AM_CL
360
2DFA
 90
        0
  0
XRECORD
  5
2D
102
{ACAD_REACTORS
330
2C
102
}
330
2C
100
AcDbXrecord
  1
VERSION
140
15.0
  1
PRODUCT
  2
AutoCAD Mechanical 2000
  0
IDBUFFER
  5
2DF3
330
0
100
AcDbIdBuffer
  0
IDBUFFER
  5
2DF4
330
0
100
AcDbIdBuffer
330
2D4C
330
2D4D
330
2D4E
330
2D4F
330
2D50
330
C1D
330
C20
330
C2E
330
C30
330
1B5C
330
1B60
330
1C15
330
1C1A
330
1C1E
330
1C85
330
1C86
330
1CF2
330
1CF3
330
1CF4
330
2CCC
330
2CCD
330
2D26
330
2D27
330
2D28
330
2D29
330
2D2A
330
2D2B
330
2D2C
330
2D30
330
2D32
330
2D33
330
2D36
330
2D37
330
2D38
330
2D39
330
2D3A
330
2D3B
330
2D3C
330
2D3D
330
2D3E
330
2D3F
330
2D40
330
2D41
330
2D42
330
2D43
330
2D44
330
2D45
330
2D46
330
2D47
330
2D48
330
2D49
330
2D4A
330
2D4B
  0
IDBUFFER
  5
2DF5
330
0
100
AcDbIdBuffer
330
C9F
  0
IDBUFFER
  5
2DF6
330
0
100
AcDbIdBuffer
330
1C26
330
1C27
330
1C28
330
1C29
330
1C2C
330
1C2D
330
2C98
330
2D2D
330
2D2E
330
2D2F
330
2D31
330
2D34
330
2D35
330
144A
330
144B
330
144E
330
144F
330
1450
330
1451
330
1452
330
1453
330
18B8
330
18B9
330
18BA
330
18BB
330
1C22
330
1C23
330
1C24
330
1C25
  0
IDBUFFER
  5
2DF7
330
0
100
AcDbIdBuffer
330
CC6
330
DF5
330
1C71
330
1DEF
330
2852
  0
IDBUFFER
  5
2DF8
330
0
100
AcDbIdBuffer
  0
IDBUFFER
  5
2DF9
330
0
100
AcDbIdBuffer
330
19BD
  0
IDBUFFER
  5
2DFA
330
0
100
AcDbIdBuffer
  0
ENDSEC
  0
EOF
