  0
SECTION
  2
HEADER
  9
$ACADVER
  1
AC1014
  9
$ACADMAINTVER
 70
     9
  9
$DWGCODEPAGE
  3
ANSI_932
  9
$INSBASE
 10
0.0
 20
0.0
 30
0.0
  9
$EXTMIN
 10
-79.40000134152342
 20
-24.75000718101109
 30
-0.00000001
  9
$EXTMAX
 10
14.17201173864277
 20
13.81684615257193
 30
0.00000001
  9
$LIMMIN
 10
-82.34037039394099
 20
-37.97145095443895
  9
$LIMMAX
 10
19.32151923811031
 20
24.34159145814783
  9
$ORTHOMODE
 70
     0
  9
$REGENMODE
 70
     1
  9
$FILLMODE
 70
     1
  9
$QTEXTMODE
 70
     0
  9
$MIRRTEXT
 70
     0
  9
$DRAGMODE
 70
     2
  9
$LTSCALE
 40
1.0
  9
$OSMODE
 70
    55
  9
$ATTMODE
 70
     1
  9
$TEXTSIZE
 40
2.5
  9
$TRACEWID
 40
1.0
  9
$TEXTSTYLE
  7
STANDARD
  9
$CLAYER
  8
AM_0
  9
$CELTYPE
  6
BYLAYER
  9
$CECOLOR
 62
   256
  9
$CELTSCALE
 40
1.0
  9
$DELOBJ
 70
     1
  9
$DISPSILH
 70
     0
  9
$DIMSCALE
 40
0.5
  9
$DIMASZ
 40
2.5
  9
$DIMEXO
 40
1.0
  9
$DIMDLI
 40
12.0
  9
$DIMRND
 40
0.0
  9
$DIMDLE
 40
0.0
  9
$DIMEXE
 40
1.0
  9
$DIMTP
 40
0.1
  9
$DIMTM
 40
0.1
  9
$DIMTXT
 40
3.2
  9
$DIMCEN
 40
0.0
  9
$DIMTSZ
 40
0.0
  9
$DIMTOL
 70
     0
  9
$DIMLIM
 70
     0
  9
$DIMTIH
 70
     0
  9
$DIMTOH
 70
     0
  9
$DIMSE1
 70
     0
  9
$DIMSE2
 70
     0
  9
$DIMTAD
 70
     3
  9
$DIMZIN
 70
     8
  9
$DIMBLK
  1
OPEN30
  9
$DIMASO
 70
     1
  9
$DIMSHO
 70
     1
  9
$DIMPOST
  1

  9
$DIMAPOST
  1
"
  9
$DIMALT
 70
     0
  9
$DIMALTD
 70
     2
  9
$DIMALTF
 40
0.0393701
  9
$DIMLFAC
 40
1.0
  9
$DIMTOFL
 70
     1
  9
$DIMTVP
 40
0.0
  9
$DIMTIX
 70
     0
  9
$DIMSOXD
 70
     0
  9
$DIMSAH
 70
     0
  9
$DIMBLK1
  1

  9
$DIMBLK2
  1

  9
$DIMSTYLE
  2
AM_JIS
  9
$DIMCLRD
 70
   256
  9
$DIMCLRE
 70
   256
  9
$DIMCLRT
 70
     2
  9
$DIMTFAC
 40
0.71
  9
$DIMGAP
 40
1.5
  9
$DIMJUST
 70
     0
  9
$DIMSD1
 70
     0
  9
$DIMSD2
 70
     0
  9
$DIMTOLJ
 70
     0
  9
$DIMTZIN
 70
     0
  9
$DIMALTZ
 70
     0
  9
$DIMALTTZ
 70
     0
  9
$DIMFIT
 70
     3
  9
$DIMUPT
 70
     0
  9
$DIMUNIT
 70
     2
  9
$DIMDEC
 70
     3
  9
$DIMTDEC
 70
     3
  9
$DIMALTU
 70
     2
  9
$DIMALTTD
 70
     2
  9
$DIMTXSTY
  7
ASAMI
  9
$DIMAUNIT
 70
     0
  9
$LUNITS
 70
     2
  9
$LUPREC
 70
     2
  9
$SKETCHINC
 40
1.0
  9
$FILLETRAD
 40
2.5
  9
$AUNITS
 70
     0
  9
$AUPREC
 70
     0
  9
$MENU
  1
.
  9
$ELEVATION
 40
0.0
  9
$PELEVATION
 40
0.0
  9
$THICKNESS
 40
0.0
  9
$LIMCHECK
 70
     0
  9
$BLIPMODE
 70
     0
  9
$CHAMFERA
 40
0.25
  9
$CHAMFERB
 40
0.25
  9
$CHAMFERC
 40
20.0
  9
$CHAMFERD
 40
0.0
  9
$SKPOLY
 70
     0
  9
$TDCREATE
 40
2452800.443498622
  9
$TDUPDATE
 40
2453151.575816678
  9
$TDINDWG
 40
0.0554965856
  9
$TDUSRTIMER
 40
0.0554965856
  9
$USRTIMER
 70
     1
  9
$ANGBASE
 50
0.0
  9
$ANGDIR
 70
     0
  9
$PDMODE
 70
     0
  9
$PDSIZE
 40
0.0
  9
$PLINEWID
 40
0.0
  9
$COORDS
 70
     1
  9
$SPLFRAME
 70
     0
  9
$SPLINETYPE
 70
     6
  9
$SPLINESEGS
 70
     8
  9
$ATTDIA
 70
     1
  9
$ATTREQ
 70
     1
  9
$HANDLING
 70
 12289
  9
$HANDSEED
  5
3020
  9
$SURFTAB1
 70
     6
  9
$SURFTAB2
 70
     6
  9
$SURFTYPE
 70
     6
  9
$SURFU
 70
     6
  9
$SURFV
 70
     6
  9
$UCSNAME
  2

  9
$UCSORG
 10
0.0
 20
0.0
 30
0.0
  9
$UCSXDIR
 10
1.0
 20
0.000000000000002
 30
0.0
  9
$UCSYDIR
 10
-0.000000000000002
 20
1.0
 30
0.0
  9
$PUCSNAME
  2

  9
$PUCSORG
 10
0.0
 20
0.0
 30
0.0
  9
$PUCSXDIR
 10
1.0
 20
0.0
 30
0.0
  9
$PUCSYDIR
 10
0.0
 20
1.0
 30
0.0
  9
$USERI1
 70
     0
  9
$USERI2
 70
     0
  9
$USERI3
 70
     0
  9
$USERI4
 70
     0
  9
$USERI5
 70
     0
  9
$USERR1
 40
0.0
  9
$USERR2
 40
0.0
  9
$USERR3
 40
0.0
  9
$USERR4
 40
0.0
  9
$USERR5
 40
0.0
  9
$WORLDVIEW
 70
     1
  9
$SHADEDGE
 70
     3
  9
$SHADEDIF
 70
    70
  9
$TILEMODE
 70
     1
  9
$MAXACTVP
 70
    64
  9
$PINSBASE
 10
0.0
 20
0.0
 30
0.0
  9
$PLIMCHECK
 70
     0
  9
$PEXTMIN
 10
1.000000000000000E+20
 20
1.000000000000000E+20
 30
1.000000000000000E+20
  9
$PEXTMAX
 10
-1.000000000000000E+20
 20
-1.000000000000000E+20
 30
-1.000000000000000E+20
  9
$PLIMMIN
 10
0.0
 20
0.0
  9
$PLIMMAX
 10
841.0
 20
594.0
  9
$UNITMODE
 70
     0
  9
$VISRETAIN
 70
     1
  9
$PLINEGEN
 70
     0
  9
$PSLTSCALE
 70
     0
  9
$TREEDEPTH
 70
  3020
  9
$PICKSTYLE
 70
     0
  9
$CMLSTYLE
  2
STANDARD
  9
$CMLJUST
 70
     0
  9
$CMLSCALE
 40
20.0
  9
$PROXYGRAPHICS
 70
     1
  9
$MEASUREMENT
 70
     1
  0
ENDSEC
  0
SECTION
  2
CLASSES
  0
CLASS
  1
ACDBDICTIONARYWDFLT
  2
AcDbDictionaryWithDefault
  3
AutoCAD 2000
 90
        0
280
     0
281
     0
  0
CLASS
  1
ACDBPLACEHOLDER
  2
AcDbPlaceHolder
  3
AutoCAD 2000
 90
        0
280
     0
281
     0
  0
CLASS
  1
LAYOUT
  2
AcDbLayout
  3
AutoCAD 2000
 90
        0
280
     0
281
     0
  0
CLASS
  1
AMGSETTINGSOBJ
  2
AmgSettingsObj
  3
"AcadM|Product Description: AutoCAD Mechanical 2000|Company: Autodesk"
 90
        0
280
     0
281
     0
  0
CLASS
  1
ACME_DOCUMENT
  2
AcMeDbDoc
  3
AcMeServices
 90
        0
280
     0
281
     0
  0
CLASS
  1
ACMESCOPE
  2
AcMeScope
  3
AcMeServices
 90
        0
280
     0
281
     0
  0
CLASS
  1
ACMECOMMANDHISTORY
  2
AcMeCommandHistory
  3
AcMeServices
 90
        0
280
     0
281
     0
  0
CLASS
  1
DICTIONARYVAR
  2
AcDbDictionaryVar
  3
AutoCAD 2000
 90
        0
280
     0
281
     0
  0
CLASS
  1
ACIMSYSVARMAN
  2
AcImSysVarManager
  3
AcMeServices
 90
        0
280
     0
281
     0
  0
CLASS
  1
ACIMREALSYSVAR
  2
AcImRealSysVar
  3
AcMeServices
 90
        0
280
     0
281
     0
  0
CLASS
  1
ACIMINTSYSVAR
  2
AcImIntSysVar
  3
AcMeServices
 90
        0
280
     0
281
     0
  0
CLASS
  1
ACMEDRAWINGMAN
  2
AcMeDrawingMan
  3
AcMeServices
 90
        0
280
     0
281
     0
  0
CLASS
  1
ACMEVIEW
  2
AcMeView
  3
AcMeServices
 90
        0
280
     0
281
     0
  0
CLASS
  1
ACDBENTITYCACHE
  2
AcMeEntityCache
  3
AcMeServices
 90
        0
280
     0
281
     0
  0
CLASS
  1
GSMANAGER
  2
AcMeGSManager
  3
AcMeServices
 90
        0
280
     0
281
     0
  0
CLASS
  1
AmdtInternalReactor
  2
AmdtInternalReactor
  3
AcMeServices
 90
        0
280
     0
281
     0
  0
CLASS
  1
ACMESTATEMGR
  2
AcMeStateMgr
  3
AcMeServices
 90
        0
280
     0
281
     0
  0
CLASS
  1
ACME_DATABASE
  2
AcMeDbDatabase
  3
AcMeServices
 90
        0
280
     0
281
     0
  0
CLASS
  1
ACRFINSADJUSTERMGR
  2
AcRfInsAdjusterMgr
  3
AcMeServices
 90
        0
280
     0
281
     0
  0
CLASS
  1
ACMDATADICTIONARY
  2
AcmDataDictionary
  3
"AcmSymBB|Product Description: AutoCAD Mechanical 2000|Company: Autodesk"
 90
        0
280
     0
281
     0
  0
CLASS
  1
ACMDATAENTRYBLOCK
  2
AcmDataEntryBlock
  3
"AcmSymBB|Product Description: AutoCAD Mechanical 2000|Company: Autodesk"
 90
        0
280
     0
281
     0
  0
CLASS
  1
AMGOBJPROPCFG
  2
AmgObjPropCfg
  3
"AmgLay|Product Description: AutoCAD Mechanical 2000|Company: Autodesk"
 90
        1
280
     0
281
     0
  0
CLASS
  1
ACAMGFILTERDAT
  2
AcAmgFilterDat
  3
"AcadM|Product Description: AutoCAD Mechanical 2000|Company: Autodesk"
 90
        0
280
     0
281
     0
  0
CLASS
  1
LAYER_INDEX
  2
AcDbLayerIndex
  3
AutoCAD 2000
 90
        0
280
     0
281
     0
  0
CLASS
  1
IDBUFFER
  2
AcDbIdBuffer
  3
AutoCAD 2000
 90
        0
280
     0
281
     0
  0
CLASS
  1
ACIMSTRSYSVAR
  2
AcImStrSysVar
  3
AcMeServices
 90
        0
280
     0
281
     0
  0
CLASS
  1
ACMSTANDARDJIS
  2
AcmStandardJIS
  3
"AcmSymBB|Product Description: AutoCAD Mechanical 2000|Company: Autodesk"
 90
        0
280
     0
281
     0
  0
CLASS
  1
ACMSURFSTANDARDJIS
  2
AcmSurfTextStdJIS
  3
"AcmSymBB|Product Description: AutoCAD Mechanical 2000|Company: Autodesk"
 90
        0
280
     0
281
     0
  0
CLASS
  1
ACMFCFSTANDARDJIS
  2
AcmFCFStdJIS
  3
"AcmSymBB|Product Description: AutoCAD Mechanical 2000|Company: Autodesk"
 90
        0
280
     0
281
     0
  0
CLASS
  1
ACMWELDSTANDARDJIS
  2
AcmWeldingStdJIS
  3
"AcmSymBB|Product Description: AutoCAD Mechanical 2000|Company: Autodesk"
 90
        0
280
     0
281
     0
  0
CLASS
  1
ACMIDSTANDARDJIS
  2
AcmIdStdJIS
  3
"AcmSymBB|Product Description: AutoCAD Mechanical 2000|Company: Autodesk"
 90
        0
280
     0
281
     0
  0
CLASS
  1
ACMDATUMSTANDARDJIS
  2
AcmDatumStdJIS
  3
"AcmSymBB|Product Description: AutoCAD Mechanical 2000|Company: Autodesk"
 90
        0
280
     0
281
     0
  0
CLASS
  1
ACMBOMSTANDARDJIS
  2
AcmBOMStdJIS
  3
"AcmSymBB|Product Description: AutoCAD Mechanical 2000|Company: Autodesk"
 90
        0
280
     0
281
     0
  0
CLASS
  1
ACMSTANDARDANSI
  2
AcmStandardANSI
  3
"AcmSymBB|Product Description: AutoCAD Mechanical 2000|Company: Autodesk"
 90
        0
280
     0
281
     0
  0
CLASS
  1
ACMSURFSTANDARDANSI
  2
AcmSurfTextStdANSI
  3
"AcmSymBB|Product Description: AutoCAD Mechanical 2000|Company: Autodesk"
 90
        0
280
     0
281
     0
  0
CLASS
  1
ACMFCFSTANDARDANSI
  2
AcmFCFStdANSI
  3
"AcmSymBB|Product Description: AutoCAD Mechanical 2000|Company: Autodesk"
 90
        0
280
     0
281
     0
  0
CLASS
  1
ACMWELDSTANDARDANSI
  2
AcmWeldingStdANSI
  3
"AcmSymBB|Product Description: AutoCAD Mechanical 2000|Company: Autodesk"
 90
        0
280
     0
281
     0
  0
CLASS
  1
ACMIDSTANDARDANSI
  2
AcmIdStdANSI
  3
"AcmSymBB|Product Description: AutoCAD Mechanical 2000|Company: Autodesk"
 90
        0
280
     0
281
     0
  0
CLASS
  1
ACMDATUMSTANDARDANSI
  2
AcmDatumStdANSI
  3
"AcmSymBB|Product Description: AutoCAD Mechanical 2000|Company: Autodesk"
 90
        0
280
     0
281
     0
  0
CLASS
  1
ACMBOMSTANDARDANSI
  2
AcmBOMStdANSI
  3
"AcmSymBB|Product Description: AutoCAD Mechanical 2000|Company: Autodesk"
 90
        0
280
     0
281
     0
  0
CLASS
  1
ACMSTANDARDBSI
  2
AcmStandardBSI
  3
"AcmSymBB|Product Description: AutoCAD Mechanical 2000|Company: Autodesk"
 90
        0
280
     0
281
     0
  0
CLASS
  1
ACMSURFSTANDARDBSI
  2
AcmSurfTextStdBSI
  3
"AcmSymBB|Product Description: AutoCAD Mechanical 2000|Company: Autodesk"
 90
        0
280
     0
281
     0
  0
CLASS
  1
ACMFCFSTANDARDBSI
  2
AcmFCFStdBSI
  3
"AcmSymBB|Product Description: AutoCAD Mechanical 2000|Company: Autodesk"
 90
        0
280
     0
281
     0
  0
CLASS
  1
ACMWELDSTANDARDBSI
  2
AcmWeldingStdBSI
  3
"AcmSymBB|Product Description: AutoCAD Mechanical 2000|Company: Autodesk"
 90
        0
280
     0
281
     0
  0
CLASS
  1
ACMIDSTANDARDBSI
  2
AcmIdStdBSI
  3
"AcmSymBB|Product Description: AutoCAD Mechanical 2000|Company: Autodesk"
 90
        0
280
     0
281
     0
  0
CLASS
  1
ACMDATUMSTANDARDBSI
  2
AcmDatumStdBSI
  3
"AcmSymBB|Product Description: AutoCAD Mechanical 2000|Company: Autodesk"
 90
        0
280
     0
281
     0
  0
CLASS
  1
ACMBOMSTANDARDBSI
  2
AcmBOMStdBSI
  3
"AcmSymBB|Product Description: AutoCAD Mechanical 2000|Company: Autodesk"
 90
        0
280
     0
281
     0
  0
CLASS
  1
LONG_TRANSACTION
  2
AcDbLongTransaction
  3
AutoCAD 2000
 90
        0
280
     0
281
     0
  0
CLASS
  1
LWPOLYLINE
  2
AcDbPolyline
  3
AutoCAD 2000
 90
        0
280
     0
281
     1
  0
CLASS
  1
HATCH
  2
AcDbHatch
  3
AutoCAD 2000
 90
        0
280
     0
281
     1
  0
CLASS
  1
XRECORD
  2
AcDbXrecord
  3
AutoCAD 2000
 90
        0
280
     0
281
     0
  0
ENDSEC
  0
SECTION
  2
TABLES
  0
TABLE
  2
VPORT
  5
8
330
0
100
AcDbSymbolTable
 70
     3
  0
VPORT
  5
2FEA
330
8
100
AcDbSymbolTableRecord
100
AcDbViewportTableRecord
  2
*ACTIVE
 70
     0
 10
0.0
 20
0.0
 11
1.0
 21
1.0
 12
-30.86462607131233
 22
-5.467140025994577
 13
0.0
 23
0.0
 14
2.5
 24
2.5
 15
10.0
 25
10.0
 16
0.0
 26
0.0
 36
1.0
 17
0.0
 27
0.0
 37
0.0
 40
62.30024957200527
 41
1.56570841889117
 42
50.0
 43
0.0
 44
0.0
 50
0.0
 51
0.0
 71
     0
 72
   100
 73
     1
 74
     1
 75
     0
 76
     0
 77
     0
 78
     0
  0
ENDTAB
  0
TABLE
  2
LTYPE
  5
5
330
0
100
AcDbSymbolTable
 70
    10
  0
LTYPE
  5
14
330
5
100
AcDbSymbolTableRecord
100
AcDbLinetypeTableRecord
  2
BYBLOCK
 70
     0
  3

 72
    65
 73
     0
 40
0.0
  0
LTYPE
  5
15
330
5
100
AcDbSymbolTableRecord
100
AcDbLinetypeTableRecord
  2
BYLAYER
 70
     0
  3

 72
    65
 73
     0
 40
0.0
  0
LTYPE
  5
16
330
5
100
AcDbSymbolTableRecord
100
AcDbLinetypeTableRecord
  2
CONTINUOUS
 70
     0
  3
Solid line
 72
    65
 73
     0
 40
0.0
  0
LTYPE
  5
4B
330
5
100
AcDbSymbolTableRecord
100
AcDbLinetypeTableRecord
  2
AM_ISO02W050
 70
     0
  3
__ __ __ __ __ __ __ __ __ __ __ __ __ __ __
 72
    65
 73
     2
 40
7.5
 49
6.0
 74
     0
 49
-1.5
 74
     0
  0
LTYPE
  5
4C
330
5
100
AcDbSymbolTableRecord
100
AcDbLinetypeTableRecord
  2
AM_ISO08W050
 70
     0
  3
____ . ____ . ____ . ____ . ____ . ____ . ____
 72
    65
 73
     4
 40
18.0
 49
12.0
 74
     0
 49
-1.5
 74
     0
 49
3.0
 74
     0
 49
-1.5
 74
     0
  0
LTYPE
  5
4D
330
5
100
AcDbSymbolTableRecord
100
AcDbLinetypeTableRecord
  2
AM_ISO09W050
 70
     0
  3
_____ . . _____ . . _____ . . ____ .. ____
 72
    65
 73
     6
 40
22.5
 49
12.0
 74
     0
 49
-1.5
 74
     0
 49
3.0
 74
     0
 49
-1.5
 74
     0
 49
3.0
 74
     0
 49
-1.5
 74
     0
  0
LTYPE
  5
4E
330
5
100
AcDbSymbolTableRecord
100
AcDbLinetypeTableRecord
  2
AMCONSTR
 70
     0
  3
_______________________
 72
    65
 73
     2
 40
9999.0
 49
9999.0
 74
     0
 49
0.0
 74
     0
  0
LTYPE
  5
4F
330
5
100
AcDbSymbolTableRecord
100
AcDbLinetypeTableRecord
  2
AM_ISO02W050X2
 70
     0
  3
 _ _ _ _ _ _ _ _ _ _ _ _
 72
    65
 73
     2
 40
3.75
 49
3.0
 74
     0
 49
-0.75
 74
     0
  0
LTYPE
  5
50
330
5
100
AcDbSymbolTableRecord
100
AcDbLinetypeTableRecord
  2
AM_ISO08W050X2
 70
     0
  3
__ . __ . __ . __ . __ . __
 72
    65
 73
     4
 40
9.0
 49
6.0
 74
     0
 49
-0.75
 74
     0
 49
1.5
 74
     0
 49
-0.75
 74
     0
  0
LTYPE
  5
53
330
5
100
AcDbSymbolTableRecord
100
AcDbLinetypeTableRecord
  2
AMZIGZAG
 70
     0
  3
/\/-/\/-/\/-/\/-/\/-/\/
 72
    65
 73
     2
 40
11.00009999999999
 49
0.0001
 74
     4
 75
   135
340
52
 46
0.04
 50
0.0
 44
0.0
 45
0.0
 49
-11.0
 74
     0
  0
LTYPE
  5
166
330
5
100
AcDbSymbolTableRecord
100
AcDbLinetypeTableRecord
  2
ACJISTGL
 70
     0
  3
_ _ _ _ _
 72
    65
 73
     2
 40
3.0
 49
2.0
 74
     0
 49
-1.0
 74
     0
  0
LTYPE
  5
26A
330
5
100
AcDbSymbolTableRecord
100
AcDbLinetypeTableRecord
  2
ACJISTGB
 70
     0
  3
__ . . __ . .
 72
    65
 73
     6
 40
9.0
 49
4.0
 74
     0
 49
-1.0
 74
     0
 49
1.0
 74
     0
 49
-1.0
 74
     0
 49
1.0
 74
     0
 49
-1.0
 74
     0
  0
ENDTAB
  0
TABLE
  2
LAYER
  5
2
330
0
100
AcDbSymbolTable
 70
     8
  0
LAYER
  5
10
330
2
100
AcDbSymbolTableRecord
100
AcDbLayerTableRecord
  2
0
 70
     0
 62
     7
  6
CONTINUOUS
  0
LAYER
  5
3F9
330
2
100
AcDbSymbolTableRecord
100
AcDbLayerTableRecord
  2
AM_0
 70
     0
 62
     7
  6
CONTINUOUS
  0
LAYER
  5
C7C
330
2
100
AcDbSymbolTableRecord
100
AcDbLayerTableRecord
  2
AM_7
 70
     0
 62
     4
  6
AM_ISO08W050
  0
LAYER
  5
C97
330
2
100
AcDbSymbolTableRecord
100
AcDbLayerTableRecord
  2
AM_11
 70
     0
 62
     3
  6
AM_ISO09W050
  0
LAYER
  5
CC5
330
2
100
AcDbSymbolTableRecord
100
AcDbLayerTableRecord
  2
AM_5
 70
     0
 62
     3
  6
CONTINUOUS
  0
LAYER
  5
CC7
330
2
100
AcDbSymbolTableRecord
100
AcDbLayerTableRecord
  2
DEFPOINTS
 70
     0
 62
     7
  6
CONTINUOUS
  0
LAYER
  5
19BC
330
2
100
AcDbSymbolTableRecord
100
AcDbLayerTableRecord
  2
AM_6
 70
     0
 62
     2
  6
CONTINUOUS
  0
LAYER
  5
2F16
330
2
100
AcDbSymbolTableRecord
100
AcDbLayerTableRecord
  2
AM_CL
 70
     0
 62
     1
  6
AMCONSTR
  0
ENDTAB
  0
TABLE
  2
STYLE
  5
3
330
0
100
AcDbSymbolTable
 70
     5
  0
STYLE
  5
11
330
3
100
AcDbSymbolTableRecord
100
AcDbTextStyleTableRecord
  2
STANDARD
 70
     0
 40
0.0
 41
1.0
 50
0.0
 71
     0
 42
2.5
  3
simplex.shx
  4
EXTFONT.SHX
  0
STYLE
  5
52
330
3
100
AcDbSymbolTableRecord
100
AcDbTextStyleTableRecord
  2

 70
     1
 40
0.0
 41
1.0
 50
0.0
 71
     0
 42
2.5
  3
ltypeshp.shx
  4

  0
STYLE
  5
6B
330
3
100
AcDbSymbolTableRecord
100
AcDbTextStyleTableRecord
  2
ASAMI
 70
     0
 40
0.0
 41
1.0
 50
0.0
 71
     0
 42
2.5
  3
simplex.shx
  4
EXTFONT.SHX
  0
STYLE
  5
262
330
3
100
AcDbSymbolTableRecord
100
AcDbTextStyleTableRecord
  2
ACJISTS
 70
     0
 40
1.0
 41
1.0
 50
0.0
 71
     0
 42
2.5
  3
simplex.shx
  4
bigfont.shx
  0
STYLE
  5
269
330
3
100
AcDbSymbolTableRecord
100
AcDbTextStyleTableRecord
  2
ACJISGDT
 70
     0
 40
0.0
 41
1.0
 50
0.0
 71
     0
 42
2.5
  3
amgdtans.shx
  4

  0
ENDTAB
  0
TABLE
  2
VIEW
  5
6
330
0
100
AcDbSymbolTable
 70
     0
  0
ENDTAB
  0
TABLE
  2
UCS
  5
7
330
0
100
AcDbSymbolTable
 70
     0
  0
ENDTAB
  0
TABLE
  2
APPID
  5
9
330
0
100
AcDbSymbolTable
 70
    18
  0
APPID
  5
12
330
9
100
AcDbSymbolTableRecord
100
AcDbRegAppTableRecord
  2
ACAD
 70
     0
  0
APPID
  5
30
330
9
100
AcDbSymbolTableRecord
100
AcDbRegAppTableRecord
  2
MCAD_NO_VIS
 70
     0
  0
APPID
  5
31
330
9
100
AcDbSymbolTableRecord
100
AcDbRegAppTableRecord
  2
ACAD_TEMP_GRAPHIC
 70
     0
  0
APPID
  5
2C2
330
9
100
AcDbSymbolTableRecord
100
AcDbRegAppTableRecord
  2
GENIUS_GENDTOL_13
 70
     0
  0
APPID
  5
339
330
9
100
AcDbSymbolTableRecord
100
AcDbRegAppTableRecord
  2
GENIUS_GENODEF_13
 70
     0
  0
APPID
  5
33A
330
9
100
AcDbSymbolTableRecord
100
AcDbRegAppTableRecord
  2
GENIUS_GENOBJ-N-RSBK_13
 70
     0
  0
APPID
  5
33B
330
9
100
AcDbSymbolTableRecord
100
AcDbRegAppTableRecord
  2
GENIUS_GENOBJ-N-LIB_13
 70
     0
  0
APPID
  5
33C
330
9
100
AcDbSymbolTableRecord
100
AcDbRegAppTableRecord
  2
GENIUS_GENSCALE_13
 70
     0
  0
APPID
  5
378
330
9
100
AcDbSymbolTableRecord
100
AcDbRegAppTableRecord
  2
GENIUS_GENDIMSH_14
 70
     0
  0
APPID
  5
C82
330
9
100
AcDbSymbolTableRecord
100
AcDbRegAppTableRecord
  2
GENIUS_GENOBJ-N-CRS_13
 70
     0
  0
APPID
  5
C83
330
9
100
AcDbSymbolTableRecord
100
AcDbRegAppTableRecord
  2
GENIUS_GENOENT_13
 70
     0
  0
APPID
  5
C84
330
9
100
AcDbSymbolTableRecord
100
AcDbRegAppTableRecord
  2
GENIUS_GENOREF_13
 70
     0
  0
APPID
  5
C85
330
9
100
AcDbSymbolTableRecord
100
AcDbRegAppTableRecord
  2
GENIUS_GENOLIS_13
 70
     0
  0
APPID
  5
CA0
330
9
100
AcDbSymbolTableRecord
100
AcDbRegAppTableRecord
  2
GENIUS_GENOBJ-N-CEN_13
 70
     0
  0
APPID
  5
1B5D
330
9
100
AcDbSymbolTableRecord
100
AcDbRegAppTableRecord
  2
GENIUS_GENFIL_13
 70
     0
  0
APPID
  5
1B5E
330
9
100
AcDbSymbolTableRecord
100
AcDbRegAppTableRecord
  2
GENIUS_GENOBJ-N-CHA_13
 70
     0
  0
APPID
  5
1FBC
330
9
100
AcDbSymbolTableRecord
100
AcDbRegAppTableRecord
  2
GENIUS_GENREC_14
 70
     0
  0
APPID
  5
1FBD
330
9
100
AcDbSymbolTableRecord
100
AcDbRegAppTableRecord
  2
GENIUS_GENOBJ-N-REC_13
 70
     0
  0
ENDTAB
  0
TABLE
  2
DIMSTYLE
  5
A
330
0
100
AcDbSymbolTable
 70
     9
  0
DIMSTYLE
105
58
330
A
100
AcDbSymbolTableRecord
100
AcDbDimStyleTableRecord
  2
AM_JIS
 70
     0
  3

  4
"
  5
OPEN30
  6

  7

 40
0.5
 41
2.5
 42
1.0
 43
12.0
 44
1.0
 45
0.0
 46
0.0
 47
0.1
 48
0.1
140
3.2
141
0.0
142
0.0
143
0.0393701
144
1.0
145
0.0
146
0.71
147
1.5
 71
     0
 72
     0
 73
     0
 74
     0
 75
     0
 76
     0
 77
     3
 78
     8
170
     0
171
     2
172
     1
173
     0
174
     0
175
     0
176
   256
177
   256
178
     2
270
     2
271
     3
272
     3
273
     2
274
     2
340
6B
275
     0
280
     0
281
     0
282
     0
283
     0
284
     0
285
     0
286
     0
287
     3
288
     0
  0
DIMSTYLE
105
5F
330
A
100
AcDbSymbolTableRecord
100
AcDbDimStyleTableRecord
  2
AM_JIS$3
 70
     0
  3

  4
"
  5
OPEN30
  6

  7

 40
0.5
 41
2.5
 42
1.0
 43
10.0
 44
1.0
 45
0.0
 46
0.0
 47
0.1
 48
0.1
140
3.2
141
0.0
142
0.0
143
0.0393701
144
1.0
145
0.0
146
0.71
147
1.5
 71
     0
 72
     0
 73
     0
 74
     1
 75
     0
 76
     0
 77
     3
 78
     8
170
     0
171
     2
172
     0
173
     0
174
     0
175
     0
176
   256
177
   256
178
     2
270
     2
271
     2
272
     3
273
     2
274
     2
340
6B
275
     0
280
     0
281
     0
282
     0
283
     0
284
     0
285
     0
286
     0
287
     0
288
     1
  0
DIMSTYLE
105
60
330
A
100
AcDbSymbolTableRecord
100
AcDbDimStyleTableRecord
  2
AM_JIS$4
 70
     0
  3

  4
"
  5
OPEN30
  6

  7

 40
0.5
 41
2.5
 42
1.0
 43
10.0
 44
1.0
 45
0.0
 46
0.0
 47
0.1
 48
0.1
140
3.2
141
0.0
142
0.0
143
0.0393701
144
1.0
145
0.0
146
0.71
147
1.5
 71
     0
 72
     0
 73
     0
 74
     1
 75
     0
 76
     0
 77
     3
 78
     8
170
     0
171
     2
172
     0
173
     0
174
     0
175
     0
176
   256
177
   256
178
     2
270
     2
271
     2
272
     3
273
     2
274
     2
340
6B
275
     0
280
     0
281
     0
282
     0
283
     0
284
     0
285
     0
286
     0
287
     0
288
     1
  0
DIMSTYLE
105
61
330
A
100
AcDbSymbolTableRecord
100
AcDbDimStyleTableRecord
  2
AM_JIS$6
 70
     0
  3

  4
"
  5
OPEN30
  6

  7

 40
0.5
 41
2.5
 42
1.0
 43
10.0
 44
1.0
 45
0.0
 46
0.0
 47
0.1
 48
0.1
140
3.2
141
0.0
142
0.0
143
0.0393701
144
1.0
145
0.0
146
0.71
147
1.5
 71
     0
 72
     0
 73
     0
 74
     0
 75
     0
 76
     0
 77
     0
 78
     8
170
     0
171
     2
172
     1
173
     0
174
     0
175
     0
176
   256
177
   256
178
     2
270
     2
271
     2
272
     2
273
     2
274
     2
340
6B
275
     0
280
     0
281
     0
282
     0
283
     0
284
     0
285
     0
286
     0
287
     3
288
     0
  0
DIMSTYLE
105
62
330
A
100
AcDbSymbolTableRecord
100
AcDbDimStyleTableRecord
  2
AM_JIS$7
 70
     0
  3

  4
"
  5
OPEN30
  6

  7

 40
0.5
 41
2.5
 42
1.0
 43
10.0
 44
1.0
 45
0.0
 46
0.0
 47
0.1
 48
0.1
140
3.2
141
0.0
142
0.0
143
0.0393701
144
1.0
145
0.0
146
0.71
147
1.5
 71
     0
 72
     0
 73
     0
 74
     0
 75
     0
 76
     0
 77
     3
 78
     8
170
     0
171
     2
172
     1
173
     0
174
     0
175
     0
176
   256
177
   256
178
     2
270
     2
271
     2
272
     3
273
     2
274
     2
340
6B
275
     0
280
     0
281
     0
282
     0
283
     0
284
     0
285
     0
286
     0
287
     3
288
     0
  0
DIMSTYLE
105
63
330
A
100
AcDbSymbolTableRecord
100
AcDbDimStyleTableRecord
  2
AM_JIS$SF
 70
     0
  3

  4
"
  5
OPEN30
  6

  7

 40
0.5
 41
2.5
 42
1.0
 43
10.0
 44
1.0
 45
0.0
 46
0.0
 47
0.1
 48
0.1
140
3.2
141
0.0
142
0.0
143
0.0393701
144
1.0
145
0.0
146
0.71
147
1.5
 71
     0
 72
     0
 73
     0
 74
     0
 75
     1
 76
     1
 77
     3
 78
     8
170
     0
171
     2
172
     1
173
     0
174
     0
175
     0
176
   256
177
   256
178
     2
270
     2
271
     2
272
     2
273
     2
274
     2
340
6B
275
     0
280
     0
281
     0
282
     0
283
     0
284
     0
285
     0
286
     0
287
     3
288
     0
  0
DIMSTYLE
105
68
330
A
100
AcDbSymbolTableRecord
100
AcDbDimStyleTableRecord
  2
AM_JIS$SH
 70
     0
  3

  4
"
  5

  6
GENAXEH
  7
OPEN30
 40
0.5
 41
2.5
 42
1.0
 43
10.0
 44
1.0
 45
0.0
 46
0.0
 47
0.1
 48
0.1
140
3.2
141
0.0
142
0.0
143
0.0393701
144
2.0
145
0.0
146
0.71
147
1.5
 71
     0
 72
     0
 73
     0
 74
     0
 75
     1
 76
     1
 77
     3
 78
     8
170
     0
171
     2
172
     1
173
     1
174
     0
175
     0
176
   256
177
   256
178
     2
270
     2
271
     2
272
     2
273
     2
274
     2
340
6B
275
     0
280
     0
281
     0
282
     0
283
     0
284
     0
285
     0
286
     0
287
     3
288
     0
  0
DIMSTYLE
105
B34
102
{ACAD_REACTORS
330
2C50
102
}
330
A
100
AcDbSymbolTableRecord
100
AcDbDimStyleTableRecord
  2
AM_JIS$2
 70
     0
  3

  4
"
  5
OPEN30
  6

  7

 40
0.5
 41
2.5
 42
1.0
 43
12.0
 44
1.0
 45
0.0
 46
0.0
 47
0.1
 48
0.1
140
3.2
141
0.0
142
0.0
143
0.0393701
144
1.0
145
0.0
146
0.71
147
1.5
 71
     0
 72
     0
 73
     0
 74
     0
 75
     0
 76
     0
 77
     3
 78
     8
170
     0
171
     2
172
     1
173
     0
174
     0
175
     0
176
   256
177
   256
178
     2
270
     2
271
     3
272
     3
273
     2
274
     2
340
6B
275
     0
280
     0
281
     0
282
     0
283
     0
284
     0
285
     0
286
     0
287
     3
288
     0
  0
DIMSTYLE
105
BA5
102
{ACAD_REACTORS
330
CC6
330
DF5
330
1DEF
330
1C71
102
}
330
A
100
AcDbSymbolTableRecord
100
AcDbDimStyleTableRecord
  2
AM_JIS$0
 70
     0
  3

  4
"
  5
OPEN30
  6

  7

 40
0.5
 41
2.5
 42
0.0
 43
10.0
 44
1.0
 45
0.0
 46
0.0
 47
0.1
 48
0.1000000001
140
3.799999999999999
141
0.0
142
0.0
143
0.0393701
144
1.0
145
0.0
146
0.71
147
1.5
 71
     0
 72
     0
 73
     0
 74
     0
 75
     0
 76
     0
 77
     3
 78
     1
170
     0
171
     2
172
     1
173
     0
174
     0
175
     0
176
     3
177
     3
178
     2
270
     2
271
     2
272
     2
273
     2
274
     2
340
11
275
     1
280
     0
281
     0
282
     0
283
     0
284
     8
285
     0
286
     0
287
     0
288
     0
  0
ENDTAB
  0
TABLE
  2
BLOCK_RECORD
  5
1
330
0
100
AcDbSymbolTable
 70
    10
  0
BLOCK_RECORD
  5
1F
102
{ACAD_XDICTIONARY
360
74
102
}
330
1
100
AcDbSymbolTableRecord
100
AcDbBlockTableRecord
  2
*MODEL_SPACE
  0
BLOCK_RECORD
  5
101
102
{ACAD_XDICTIONARY
360
3013
102
}
330
1
100
AcDbSymbolTableRecord
100
AcDbBlockTableRecord
  2
*PAPER_SPACE
  0
BLOCK_RECORD
  5
59
330
1
100
AcDbSymbolTableRecord
100
AcDbBlockTableRecord
  2
_OPEN30
  0
BLOCK_RECORD
  5
64
330
1
100
AcDbSymbolTableRecord
100
AcDbBlockTableRecord
  2
GENAXEH
  0
BLOCK_RECORD
  5
CC8
330
1
100
AcDbSymbolTableRecord
100
AcDbBlockTableRecord
  2
*D5
  0
BLOCK_RECORD
  5
DF6
330
1
100
AcDbSymbolTableRecord
100
AcDbBlockTableRecord
  2
*D6
  0
BLOCK_RECORD
  5
1C72
330
1
100
AcDbSymbolTableRecord
100
AcDbBlockTableRecord
  2
*D7
  0
BLOCK_RECORD
  5
1DF0
330
1
100
AcDbSymbolTableRecord
100
AcDbBlockTableRecord
  2
*D8
  0
BLOCK_RECORD
  5
2C51
330
1
100
AcDbSymbolTableRecord
100
AcDbBlockTableRecord
  2
*D9
  0
ENDTAB
  0
ENDSEC
  0
SECTION
  2
BLOCKS
  0
BLOCK
  5
20
330
1F
100
AcDbEntity
  8
0
100
AcDbBlockBegin
  2
*MODEL_SPACE
 70
     0
 10
0.0
 20
0.0
 30
0.0
  3
*MODEL_SPACE
  1

  0
ENDBLK
  5
21
330
1F
100
AcDbEntity
  8
0
100
AcDbBlockEnd
  0
BLOCK
  5
103
330
101
100
AcDbEntity
 67
     1
  8
0
100
AcDbBlockBegin
  2
*PAPER_SPACE
 70
     0
 10
0.0
 20
0.0
 30
0.0
  3
*PAPER_SPACE
  1

  0
ENDBLK
  5
104
330
101
100
AcDbEntity
 67
     1
  8
0
100
AcDbBlockEnd
  0
BLOCK
  5
5D
330
59
100
AcDbEntity
  8
0
100
AcDbBlockBegin
  2
_OPEN30
 70
     0
 10
0.0
 20
0.0
 30
0.0
  3
_OPEN30
  1

  0
LINE
  5
5A
330
59
100
AcDbEntity
  8
0
 62
     0
100
AcDbLine
 10
-1.0
 20
0.26794919
 30
0.0
 11
0.0
 21
0.0
 31
0.0
  0
LINE
  5
5B
330
59
100
AcDbEntity
  8
0
 62
     0
100
AcDbLine
 10
0.0
 20
0.0
 30
0.0
 11
-1.0
 21
-0.26794919
 31
0.0
  0
LINE
  5
5C
330
59
100
AcDbEntity
  8
0
 62
     0
100
AcDbLine
 10
0.0
 20
0.0
 30
0.0
 11
-1.0
 21
0.0
 31
0.0
  0
ENDBLK
  5
5E
330
59
100
AcDbEntity
  8
0
100
AcDbBlockEnd
  0
BLOCK
  5
66
330
64
100
AcDbEntity
  8
0
100
AcDbBlockBegin
  2
GENAXEH
 70
     0
 10
0.0
 20
0.0
 30
0.0
  3
GENAXEH
  1

  0
LINE
  5
65
330
64
100
AcDbEntity
  8
0
100
AcDbLine
 10
-1.0
 20
0.0
 30
0.0
 11
1.0
 21
0.0
 31
0.0
  0
ENDBLK
  5
67
330
64
100
AcDbEntity
  8
0
100
AcDbBlockEnd
  0
BLOCK
  5
CD2
330
CC8
100
AcDbEntity
  8
0
100
AcDbBlockBegin
  2
*D5
 70
     1
 10
0.0
 20
0.0
 30
0.0
  3
*D5
  1

  0
LINE
  5
2F92
330
CC8
100
AcDbEntity
  8
AM_5
 62
     3
100
AcDbLine
 10
-69.0
 20
-1.250006209471276
 30
0.0
 11
-69.0
 21
-14.00000718101106
 31
0.0
  0
LINE
  5
2F93
330
CC8
100
AcDbEntity
  8
AM_5
 62
     3
100
AcDbLine
 10
-0.9999961853027439
 20
-1.249999266763175
 30
0.0
 11
-0.9999961853027446
 21
-14.00000718101106
 31
0.0
  0
LINE
  5
2F94
330
CC8
100
AcDbEntity
  8
AM_5
 62
     3
100
AcDbLine
 10
-67.75
 20
-13.50000718101106
 30
0.0
 11
-2.249996185302744
 21
-13.50000718101106
 31
0.0
  0
INSERT
  5
2F95
330
CC8
100
AcDbEntity
  8
AM_5
 62
     3
100
AcDbBlockReference
  2
_OPEN30
 10
-69.0
 20
-13.50000718101106
 30
0.0
 41
1.25
 42
1.25
 43
1.25
 50
180.0
  0
INSERT
  5
2F96
330
CC8
100
AcDbEntity
  8
AM_5
 62
     3
100
AcDbBlockReference
  2
_OPEN30
 10
-0.9999961853027446
 20
-13.50000718101106
 30
0.0
 41
1.25
 42
1.25
 43
1.25
  0
MTEXT
  5
2F97
330
CC8
100
AcDbEntity
  8
AM_5
 62
     2
100
AcDbMText
 10
-34.99999809265137
 20
-11.80000718101106
 30
0.0
 40
1.9
 41
0.0
 71
     5
 72
     1
  1
68
1001
ACAD
1000
MTEXTBEGIN
1070
    73
1070
     1
1070
    44
1040
1.0
1070
    74
1070
     0
1000
MTEXTEND
  0
POINT
  5
2F98
330
CC8
100
AcDbEntity
  8
DEFPOINTS
 62
     0
100
AcDbPoint
 10
-69.0
 20
-1.250006209471276
 30
0.0
  0
POINT
  5
2F99
330
CC8
100
AcDbEntity
  8
DEFPOINTS
 62
     0
100
AcDbPoint
 10
-0.9999961853027439
 20
-1.249999266763175
 30
0.0
  0
POINT
  5
2F9A
330
CC8
100
AcDbEntity
  8
DEFPOINTS
 62
     0
100
AcDbPoint
 10
-0.9999961853027446
 20
-13.50000718101106
 30
0.0
  0
ENDBLK
  5
CD3
330
CC8
100
AcDbEntity
  8
0
100
AcDbBlockEnd
  0
BLOCK
  5
E00
330
DF6
100
AcDbEntity
  8
0
100
AcDbBlockBegin
  2
*D6
 70
     1
 10
0.0
 20
0.0
 30
0.0
  3
*D6
  1

  0
LINE
  5
2FB1
330
DF6
100
AcDbEntity
  8
AM_5
 62
     3
100
AcDbLine
 10
-20.99999999999999
 20
-1.499999305169981
 30
0.0
 11
-20.99999999999999
 21
-9.000007181011042
 31
0.0
  0
LINE
  5
2FB2
330
DF6
100
AcDbEntity
  8
AM_5
 62
     3
100
AcDbLine
 10
-0.9999961853027439
 20
-1.249999266763175
 30
0.0
 11
-0.9999961853027443
 21
-9.000007181011042
 31
0.0
  0
LINE
  5
2FB3
330
DF6
100
AcDbEntity
  8
AM_5
 62
     3
100
AcDbLine
 10
-19.74999999999999
 20
-8.500007181011042
 30
0.0
 11
-2.249996185302744
 21
-8.500007181011042
 31
0.0
  0
INSERT
  5
2FB4
330
DF6
100
AcDbEntity
  8
AM_5
 62
     3
100
AcDbBlockReference
  2
_OPEN30
 10
-20.99999999999999
 20
-8.500007181011042
 30
0.0
 41
1.25
 42
1.25
 43
1.25
 50
180.0
  0
INSERT
  5
2FB5
330
DF6
100
AcDbEntity
  8
AM_5
 62
     3
100
AcDbBlockReference
  2
_OPEN30
 10
-0.9999961853027443
 20
-8.500007181011042
 30
0.0
 41
1.25
 42
1.25
 43
1.25
  0
MTEXT
  5
2FB6
330
DF6
100
AcDbEntity
  8
AM_5
 62
     2
100
AcDbMText
 10
-10.99999809265137
 20
-6.800007181011042
 30
0.0
 40
1.9
 41
0.0
 71
     5
 72
     1
  1
20
1001
ACAD
1000
MTEXTBEGIN
1070
    73
1070
     1
1070
    44
1040
1.0
1070
    74
1070
     0
1000
MTEXTEND
  0
POINT
  5
2FB7
330
DF6
100
AcDbEntity
  8
DEFPOINTS
 62
     0
100
AcDbPoint
 10
-20.99999999999999
 20
-1.499999305169981
 30
0.0
  0
POINT
  5
2FB8
330
DF6
100
AcDbEntity
  8
DEFPOINTS
 62
     0
100
AcDbPoint
 10
-0.9999961853027439
 20
-1.249999266763175
 30
0.0
  0
POINT
  5
2FB9
330
DF6
100
AcDbEntity
  8
DEFPOINTS
 62
     0
100
AcDbPoint
 10
-0.9999961853027443
 20
-8.500007181011042
 30
0.0
  0
ENDBLK
  5
E01
330
DF6
100
AcDbEntity
  8
0
100
AcDbBlockEnd
  0
BLOCK
  5
1C7E
330
1C72
100
AcDbEntity
  8
0
100
AcDbBlockBegin
  2
*D7
 70
     1
 10
0.0
 20
0.0
 30
0.0
  3
*D7
  1

  0
LINE
  5
2FBA
330
1C72
100
AcDbEntity
  8
AM_5
 62
     3
100
AcDbLine
 10
-0.9999961853027439
 20
-1.249999266763175
 30
0.0
 11
7.795959616461491
 21
-1.249999266763177
 31
0.0
  0
LINE
  5
2FBB
330
1C72
100
AcDbEntity
  8
AM_5
 62
     3
100
AcDbLine
 10
-0.9999961853027485
 20
1.250000733236824
 30
0.0
 11
7.795959616461491
 21
1.250000733236821
 31
0.0
  0
LINE
  5
2FBC
330
1C72
100
AcDbEntity
  8
AM_5
 62
     3
100
AcDbLine
 10
7.29595961646149
 20
-2.499999266763177
 30
0.0
 11
7.29595961646149
 21
-3.749999266763177
 31
0.0
  0
LINE
  5
2FBD
330
1C72
100
AcDbEntity
  8
AM_5
 62
     3
100
AcDbLine
 10
7.295959616461492
 20
2.500000733236821
 30
0.0
 11
7.295959616461494
 21
10.9547626673282
 31
0.0
  0
LINE
  5
2FBE
330
1C72
100
AcDbEntity
  8
AM_5
 62
     3
100
AcDbLine
 10
7.295959616461491
 20
-1.249999266763177
 30
0.0
 11
7.295959616461491
 21
1.250000733236822
 31
0.0
  0
INSERT
  5
2FBF
330
1C72
100
AcDbEntity
  8
AM_5
 62
     3
100
AcDbBlockReference
  2
_OPEN30
 10
7.295959616461491
 20
-1.249999266763177
 30
0.0
 41
1.25
 42
1.25
 43
1.25
 50
90.0
  0
INSERT
  5
2FC0
330
1C72
100
AcDbEntity
  8
AM_5
 62
     3
100
AcDbBlockReference
  2
_OPEN30
 10
7.295959616461491
 20
1.250000733236822
 30
0.0
 41
1.25
 42
1.25
 43
1.25
 50
270.0
  0
MTEXT
  5
2FC1
330
1C72
100
AcDbEntity
  8
AM_5
 62
     2
100
AcDbMText
 10
5.595959616461492
 20
7.354762667328202
 30
0.0
 40
1.9
 41
0.0
 71
     5
 72
     1
  1
%%c2.5
 11
0.0000000000000001
 21
1.0
 31
0.0
1001
ACAD
1000
MTEXTBEGIN
1070
    73
1070
     1
1070
    44
1040
1.0
1070
    74
1070
     0
1000
MTEXTEND
  0
POINT
  5
2FC2
330
1C72
100
AcDbEntity
  8
DEFPOINTS
 62
     0
100
AcDbPoint
 10
-0.9999961853027439
 20
-1.249999266763175
 30
0.0
  0
POINT
  5
2FC3
330
1C72
100
AcDbEntity
  8
DEFPOINTS
 62
     0
100
AcDbPoint
 10
-0.9999961853027485
 20
1.250000733236824
 30
0.0
  0
POINT
  5
2FC4
330
1C72
100
AcDbEntity
  8
DEFPOINTS
 62
     0
100
AcDbPoint
 10
7.295959616461491
 20
1.250000733236822
 30
0.0
  0
ENDBLK
  5
1C7F
330
1C72
100
AcDbEntity
  8
0
100
AcDbBlockEnd
  0
BLOCK
  5
1DFC
330
1DF0
100
AcDbEntity
  8
0
100
AcDbBlockBegin
  2
*D8
 70
     1
 10
0.0
 20
0.0
 30
0.0
  3
*D8
  1

  0
LINE
  5
2F9B
330
1DF0
100
AcDbEntity
  8
AM_5
 62
     3
100
AcDbLine
 10
-68.75000000000001
 20
-1.500006181011354
 30
0.0
 11
-77.25000134152342
 21
-1.50000618101137
 31
0.0
  0
LINE
  5
2F9C
330
1DF0
100
AcDbEntity
  8
AM_5
 62
     3
100
AcDbLine
 10
-68.75000000000001
 20
1.50001384720165
 30
0.0
 11
-77.25000134152342
 21
1.500013847201634
 31
0.0
  0
LINE
  5
2F9D
330
1DF0
100
AcDbEntity
  8
AM_5
 62
     3
100
AcDbLine
 10
-76.75000134152341
 20
-2.750006181011369
 30
0.0
 11
-76.7500013415234
 21
-4.000006181011369
 31
0.0
  0
LINE
  5
2F9E
330
1DF0
100
AcDbEntity
  8
AM_5
 62
     3
100
AcDbLine
 10
-76.75000134152341
 20
2.750013847201635
 30
0.0
 11
-76.75000134152343
 21
4.000013847201635
 31
0.0
  0
LINE
  5
2F9F
330
1DF0
100
AcDbEntity
  8
AM_5
 62
     3
100
AcDbLine
 10
-76.75000134152341
 20
-1.500006181011369
 30
0.0
 11
-76.75000134152341
 21
1.500013847201634
 31
0.0
  0
INSERT
  5
2FA0
330
1DF0
100
AcDbEntity
  8
AM_5
 62
     3
100
AcDbBlockReference
  2
_OPEN30
 10
-76.75000134152341
 20
-1.500006181011369
 30
0.0
 41
1.25
 42
1.25
 43
1.25
 50
90.0000000000001
  0
INSERT
  5
2FA1
330
1DF0
100
AcDbEntity
  8
AM_5
 62
     3
100
AcDbBlockReference
  2
_OPEN30
 10
-76.75000134152341
 20
1.500013847201634
 30
0.0
 41
1.25
 42
1.25
 43
1.25
 50
270.0000000000001
  0
MTEXT
  5
2FA2
330
1DF0
100
AcDbEntity
  8
AM_5
 62
     2
100
AcDbMText
 10
-78.45000134152342
 20
0.0000038330951324
 30
0.0
 40
1.9
 41
0.0
 71
     5
 72
     1
  1
%%c3
 11
-0.000000000000002
 21
1.0
 31
0.0
1001
ACAD
1000
MTEXTBEGIN
1070
    73
1070
     1
1070
    44
1040
1.0
1070
    74
1070
     0
1000
MTEXTEND
  0
POINT
  5
2FA3
330
1DF0
100
AcDbEntity
  8
DEFPOINTS
 62
     0
100
AcDbPoint
 10
-68.75000000000001
 20
-1.500006181011201
 30
0.0
  0
POINT
  5
2FA4
330
1DF0
100
AcDbEntity
  8
DEFPOINTS
 62
     0
100
AcDbPoint
 10
-68.75000000000001
 20
1.500013847201803
 30
0.0
  0
POINT
  5
2FA5
330
1DF0
100
AcDbEntity
  8
DEFPOINTS
 62
     0
100
AcDbPoint
 10
-76.75000134152341
 20
1.500013847201805
 30
0.0
  0
ENDBLK
  5
1DFD
330
1DF0
100
AcDbEntity
  8
0
100
AcDbBlockEnd
  0
BLOCK
  5
2C61
330
2C51
100
AcDbEntity
  8
0
100
AcDbBlockBegin
  2
*D9
 70
     1
 10
0.0
 20
0.0
 30
0.0
  3
*D9
  1

  0
LINE
  5
3015
330
2C51
100
AcDbEntity
  8
AM_5
100
AcDbLine
 10
0.1710109141609373
 20
-0.4698463108496595
 30
0.0
 11
5.028921943355719
 21
-13.81684728018742
 31
0.0
  0
LINE
  5
3016
330
2C51
100
AcDbEntity
  8
AM_5
100
AcDbLine
 10
0.1710108110222597
 20
0.4698473696070425
 30
0.0
 11
5.028931509894715
 21
13.81684615257193
 31
0.0
  0
ARC
  5
3017
330
2C51
100
AcDbEntity
  8
AM_5
100
AcDbCircle
 10
0.0000004153010011
 20
0.0000011771618353
 30
0.0
 40
14.20358299968708
100
AcDbArc
 50
295.0439987438937
 51
64.95596158552726
  0
INSERT
  5
3018
330
2C51
100
AcDbEntity
  8
AM_5
100
AcDbBlockReference
  2
_OPEN30
 10
4.857911872947651
 20
-13.34700096933778
 30
0.0
 41
1.25
 42
1.25
 43
1.25
 50
202.5219992954401
  0
INSERT
  5
3019
330
2C51
100
AcDbEntity
  8
AM_5
100
AcDbBlockReference
  2
_OPEN30
 10
4.857921114173457
 20
13.34699996012673
 30
0.0
 41
1.25
 42
1.25
 43
1.25
 50
157.4779610339808
  0
MTEXT
  5
301A
330
2C51
100
AcDbEntity
  8
AM_5
 62
     2
100
AcDbMText
 10
12.65358341498723
 20
-0.000003739992326
 30
0.0
 40
1.6
 41
0.0
 71
     5
 72
     1
  1
140°
  7
ASAMI
 11
-0.000000000000002
 21
1.0
 31
0.0
  0
POINT
  5
301B
330
2C51
100
AcDbEntity
  8
DEFPOINTS
 62
     0
100
AcDbPoint
 10
13.04196169279548
 20
5.625747000191382
 30
0.0
  0
POINT
  5
301C
330
2C51
100
AcDbEntity
  8
DEFPOINTS
 62
     0
100
AcDbPoint
 10
0.0000003478423873
 20
0.000000991821215
 30
0.0
  0
POINT
  5
301D
330
2C51
100
AcDbEntity
  8
DEFPOINTS
 62
     0
100
AcDbPoint
 10
0.0000008437528693
 20
-0.0000000000000076
 30
0.0
  0
POINT
  5
301E
330
2C51
100
AcDbEntity
  8
DEFPOINTS
 62
     0
100
AcDbPoint
 10
-0.1380505908669649
 20
0.3792932024930034
 30
0.0
  0
POINT
  5
301F
330
2C51
100
AcDbEntity
  8
DEFPOINTS
 62
     0
100
AcDbPoint
 10
-0.1380525532143794
 20
-0.3792954225515227
 30
0.0
  0
ENDBLK
  5
2C62
330
2C51
100
AcDbEntity
  8
0
100
AcDbBlockEnd
  0
ENDSEC
  0
SECTION
  2
ENTITIES
  0
LINE
  5
C1D
330
1F
100
AcDbEntity
  8
AM_0
 48
0.5
100
AcDbLine
 10
0.0000000000000027
 20
-0.0000000000000073
 30
0.0
 11
-0.1327409203046636
 21
0.3647050023971184
 31
0.0
  0
LINE
  5
C20
330
1F
100
AcDbEntity
  8
AM_0
 48
0.5
100
AcDbLine
 10
0.0000000000000046
 20
-0.000000000000002
 30
0.0
 11
-0.1327428071771776
 21
-0.3647071370687721
 31
0.0
  0
LINE
  5
C2E
330
1F
100
AcDbEntity
  8
AM_0
 48
0.5
100
AcDbLine
 10
-68.75
 20
-1.500006181011201
 30
0.0
 11
-68.75
 21
1.500013847201803
 31
0.0
  0
LINE
  5
C30
330
1F
100
AcDbEntity
  8
AM_0
 48
0.5
100
AcDbLine
 10
-69.0
 20
-1.250006209471276
 30
0.0
 11
-69.0
 21
1.250005235204409
 31
0.0
  0
LINE
  5
C9F
330
1F
100
AcDbEntity
  8
AM_7
100
AcDbLine
 10
-69.74999999999998
 20
-0.0000000000000761
 30
0.0
 11
0.2959585652317974
 21
-0.0000000000000015
 31
0.0
1001
GENIUS_GENODEF_13
1002
{
1000
HIER
1070
     0
1002
}
1002
{
1000
MANEDIT
1070
     0
1002
}
1002
{
1000
NOSEL
1070
     0
1002
}
1002
{
1000
BEHIND
1070
     0
1002
}
1002
{
1000
REACTOR
1002
}
1001
GENIUS_GENOBJ-N-CEN_13
1002
{
1000
OWNER
1000
GEN
1002
}
  0
DIMENSION
  5
CC6
330
1F
100
AcDbEntity
  8
AM_5
100
AcDbDimension
  2
*D5
 10
-0.9999961853027446
 20
-13.50000718101106
 30
0.0
 11
-34.99999809265137
 21
-11.80000718101106
 31
0.0
 70
    32
  1
<>
  3
AM_JIS$0
100
AcDbAlignedDimension
 13
-69.0
 23
-1.250006209471276
 33
0.0
 14
-0.9999961853027439
 24
-1.249999266763175
 34
0.0
 50
0.0000000000001132
100
AcDbRotatedDimension
1001
GENIUS_GENDTOL_13
1000

1000
h7
1000

1040
0.0
1001
ACAD
1000
DSTYLE
1002
{
1070
   271
1070
     0
1002
}
  0
DIMENSION
  5
DF5
330
1F
100
AcDbEntity
  8
AM_5
100
AcDbDimension
  2
*D6
 10
-0.9999961853027443
 20
-8.500007181011042
 30
0.0
 11
-10.99999809265137
 21
-6.800007181011042
 31
0.0
 70
    32
  1
<>
  3
AM_JIS$0
100
AcDbAlignedDimension
 13
-20.99999999999999
 23
-1.499999305169981
 33
0.0
 14
-0.9999961853027439
 24
-1.249999266763175
 34
0.0
 50
0.0000000000001527
100
AcDbRotatedDimension
1001
GENIUS_GENDTOL_13
1000

1000
h7
1000

1040
0.0
1001
ACAD
1000
DSTYLE
1002
{
1070
   271
1070
     0
1002
}
  0
ARC
  5
144A
330
1F
100
AcDbEntity
  8
AM_11
 48
0.5
100
AcDbCircle
 10
-24.61968231200994
 20
-6.625446930970557
 30
0.0
 40
7.325448036193749
100
AcDbArc
 50
64.74833051131179
 51
115.2516644797366
  0
ARC
  5
144B
330
1F
100
AcDbEntity
  8
AM_11
 48
0.5
100
AcDbCircle
 10
-24.61968231200993
 20
6.625451430235441
 30
0.0
 40
7.325448036193749
100
AcDbArc
 50
244.7482808787518
 51
295.2516148471758
  0
ARC
  5
144E
330
1F
100
AcDbEntity
  8
AM_11
 48
0.5
100
AcDbCircle
 10
-18.36968231200994
 20
-6.625446930970557
 30
0.0
 40
7.325448036193749
100
AcDbArc
 50
64.74833051131179
 51
115.2516644797366
  0
ARC
  5
144F
330
1F
100
AcDbEntity
  8
AM_11
 48
0.5
100
AcDbCircle
 10
-18.36968231200994
 20
6.625451430235441
 30
0.0
 40
7.325448036193749
100
AcDbArc
 50
244.7482808787518
 51
295.2516148471758
  0
ARC
  5
18B8
330
1F
100
AcDbEntity
  8
AM_11
 48
0.5
100
AcDbCircle
 10
-30.86968231200988
 20
6.625451430235419
 30
0.0
 40
7.325448036193749
100
AcDbArc
 50
244.7482808787518
 51
295.2516148471758
  0
ARC
  5
18B9
330
1F
100
AcDbEntity
  8
AM_11
 48
0.5
100
AcDbCircle
 10
-30.86968231200989
 20
-6.625446930970579
 30
0.0
 40
7.325448036193749
100
AcDbArc
 50
64.74833051131179
 51
115.2516644797366
  0
ARC
  5
18BA
330
1F
100
AcDbEntity
  8
AM_11
 48
0.5
100
AcDbCircle
 10
-37.1196950792103
 20
6.625457452091305
 30
0.0
 40
7.325448036193749
100
AcDbArc
 50
244.7482808787518
 51
295.2516148471758
  0
ARC
  5
18BB
330
1F
100
AcDbEntity
  8
AM_11
 48
0.5
100
AcDbCircle
 10
-37.11969507921031
 20
-6.625440909114693
 30
0.0
 40
7.325448036193749
100
AcDbArc
 50
64.74833051131179
 51
115.2516644797366
  0
TEXT
  5
19BD
330
1F
100
AcDbEntity
  8
AM_6
100
AcDbText
 10
-46.24999809265133
 20
-24.75000718101109
 30
0.0
 40
2.5
  1
MDW025MHK
 50
0.0000000000001527
 72
     4
 11
-34.99999809265133
 21
-23.50000718101106
 31
0.0
100
AcDbText
  0
LINE
  5
1B5C
330
1F
100
AcDbEntity
  8
AM_0
 48
0.5
100
AcDbLine
 10
-68.75
 20
1.500005264989103
 30
0.0
 11
-69.0
 21
1.250005235204409
 31
0.0
1001
GENIUS_GENFIL_13
1070
     0
1040
0.25
1040
0.25
1040
20.0
1040
0.0
1002
{
1002
}
1001
GENIUS_GENODEF_13
1002
{
1000
HIER
1070
     0
1002
}
1002
{
1000
MANEDIT
1070
     0
1002
}
1002
{
1000
NOSEL
1070
     0
1002
}
1002
{
1000
BEHIND
1070
     0
1002
}
1002
{
1000
REACTOR
1002
}
1001
GENIUS_GENOBJ-N-CHA_13
1002
{
1000
OWNER
1000
GEN
1002
}
  0
LINE
  5
1B60
330
1F
100
AcDbEntity
  8
AM_0
 48
0.5
100
AcDbLine
 10
-69.0
 20
-1.250006209471276
 30
0.0
 11
-68.75
 21
-1.500006181011201
 31
0.0
1001
GENIUS_GENFIL_13
1070
     0
1040
0.25
1040
0.25
1040
20.0
1040
0.0
1002
{
1002
}
1001
GENIUS_GENODEF_13
1002
{
1000
HIER
1070
     0
1002
}
1002
{
1000
MANEDIT
1070
     0
1002
}
1002
{
1000
NOSEL
1070
     0
1002
}
1002
{
1000
BEHIND
1070
     0
1002
}
1002
{
1000
REACTOR
1002
}
1001
GENIUS_GENOBJ-N-CHA_13
1002
{
1000
OWNER
1000
GEN
1002
}
  0
LINE
  5
1C15
330
1F
100
AcDbEntity
  8
AM_0
 48
0.5
100
AcDbLine
 10
-20.99999999999999
 20
-1.5000007451367
 30
0.0
 11
-21.0
 21
1.500010953865688
 31
0.0
  0
LINE
  5
1C1A
330
1F
100
AcDbEntity
  8
AM_0
 48
0.5
100
AcDbLine
 10
-20.99999980885467
 20
1.500010843507878
 30
0.0
 11
-68.75
 21
1.500005264989103
 31
0.0
  0
LINE
  5
1C1E
330
1F
100
AcDbEntity
  8
AM_0
 48
0.5
100
AcDbLine
 10
-21.0
 20
-1.499999305169981
 30
0.0
 11
-68.75
 21
-1.500006181011201
 31
0.0
  0
ARC
  5
1C22
330
1F
100
AcDbEntity
  8
AM_11
 48
0.5
100
AcDbCircle
 10
-49.61969507914651
 20
6.625457452091291
 30
0.0
 40
7.325448036193749
100
AcDbArc
 50
244.7482808787518
 51
295.2516148471758
  0
ARC
  5
1C23
330
1F
100
AcDbEntity
  8
AM_11
 48
0.5
100
AcDbCircle
 10
-49.61969507914652
 20
-6.625440909114708
 30
0.0
 40
7.325448036193749
100
AcDbArc
 50
64.74833051131179
 51
115.2516644797366
  0
ARC
  5
1C24
330
1F
100
AcDbEntity
  8
AM_11
 48
0.5
100
AcDbCircle
 10
-43.36968231194608
 20
6.625451430235405
 30
0.0
 40
7.325448036193749
100
AcDbArc
 50
244.7482808787518
 51
295.2516148471758
  0
ARC
  5
1C25
330
1F
100
AcDbEntity
  8
AM_11
 48
0.5
100
AcDbCircle
 10
-43.36968231194609
 20
-6.625446930970593
 30
0.0
 40
7.325448036193749
100
AcDbArc
 50
64.74833051131179
 51
115.2516644797366
  0
ARC
  5
1C26
330
1F
100
AcDbEntity
  8
AM_11
 48
0.5
100
AcDbCircle
 10
-62.11969507908263
 20
6.625457452091237
 30
0.0
 40
7.325448036193749
100
AcDbArc
 50
244.7482808787518
 51
295.2516148471758
  0
ARC
  5
1C27
330
1F
100
AcDbEntity
  8
AM_11
 48
0.5
100
AcDbCircle
 10
-62.11969507908264
 20
-6.625440909114762
 30
0.0
 40
7.325448036193749
100
AcDbArc
 50
64.74833051131179
 51
115.2516644797366
  0
ARC
  5
1C28
330
1F
100
AcDbEntity
  8
AM_11
 48
0.5
100
AcDbCircle
 10
-55.86968231188221
 20
6.625451430235351
 30
0.0
 40
7.325448036193749
100
AcDbArc
 50
244.7482808787518
 51
295.2516148471758
  0
ARC
  5
1C29
330
1F
100
AcDbEntity
  8
AM_11
 48
0.5
100
AcDbCircle
 10
-55.86968231188222
 20
-6.625446930970647
 30
0.0
 40
7.325448036193749
100
AcDbArc
 50
64.74833051131179
 51
115.2516644797366
  0
ARC
  5
1C2C
330
1F
100
AcDbEntity
  8
AM_11
 48
0.5
100
AcDbCircle
 10
-68.36968231181838
 20
6.625451430235316
 30
0.0
 40
7.325448036193749
100
AcDbArc
 50
265.0638846988117
 51
295.2516148471758
  0
ARC
  5
1C2D
330
1F
100
AcDbEntity
  8
AM_11
 48
0.5
100
AcDbCircle
 10
-68.36968231181838
 20
-6.625446930970682
 30
0.0
 40
7.325448036193749
100
AcDbArc
 50
64.74833051131179
 51
94.93611530118821
  0
DIMENSION
  5
1C71
330
1F
100
AcDbEntity
  8
AM_5
100
AcDbDimension
  2
*D7
 10
7.295959616461491
 20
1.250000733236822
 30
0.0
 11
7.295959616461492
 21
7.354762667328201
 31
0.0
 70
   160
  1
%%c<>
  3
AM_JIS$0
100
AcDbAlignedDimension
 13
-0.9999961853027439
 23
-1.249999266763175
 33
0.0
 14
-0.9999961853027485
 24
1.250000733236824
 34
0.0
 50
89.99999999999991
100
AcDbRotatedDimension
1001
GENIUS_GENDTOL_13
1000

1000
h7
1000

1040
0.0
1001
ACAD
1000
DSTYLE
1002
{
1070
   271
1070
     1
1002
}
  0
LINE
  5
1C85
330
1F
100
AcDbEntity
  8
AM_0
 48
0.5
100
AcDbLine
 10
-0.6234759835290005
 20
0.9597720226039665
 30
0.0
 11
-0.9999961853027487
 21
1.250000733236824
 31
0.0
  0
ELLIPSE
  5
1C86
330
1F
100
AcDbEntity
  8
AM_0
 48
0.5
100
AcDbEllipse
 10
2.100295910586372
 20
1.545378141536059
 30
0.0
 11
2.727782124566669
 21
0.5674865287294156
 31
0.0
210
0.0
220
0.0
230
0.9999999999999998
 40
0.5121575483306189
 41
3.154597222684332
 42
3.655201069360919
  0
LINE
  5
1CF2
330
1F
100
AcDbEntity
  8
AM_0
100
AcDbLine
 10
-20.99999999999999
 20
-1.5000007451367
 30
0.0
 11
-20.56703403101401
 21
-1.250027726392695
 31
0.0
  0
LINE
  5
1CF3
330
1F
100
AcDbEntity
  8
AM_0
100
AcDbLine
 10
-21.0
 20
1.500010953865688
 30
0.0
 11
-20.56712159518254
 21
1.250088490317955
 31
0.0
  0
LINE
  5
1CF4
330
1F
100
AcDbEntity
  8
AM_0
100
AcDbLine
 10
-20.56712159518254
 20
1.250088490317958
 30
0.0
 11
-20.56712242500521
 21
-1.25007876068731
 31
0.0
  0
DIMENSION
  5
1DEF
330
1F
100
AcDbEntity
  8
AM_5
100
AcDbDimension
  2
*D8
 10
-76.75000134152341
 20
1.500013847201805
 30
0.0
 11
-76.75000134152341
 21
0.0000038330952908
 31
0.0
 70
   160
  1
%%c<>
 51
359.9999999999998
  3
AM_JIS$0
100
AcDbAlignedDimension
 13
-68.75000000000001
 23
-1.500006181011201
 33
0.0
 14
-68.75000000000001
 24
1.500013847201803
 34
0.0
 50
270.0000065225689
100
AcDbRotatedDimension
1001
ACAD
1000
DSTYLE
1002
{
1070
   271
1070
     0
1002
}
1001
GENIUS_GENDTOL_13
1000

1000
h7
1000

1040
0.0
  0
ELLIPSE
  5
25CA
330
1F
100
AcDbEntity
  8
AM_0
 48
0.5
100
AcDbEllipse
 10
2.100295910586376
 20
-1.545378141536058
 30
0.0
 11
2.727782124566671
 21
-0.5674865287294095
 31
0.0
210
0.0
220
0.0
230
-1.0
 40
0.5121575483306189
 41
3.154597222684332
 42
3.655201069360919
  0
LINE
  5
25CB
330
1F
100
AcDbEntity
  8
AM_0
 48
0.5
100
AcDbLine
 10
-0.6234759835289983
 20
-0.9597720226039717
 30
0.0
 11
-0.9999961853027439
 21
-1.249999266763175
 31
0.0
  0
LINE
  5
2B62
330
1F
100
AcDbEntity
  8
AM_0
 48
0.5
100
AcDbLine
 10
-2.042981349416056
 20
1.250000733236843
 30
0.0
 11
-0.9999961853027487
 21
1.250000733236824
 31
0.0
  0
LINE
  5
2B63
330
1F
100
AcDbEntity
  8
AM_0
 48
0.5
100
AcDbLine
 10
-2.042981349415574
 20
-1.249999266763161
 30
0.0
 11
-0.9999961853027439
 21
-1.249999266763175
 31
0.0
  0
LINE
  5
2B64
330
1F
100
AcDbEntity
  8
AM_0
 48
0.5
100
AcDbLine
 10
0.0000000000000046
 20
-0.0000000000000019
 30
0.0
 11
-1.195800413838616
 21
0.4799627098666502
 31
0.0
  0
SPLINE
  5
2B71
330
1F
100
AcDbEntity
  8
AM_0
 48
0.5
100
AcDbSpline
210
0.0
220
0.0
230
1.0
 70
     8
 71
     3
 72
    10
 73
     6
 74
     0
 42
0.0000000001
 43
0.0000000001
 40
0.0
 40
0.0
 40
0.0
 40
0.0
 40
2.69986029516136
 40
4.147722969032201
 40
6.285750005020438
 40
6.285750005020438
 40
6.285750005020438
 40
6.285750005020438
 10
-2.408527551125362
 20
0.3144161790898863
 30
0.0
 10
-1.924366089490903
 20
0.1101104323429532
 30
0.0
 10
-1.647947937268836
 20
-0.0683025611789868
 30
0.0
 10
-0.9942561391823428
 20
0.0180702945169377
 30
0.0
 10
-1.11736531856025
 20
0.3089855013307816
 30
0.0
 10
-1.198707998525365
 20
0.4863072798310275
 30
0.0
  0
ELLIPSE
  5
2B7A
330
1F
100
AcDbEntity
  8
AM_0
 48
0.5
100
AcDbEllipse
 10
107.579478006541
 20
145.4537947967911
 30
0.0
 11
-128.7687861872032
 21
128.7687861872032
 31
0.0
210
0.0
220
0.0
230
0.9999999999999998
 40
0.9999999999975537
 41
1.707713983602241
 42
1.715444797988726
  0
ELLIPSE
  5
2B7B
330
1F
100
AcDbEntity
  8
AM_0
 48
0.5
100
AcDbEllipse
 10
1.097408294677773
 20
-0.2778570472196809
 30
0.0
 11
-1.910033930762042
 21
1.734942986154471
 31
0.0
210
0.0
220
0.0
230
1.0
 40
0.8805553343312471
 41
0.9061019045094035
 42
1.214970248578121
  0
ELLIPSE
  5
2B7C
330
1F
100
AcDbEntity
  8
AM_0
 48
0.5
100
AcDbEllipse
 10
-0.6550613325050713
 20
-0.3257673151069044
 30
0.0
 11
-0.0503596489408621
 21
0.2038027933751607
 31
0.0
210
0.0
220
0.0
230
1.0
 40
0.5908887124855314
 41
1.748812614015157
 42
4.884154503727131
  0
ELLIPSE
  5
2B7D
330
1F
100
AcDbEntity
  8
AM_0
 48
0.5
100
AcDbEllipse
 10
-0.6550613325050713
 20
-0.3257673151069044
 30
0.0
 11
-0.2212284610951128
 21
0.0956825343168728
 31
0.0
210
0.0
220
0.0
230
1.0
 40
0.4482451421413631
 41
4.394295392522118
 42
7.537735733851631
  0
ELLIPSE
  5
2B7E
330
1F
100
AcDbEntity
  8
AM_0
 48
0.5
100
AcDbEllipse
 10
-2.59657304921036
 20
2.097953839423965
 30
0.0
 11
-3.171976918992419
 21
1.434270248273308
 31
0.0
210
0.0
220
0.0
230
0.9999999999999998
 40
0.6487720125137891
 41
2.52568124446804
 42
2.759643326902187
  0
ELLIPSE
  5
2B7F
330
1F
100
AcDbEntity
  8
AM_0
 48
0.5
100
AcDbEllipse
 10
-0.7644579115636208
 20
-1.413265383718343
 30
0.0
 11
1.967244457807233
 21
0.5359468164235054
 31
0.0
210
0.0
220
0.0
230
1.0
 40
0.4883736038913606
 41
1.438607637521933
 42
1.702985016067862
  0
DIMENSION
  5
2C50
330
1F
100
AcDbEntity
  8
AM_5
100
AcDbDimension
  2
*D9
 10
-0.1380525532143794
 20
-0.3792954225515227
 30
0.0
 11
12.65358341498723
 21
-0.0000037399923536
 31
0.0
 70
    34
  1
<>
 51
359.9999999999998
  3
AM_JIS$2
100
AcDb2LineAngularDimension
 13
0.0000008437528693
 23
-0.0000000000000076
 33
0.0
 14
-0.1380505908669649
 24
0.3792932024930034
 34
0.0
 15
0.0000003478423873
 25
0.000000991821215
 35
0.0
 16
13.04196169279548
 26
5.625747000191382
 36
0.0
1001
GENIUS_GENDTOL_13
1000

1000
h7
1000

1040
0.0
1001
ACAD
1000
DSTYLE
1002
{
1070
   271
1070
     0
1002
}
  0
LINE
  5
2DA8
330
1F
100
AcDbEntity
  8
AM_0
100
AcDbLine
 10
-20.56712159518254
 20
1.250088490317955
 30
0.0
 11
-14.95431732729628
 21
1.250178215430583
 31
0.0
  0
LINE
  5
2DAA
330
1F
100
AcDbEntity
  8
AM_0
 48
0.5
100
AcDbLine
 10
-20.56712242498826
 20
-1.250027725444732
 30
0.0
 11
-12.45672965446437
 21
-1.250114703619765
 31
0.0
  0
SPLINE
  5
2F3C
330
1F
100
AcDbEntity
  8
AM_0
100
AcDbSpline
210
0.0
220
0.0
230
1.0
 70
     8
 71
     3
 72
    23
 73
    19
 74
     0
 42
0.0000000001
 43
0.0000000001
 40
16.03460024169435
 40
16.03460024169435
 40
16.03460024169435
 40
16.03460024169435
 40
16.35212704903564
 40
17.38177054169784
 40
18.41822485651776
 40
19.46214173629503
 40
20.51396345435107
 40
21.57393551351153
 40
22.64208202342361
 40
23.7182574881101
 40
24.80209208578934
 40
25.89306333925047
 40
26.99048218457928
 40
28.09348763352352
 40
29.20111863782268
 40
30.31232390128032
 40
31.42594612798585
 40
32.5407912310448
 40
32.5407912310486
 40
32.5407912310486
 40
32.5407912310486
 10
-14.95431732729628
 20
1.250178215430583
 30
0.0
 10
-14.92834453111724
 20
1.245958435555102
 30
0.0
 10
-14.81826040805296
 20
1.227582481880432
 30
0.0
 10
-14.62434603975046
 20
1.191577605179
 30
0.0
 10
-14.3732264251605
 20
1.138038747269465
 30
0.0
 10
-14.12234006228042
 20
1.077923533861188
 30
0.0
 10
-13.87167212603496
 20
1.011579881147419
 30
0.0
 10
-13.62121371977487
 20
0.9393776564772762
 30
0.0
 10
-13.37095036760451
 20
0.8617295982155981
 30
0.0
 10
-13.12086464213525
 20
0.7790875985845636
 30
0.0
 10
-12.87094233259795
 20
0.6919196544097462
 30
0.0
 10
-12.62116340181481
 20
0.600732975647709
 30
0.0
 10
-12.3715076079967
 20
0.5060575786724753
 30
0.0
 10
-12.12195831729012
 20
0.4084378073261802
 30
0.0
 10
-11.872494650209
 20
0.3084413072107208
 30
0.0
 10
-11.62309350113447
 20
0.2066519845236276
 30
0.0
 10
-11.37373456177278
 20
0.1036596808262968
 30
0.0
 10
-11.20753992068107
 20
0.0346089727581978
 30
0.0
 10
-11.12439727783139
 20
0.0000642085328442
 30
0.0
  0
SPLINE
  5
2F3D
330
1F
100
AcDbEntity
  8
AM_0
 48
0.5
100
AcDbSpline
210
0.0
220
0.0
230
1.0
 70
     8
 71
     3
 72
    17
 73
    13
 74
     0
 42
0.0000000001
 43
0.0000000001
 40
0.0
 40
0.0
 40
0.0
 40
0.0
 40
1.010743614677189
 40
2.022833924044153
 40
3.037578959561199
 40
4.056212747067873
 40
5.079857613375832
 40
6.109500119648989
 40
7.14596120163808
 40
8.18989512056258
 40
9.241717674284874
 40
9.693948937866434
 40
9.693948937866434
 40
9.693948937866434
 40
9.693948937866434
 10
-1.809497833251953
 20
1.250000630245214
 30
0.0
 10
-1.893731150632419
 20
1.249257446488907
 30
0.0
 10
-2.062310016190139
 20
1.247770088773053
 30
0.0
 10
-2.315116645576197
 20
1.235768388808443
 30
0.0
 10
-2.567912867060059
 20
1.216696059443362
 30
0.0
 10
-2.820693366770314
 20
1.18996258247141
 30
0.0
 10
-3.073455134164448
 20
1.155930525203258
 30
0.0
 10
-3.326195082007331
 20
1.114757672435974
 30
0.0
 10
-3.578909818104095
 20
1.066709067439168
 30
0.0
 10
-3.831609148800922
 20
1.012108185796119
 30
0.0
 10
-4.03559463799725
 20
0.9629210449892793
 30
0.0
 10
-4.155386877142817
 20
0.9321720085646559
 30
0.0
 10
-4.191342080401242
 20
0.9227599343581614
 30
0.0
  0
SPLINE
  5
2F3E
330
1F
100
AcDbEntity
  8
AM_0
 48
0.5
100
AcDbSpline
210
0.0
220
0.0
230
1.0
 70
     8
 71
     3
 72
    16
 73
    12
 74
     0
 42
0.0000000001
 43
0.0000000001
 40
0.0
 40
0.0
 40
0.0
 40
0.0
 40
1.010743614677189
 40
2.022833924044153
 40
3.037578959561199
 40
4.056212747067873
 40
5.079857613375832
 40
6.109500119648989
 40
7.14596120163808
 40
8.18989512056258
 40
8.545190612624931
 40
8.545190612624931
 40
8.545190612624931
 40
8.545190612624931
 10
-1.809497833251953
 20
1.250000630245214
 30
0.0
 10
-1.893726467808378
 20
1.249993118808633
 30
0.0
 10
-2.062312192906845
 20
1.247428228187736
 30
0.0
 10
-2.315116058305222
 20
1.235860291543328
 30
0.0
 10
-2.567913033000892
 20
1.21667132437408
 30
0.0
 10
-2.820693292843217
 20
1.189969187434694
 30
0.0
 10
-3.073455263807717
 20
1.155928998021499
 30
0.0
 10
-3.326194633890822
 20
1.114757116023646
 30
0.0
 10
-3.578911496743345
 20
1.066712873574628
 30
0.0
 10
-3.775410570665315
 20
1.024239378864267
 30
0.0
 10
-3.887725423709796
 20
0.9981171279779273
 30
0.0
 10
-3.916207843175386
 20
0.9913760915413439
 30
0.0
  0
SPLINE
  5
2F3F
330
1F
100
AcDbEntity
  8
AM_0
 48
0.5
100
AcDbSpline
210
0.0
220
0.0
230
1.0
 70
     8
 71
     3
 72
    24
 73
    20
 74
     0
 42
0.0000000001
 43
0.0000000001
 40
8.269279012104377
 40
8.269279012104377
 40
8.269279012104377
 40
8.269279012104377
 40
8.711974558287883
 40
9.814980593243754
 40
10.91239053451967
 40
12.0033633515982
 40
13.08720139956839
 40
14.16337181880432
 40
15.23152222380919
 40
16.29148850140128
 40
17.34331105512262
 40
18.38723020264746
 40
19.42369128463655
 40
20.45333379090873
 40
21.47697865721768
 40
22.49561244472435
 40
23.5103574802404
 40
24.52244778960836
 40
25.53320666051913
 40
25.53320666051913
 40
25.53320666051913
 40
25.53320666051913
 10
-2.408527551125362
 20
0.3144161790898863
 30
0.0
 10
-2.442197352280973
 20
0.3269804473762695
 30
0.0
 10
-2.5598473409299
 20
0.3706826972124364
 30
0.0
 10
-2.781427137517868
 20
0.4786156162418463
 30
0.0
 10
-3.033969988725503
 20
0.5678140360946012
 30
0.0
 10
-3.286527709652191
 20
0.6535200914112272
 30
0.0
 10
-3.539103114414232
 20
0.7352050188367637
 30
0.0
 10
-3.791698538540758
 20
0.8123650755830167
 30
0.0
 10
-4.044315151415546
 20
0.8845260572520563
 30
0.0
 10
-4.29695606462721
 20
0.9512388830093792
 30
0.0
 10
-4.549620936069801
 20
1.012094467300941
 30
0.0
 10
-4.802311580582071
 20
1.066713071917939
 30
0.0
 10
-5.05502710640711
 20
1.114756670832084
 30
0.0
 10
-5.30776652631036
 20
1.155930791155615
 30
0.0
 10
-5.560528433915735
 20
1.189962511720938
 30
0.0
 10
-5.813308896349455
 20
1.216696078441227
 30
0.0
 10
-6.066105127714252
 20
1.235768383153123
 30
0.0
 10
-6.318913024365557
 20
1.247770152749314
 30
0.0
 10
-6.487493163036988
 20
1.249257464062526
 30
0.0
 10
-6.571727752685448
 20
1.250000630245293
 30
0.0
  0
SPLINE
  5
2F40
330
1F
100
AcDbEntity
  8
AM_0
100
AcDbSpline
210
0.0
220
0.0
230
1.0
 70
     8
 71
     3
 72
    55
 73
    51
 74
     0
 42
0.0000000001
 43
0.0000000001
 40
0.0
 40
0.0
 40
0.0
 40
0.0
 40
1.010743684496582
 40
2.022833576467832
 40
3.037578957496688
 40
4.056212745003489
 40
5.079857003664532
 40
6.109500240690281
 40
7.145961322679372
 40
8.189895241603872
 40
9.241717795325891
 40
10.30168407291828
 40
11.36983447792315
 40
12.44600489715814
 40
13.52984294512926
 40
14.62081576220742
 40
15.7182257034828
 40
16.82123173843959
 40
17.92886860250316
 40
19.0400688939571
 40
20.15368796660465
 40
21.26852814259644
 40
22.38336992938901
 40
23.49698739941135
 40
24.6081876908653
 40
25.71582455492886
 40
26.81883757994213
 40
27.91624752121713
 40
29.00722033829659
 40
30.09105838626677
 40
31.16722880550176
 40
32.23537921050758
 40
33.29534548809967
 40
34.347168041821
 40
35.39108718934584
 40
36.42754827133493
 40
37.45720575381954
 40
38.48085062012849
 40
39.49948440763516
 40
40.51422944315121
 40
41.52631975251916
 40
42.53706336719636
 40
43.54780698187354
 40
44.55989729124051
 40
45.57464232675757
 40
46.59327611426424
 40
47.6169209805722
 40
48.64656348684535
 40
49.68302456883444
 40
50.58557219878025
 40
50.58557219878025
 40
50.58557219878025
 40
50.58557219878025
 10
-1.809497833251986
 20
-1.249999369754785
 30
0.0
 10
-1.893731135303004
 20
-1.249255650037886
 30
0.0
 10
-2.062309929570123
 20
-1.247767220045297
 30
0.0
 10
-2.315116771934332
 20
-1.235768803332652
 30
0.0
 10
-2.567912822927628
 20
-1.21669445509568
 30
0.0
 10
-2.820693228327248
 20
-1.189961030589476
 30
0.0
 10
-3.073455465782662
 20
-1.155930818971001
 30
0.0
 10
-3.326194548860063
 20
-1.114755147168232
 30
0.0
 10
-3.578911322960469
 20
-1.066711389182691
 30
0.0
 10
-3.831603546996849
 20
-1.012093742001104
 30
0.0
 10
-4.084269499674594
 20
-0.9512375546638446
 30
0.0
 10
-4.336910440393812
 20
-0.8845248151680442
 30
0.0
 10
-4.589527045777335
 20
-0.8123638100529417
 30
0.0
 10
-4.842122472067278
 20
-0.7352037599055221
 30
0.0
 10
-5.094697875739616
 20
-0.6535188297659717
 30
0.0
 10
-5.347255598859836
 20
-0.5678127786772598
 30
0.0
 10
-5.599798442327302
 20
-0.478614344531014
 30
0.0
 10
-5.852328622592803
 20
-0.386472055494359
 30
0.0
 10
-6.104848590490537
 20
-0.2919526224890989
 30
0.0
 10
-6.357361048091452
 20
-0.1956378013959166
 30
0.0
 10
-6.609868210170186
 20
-0.0981196961529671
 30
0.0
 10
-6.862373642518984
 20
0.0000003751998923
 30
0.0
 10
-7.114877941329669
 20
0.0981222127751858
 30
0.0
 10
-7.367385949757372
 20
0.195638799403296
 30
0.0
 10
-7.619898095628275
 20
0.2919539120359589
 30
0.0
 10
-7.872418513766315
 20
0.3864737051181259
 30
0.0
 10
-8.124949741648146
 20
0.4786152077963076
 30
0.0
 10
-8.37749298369493
 20
0.567814094302724
 30
0.0
 10
-8.630050743276095
 20
0.6535200758926666
 30
0.0
 10
-8.882626137758018
 20
0.7352050232102501
 30
0.0
 10
-9.135221564694758
 20
0.8123650734705377
 30
0.0
 10
-9.387838176512621
 20
0.8845260613308576
 30
0.0
 10
-9.640479091156541
 20
0.9512388689465021
 30
0.0
 10
-9.893143957968844
 20
1.012094518924406
 30
0.0
 10
-10.14583461939567
 20
1.066712881460904
 30
0.0
 10
-10.39855129975128
 20
1.114757605545978
 30
0.0
 10
-10.65129218747044
 20
1.155928574515445
 30
0.0
 10
-10.90405525998086
 20
1.189969319203805
 30
0.0
 10
-11.1568357403159
 20
1.216671054685811
 30
0.0
 10
-11.40963196695957
 20
1.235861234491162
 30
0.0
 10
-11.66243859497369
 20
1.247424736378696
 30
0.0
 10
-11.91525077826016
 20
1.251287719734021
 30
0.0
 10
-12.16806296117464
 20
1.24742473637265
 30
0.0
 10
-12.42086959030687
 20
1.235861234515471
 30
0.0
 10
-12.67366581283402
 20
1.216671054594261
 30
0.0
 10
-12.92644630860291
 20
1.189969319547934
 30
0.0
 10
-13.17920809082348
 20
1.155928739175685
 30
0.0
 10
-13.43194798283975
 20
1.114758026496923
 30
0.0
 10
-13.67317418417831
 20
1.068893807761406
 30
0.0
 10
-13.82968449076884
 20
1.035352871014772
 30
0.0
 10
-13.90229615094642
 20
1.019006736312709
 30
0.0
  0
SPLINE
  5
2F41
330
1F
100
AcDbEntity
  8
AM_0
100
AcDbSpline
210
0.0
220
0.0
230
1.0
 70
     8
 71
     3
 72
    11
 73
     7
 74
     0
 42
0.0000000001
 43
0.0000000001
 40
11.27226913003534
 40
11.27226913003534
 40
11.27226913003534
 40
11.2722691300354
 40
12.28301561507924
 40
13.29510212255852
 40
14.30984805882082
 40
15.18258238371378
 40
15.18258238371378
 40
15.18258238371378
 40
15.18258238371378
 10
-6.571727752685482
 20
-1.249999369754704
 30
0.0
 10
-6.655640757146058
 20
-1.243881506507076
 30
0.0
 10
-6.823308490184181
 20
-1.229070425844845
 30
0.0
 10
-7.07394428482572
 20
-1.199192812637013
 30
0.0
 10
-7.311802073337779
 20
-1.163507279612782
 30
0.0
 10
-7.465634528975306
 20
-1.136074748307463
 30
0.0
 10
-7.536524904908247
 20
-1.122523835556453
 30
0.0
  0
SPLINE
  5
2F42
330
1F
100
AcDbEntity
  8
AM_0
100
AcDbSpline
210
0.0
220
0.0
230
1.0
 70
     8
 71
     3
 72
    22
 73
    18
 74
     0
 42
0.0000000001
 43
0.0000000001
 40
17.17441611292
 40
17.17441611292
 40
17.17441611292
 40
17.17441611292
 40
17.38177636558528
 40
18.41823744757437
 40
19.46215659509824
 40
20.51397914882054
 40
21.57394542641293
 40
22.64209583141747
 40
23.71826625065247
 40
24.80210429862395
 40
25.8930771157021
 40
26.99048705697709
 40
28.09349309193389
 40
29.20112995599786
 40
30.31233024745139
 40
31.42594771747373
 40
32.5407895042663
 40
32.54078950426994
 40
32.54078950426994
 40
32.54078950426994
 10
-7.536635466054049
 20
-1.122508416816011
 30
0.0
 10
-7.553563772259699
 20
-1.119614789418223
 30
0.0
 10
-7.65503972287608
 20
-1.101989388657026
 30
0.0
 10
-7.84093794625824
 20
-1.066648166133843
 30
0.0
 10
-8.093628571551763
 20
-1.01202964667836
 30
0.0
 10
-8.346293448200997
 20
-0.9511740393083913
 30
0.0
 10
-8.598934360005808
 20
-0.8844612198144796
 30
0.0
 10
-8.851550973245119
 20
-0.8123002364162632
 30
0.0
 10
-9.104146397336508
 20
-0.735140180258629
 30
0.0
 10
-9.356721801867793
 20
-0.65345525222042
 30
0.0
 10
-9.609279523762078
 20
-0.5677491987770333
 30
0.0
 10
-9.861822371301096
 20
-0.4785507719910955
 30
0.0
 10
-10.11435253640439
 20
-0.3864084556863345
 30
0.0
 10
-10.36687256119638
 20
-0.291889124962845
 30
0.0
 10
-10.61938468404729
 20
-0.1955739667148431
 30
0.0
 10
-10.8718926457046
 20
-0.0980572975278344
 30
0.0
 10
-11.04019824395017
 20
-0.0326549360400483
 30
0.0
 10
-11.12439727783251
 20
0.0000642085332918
 30
0.0
  0
SPLINE
  5
2F43
330
1F
100
AcDbEntity
  8
AM_0
100
AcDbSpline
210
0.0
220
0.0
230
1.0
 70
     8
 71
     3
 72
    17
 73
    13
 74
     0
 42
0.0000000001
 43
0.0000000001
 40
1.580019955310467
 40
1.580019955310467
 40
1.580019955310467
 40
1.580019955310467
 40
2.030549285115227
 40
3.082371838836284
 40
4.126290986361125
 40
5.162752068350215
 40
6.192395305374981
 40
7.216039564037012
 40
8.234688489606833
 40
9.249433870634691
 40
10.26152376260694
 40
11.27226744710342
 40
11.27226744710342
 40
11.27226744710342
 40
11.27226744710352
 10
-4.190427019806397
 20
-0.9225361779926972
 30
0.0
 10
-4.226194968271149
 20
-0.9320375407312583
 30
0.0
 10
-4.345671932821919
 20
-0.9631795261952992
 30
0.0
 10
-4.549648740357359
 20
-1.012026844675222
 30
0.0
 10
-4.802304191693996
 20
-1.066729361332678
 30
0.0
 10
-5.055029198839837
 20
-1.114750908014791
 30
0.0
 10
-5.307765785757287
 20
-1.155930217574804
 30
0.0
 10
-5.560529907872909
 20
-1.18996774972631
 30
0.0
 10
-5.813311492736422
 20
-1.216669267281798
 30
0.0
 10
-6.066108817804916
 20
-1.235861735473074
 30
0.0
 10
-6.318915654806942
 20
-1.247421610153528
 30
0.0
 10
-6.487494451745745
 20
-1.249999376907272
 30
0.0
 10
-6.571727752685467
 20
-1.249999369754704
 30
0.0
  0
SPLINE
  5
2F44
330
1F
100
AcDbEntity
  8
AM_0
 48
0.5
100
AcDbSpline
210
0.0
220
0.0
230
1.0
 70
     8
 71
     3
 72
    22
 73
    18
 74
     0
 42
0.0000000001
 43
0.0000000001
 40
0.0
 40
0.0
 40
0.0
 40
0.0
 40
1.010743684496582
 40
2.022833993863546
 40
3.037578683882831
 40
4.056212471389632
 40
5.079857945358201
 40
6.109499720892564
 40
7.145961650132166
 40
8.189873411961459
 40
9.241710626092514
 40
10.30166235592959
 40
11.36982472628033
 40
12.44598212828784
 40
13.52983440361964
 40
14.62080578343036
 40
14.90544694398022
 40
14.90544694398022
 40
14.90544694398022
 40
14.90544694398022
 10
-11.91515732031454
 20
-1.250063681279252
 30
0.0
 10
-11.9993906384611
 20
-1.249320183750125
 30
0.0
 10
-12.16796949972566
 20
-1.247832198121989
 30
0.0
 10
-12.42077607719577
 20
-1.235830439112263
 30
0.0
 10
-12.67357240174113
 20
-1.216759302109727
 30
0.0
 10
-12.92635294155294
 20
-1.190025852959172
 30
0.0
 10
-13.17911449056811
 20
-1.155992466470005
 30
0.0
 10
-13.43185441190252
 20
-1.114820255834116
 30
0.0
 10
-13.68456900201929
 20
-1.066775353262265
 30
0.0
 10
-13.93725999867211
 20
-1.012155809741072
 30
0.0
 10
-14.18992512600667
 20
-0.9513026605691356
 30
0.0
 10
-14.44256570442611
 20
-0.8845862648670214
 30
0.0
 10
-14.69518336253388
 20
-0.8124311695636913
 30
0.0
 10
-14.94777791058448
 20
-0.7352663336461715
 30
0.0
 10
-15.2003540806392
 20
-0.6535833320558881
 30
0.0
 10
-15.3901827235763
 20
-0.5891674475280519
 30
0.0
 10
-15.49596186775159
 20
-0.5523493985248449
 30
0.0
 10
-15.48069164026522
 20
-0.5576989112323452
 30
0.0
  0
SPLINE
  5
2F45
330
1F
100
AcDbEntity
  8
AM_0
 48
0.5
100
AcDbSpline
210
0.0
220
0.0
230
1.0
 70
     8
 71
     3
 72
    26
 73
    22
 74
     0
 42
0.0000000001
 43
0.0000000001
 40
0.0
 40
0.0
 40
0.0
 40
0.0
 40
0.2526859211241313
 40
0.5057083941171959
 40
0.7593947393741639
 40
1.01405318625086
 40
1.26996425091637
 40
1.527375060172565
 40
1.786490330669834
 40
2.047470117551047
 40
2.310425755981314
 40
2.575417325379407
 40
2.842456731169063
 40
3.111495753801943
 40
3.382458822635121
 40
3.655202026904655
 40
3.929554512223505
 40
4.205306020962704
 40
4.482215236978595
 40
4.76001530984208
 40
5.029821427366006
 40
5.029821427366006
 40
5.029821427366006
 40
5.029821427366006
 10
-11.20746994238479
 20
-1.250063681279265
 30
0.0
 10
-11.29170324444594
 20
-1.249319961594775
 30
0.0
 10
-11.46028203873343
 20
-1.247831531667042
 30
0.0
 10
-11.71308888094523
 20
-1.235833114467048
 30
0.0
 10
-11.96588493252
 20
-1.216758768089672
 30
0.0
 10
-12.21866533573393
 20
-1.190025336593351
 30
0.0
 10
-12.47142758140841
 20
-1.155995151260548
 30
0.0
 10
-12.72416663353902
 20
-1.114819380485855
 30
0.0
 10
-12.97688232398966
 20
-1.066776223752931
 30
0.0
 10
-13.22957292924493
 20
-1.012157470999303
 30
0.0
 10
-13.48223785191976
 20
-0.9513020224600323
 30
0.0
 10
-13.73487917145589
 20
-0.8845886475085846
 30
0.0
 10
-13.98749584099025
 20
-0.8124292797313012
 30
0.0
 10
-14.24009072274077
 20
-0.7352665625837444
 30
0.0
 10
-14.49266719407521
 20
-0.6535839887607635
 30
0.0
 10
-14.74522580071632
 20
-0.5678770658050427
 30
0.0
 10
-14.99776842535585
 20
-0.4786782712102584
 30
0.0
 10
-15.25029970564198
 20
-0.3865379422809101
 30
0.0
 10
-15.50281546821494
 20
-0.2920109859935887
 30
0.0
 10
-15.75273734528535
 20
-0.1967182001298779
 30
0.0
 10
-15.9183199918835
 20
-0.1326998381470441
 30
0.0
 10
-15.99999618530272
 20
-0.1011571324612659
 30
0.0
  0
SPLINE
  5
2F46
330
1F
100
AcDbEntity
  8
AM_0
100
AcDbSpline
210
0.0
220
0.0
230
1.0
 70
     8
 71
     3
 72
    13
 73
     9
 74
     0
 42
0.0000000001
 43
0.0000000001
 40
16.03460056234195
 40
16.03460056234195
 40
16.03460056234195
 40
16.03460056234195
 40
16.35212717791071
 40
17.38177067057215
 40
18.41822498539278
 40
19.46214186516937
 40
20.5139635832251
 40
21.34083983469381
 40
21.34083983469381
 40
21.34083983469381
 40
21.34083983469381
 10
-15.50002796442811
 20
-1.250063681279178
 30
0.0
 10
-15.42845516979227
 20
-1.245957707671031
 30
0.0
 10
-15.31837095563564
 20
-1.227582258173289
 30
0.0
 10
-15.12445669303886
 20
-1.191576961106468
 30
0.0
 10
-14.87333704684661
 20
-1.138038251647369
 30
0.0
 10
-14.62245069252506
 20
-1.077922998036207
 30
0.0
 10
-14.39029828087441
 20
-1.01647981334213
 30
0.0
 10
-14.2421891304231
 20
-0.9741718079957541
 30
0.0
 10
-14.17721453380053
 20
-0.9550482040685752
 30
0.0
  0
ELLIPSE
  5
2F47
330
1F
100
AcDbEntity
  8
AM_0
 48
0.5
100
AcDbEllipse
 10
-15.62511936020411
 20
-0.8460920092210725
 30
0.0
 11
-0.3749999999999984
 21
0.0000000000000246
 31
0.0
210
0.0
220
0.0
230
1.0
 40
0.8333333333333381
 41
4.317028824483135
 42
6.257553905069422
  0
ELLIPSE
  5
2F48
330
1F
100
AcDbEntity
  8
AM_0
 48
0.5
100
AcDbEllipse
 10
-15.50002780746985
 20
-0.8333970146125315
 30
0.0
 11
-0.5000000000000009
 21
0.0000000000000313
 31
0.0
210
0.0
220
0.0
230
1.0
 40
0.8333333333333293
 41
0.0112467747892122
 42
1.570796012878433
  0
ELLIPSE
  5
2F49
330
1F
100
AcDbEntity
  8
AM_11
 48
0.5
100
AcDbEllipse
 10
-12.11968231201168
 20
6.90151180350363
 30
0.0
 11
-0.0000000000000272
 21
7.630675037701822
 31
0.0
210
0.0
220
0.0
230
1.0
 40
0.9600000000000001
 41
2.700867013135199
 42
3.582316474118488
  0
ELLIPSE
  5
2F4A
330
1F
100
AcDbEntity
  8
AM_11
 48
0.5
100
AcDbEllipse
 10
-12.11968231201168
 20
-6.901507322752618
 30
0.0
 11
-0.0000000000000078
 21
7.630675037701823
 31
0.0
210
0.0
220
0.0
230
1.0
 40
0.9600000000000003
 41
-0.4407247742030077
 42
0.4407246867803015
  0
ELLIPSE
  5
2F4B
330
1F
100
AcDbEntity
  8
AM_11
 48
0.5
100
AcDbEllipse
 10
-5.869682312011685
 20
-6.901507322752618
 30
0.0
 11
0.0000000000000117
 21
7.630675037701822
 31
0.0
210
0.0
220
0.0
230
1.0
 40
0.9600000000000001
 41
-0.440724774203005
 42
0.4407246867803041
  0
ELLIPSE
  5
2F4C
330
1F
100
AcDbEntity
  8
AM_11
 48
0.5
100
AcDbEllipse
 10
-5.869682312011687
 20
6.901511803503627
 30
0.0
 11
-0.000000000000035
 21
7.630675037701822
 31
0.0
210
0.0
220
0.0
230
1.0
 40
0.9599999999999997
 41
2.700867013135199
 42
3.582316474118487
  0
ELLIPSE
  5
2F4D
330
1F
100
AcDbEntity
  8
AM_11
 48
0.5
100
AcDbEllipse
 10
0.3803176879883201
 20
6.90151180350363
 30
0.0
 11
-0.0000000000007809
 21
7.630675037701835
 31
0.0
210
0.0
220
0.0
230
1.0
 40
0.9600000000000076
 41
2.7008670131351
 42
2.862597064175789
  0
LINE
  5
2F4E
330
1F
100
AcDbEntity
  8
AM_0
 48
0.5
100
AcDbLine
 10
-12.71071624975776
 20
0.6332881215465952
 30
0.0
 11
-15.99999618530272
 21
-0.1011571324612659
 31
0.0
  0
LINE
  5
2F4F
330
1F
100
AcDbEntity
  8
AM_11
 48
0.5
100
AcDbLine
 10
-14.95431732729628
 20
1.250178215430583
 30
0.0
 11
-11.91524476916884
 21
1.250000630245384
 31
0.0
  0
LINE
  5
2F50
330
1F
100
AcDbEntity
  8
AM_11
 48
0.5
100
AcDbLine
 10
-15.49995592384562
 20
-1.250063681279178
 30
0.0
 11
-11.9150833723833
 21
-1.250063681279252
 31
0.0
  0
LINE
  5
2F51
330
1F
100
AcDbEntity
  8
AM_11
 48
0.5
100
AcDbLine
 10
-15.50881233214353
 20
-1.249999369754579
 30
0.0
 11
-10.80937156711961
 21
-1.250176954939805
 31
0.0
  0
LINE
  5
2F52
330
1F
100
AcDbEntity
  8
AM_11
 48
0.5
100
AcDbLine
 10
-6.571727752685448
 20
1.250000630245293
 30
0.0
 11
-1.809497833251953
 21
1.250000630245214
 31
0.0
  0
LINE
  5
2F53
330
1F
100
AcDbEntity
  8
AM_11
 48
0.5
100
AcDbLine
 10
-6.571727752685489
 20
-1.249999369754704
 30
0.0
 11
-1.809497833251986
 21
-1.249999369754785
 31
0.0
  0
LINE
  5
2F54
330
1F
100
AcDbEntity
  8
AM_0
 48
0.5
100
AcDbLine
 10
-11.91524887084945
 20
1.250000630245384
 30
0.0
 11
-6.571727752685448
 21
1.250000630245293
 31
0.0
  0
LINE
  5
2F55
330
1F
100
AcDbEntity
  8
AM_0
 48
0.5
100
AcDbLine
 10
-11.92243899290539
 20
-1.249999369754654
 30
0.0
 11
-6.571727752685489
 21
-1.249999369754704
 31
0.0
  0
SPLINE
  5
2F56
330
1F
100
AcDbEntity
  8
AM_0
100
AcDbSpline
210
0.0
220
0.0
230
1.0
 70
     8
 71
     3
 72
    46
 73
    42
 74
     0
 42
0.0000000001
 43
0.0000000001
 40
0.0
 40
0.0
 40
0.0
 40
0.0
 40
0.5056245176053715
 40
0.759310862862336
 40
1.013969309739036
 40
1.269880374404297
 40
1.527291183660732
 40
1.786406454158005
 40
2.047386241038974
 40
2.310345544571907
 40
2.575337113970003
 40
2.842374715221223
 40
3.111417320030211
 40
3.382376832022752
 40
3.655120036292296
 40
3.929472521611371
 40
4.205224030350333
 40
4.482133246366229
 40
4.759933319229942
 40
5.038338087391601
 40
5.317048131389549
 40
5.595758175387723
 40
5.874162943549383
 40
6.151963016412869
 40
6.428872232428759
 40
6.704623741167955
 40
6.978976226486705
 40
7.251719430756336
 40
7.522680721168327
 40
7.791723325977311
 40
8.058760927228529
 40
8.32375249662655
 40
8.586708135057122
 40
8.84768792193809
 40
9.106803192435362
 40
9.364213819003406
 40
9.620125035580644
 40
9.87478726697307
 40
10.12847352585208
 40
10.38149610319407
 40
10.63418200686337
 40
10.63418200686337
 40
10.63418200686337
 40
10.63418200686337
 10
-1.101810455322242
 20
-1.249999369754796
 30
0.0
 10
-1.270397486080602
 20
-1.247151773128653
 30
0.0
 10
-1.523569473069633
 20
-1.242875455473955
 30
0.0
 10
-1.860223304552964
 20
-1.216546953275363
 30
0.0
 10
-2.113006425815759
 20
-1.190000819367132
 30
0.0
 10
-2.365767940139311
 20
-1.155920092711453
 30
0.0
 10
-2.618507181663223
 20
-1.114757957075007
 30
0.0
 10
-2.871222852016463
 20
-1.066711202533007
 30
0.0
 10
-3.12391452793823
 20
-1.012092823191402
 30
0.0
 10
-3.376581084861332
 20
-0.9512381839845984
 30
0.0
 10
-3.629223027805626
 20
-0.8845247279525098
 30
0.0
 10
-3.881839677241079
 20
-0.8123638336900642
 30
0.0
 10
-4.134435091589343
 20
-0.7352037534960483
 30
0.0
 10
-4.387010498514603
 20
-0.6535188315275386
 30
0.0
 10
-4.639568220683305
 20
-0.5678127781000664
 30
0.0
 10
-4.892111064676204
 20
-0.4786143450664311
 30
0.0
 10
-5.144641243791585
 20
-0.386472053923683
 30
0.0
 10
-5.397161215785206
 20
-0.2919526282660885
 30
0.0
 10
-5.649673658088661
 20
-0.1956377797740176
 30
0.0
 10
-5.902180877419612
 20
-0.0981197770622944
 30
0.0
 10
-6.154685974130283
 20
0.0000006302254343
 30
0.0
 10
-6.407191070785482
 20
0.0981210376323991
 30
0.0
 10
-6.659698290282821
 20
0.1956390399865915
 30
0.0
 10
-6.912210731978102
 20
0.2919538897852882
 30
0.0
 10
-7.164730706226879
 20
0.3864733105970755
 30
0.0
 10
-7.417260876980367
 20
0.4786156197075807
 30
0.0
 10
-7.669803751940153
 20
0.5678139862002956
 30
0.0
 10
-7.922361908612525
 20
0.6535204720845618
 30
0.0
 10
-8.174938296923977
 20
0.7352046519041478
 30
0.0
 10
-8.42753416186373
 20
0.8123651277486308
 30
0.0
 10
-8.680150805417559
 20
0.8845260434827791
 30
0.0
 10
-8.932791710537449
 20
0.9512388864752219
 30
0.0
 10
-9.185456583995238
 20
1.012094467051743
 30
0.0
 10
-9.438147228446544
 20
1.066713069515406
 30
0.0
 10
-9.690862752541219
 20
1.114756680586479
 30
0.0
 10
-9.943602179358078
 20
1.155930754864302
 30
0.0
 10
-10.19636530682511
 20
1.189962813805312
 30
0.0
 10
-10.44914712556057
 20
1.216695827550935
 30
0.0
 10
-10.70194458378415
 20
1.235768425201658
 30
0.0
 10
-10.95475121836741
 20
1.247770079698966
 30
0.0
 10
-11.12333008323358
 20
1.249257443465667
 30
0.0
 10
-11.20756340026846
 20
1.250000630245373
 30
0.0
  0
VIEWPORT
  5
110
330
101
100
AcDbEntity
 67
     1
  8
0
100
AcDbViewport
 10
420.5
 20
297.0
 30
0.0
 40
948.9782706766916
 41
628.452
 68
     1
 69
     1
1001
ACAD
1000
MVIEW
1002
{
1070
    16
1010
0.0
1020
0.0
1030
0.0
1010
0.0
1020
0.0
1030
1.0
1040
0.0
1040
628.452
1040
420.5
1040
297.0
1040
50.0
1040
0.0
1040
0.0
1070
     0
1070
   100
1070
     1
1070
     1
1070
     0
1070
     0
1070
     0
1070
     0
1040
0.0
1040
0.0
1040
0.0
1040
10.0
1040
10.0
1040
10.0
1040
10.0
1070
     0
1002
{
1002
}
1002
}
  0
ENDSEC
  0
SECTION
  2
OBJECTS
  0
DICTIONARY
  5
C
330
0
100
AcDbDictionary
  3
ACAD_GROUP
350
D
  3
ACAD_LAYOUT
350
1A
  3
ACAD_MLINESTYLE
350
17
  3
ACAD_PLOTSETTINGS
350
19
  3
ACAD_PLOTSTYLENAME
350
E
  3
ACDBVARIABLEDICTIONARY
350
34
  3
ACMDICTIONARY
350
43
  3
AMG
350
2B
  3
AMGSNAPSETTINGS
350
6E
  3
DWGPROPS
350
2FDE
  3
ACDBHEADERROUNDTRIPXREC
350
2FEB
  0
DICTIONARY
  5
74
330
1F
100
AcDbDictionary
280
     1
  3
ACAD_INDEX
360
2FE0
  3
ACAD_LAYOUTSELFREF
360
300E
  0
DICTIONARY
  5
3013
330
101
100
AcDbDictionary
280
     1
  3
ACAD_LAYOUTSELFREF
360
3014
  0
DICTIONARY
  5
D
102
{ACAD_REACTORS
330
C
102
}
330
C
100
AcDbDictionary
  0
DICTIONARY
  5
1A
102
{ACAD_REACTORS
330
C
102
}
330
C
100
AcDbDictionary
  0
DICTIONARY
  5
17
102
{ACAD_REACTORS
330
C
102
}
330
C
100
AcDbDictionary
  3
STANDARD
350
18
  0
DICTIONARY
  5
19
102
{ACAD_REACTORS
330
C
102
}
330
C
100
AcDbDictionary
  0
ACDBDICTIONARYWDFLT
  5
E
102
{ACAD_REACTORS
330
C
102
}
330
C
100
AcDbDictionary
281
     1
  3
Normal
350
F
100
AcDbDictionaryWithDefault
340
F
  0
DICTIONARY
  5
34
102
{ACAD_REACTORS
330
C
102
}
330
C
100
AcDbDictionary
  3
INDEXCTL
350
35
  3
SORTENTS
350
B5E
  0
DICTIONARY
  5
43
102
{ACAD_REACTORS
330
C
102
}
330
C
100
AcDbDictionary
  3
ACMSTDDICTIONARY
350
260
  0
DICTIONARY
  5
2B
102
{ACAD_REACTORS
330
C
102
}
330
C
100
AcDbDictionary
  3
ACMGSETTINGS
350
2C
  0
DICTIONARY
  5
6E
102
{ACAD_REACTORS
330
C
102
}
330
C
100
AcDbDictionary
  0
XRECORD
  5
2FDE
102
{ACAD_REACTORS
330
C
102
}
330
C
100
AcDbXrecord
  1
DWGPROPS COOKIE
  2

  3

  4

  6

  7

  8

  9

300
AmdtFileType=82
301
=
302
=
303
=
304
=
305
=
306
=
307
=
308
=
309
=
 40
0.0554099652777778
 41
2452800.443498622
 42
2452946.5955825
  1

 90
        1
  0
DICTIONARY
  5
2FEB
102
{ACAD_REACTORS
330
C
102
}
330
C
100
AcDbDictionary
  3
TSTACKALIGN
350
2FEC
  3
TSTACKSIZE
350
2FED
  3
HYPERLINKBASE
350
2FEE
  3
STYLESHEET
350
2FEF
  3
LAYOUTDICT
350
2FF0
  3
PLOTSETDICT
350
2FF1
  3
PLOTSTYLNAMDICT
350
2FF2
  3
LWETCUNION
350
2FF3
  3
INSUNITS
350
2FF4
  3
CEPSNTYPE
350
2FF5
  3
FINGERPRINTGUID
350
2FF6
  3
VERSIONGUID
350
2FF7
  3
PSVPSCALE
350
2FF8
  3
DIMSTYLEDATA
350
2FF9
  3
PUCSORTHOREF
350
2FFA
  3
PUCSORTHOVIEW
350
2FFB
  3
PUCSBASE
350
2FFC
  3
PUCSORGTOP
350
2FFD
  3
PUCSORGBOTTOM
350
2FFE
  3
PUCSORGLEFT
350
2FFF
  3
PUCSORGRIGHT
350
3000
  3
PUCSORGFRONT
350
3001
  3
PUCSORGBACK
350
3002
  3
UCSORTHOREF
350
3003
  3
UCSORTHOVIEW
350
3004
  3
UCSBASE
350
3005
  3
UCSORGTOP
350
3006
  3
UCSORGBOTTOM
350
3007
  3
UCSORGLEFT
350
3008
  3
UCSORGRIGHT
350
3009
  3
UCSORGFRONT
350
300A
  3
UCSORGBACK
350
300B
  0
DICTIONARY
  5
2FE0
102
{ACAD_REACTORS
330
74
102
}
330
74
100
AcDbDictionary
  3
*A1
350
2FE1
  0
XRECORD
  5
300E
102
{ACAD_REACTORS
330
74
102
}
330
74
100
AcDbXrecord
340
1F
  0
XRECORD
  5
3014
102
{ACAD_REACTORS
330
3013
102
}
330
3013
100
AcDbXrecord
340
101
  0
MLINESTYLE
  5
18
102
{ACAD_REACTORS
330
17
102
}
330
17
100
AcDbMlineStyle
  2
STANDARD
 70
     0
  3

 62
   256
 51
90.0
 52
90.0
 71
     2
 49
0.5
 62
   256
  6
BYLAYER
 49
-0.5
 62
   256
  6
BYLAYER
  0
ACDBPLACEHOLDER
  5
F
102
{ACAD_REACTORS
330
E
102
}
330
E
100
AcDbPlaceHolder
280
     0
  0
DICTIONARYVAR
  5
35
102
{ACAD_REACTORS
330
34
102
}
330
34
100
DictionaryVariables
280
     0
  1
1
  0
DICTIONARYVAR
  5
B5E
102
{ACAD_REACTORS
330
34
102
}
330
34
100
DictionaryVariables
280
     0
  1
96
  0
DICTIONARY
  5
260
102
{ACAD_REACTORS
330
43
102
}
330
43
100
AcDbDictionary
  0
DICTIONARY
  5
2C
102
{ACAD_REACTORS
330
2B
102
}
330
2B
100
AcDbDictionary
  3
DWGSETTINGS
350
2D
  0
XRECORD
  5
2FEC
102
{ACAD_REACTORS
330
2FEB
102
}
330
2FEB
100
AcDbXrecord
 90
        1
  0
XRECORD
  5
2FED
102
{ACAD_REACTORS
330
2FEB
102
}
330
2FEB
100
AcDbXrecord
 90
       70
  0
XRECORD
  5
2FEE
102
{ACAD_REACTORS
330
2FEB
102
}
330
2FEB
100
AcDbXrecord
  1

  0
XRECORD
  5
2FEF
102
{ACAD_REACTORS
330
2FEB
102
}
330
2FEB
100
AcDbXrecord
  1
ASAMI.ctb
  0
XRECORD
  5
2FF0
102
{ACAD_REACTORS
330
2FEB
102
}
330
2FEB
100
AcDbXrecord
340
1A
  0
XRECORD
  5
2FF1
102
{ACAD_REACTORS
330
2FEB
102
}
330
2FEB
100
AcDbXrecord
340
19
  0
XRECORD
  5
2FF2
102
{ACAD_REACTORS
330
2FEB
102
}
330
2FEB
100
AcDbXrecord
340
E
  0
XRECORD
  5
2FF3
102
{ACAD_REACTORS
330
2FEB
102
}
330
2FEB
100
AcDbXrecord
 90
    10781
  0
XRECORD
  5
2FF4
102
{ACAD_REACTORS
330
2FEB
102
}
330
2FEB
100
AcDbXrecord
 90
        4
  0
XRECORD
  5
2FF5
102
{ACAD_REACTORS
330
2FEB
102
}
330
2FEB
100
AcDbXrecord
 90
        0
  0
XRECORD
  5
2FF6
102
{ACAD_REACTORS
330
2FEB
102
}
330
2FEB
100
AcDbXrecord
  1
{AFB28963-8C59-40AE-9337-C84526B81ACE}
  0
XRECORD
  5
2FF7
102
{ACAD_REACTORS
330
2FEB
102
}
330
2FEB
100
AcDbXrecord
  1
{1C339332-665B-4BFC-95D1-B2DED96A8375}
  0
XRECORD
  5
2FF8
102
{ACAD_REACTORS
330
2FEB
102
}
330
2FEB
100
AcDbXrecord
 40
0.0
  0
XRECORD
  5
2FF9
102
{ACAD_REACTORS
330
2FEB
102
}
330
2FEB
100
AcDbXrecord
1000
DSTYLE
1002
{
1070
    79
 70
     2
1070
   341
340
59
1070
   342
340
59
1070
   371
 70
    -1
1070
   372
 70
    -1
1002
}
  0
XRECORD
  5
2FFA
102
{ACAD_REACTORS
330
2FEB
102
}
330
2FEB
100
AcDbXrecord
340
0
  0
XRECORD
  5
2FFB
102
{ACAD_REACTORS
330
2FEB
102
}
330
2FEB
100
AcDbXrecord
 70
     0
  0
XRECORD
  5
2FFC
102
{ACAD_REACTORS
330
2FEB
102
}
330
2FEB
100
AcDbXrecord
340
0
  0
XRECORD
  5
2FFD
102
{ACAD_REACTORS
330
2FEB
102
}
330
2FEB
100
AcDbXrecord
 10
0.0
 20
0.0
 30
0.0
  0
XRECORD
  5
2FFE
102
{ACAD_REACTORS
330
2FEB
102
}
330
2FEB
100
AcDbXrecord
 10
0.0
 20
0.0
 30
0.0
  0
XRECORD
  5
2FFF
102
{ACAD_REACTORS
330
2FEB
102
}
330
2FEB
100
AcDbXrecord
 10
0.0
 20
0.0
 30
0.0
  0
XRECORD
  5
3000
102
{ACAD_REACTORS
330
2FEB
102
}
330
2FEB
100
AcDbXrecord
 10
0.0
 20
0.0
 30
0.0
  0
XRECORD
  5
3001
102
{ACAD_REACTORS
330
2FEB
102
}
330
2FEB
100
AcDbXrecord
 10
0.0
 20
0.0
 30
0.0
  0
XRECORD
  5
3002
102
{ACAD_REACTORS
330
2FEB
102
}
330
2FEB
100
AcDbXrecord
 10
0.0
 20
0.0
 30
0.0
  0
XRECORD
  5
3003
102
{ACAD_REACTORS
330
2FEB
102
}
330
2FEB
100
AcDbXrecord
340
0
  0
XRECORD
  5
3004
102
{ACAD_REACTORS
330
2FEB
102
}
330
2FEB
100
AcDbXrecord
 70
     0
  0
XRECORD
  5
3005
102
{ACAD_REACTORS
330
2FEB
102
}
330
2FEB
100
AcDbXrecord
340
0
  0
XRECORD
  5
3006
102
{ACAD_REACTORS
330
2FEB
102
}
330
2FEB
100
AcDbXrecord
 10
0.0
 20
0.0
 30
0.0
  0
XRECORD
  5
3007
102
{ACAD_REACTORS
330
2FEB
102
}
330
2FEB
100
AcDbXrecord
 10
0.0
 20
0.0
 30
0.0
  0
XRECORD
  5
3008
102
{ACAD_REACTORS
330
2FEB
102
}
330
2FEB
100
AcDbXrecord
 10
0.0
 20
0.0
 30
0.0
  0
XRECORD
  5
3009
102
{ACAD_REACTORS
330
2FEB
102
}
330
2FEB
100
AcDbXrecord
 10
0.0
 20
0.0
 30
0.0
  0
XRECORD
  5
300A
102
{ACAD_REACTORS
330
2FEB
102
}
330
2FEB
100
AcDbXrecord
 10
0.0
 20
0.0
 30
0.0
  0
XRECORD
  5
300B
102
{ACAD_REACTORS
330
2FEB
102
}
330
2FEB
100
AcDbXrecord
 10
0.0
 20
0.0
 30
0.0
  0
LAYER_INDEX
  5
2FE1
102
{ACAD_REACTORS
330
2FE0
102
}
330
2FE0
100
AcDbIndex
 40
2453151.575816678
100
AcDbLayerIndex
  8
0
360
2FE2
 90
        0
  8
AM_0
360
2FE3
 90
       45
  8
AM_7
360
2FE4
 90
        1
  8
AM_11
360
2FE5
 90
       28
  8
AM_5
360
2FE6
 90
        5
  8
Defpoints
360
2FE7
 90
        0
  8
AM_6
360
2FE8
 90
        1
  8
AM_CL
360
2FE9
 90
        0
  0
XRECORD
  5
2D
102
{ACAD_REACTORS
330
2C
102
}
330
2C
100
AcDbXrecord
  1
VERSION
140
15.0
  1
PRODUCT
  2
AutoCAD Mechanical 2000
  0
IDBUFFER
  5
2FE2
330
0
100
AcDbIdBuffer
  0
IDBUFFER
  5
2FE3
330
0
100
AcDbIdBuffer
330
2B62
330
2B63
330
2B64
330
2B71
330
2B7A
330
2B7B
330
2B7C
330
2B7D
330
2B7E
330
2B7F
330
2DA8
330
2DAA
330
2F3C
330
2F3D
330
2F3E
330
2F3F
330
2F40
330
2F41
330
2F42
330
2F43
330
2F44
330
2F45
330
2F46
330
2F47
330
2F48
330
2F4E
330
2F54
330
2F55
330
2F56
330
C1D
330
C20
330
C2E
330
C30
330
1B5C
330
1B60
330
1C15
330
1C1A
330
1C1E
330
1C85
330
1C86
330
1CF2
330
1CF3
330
1CF4
330
25CA
330
25CB
  0
IDBUFFER
  5
2FE4
330
0
100
AcDbIdBuffer
330
C9F
  0
IDBUFFER
  5
2FE5
330
0
100
AcDbIdBuffer
330
1C2C
330
1C2D
330
2F49
330
2F4A
330
2F4B
330
2F4C
330
2F4D
330
2F4F
330
2F50
330
2F51
330
2F52
330
2F53
330
144A
330
144B
330
144E
330
144F
330
18B8
330
18B9
330
18BA
330
18BB
330
1C22
330
1C23
330
1C24
330
1C25
330
1C26
330
1C27
330
1C28
330
1C29
  0
IDBUFFER
  5
2FE6
330
0
100
AcDbIdBuffer
330
CC6
330
DF5
330
1C71
330
1DEF
330
2C50
  0
IDBUFFER
  5
2FE7
330
0
100
AcDbIdBuffer
  0
IDBUFFER
  5
2FE8
330
0
100
AcDbIdBuffer
330
19BD
  0
IDBUFFER
  5
2FE9
330
0
100
AcDbIdBuffer
  0
ENDSEC
  0
EOF
