  0
SECTION
  2
HEADER
  9
$ACADVER
  1
AC1014
  9
$ACADMAINTVER
 70
     9
  9
$DWGCODEPAGE
  3
ANSI_932
  9
$INSBASE
 10
0.0
 20
0.0
 30
0.0
  9
$EXTMIN
 10
-79.40000132837162
 20
-24.75000718101108
 30
-0.00000001
  9
$EXTMAX
 10
14.17201306935999
 20
13.81684578322777
 30
0.00000001
  9
$LIMMIN
 10
-82.34037039394099
 20
-37.97145095443895
  9
$LIMMAX
 10
19.32151923811031
 20
24.34159145814783
  9
$ORTHOMODE
 70
     0
  9
$REGENMODE
 70
     1
  9
$FILLMODE
 70
     1
  9
$QTEXTMODE
 70
     0
  9
$MIRRTEXT
 70
     0
  9
$DRAGMODE
 70
     2
  9
$LTSCALE
 40
1.0
  9
$OSMODE
 70
    55
  9
$ATTMODE
 70
     1
  9
$TEXTSIZE
 40
2.5
  9
$TRACEWID
 40
1.0
  9
$TEXTSTYLE
  7
STANDARD
  9
$CLAYER
  8
AM_0
  9
$CELTYPE
  6
BYLAYER
  9
$CECOLOR
 62
   256
  9
$CELTSCALE
 40
1.0
  9
$DELOBJ
 70
     1
  9
$DISPSILH
 70
     0
  9
$DIMSCALE
 40
0.5
  9
$DIMASZ
 40
2.5
  9
$DIMEXO
 40
1.0
  9
$DIMDLI
 40
12.0
  9
$DIMRND
 40
0.0
  9
$DIMDLE
 40
0.0
  9
$DIMEXE
 40
1.0
  9
$DIMTP
 40
0.1
  9
$DIMTM
 40
0.1
  9
$DIMTXT
 40
3.2
  9
$DIMCEN
 40
0.0
  9
$DIMTSZ
 40
0.0
  9
$DIMTOL
 70
     0
  9
$DIMLIM
 70
     0
  9
$DIMTIH
 70
     0
  9
$DIMTOH
 70
     0
  9
$DIMSE1
 70
     0
  9
$DIMSE2
 70
     0
  9
$DIMTAD
 70
     3
  9
$DIMZIN
 70
     8
  9
$DIMBLK
  1
OPEN30
  9
$DIMASO
 70
     1
  9
$DIMSHO
 70
     1
  9
$DIMPOST
  1

  9
$DIMAPOST
  1
"
  9
$DIMALT
 70
     0
  9
$DIMALTD
 70
     2
  9
$DIMALTF
 40
0.0393701
  9
$DIMLFAC
 40
1.0
  9
$DIMTOFL
 70
     1
  9
$DIMTVP
 40
0.0
  9
$DIMTIX
 70
     0
  9
$DIMSOXD
 70
     0
  9
$DIMSAH
 70
     0
  9
$DIMBLK1
  1

  9
$DIMBLK2
  1

  9
$DIMSTYLE
  2
AM_JIS
  9
$DIMCLRD
 70
   256
  9
$DIMCLRE
 70
   256
  9
$DIMCLRT
 70
     2
  9
$DIMTFAC
 40
0.71
  9
$DIMGAP
 40
1.5
  9
$DIMJUST
 70
     0
  9
$DIMSD1
 70
     0
  9
$DIMSD2
 70
     0
  9
$DIMTOLJ
 70
     0
  9
$DIMTZIN
 70
     0
  9
$DIMALTZ
 70
     0
  9
$DIMALTTZ
 70
     0
  9
$DIMFIT
 70
     3
  9
$DIMUPT
 70
     0
  9
$DIMUNIT
 70
     2
  9
$DIMDEC
 70
     3
  9
$DIMTDEC
 70
     3
  9
$DIMALTU
 70
     2
  9
$DIMALTTD
 70
     2
  9
$DIMTXSTY
  7
ASAMI
  9
$DIMAUNIT
 70
     0
  9
$LUNITS
 70
     2
  9
$LUPREC
 70
     2
  9
$SKETCHINC
 40
1.0
  9
$FILLETRAD
 40
2.5
  9
$AUNITS
 70
     0
  9
$AUPREC
 70
     0
  9
$MENU
  1
.
  9
$ELEVATION
 40
0.0
  9
$PELEVATION
 40
0.0
  9
$THICKNESS
 40
0.0
  9
$LIMCHECK
 70
     0
  9
$BLIPMODE
 70
     0
  9
$CHAMFERA
 40
0.25
  9
$CHAMFERB
 40
0.25
  9
$CHAMFERC
 40
20.0
  9
$CHAMFERD
 40
0.0
  9
$SKPOLY
 70
     0
  9
$TDCREATE
 40
2452800.443498622
  9
$TDUPDATE
 40
2453151.575936759
  9
$TDINDWG
 40
0.0560112731
  9
$TDUSRTIMER
 40
0.0560112731
  9
$USRTIMER
 70
     1
  9
$ANGBASE
 50
0.0
  9
$ANGDIR
 70
     0
  9
$PDMODE
 70
     0
  9
$PDSIZE
 40
0.0
  9
$PLINEWID
 40
0.0
  9
$COORDS
 70
     1
  9
$SPLFRAME
 70
     0
  9
$SPLINETYPE
 70
     6
  9
$SPLINESEGS
 70
     8
  9
$ATTDIA
 70
     1
  9
$ATTREQ
 70
     1
  9
$HANDLING
 70
 12289
  9
$HANDSEED
  5
2F48
  9
$SURFTAB1
 70
     6
  9
$SURFTAB2
 70
     6
  9
$SURFTYPE
 70
     6
  9
$SURFU
 70
     6
  9
$SURFV
 70
     6
  9
$UCSNAME
  2

  9
$UCSORG
 10
0.0
 20
0.0
 30
0.0
  9
$UCSXDIR
 10
1.0
 20
0.000000000000002
 30
0.0
  9
$UCSYDIR
 10
-0.000000000000002
 20
1.0
 30
0.0
  9
$PUCSNAME
  2

  9
$PUCSORG
 10
0.0
 20
0.0
 30
0.0
  9
$PUCSXDIR
 10
1.0
 20
0.0
 30
0.0
  9
$PUCSYDIR
 10
0.0
 20
1.0
 30
0.0
  9
$USERI1
 70
     0
  9
$USERI2
 70
     0
  9
$USERI3
 70
     0
  9
$USERI4
 70
     0
  9
$USERI5
 70
     0
  9
$USERR1
 40
0.0
  9
$USERR2
 40
0.0
  9
$USERR3
 40
0.0
  9
$USERR4
 40
0.0
  9
$USERR5
 40
0.0
  9
$WORLDVIEW
 70
     1
  9
$SHADEDGE
 70
     3
  9
$SHADEDIF
 70
    70
  9
$TILEMODE
 70
     1
  9
$MAXACTVP
 70
    64
  9
$PINSBASE
 10
0.0
 20
0.0
 30
0.0
  9
$PLIMCHECK
 70
     0
  9
$PEXTMIN
 10
1.000000000000000E+20
 20
1.000000000000000E+20
 30
1.000000000000000E+20
  9
$PEXTMAX
 10
-1.000000000000000E+20
 20
-1.000000000000000E+20
 30
-1.000000000000000E+20
  9
$PLIMMIN
 10
0.0
 20
0.0
  9
$PLIMMAX
 10
841.0
 20
594.0
  9
$UNITMODE
 70
     0
  9
$VISRETAIN
 70
     1
  9
$PLINEGEN
 70
     0
  9
$PSLTSCALE
 70
     0
  9
$TREEDEPTH
 70
  3020
  9
$PICKSTYLE
 70
     0
  9
$CMLSTYLE
  2
STANDARD
  9
$CMLJUST
 70
     0
  9
$CMLSCALE
 40
20.0
  9
$PROXYGRAPHICS
 70
     1
  9
$MEASUREMENT
 70
     1
  0
ENDSEC
  0
SECTION
  2
CLASSES
  0
CLASS
  1
ACDBDICTIONARYWDFLT
  2
AcDbDictionaryWithDefault
  3
AutoCAD 2000
 90
        0
280
     0
281
     0
  0
CLASS
  1
ACDBPLACEHOLDER
  2
AcDbPlaceHolder
  3
AutoCAD 2000
 90
        0
280
     0
281
     0
  0
CLASS
  1
LAYOUT
  2
AcDbLayout
  3
AutoCAD 2000
 90
        0
280
     0
281
     0
  0
CLASS
  1
AMGSETTINGSOBJ
  2
AmgSettingsObj
  3
"AcadM|Product Description: AutoCAD Mechanical 2000|Company: Autodesk"
 90
        0
280
     0
281
     0
  0
CLASS
  1
ACME_DOCUMENT
  2
AcMeDbDoc
  3
AcMeServices
 90
        0
280
     0
281
     0
  0
CLASS
  1
ACMESCOPE
  2
AcMeScope
  3
AcMeServices
 90
        0
280
     0
281
     0
  0
CLASS
  1
ACMECOMMANDHISTORY
  2
AcMeCommandHistory
  3
AcMeServices
 90
        0
280
     0
281
     0
  0
CLASS
  1
DICTIONARYVAR
  2
AcDbDictionaryVar
  3
AutoCAD 2000
 90
        0
280
     0
281
     0
  0
CLASS
  1
ACIMSYSVARMAN
  2
AcImSysVarManager
  3
AcMeServices
 90
        0
280
     0
281
     0
  0
CLASS
  1
ACIMREALSYSVAR
  2
AcImRealSysVar
  3
AcMeServices
 90
        0
280
     0
281
     0
  0
CLASS
  1
ACIMINTSYSVAR
  2
AcImIntSysVar
  3
AcMeServices
 90
        0
280
     0
281
     0
  0
CLASS
  1
ACMEDRAWINGMAN
  2
AcMeDrawingMan
  3
AcMeServices
 90
        0
280
     0
281
     0
  0
CLASS
  1
ACMEVIEW
  2
AcMeView
  3
AcMeServices
 90
        0
280
     0
281
     0
  0
CLASS
  1
ACDBENTITYCACHE
  2
AcMeEntityCache
  3
AcMeServices
 90
        0
280
     0
281
     0
  0
CLASS
  1
GSMANAGER
  2
AcMeGSManager
  3
AcMeServices
 90
        0
280
     0
281
     0
  0
CLASS
  1
AmdtInternalReactor
  2
AmdtInternalReactor
  3
AcMeServices
 90
        0
280
     0
281
     0
  0
CLASS
  1
ACMESTATEMGR
  2
AcMeStateMgr
  3
AcMeServices
 90
        0
280
     0
281
     0
  0
CLASS
  1
ACME_DATABASE
  2
AcMeDbDatabase
  3
AcMeServices
 90
        0
280
     0
281
     0
  0
CLASS
  1
ACRFINSADJUSTERMGR
  2
AcRfInsAdjusterMgr
  3
AcMeServices
 90
        0
280
     0
281
     0
  0
CLASS
  1
ACMDATADICTIONARY
  2
AcmDataDictionary
  3
"AcmSymBB|Product Description: AutoCAD Mechanical 2000|Company: Autodesk"
 90
        0
280
     0
281
     0
  0
CLASS
  1
ACMDATAENTRYBLOCK
  2
AcmDataEntryBlock
  3
"AcmSymBB|Product Description: AutoCAD Mechanical 2000|Company: Autodesk"
 90
        0
280
     0
281
     0
  0
CLASS
  1
AMGOBJPROPCFG
  2
AmgObjPropCfg
  3
"AmgLay|Product Description: AutoCAD Mechanical 2000|Company: Autodesk"
 90
        1
280
     0
281
     0
  0
CLASS
  1
ACAMGFILTERDAT
  2
AcAmgFilterDat
  3
"AcadM|Product Description: AutoCAD Mechanical 2000|Company: Autodesk"
 90
        0
280
     0
281
     0
  0
CLASS
  1
LAYER_INDEX
  2
AcDbLayerIndex
  3
AutoCAD 2000
 90
        0
280
     0
281
     0
  0
CLASS
  1
IDBUFFER
  2
AcDbIdBuffer
  3
AutoCAD 2000
 90
        0
280
     0
281
     0
  0
CLASS
  1
ACIMSTRSYSVAR
  2
AcImStrSysVar
  3
AcMeServices
 90
        0
280
     0
281
     0
  0
CLASS
  1
ACMSTANDARDJIS
  2
AcmStandardJIS
  3
"AcmSymBB|Product Description: AutoCAD Mechanical 2000|Company: Autodesk"
 90
        0
280
     0
281
     0
  0
CLASS
  1
ACMSURFSTANDARDJIS
  2
AcmSurfTextStdJIS
  3
"AcmSymBB|Product Description: AutoCAD Mechanical 2000|Company: Autodesk"
 90
        0
280
     0
281
     0
  0
CLASS
  1
ACMFCFSTANDARDJIS
  2
AcmFCFStdJIS
  3
"AcmSymBB|Product Description: AutoCAD Mechanical 2000|Company: Autodesk"
 90
        0
280
     0
281
     0
  0
CLASS
  1
ACMWELDSTANDARDJIS
  2
AcmWeldingStdJIS
  3
"AcmSymBB|Product Description: AutoCAD Mechanical 2000|Company: Autodesk"
 90
        0
280
     0
281
     0
  0
CLASS
  1
ACMIDSTANDARDJIS
  2
AcmIdStdJIS
  3
"AcmSymBB|Product Description: AutoCAD Mechanical 2000|Company: Autodesk"
 90
        0
280
     0
281
     0
  0
CLASS
  1
ACMDATUMSTANDARDJIS
  2
AcmDatumStdJIS
  3
"AcmSymBB|Product Description: AutoCAD Mechanical 2000|Company: Autodesk"
 90
        0
280
     0
281
     0
  0
CLASS
  1
ACMBOMSTANDARDJIS
  2
AcmBOMStdJIS
  3
"AcmSymBB|Product Description: AutoCAD Mechanical 2000|Company: Autodesk"
 90
        0
280
     0
281
     0
  0
CLASS
  1
ACMSTANDARDANSI
  2
AcmStandardANSI
  3
"AcmSymBB|Product Description: AutoCAD Mechanical 2000|Company: Autodesk"
 90
        0
280
     0
281
     0
  0
CLASS
  1
ACMSURFSTANDARDANSI
  2
AcmSurfTextStdANSI
  3
"AcmSymBB|Product Description: AutoCAD Mechanical 2000|Company: Autodesk"
 90
        0
280
     0
281
     0
  0
CLASS
  1
ACMFCFSTANDARDANSI
  2
AcmFCFStdANSI
  3
"AcmSymBB|Product Description: AutoCAD Mechanical 2000|Company: Autodesk"
 90
        0
280
     0
281
     0
  0
CLASS
  1
ACMWELDSTANDARDANSI
  2
AcmWeldingStdANSI
  3
"AcmSymBB|Product Description: AutoCAD Mechanical 2000|Company: Autodesk"
 90
        0
280
     0
281
     0
  0
CLASS
  1
ACMIDSTANDARDANSI
  2
AcmIdStdANSI
  3
"AcmSymBB|Product Description: AutoCAD Mechanical 2000|Company: Autodesk"
 90
        0
280
     0
281
     0
  0
CLASS
  1
ACMDATUMSTANDARDANSI
  2
AcmDatumStdANSI
  3
"AcmSymBB|Product Description: AutoCAD Mechanical 2000|Company: Autodesk"
 90
        0
280
     0
281
     0
  0
CLASS
  1
ACMBOMSTANDARDANSI
  2
AcmBOMStdANSI
  3
"AcmSymBB|Product Description: AutoCAD Mechanical 2000|Company: Autodesk"
 90
        0
280
     0
281
     0
  0
CLASS
  1
ACMSTANDARDBSI
  2
AcmStandardBSI
  3
"AcmSymBB|Product Description: AutoCAD Mechanical 2000|Company: Autodesk"
 90
        0
280
     0
281
     0
  0
CLASS
  1
ACMSURFSTANDARDBSI
  2
AcmSurfTextStdBSI
  3
"AcmSymBB|Product Description: AutoCAD Mechanical 2000|Company: Autodesk"
 90
        0
280
     0
281
     0
  0
CLASS
  1
ACMFCFSTANDARDBSI
  2
AcmFCFStdBSI
  3
"AcmSymBB|Product Description: AutoCAD Mechanical 2000|Company: Autodesk"
 90
        0
280
     0
281
     0
  0
CLASS
  1
ACMWELDSTANDARDBSI
  2
AcmWeldingStdBSI
  3
"AcmSymBB|Product Description: AutoCAD Mechanical 2000|Company: Autodesk"
 90
        0
280
     0
281
     0
  0
CLASS
  1
ACMIDSTANDARDBSI
  2
AcmIdStdBSI
  3
"AcmSymBB|Product Description: AutoCAD Mechanical 2000|Company: Autodesk"
 90
        0
280
     0
281
     0
  0
CLASS
  1
ACMDATUMSTANDARDBSI
  2
AcmDatumStdBSI
  3
"AcmSymBB|Product Description: AutoCAD Mechanical 2000|Company: Autodesk"
 90
        0
280
     0
281
     0
  0
CLASS
  1
ACMBOMSTANDARDBSI
  2
AcmBOMStdBSI
  3
"AcmSymBB|Product Description: AutoCAD Mechanical 2000|Company: Autodesk"
 90
        0
280
     0
281
     0
  0
CLASS
  1
LONG_TRANSACTION
  2
AcDbLongTransaction
  3
AutoCAD 2000
 90
        0
280
     0
281
     0
  0
CLASS
  1
LWPOLYLINE
  2
AcDbPolyline
  3
AutoCAD 2000
 90
        0
280
     0
281
     1
  0
CLASS
  1
HATCH
  2
AcDbHatch
  3
AutoCAD 2000
 90
        0
280
     0
281
     1
  0
CLASS
  1
XRECORD
  2
AcDbXrecord
  3
AutoCAD 2000
 90
        0
280
     0
281
     0
  0
ENDSEC
  0
SECTION
  2
TABLES
  0
TABLE
  2
VPORT
  5
8
330
0
100
AcDbSymbolTable
 70
     3
  0
VPORT
  5
2F12
330
8
100
AcDbSymbolTableRecord
100
AcDbViewportTableRecord
  2
*ACTIVE
 70
     0
 10
0.0
 20
0.0
 11
1.0
 21
1.0
 12
-30.86462607131233
 22
-5.467140025994577
 13
0.0
 23
0.0
 14
2.5
 24
2.5
 15
10.0
 25
10.0
 16
0.0
 26
0.0
 36
1.0
 17
0.0
 27
0.0
 37
0.0
 40
62.30024957200527
 41
1.56570841889117
 42
50.0
 43
0.0
 44
0.0
 50
0.0
 51
0.0
 71
     0
 72
   100
 73
     1
 74
     1
 75
     0
 76
     0
 77
     0
 78
     0
  0
ENDTAB
  0
TABLE
  2
LTYPE
  5
5
330
0
100
AcDbSymbolTable
 70
    10
  0
LTYPE
  5
14
330
5
100
AcDbSymbolTableRecord
100
AcDbLinetypeTableRecord
  2
BYBLOCK
 70
     0
  3

 72
    65
 73
     0
 40
0.0
  0
LTYPE
  5
15
330
5
100
AcDbSymbolTableRecord
100
AcDbLinetypeTableRecord
  2
BYLAYER
 70
     0
  3

 72
    65
 73
     0
 40
0.0
  0
LTYPE
  5
16
330
5
100
AcDbSymbolTableRecord
100
AcDbLinetypeTableRecord
  2
CONTINUOUS
 70
     0
  3
Solid line
 72
    65
 73
     0
 40
0.0
  0
LTYPE
  5
4B
330
5
100
AcDbSymbolTableRecord
100
AcDbLinetypeTableRecord
  2
AM_ISO02W050
 70
     0
  3
__ __ __ __ __ __ __ __ __ __ __ __ __ __ __
 72
    65
 73
     2
 40
7.5
 49
6.0
 74
     0
 49
-1.5
 74
     0
  0
LTYPE
  5
4C
330
5
100
AcDbSymbolTableRecord
100
AcDbLinetypeTableRecord
  2
AM_ISO08W050
 70
     0
  3
____ . ____ . ____ . ____ . ____ . ____ . ____
 72
    65
 73
     4
 40
18.0
 49
12.0
 74
     0
 49
-1.5
 74
     0
 49
3.0
 74
     0
 49
-1.5
 74
     0
  0
LTYPE
  5
4D
330
5
100
AcDbSymbolTableRecord
100
AcDbLinetypeTableRecord
  2
AM_ISO09W050
 70
     0
  3
_____ . . _____ . . _____ . . ____ .. ____
 72
    65
 73
     6
 40
22.5
 49
12.0
 74
     0
 49
-1.5
 74
     0
 49
3.0
 74
     0
 49
-1.5
 74
     0
 49
3.0
 74
     0
 49
-1.5
 74
     0
  0
LTYPE
  5
4E
330
5
100
AcDbSymbolTableRecord
100
AcDbLinetypeTableRecord
  2
AMCONSTR
 70
     0
  3
_______________________
 72
    65
 73
     2
 40
9999.0
 49
9999.0
 74
     0
 49
0.0
 74
     0
  0
LTYPE
  5
4F
330
5
100
AcDbSymbolTableRecord
100
AcDbLinetypeTableRecord
  2
AM_ISO02W050X2
 70
     0
  3
 _ _ _ _ _ _ _ _ _ _ _ _
 72
    65
 73
     2
 40
3.75
 49
3.0
 74
     0
 49
-0.75
 74
     0
  0
LTYPE
  5
50
330
5
100
AcDbSymbolTableRecord
100
AcDbLinetypeTableRecord
  2
AM_ISO08W050X2
 70
     0
  3
__ . __ . __ . __ . __ . __
 72
    65
 73
     4
 40
9.0
 49
6.0
 74
     0
 49
-0.75
 74
     0
 49
1.5
 74
     0
 49
-0.75
 74
     0
  0
LTYPE
  5
53
330
5
100
AcDbSymbolTableRecord
100
AcDbLinetypeTableRecord
  2
AMZIGZAG
 70
     0
  3
/\/-/\/-/\/-/\/-/\/-/\/
 72
    65
 73
     2
 40
11.00009999999999
 49
0.0001
 74
     4
 75
   135
340
52
 46
0.04
 50
0.0
 44
0.0
 45
0.0
 49
-11.0
 74
     0
  0
LTYPE
  5
166
330
5
100
AcDbSymbolTableRecord
100
AcDbLinetypeTableRecord
  2
ACJISTGL
 70
     0
  3
_ _ _ _ _
 72
    65
 73
     2
 40
3.0
 49
2.0
 74
     0
 49
-1.0
 74
     0
  0
LTYPE
  5
26A
330
5
100
AcDbSymbolTableRecord
100
AcDbLinetypeTableRecord
  2
ACJISTGB
 70
     0
  3
__ . . __ . .
 72
    65
 73
     6
 40
9.0
 49
4.0
 74
     0
 49
-1.0
 74
     0
 49
1.0
 74
     0
 49
-1.0
 74
     0
 49
1.0
 74
     0
 49
-1.0
 74
     0
  0
ENDTAB
  0
TABLE
  2
LAYER
  5
2
330
0
100
AcDbSymbolTable
 70
     8
  0
LAYER
  5
10
330
2
100
AcDbSymbolTableRecord
100
AcDbLayerTableRecord
  2
0
 70
     0
 62
     7
  6
CONTINUOUS
  0
LAYER
  5
3F9
330
2
100
AcDbSymbolTableRecord
100
AcDbLayerTableRecord
  2
AM_0
 70
     0
 62
     7
  6
CONTINUOUS
  0
LAYER
  5
C7C
330
2
100
AcDbSymbolTableRecord
100
AcDbLayerTableRecord
  2
AM_7
 70
     0
 62
     4
  6
AM_ISO08W050
  0
LAYER
  5
C97
330
2
100
AcDbSymbolTableRecord
100
AcDbLayerTableRecord
  2
AM_11
 70
     0
 62
     3
  6
AM_ISO09W050
  0
LAYER
  5
CC5
330
2
100
AcDbSymbolTableRecord
100
AcDbLayerTableRecord
  2
AM_5
 70
     0
 62
     3
  6
CONTINUOUS
  0
LAYER
  5
CC7
330
2
100
AcDbSymbolTableRecord
100
AcDbLayerTableRecord
  2
DEFPOINTS
 70
     0
 62
     7
  6
CONTINUOUS
  0
LAYER
  5
19BC
330
2
100
AcDbSymbolTableRecord
100
AcDbLayerTableRecord
  2
AM_6
 70
     0
 62
     2
  6
CONTINUOUS
  0
LAYER
  5
2E8D
330
2
100
AcDbSymbolTableRecord
100
AcDbLayerTableRecord
  2
AM_CL
 70
     0
 62
     1
  6
AMCONSTR
  0
ENDTAB
  0
TABLE
  2
STYLE
  5
3
330
0
100
AcDbSymbolTable
 70
     5
  0
STYLE
  5
11
330
3
100
AcDbSymbolTableRecord
100
AcDbTextStyleTableRecord
  2
STANDARD
 70
     0
 40
0.0
 41
1.0
 50
0.0
 71
     0
 42
2.5
  3
simplex.shx
  4
EXTFONT.SHX
  0
STYLE
  5
52
330
3
100
AcDbSymbolTableRecord
100
AcDbTextStyleTableRecord
  2

 70
     1
 40
0.0
 41
1.0
 50
0.0
 71
     0
 42
2.5
  3
ltypeshp.shx
  4

  0
STYLE
  5
6B
330
3
100
AcDbSymbolTableRecord
100
AcDbTextStyleTableRecord
  2
ASAMI
 70
     0
 40
0.0
 41
1.0
 50
0.0
 71
     0
 42
2.5
  3
simplex.shx
  4
EXTFONT.SHX
  0
STYLE
  5
262
330
3
100
AcDbSymbolTableRecord
100
AcDbTextStyleTableRecord
  2
ACJISTS
 70
     0
 40
1.0
 41
1.0
 50
0.0
 71
     0
 42
2.5
  3
simplex.shx
  4
bigfont.shx
  0
STYLE
  5
269
330
3
100
AcDbSymbolTableRecord
100
AcDbTextStyleTableRecord
  2
ACJISGDT
 70
     0
 40
0.0
 41
1.0
 50
0.0
 71
     0
 42
2.5
  3
amgdtans.shx
  4

  0
ENDTAB
  0
TABLE
  2
VIEW
  5
6
330
0
100
AcDbSymbolTable
 70
     0
  0
ENDTAB
  0
TABLE
  2
UCS
  5
7
330
0
100
AcDbSymbolTable
 70
     0
  0
ENDTAB
  0
TABLE
  2
APPID
  5
9
330
0
100
AcDbSymbolTable
 70
    18
  0
APPID
  5
12
330
9
100
AcDbSymbolTableRecord
100
AcDbRegAppTableRecord
  2
ACAD
 70
     0
  0
APPID
  5
30
330
9
100
AcDbSymbolTableRecord
100
AcDbRegAppTableRecord
  2
MCAD_NO_VIS
 70
     0
  0
APPID
  5
31
330
9
100
AcDbSymbolTableRecord
100
AcDbRegAppTableRecord
  2
ACAD_TEMP_GRAPHIC
 70
     0
  0
APPID
  5
2C2
330
9
100
AcDbSymbolTableRecord
100
AcDbRegAppTableRecord
  2
GENIUS_GENDTOL_13
 70
     0
  0
APPID
  5
339
330
9
100
AcDbSymbolTableRecord
100
AcDbRegAppTableRecord
  2
GENIUS_GENODEF_13
 70
     0
  0
APPID
  5
33A
330
9
100
AcDbSymbolTableRecord
100
AcDbRegAppTableRecord
  2
GENIUS_GENOBJ-N-RSBK_13
 70
     0
  0
APPID
  5
33B
330
9
100
AcDbSymbolTableRecord
100
AcDbRegAppTableRecord
  2
GENIUS_GENOBJ-N-LIB_13
 70
     0
  0
APPID
  5
33C
330
9
100
AcDbSymbolTableRecord
100
AcDbRegAppTableRecord
  2
GENIUS_GENSCALE_13
 70
     0
  0
APPID
  5
378
330
9
100
AcDbSymbolTableRecord
100
AcDbRegAppTableRecord
  2
GENIUS_GENDIMSH_14
 70
     0
  0
APPID
  5
C82
330
9
100
AcDbSymbolTableRecord
100
AcDbRegAppTableRecord
  2
GENIUS_GENOBJ-N-CRS_13
 70
     0
  0
APPID
  5
C83
330
9
100
AcDbSymbolTableRecord
100
AcDbRegAppTableRecord
  2
GENIUS_GENOENT_13
 70
     0
  0
APPID
  5
C84
330
9
100
AcDbSymbolTableRecord
100
AcDbRegAppTableRecord
  2
GENIUS_GENOREF_13
 70
     0
  0
APPID
  5
C85
330
9
100
AcDbSymbolTableRecord
100
AcDbRegAppTableRecord
  2
GENIUS_GENOLIS_13
 70
     0
  0
APPID
  5
CA0
330
9
100
AcDbSymbolTableRecord
100
AcDbRegAppTableRecord
  2
GENIUS_GENOBJ-N-CEN_13
 70
     0
  0
APPID
  5
1B5D
330
9
100
AcDbSymbolTableRecord
100
AcDbRegAppTableRecord
  2
GENIUS_GENFIL_13
 70
     0
  0
APPID
  5
1B5E
330
9
100
AcDbSymbolTableRecord
100
AcDbRegAppTableRecord
  2
GENIUS_GENOBJ-N-CHA_13
 70
     0
  0
APPID
  5
1FBC
330
9
100
AcDbSymbolTableRecord
100
AcDbRegAppTableRecord
  2
GENIUS_GENREC_14
 70
     0
  0
APPID
  5
1FBD
330
9
100
AcDbSymbolTableRecord
100
AcDbRegAppTableRecord
  2
GENIUS_GENOBJ-N-REC_13
 70
     0
  0
ENDTAB
  0
TABLE
  2
DIMSTYLE
  5
A
330
0
100
AcDbSymbolTable
 70
     9
  0
DIMSTYLE
105
58
330
A
100
AcDbSymbolTableRecord
100
AcDbDimStyleTableRecord
  2
AM_JIS
 70
     0
  3

  4
"
  5
OPEN30
  6

  7

 40
0.5
 41
2.5
 42
1.0
 43
12.0
 44
1.0
 45
0.0
 46
0.0
 47
0.1
 48
0.1
140
3.2
141
0.0
142
0.0
143
0.0393701
144
1.0
145
0.0
146
0.71
147
1.5
 71
     0
 72
     0
 73
     0
 74
     0
 75
     0
 76
     0
 77
     3
 78
     8
170
     0
171
     2
172
     1
173
     0
174
     0
175
     0
176
   256
177
   256
178
     2
270
     2
271
     3
272
     3
273
     2
274
     2
340
6B
275
     0
280
     0
281
     0
282
     0
283
     0
284
     0
285
     0
286
     0
287
     3
288
     0
  0
DIMSTYLE
105
5F
330
A
100
AcDbSymbolTableRecord
100
AcDbDimStyleTableRecord
  2
AM_JIS$3
 70
     0
  3

  4
"
  5
OPEN30
  6

  7

 40
0.5
 41
2.5
 42
1.0
 43
10.0
 44
1.0
 45
0.0
 46
0.0
 47
0.1
 48
0.1
140
3.2
141
0.0
142
0.0
143
0.0393701
144
1.0
145
0.0
146
0.71
147
1.5
 71
     0
 72
     0
 73
     0
 74
     1
 75
     0
 76
     0
 77
     3
 78
     8
170
     0
171
     2
172
     0
173
     0
174
     0
175
     0
176
   256
177
   256
178
     2
270
     2
271
     2
272
     3
273
     2
274
     2
340
6B
275
     0
280
     0
281
     0
282
     0
283
     0
284
     0
285
     0
286
     0
287
     0
288
     1
  0
DIMSTYLE
105
60
330
A
100
AcDbSymbolTableRecord
100
AcDbDimStyleTableRecord
  2
AM_JIS$4
 70
     0
  3

  4
"
  5
OPEN30
  6

  7

 40
0.5
 41
2.5
 42
1.0
 43
10.0
 44
1.0
 45
0.0
 46
0.0
 47
0.1
 48
0.1
140
3.2
141
0.0
142
0.0
143
0.0393701
144
1.0
145
0.0
146
0.71
147
1.5
 71
     0
 72
     0
 73
     0
 74
     1
 75
     0
 76
     0
 77
     3
 78
     8
170
     0
171
     2
172
     0
173
     0
174
     0
175
     0
176
   256
177
   256
178
     2
270
     2
271
     2
272
     3
273
     2
274
     2
340
6B
275
     0
280
     0
281
     0
282
     0
283
     0
284
     0
285
     0
286
     0
287
     0
288
     1
  0
DIMSTYLE
105
61
330
A
100
AcDbSymbolTableRecord
100
AcDbDimStyleTableRecord
  2
AM_JIS$6
 70
     0
  3

  4
"
  5
OPEN30
  6

  7

 40
0.5
 41
2.5
 42
1.0
 43
10.0
 44
1.0
 45
0.0
 46
0.0
 47
0.1
 48
0.1
140
3.2
141
0.0
142
0.0
143
0.0393701
144
1.0
145
0.0
146
0.71
147
1.5
 71
     0
 72
     0
 73
     0
 74
     0
 75
     0
 76
     0
 77
     0
 78
     8
170
     0
171
     2
172
     1
173
     0
174
     0
175
     0
176
   256
177
   256
178
     2
270
     2
271
     2
272
     2
273
     2
274
     2
340
6B
275
     0
280
     0
281
     0
282
     0
283
     0
284
     0
285
     0
286
     0
287
     3
288
     0
  0
DIMSTYLE
105
62
330
A
100
AcDbSymbolTableRecord
100
AcDbDimStyleTableRecord
  2
AM_JIS$7
 70
     0
  3

  4
"
  5
OPEN30
  6

  7

 40
0.5
 41
2.5
 42
1.0
 43
10.0
 44
1.0
 45
0.0
 46
0.0
 47
0.1
 48
0.1
140
3.2
141
0.0
142
0.0
143
0.0393701
144
1.0
145
0.0
146
0.71
147
1.5
 71
     0
 72
     0
 73
     0
 74
     0
 75
     0
 76
     0
 77
     3
 78
     8
170
     0
171
     2
172
     1
173
     0
174
     0
175
     0
176
   256
177
   256
178
     2
270
     2
271
     2
272
     3
273
     2
274
     2
340
6B
275
     0
280
     0
281
     0
282
     0
283
     0
284
     0
285
     0
286
     0
287
     3
288
     0
  0
DIMSTYLE
105
63
330
A
100
AcDbSymbolTableRecord
100
AcDbDimStyleTableRecord
  2
AM_JIS$SF
 70
     0
  3

  4
"
  5
OPEN30
  6

  7

 40
0.5
 41
2.5
 42
1.0
 43
10.0
 44
1.0
 45
0.0
 46
0.0
 47
0.1
 48
0.1
140
3.2
141
0.0
142
0.0
143
0.0393701
144
1.0
145
0.0
146
0.71
147
1.5
 71
     0
 72
     0
 73
     0
 74
     0
 75
     1
 76
     1
 77
     3
 78
     8
170
     0
171
     2
172
     1
173
     0
174
     0
175
     0
176
   256
177
   256
178
     2
270
     2
271
     2
272
     2
273
     2
274
     2
340
6B
275
     0
280
     0
281
     0
282
     0
283
     0
284
     0
285
     0
286
     0
287
     3
288
     0
  0
DIMSTYLE
105
68
330
A
100
AcDbSymbolTableRecord
100
AcDbDimStyleTableRecord
  2
AM_JIS$SH
 70
     0
  3

  4
"
  5

  6
GENAXEH
  7
OPEN30
 40
0.5
 41
2.5
 42
1.0
 43
10.0
 44
1.0
 45
0.0
 46
0.0
 47
0.1
 48
0.1
140
3.2
141
0.0
142
0.0
143
0.0393701
144
2.0
145
0.0
146
0.71
147
1.5
 71
     0
 72
     0
 73
     0
 74
     0
 75
     1
 76
     1
 77
     3
 78
     8
170
     0
171
     2
172
     1
173
     1
174
     0
175
     0
176
   256
177
   256
178
     2
270
     2
271
     2
272
     2
273
     2
274
     2
340
6B
275
     0
280
     0
281
     0
282
     0
283
     0
284
     0
285
     0
286
     0
287
     3
288
     0
  0
DIMSTYLE
105
B34
102
{ACAD_REACTORS
330
2C50
102
}
330
A
100
AcDbSymbolTableRecord
100
AcDbDimStyleTableRecord
  2
AM_JIS$2
 70
     0
  3

  4
"
  5
OPEN30
  6

  7

 40
0.5
 41
2.5
 42
1.0
 43
12.0
 44
1.0
 45
0.0
 46
0.0
 47
0.1
 48
0.1
140
3.2
141
0.0
142
0.0
143
0.0393701
144
1.0
145
0.0
146
0.71
147
1.5
 71
     0
 72
     0
 73
     0
 74
     0
 75
     0
 76
     0
 77
     3
 78
     8
170
     0
171
     2
172
     1
173
     0
174
     0
175
     0
176
   256
177
   256
178
     2
270
     2
271
     3
272
     3
273
     2
274
     2
340
6B
275
     0
280
     0
281
     0
282
     0
283
     0
284
     0
285
     0
286
     0
287
     3
288
     0
  0
DIMSTYLE
105
BA5
102
{ACAD_REACTORS
330
CC6
330
DF5
330
1DEF
330
1C71
102
}
330
A
100
AcDbSymbolTableRecord
100
AcDbDimStyleTableRecord
  2
AM_JIS$0
 70
     0
  3

  4
"
  5
OPEN30
  6

  7

 40
0.5
 41
2.5
 42
0.0
 43
10.0
 44
1.0
 45
0.0
 46
0.0
 47
0.1
 48
0.1000000001
140
3.799999999999999
141
0.0
142
0.0
143
0.0393701
144
1.0
145
0.0
146
0.71
147
1.5
 71
     0
 72
     0
 73
     0
 74
     0
 75
     0
 76
     0
 77
     3
 78
     1
170
     0
171
     2
172
     1
173
     0
174
     0
175
     0
176
     3
177
     3
178
     2
270
     2
271
     2
272
     2
273
     2
274
     2
340
11
275
     1
280
     0
281
     0
282
     0
283
     0
284
     8
285
     0
286
     0
287
     0
288
     0
  0
ENDTAB
  0
TABLE
  2
BLOCK_RECORD
  5
1
330
0
100
AcDbSymbolTable
 70
    10
  0
BLOCK_RECORD
  5
1F
102
{ACAD_XDICTIONARY
360
74
102
}
330
1
100
AcDbSymbolTableRecord
100
AcDbBlockTableRecord
  2
*MODEL_SPACE
  0
BLOCK_RECORD
  5
101
102
{ACAD_XDICTIONARY
360
2F3B
102
}
330
1
100
AcDbSymbolTableRecord
100
AcDbBlockTableRecord
  2
*PAPER_SPACE
  0
BLOCK_RECORD
  5
59
330
1
100
AcDbSymbolTableRecord
100
AcDbBlockTableRecord
  2
_OPEN30
  0
BLOCK_RECORD
  5
64
330
1
100
AcDbSymbolTableRecord
100
AcDbBlockTableRecord
  2
GENAXEH
  0
BLOCK_RECORD
  5
CC8
330
1
100
AcDbSymbolTableRecord
100
AcDbBlockTableRecord
  2
*D5
  0
BLOCK_RECORD
  5
DF6
330
1
100
AcDbSymbolTableRecord
100
AcDbBlockTableRecord
  2
*D6
  0
BLOCK_RECORD
  5
1C72
330
1
100
AcDbSymbolTableRecord
100
AcDbBlockTableRecord
  2
*D7
  0
BLOCK_RECORD
  5
1DF0
330
1
100
AcDbSymbolTableRecord
100
AcDbBlockTableRecord
  2
*D8
  0
BLOCK_RECORD
  5
2C51
330
1
100
AcDbSymbolTableRecord
100
AcDbBlockTableRecord
  2
*D9
  0
ENDTAB
  0
ENDSEC
  0
SECTION
  2
BLOCKS
  0
BLOCK
  5
20
330
1F
100
AcDbEntity
  8
0
100
AcDbBlockBegin
  2
*MODEL_SPACE
 70
     0
 10
0.0
 20
0.0
 30
0.0
  3
*MODEL_SPACE
  1

  0
ENDBLK
  5
21
330
1F
100
AcDbEntity
  8
0
100
AcDbBlockEnd
  0
BLOCK
  5
103
330
101
100
AcDbEntity
 67
     1
  8
0
100
AcDbBlockBegin
  2
*PAPER_SPACE
 70
     0
 10
0.0
 20
0.0
 30
0.0
  3
*PAPER_SPACE
  1

  0
ENDBLK
  5
104
330
101
100
AcDbEntity
 67
     1
  8
0
100
AcDbBlockEnd
  0
BLOCK
  5
5D
330
59
100
AcDbEntity
  8
0
100
AcDbBlockBegin
  2
_OPEN30
 70
     0
 10
0.0
 20
0.0
 30
0.0
  3
_OPEN30
  1

  0
LINE
  5
5A
330
59
100
AcDbEntity
  8
0
 62
     0
100
AcDbLine
 10
-1.0
 20
0.26794919
 30
0.0
 11
0.0
 21
0.0
 31
0.0
  0
LINE
  5
5B
330
59
100
AcDbEntity
  8
0
 62
     0
100
AcDbLine
 10
0.0
 20
0.0
 30
0.0
 11
-1.0
 21
-0.26794919
 31
0.0
  0
LINE
  5
5C
330
59
100
AcDbEntity
  8
0
 62
     0
100
AcDbLine
 10
0.0
 20
0.0
 30
0.0
 11
-1.0
 21
0.0
 31
0.0
  0
ENDBLK
  5
5E
330
59
100
AcDbEntity
  8
0
100
AcDbBlockEnd
  0
BLOCK
  5
66
330
64
100
AcDbEntity
  8
0
100
AcDbBlockBegin
  2
GENAXEH
 70
     0
 10
0.0
 20
0.0
 30
0.0
  3
GENAXEH
  1

  0
LINE
  5
65
330
64
100
AcDbEntity
  8
0
100
AcDbLine
 10
-1.0
 20
0.0
 30
0.0
 11
1.0
 21
0.0
 31
0.0
  0
ENDBLK
  5
67
330
64
100
AcDbEntity
  8
0
100
AcDbBlockEnd
  0
BLOCK
  5
CD2
330
CC8
100
AcDbEntity
  8
0
100
AcDbBlockBegin
  2
*D5
 70
     1
 10
0.0
 20
0.0
 30
0.0
  3
*D5
  1

  0
LINE
  5
2EB9
330
CC8
100
AcDbEntity
  8
AM_5
 62
     3
100
AcDbLine
 10
-68.99999998684821
 20
-1.250006209471275
 30
0.0
 11
-68.99999998684821
 21
-14.00000718101106
 31
0.0
  0
LINE
  5
2EBA
330
CC8
100
AcDbEntity
  8
AM_5
 62
     3
100
AcDbLine
 10
-0.9999961721509576
 20
-1.2999992374337
 30
0.0
 11
-0.9999961721509585
 21
-14.00000718101106
 31
0.0
  0
LINE
  5
2EBB
330
CC8
100
AcDbEntity
  8
AM_5
 62
     3
100
AcDbLine
 10
-67.74999998684821
 20
-13.50000718101106
 30
0.0
 11
-2.249996172150958
 21
-13.50000718101106
 31
0.0
  0
INSERT
  5
2EBC
330
CC8
100
AcDbEntity
  8
AM_5
 62
     3
100
AcDbBlockReference
  2
_OPEN30
 10
-68.99999998684821
 20
-13.50000718101106
 30
0.0
 41
1.25
 42
1.25
 43
1.25
 50
180.0
  0
INSERT
  5
2EBD
330
CC8
100
AcDbEntity
  8
AM_5
 62
     3
100
AcDbBlockReference
  2
_OPEN30
 10
-0.9999961721509585
 20
-13.50000718101106
 30
0.0
 41
1.25
 42
1.25
 43
1.25
  0
MTEXT
  5
2EBE
330
CC8
100
AcDbEntity
  8
AM_5
 62
     2
100
AcDbMText
 10
-34.99999807949958
 20
-11.80000718101106
 30
0.0
 40
1.9
 41
0.0
 71
     5
 72
     1
  1
68
1001
ACAD
1000
MTEXTBEGIN
1070
    73
1070
     1
1070
    44
1040
1.0
1070
    74
1070
     0
1000
MTEXTEND
  0
POINT
  5
2EBF
330
CC8
100
AcDbEntity
  8
DEFPOINTS
 62
     0
100
AcDbPoint
 10
-68.99999998684821
 20
-1.250006209471275
 30
0.0
  0
POINT
  5
2EC0
330
CC8
100
AcDbEntity
  8
DEFPOINTS
 62
     0
100
AcDbPoint
 10
-0.9999961721509576
 20
-1.2999992374337
 30
0.0
  0
POINT
  5
2EC1
330
CC8
100
AcDbEntity
  8
DEFPOINTS
 62
     0
100
AcDbPoint
 10
-0.9999961721509585
 20
-13.50000718101106
 30
0.0
  0
ENDBLK
  5
CD3
330
CC8
100
AcDbEntity
  8
0
100
AcDbBlockEnd
  0
BLOCK
  5
E00
330
DF6
100
AcDbEntity
  8
0
100
AcDbBlockBegin
  2
*D6
 70
     1
 10
0.0
 20
0.0
 30
0.0
  3
*D6
  1

  0
LINE
  5
2ED8
330
DF6
100
AcDbEntity
  8
AM_5
 62
     3
100
AcDbLine
 10
-20.99999998684821
 20
-1.499999305169979
 30
0.0
 11
-20.99999998684821
 21
-9.00000718101104
 31
0.0
  0
LINE
  5
2ED9
330
DF6
100
AcDbEntity
  8
AM_5
 62
     3
100
AcDbLine
 10
-0.9999961721509576
 20
-1.2999992374337
 30
0.0
 11
-0.9999961721509581
 21
-9.00000718101104
 31
0.0
  0
LINE
  5
2EDA
330
DF6
100
AcDbEntity
  8
AM_5
 62
     3
100
AcDbLine
 10
-19.7499999868482
 20
-8.50000718101104
 30
0.0
 11
-2.249996172150958
 21
-8.50000718101104
 31
0.0
  0
INSERT
  5
2EDB
330
DF6
100
AcDbEntity
  8
AM_5
 62
     3
100
AcDbBlockReference
  2
_OPEN30
 10
-20.99999998684821
 20
-8.50000718101104
 30
0.0
 41
1.25
 42
1.25
 43
1.25
 50
180.0
  0
INSERT
  5
2EDC
330
DF6
100
AcDbEntity
  8
AM_5
 62
     3
100
AcDbBlockReference
  2
_OPEN30
 10
-0.9999961721509581
 20
-8.50000718101104
 30
0.0
 41
1.25
 42
1.25
 43
1.25
  0
MTEXT
  5
2EDD
330
DF6
100
AcDbEntity
  8
AM_5
 62
     2
100
AcDbMText
 10
-10.99999807949958
 20
-6.80000718101104
 30
0.0
 40
1.9
 41
0.0
 71
     5
 72
     1
  1
20
1001
ACAD
1000
MTEXTBEGIN
1070
    73
1070
     1
1070
    44
1040
1.0
1070
    74
1070
     0
1000
MTEXTEND
  0
POINT
  5
2EDE
330
DF6
100
AcDbEntity
  8
DEFPOINTS
 62
     0
100
AcDbPoint
 10
-20.99999998684821
 20
-1.499999305169979
 30
0.0
  0
POINT
  5
2EDF
330
DF6
100
AcDbEntity
  8
DEFPOINTS
 62
     0
100
AcDbPoint
 10
-0.9999961721509576
 20
-1.2999992374337
 30
0.0
  0
POINT
  5
2EE0
330
DF6
100
AcDbEntity
  8
DEFPOINTS
 62
     0
100
AcDbPoint
 10
-0.9999961721509581
 20
-8.50000718101104
 30
0.0
  0
ENDBLK
  5
E01
330
DF6
100
AcDbEntity
  8
0
100
AcDbBlockEnd
  0
BLOCK
  5
1C7E
330
1C72
100
AcDbEntity
  8
0
100
AcDbBlockBegin
  2
*D7
 70
     1
 10
0.0
 20
0.0
 30
0.0
  3
*D7
  1

  0
LINE
  5
2EE1
330
1C72
100
AcDbEntity
  8
AM_5
 62
     3
100
AcDbLine
 10
-0.9999961721509576
 20
-1.299999237433701
 30
0.0
 11
7.795959629613277
 21
-1.299999237433703
 31
0.0
  0
LINE
  5
2EE2
330
1C72
100
AcDbEntity
  8
AM_5
 62
     3
100
AcDbLine
 10
-0.9999961721509626
 20
1.300000762566299
 30
0.0
 11
7.795959629613276
 21
1.300000762566297
 31
0.0
  0
LINE
  5
2EE3
330
1C72
100
AcDbEntity
  8
AM_5
 62
     3
100
AcDbLine
 10
7.295959629613276
 20
-2.549999237433703
 30
0.0
 11
7.295959629613276
 21
-3.799999237433703
 31
0.0
  0
LINE
  5
2EE4
330
1C72
100
AcDbEntity
  8
AM_5
 62
     3
100
AcDbLine
 10
7.295959629613278
 20
2.550000762566297
 30
0.0
 11
7.29595962961328
 21
10.9095245720901
 31
0.0
  0
LINE
  5
2EE5
330
1C72
100
AcDbEntity
  8
AM_5
 62
     3
100
AcDbLine
 10
7.295959629613277
 20
-1.299999237433703
 30
0.0
 11
7.295959629613277
 21
1.300000762566297
 31
0.0
  0
INSERT
  5
2EE6
330
1C72
100
AcDbEntity
  8
AM_5
 62
     3
100
AcDbBlockReference
  2
_OPEN30
 10
7.295959629613277
 20
-1.299999237433703
 30
0.0
 41
1.25
 42
1.25
 43
1.25
 50
90.0
  0
INSERT
  5
2EE7
330
1C72
100
AcDbEntity
  8
AM_5
 62
     3
100
AcDbBlockReference
  2
_OPEN30
 10
7.295959629613277
 20
1.300000762566297
 30
0.0
 41
1.25
 42
1.25
 43
1.25
 50
270.0
  0
MTEXT
  5
2EE8
330
1C72
100
AcDbEntity
  8
AM_5
 62
     2
100
AcDbMText
 10
5.595959629613278
 20
7.354762667328204
 30
0.0
 40
1.9
 41
0.0
 71
     5
 72
     1
  1
%%c2.6
 11
0.0000000000000001
 21
1.0
 31
0.0
1001
ACAD
1000
MTEXTBEGIN
1070
    73
1070
     1
1070
    44
1040
1.0
1070
    74
1070
     0
1000
MTEXTEND
  0
POINT
  5
2EE9
330
1C72
100
AcDbEntity
  8
DEFPOINTS
 62
     0
100
AcDbPoint
 10
-0.9999961721509576
 20
-1.299999237433701
 30
0.0
  0
POINT
  5
2EEA
330
1C72
100
AcDbEntity
  8
DEFPOINTS
 62
     0
100
AcDbPoint
 10
-0.9999961721509626
 20
1.300000762566299
 30
0.0
  0
POINT
  5
2EEB
330
1C72
100
AcDbEntity
  8
DEFPOINTS
 62
     0
100
AcDbPoint
 10
7.295959629613277
 20
1.300000762566297
 30
0.0
  0
ENDBLK
  5
1C7F
330
1C72
100
AcDbEntity
  8
0
100
AcDbBlockEnd
  0
BLOCK
  5
1DFC
330
1DF0
100
AcDbEntity
  8
0
100
AcDbBlockBegin
  2
*D8
 70
     1
 10
0.0
 20
0.0
 30
0.0
  3
*D8
  1

  0
LINE
  5
2EC2
330
1DF0
100
AcDbEntity
  8
AM_5
 62
     3
100
AcDbLine
 10
-68.74999998684822
 20
-1.500006181011352
 30
0.0
 11
-77.25000132837163
 21
-1.500006181011368
 31
0.0
  0
LINE
  5
2EC3
330
1DF0
100
AcDbEntity
  8
AM_5
 62
     3
100
AcDbLine
 10
-68.74999998684822
 20
1.500013847201652
 30
0.0
 11
-77.25000132837163
 21
1.500013847201635
 31
0.0
  0
LINE
  5
2EC4
330
1DF0
100
AcDbEntity
  8
AM_5
 62
     3
100
AcDbLine
 10
-76.75000132837162
 20
-2.750006181011367
 30
0.0
 11
-76.75000132837161
 21
-4.000006181011367
 31
0.0
  0
LINE
  5
2EC5
330
1DF0
100
AcDbEntity
  8
AM_5
 62
     3
100
AcDbLine
 10
-76.75000132837162
 20
2.750013847201636
 30
0.0
 11
-76.75000132837164
 21
4.000013847201636
 31
0.0
  0
LINE
  5
2EC6
330
1DF0
100
AcDbEntity
  8
AM_5
 62
     3
100
AcDbLine
 10
-76.75000132837162
 20
-1.500006181011367
 30
0.0
 11
-76.75000132837162
 21
1.500013847201636
 31
0.0
  0
INSERT
  5
2EC7
330
1DF0
100
AcDbEntity
  8
AM_5
 62
     3
100
AcDbBlockReference
  2
_OPEN30
 10
-76.75000132837162
 20
-1.500006181011367
 30
0.0
 41
1.25
 42
1.25
 43
1.25
 50
90.0000000000001
  0
INSERT
  5
2EC8
330
1DF0
100
AcDbEntity
  8
AM_5
 62
     3
100
AcDbBlockReference
  2
_OPEN30
 10
-76.75000132837162
 20
1.500013847201636
 30
0.0
 41
1.25
 42
1.25
 43
1.25
 50
270.0000000000001
  0
MTEXT
  5
2EC9
330
1DF0
100
AcDbEntity
  8
AM_5
 62
     2
100
AcDbMText
 10
-78.45000132837163
 20
0.0000038330951342
 30
0.0
 40
1.9
 41
0.0
 71
     5
 72
     1
  1
%%c3
 11
-0.000000000000002
 21
1.0
 31
0.0
1001
ACAD
1000
MTEXTBEGIN
1070
    73
1070
     1
1070
    44
1040
1.0
1070
    74
1070
     0
1000
MTEXTEND
  0
POINT
  5
2ECA
330
1DF0
100
AcDbEntity
  8
DEFPOINTS
 62
     0
100
AcDbPoint
 10
-68.74999998684822
 20
-1.500006181011199
 30
0.0
  0
POINT
  5
2ECB
330
1DF0
100
AcDbEntity
  8
DEFPOINTS
 62
     0
100
AcDbPoint
 10
-68.74999998684822
 20
1.500013847201804
 30
0.0
  0
POINT
  5
2ECC
330
1DF0
100
AcDbEntity
  8
DEFPOINTS
 62
     0
100
AcDbPoint
 10
-76.75000132837162
 20
1.500013847201807
 30
0.0
  0
ENDBLK
  5
1DFD
330
1DF0
100
AcDbEntity
  8
0
100
AcDbBlockEnd
  0
BLOCK
  5
2C61
330
2C51
100
AcDbEntity
  8
0
100
AcDbBlockBegin
  2
*D9
 70
     1
 10
0.0
 20
0.0
 30
0.0
  3
*D9
  1

  0
LINE
  5
2F3D
330
2C51
100
AcDbEntity
  8
AM_5
100
AcDbLine
 10
0.1710091330934875
 20
-0.4698466520032026
 30
0.0
 11
5.028894258309374
 21
-13.81685929752669
 31
0.0
  0
LINE
  5
2F3E
330
2C51
100
AcDbEntity
  8
AM_5
100
AcDbLine
 10
0.1710103957212607
 20
0.4698461924452064
 30
0.0
 11
5.028931388616005
 21
13.81684578322777
 31
0.0
  0
ARC
  5
2F3F
330
2C51
100
AcDbEntity
  8
AM_5
100
AcDbCircle
 10
-0.0000000000000021
 20
-0.0000000000000058
 30
0.0
 40
14.20358385934894
100
AcDbArc
 50
295.0438841368868
 51
64.95596189100879
  0
INSERT
  5
2F40
330
2C51
100
AcDbEntity
  8
AM_5
100
AcDbBlockReference
  2
_OPEN30
 10
4.857885125215886
 20
-13.34701264552349
 30
0.0
 41
1.25
 42
1.25
 43
1.25
 50
202.5218848411741
  0
INSERT
  5
2F41
330
2C51
100
AcDbEntity
  8
AM_5
100
AcDbBlockReference
  2
_OPEN30
 10
4.857920992894744
 20
13.34699959078257
 30
0.0
 41
1.25
 42
1.25
 43
1.25
 50
157.4779611867215
  0
MTEXT
  5
2F42
330
2C51
100
AcDbEntity
  8
AM_5
 62
     2
100
AcDbMText
 10
12.65358385933751
 20
-0.0000170021156202
 30
0.0
 40
1.6
 41
0.0
 71
     5
 72
     1
  1
140°
  7
ASAMI
 11
0.0000013436600888
 21
0.9999999999990972
 31
0.0
  0
POINT
  5
2F43
330
2C51
100
AcDbEntity
  8
DEFPOINTS
 62
     0
100
AcDbPoint
 10
13.04195068964698
 20
-5.625772538805154
 30
0.0
  0
POINT
  5
2F44
330
2C51
100
AcDbEntity
  8
DEFPOINTS
 62
     0
100
AcDbPoint
 10
0.0
 20
0.0
 30
0.0
  0
POINT
  5
2F45
330
2C51
100
AcDbEntity
  8
DEFPOINTS
 62
     0
100
AcDbPoint
 10
-0.0000000000000021
 20
-0.0000000000000057
 30
0.0
  0
POINT
  5
2F46
330
2C51
100
AcDbEntity
  8
DEFPOINTS
 62
     0
100
AcDbPoint
 10
-0.1380505777151788
 20
0.3792932024930053
 30
0.0
  0
POINT
  5
2F47
330
2C51
100
AcDbEntity
  8
DEFPOINTS
 62
     0
100
AcDbPoint
 10
-0.1380525400625933
 20
-0.379295422551521
 30
0.0
  0
ENDBLK
  5
2C62
330
2C51
100
AcDbEntity
  8
0
100
AcDbBlockEnd
  0
ENDSEC
  0
SECTION
  2
ENTITIES
  0
LINE
  5
C1D
330
1F
100
AcDbEntity
  8
AM_0
 48
0.5
100
AcDbLine
 10
-0.0000000000000021
 20
-0.0000000000000057
 30
0.0
 11
-0.1380505777151787
 21
0.3792932024930053
 31
0.0
  0
LINE
  5
C20
330
1F
100
AcDbEntity
  8
AM_0
 48
0.5
100
AcDbLine
 10
0.0
 20
0.0
 30
0.0
 11
-0.1380525400625933
 21
-0.3792954225515209
 31
0.0
  0
LINE
  5
C2E
330
1F
100
AcDbEntity
  8
AM_0
 48
0.5
100
AcDbLine
 10
-68.7499999868482
 20
-1.500006181011199
 30
0.0
 11
-68.7499999868482
 21
1.500013847201805
 31
0.0
  0
LINE
  5
C30
330
1F
100
AcDbEntity
  8
AM_0
 48
0.5
100
AcDbLine
 10
-68.99999998684821
 20
-1.250006209471275
 30
0.0
 11
-68.99999998684821
 21
1.250005235204411
 31
0.0
  0
LINE
  5
C9F
330
1F
100
AcDbEntity
  8
AM_7
100
AcDbLine
 10
-69.74999998684819
 20
-0.0000000000000742
 30
0.0
 11
0.2959585783835835
 21
0.0000000000000003
 31
0.0
1001
GENIUS_GENODEF_13
1002
{
1000
HIER
1070
     0
1002
}
1002
{
1000
MANEDIT
1070
     0
1002
}
1002
{
1000
NOSEL
1070
     0
1002
}
1002
{
1000
BEHIND
1070
     0
1002
}
1002
{
1000
REACTOR
1002
}
1001
GENIUS_GENOBJ-N-CEN_13
1002
{
1000
OWNER
1000
GEN
1002
}
  0
DIMENSION
  5
CC6
330
1F
100
AcDbEntity
  8
AM_5
100
AcDbDimension
  2
*D5
 10
-0.9999961721509585
 20
-13.50000718101106
 30
0.0
 11
-34.99999807949958
 21
-11.80000718101106
 31
0.0
 70
    32
  1
<>
  3
AM_JIS$0
100
AcDbAlignedDimension
 13
-68.99999998684821
 23
-1.250006209471275
 33
0.0
 14
-0.9999961721509576
 24
-1.2999992374337
 34
0.0
 50
0.0000000000001132
100
AcDbRotatedDimension
1001
GENIUS_GENDTOL_13
1000

1000
h7
1000

1040
0.0
1001
ACAD
1000
DSTYLE
1002
{
1070
   271
1070
     0
1002
}
  0
DIMENSION
  5
DF5
330
1F
100
AcDbEntity
  8
AM_5
100
AcDbDimension
  2
*D6
 10
-0.9999961721509581
 20
-8.50000718101104
 30
0.0
 11
-10.99999807949958
 21
-6.80000718101104
 31
0.0
 70
    32
  1
<>
  3
AM_JIS$0
100
AcDbAlignedDimension
 13
-20.99999998684821
 23
-1.499999305169979
 33
0.0
 14
-0.9999961721509576
 24
-1.2999992374337
 34
0.0
 50
0.0000000000001527
100
AcDbRotatedDimension
1001
GENIUS_GENDTOL_13
1000

1000
h7
1000

1040
0.0
1001
ACAD
1000
DSTYLE
1002
{
1070
   271
1070
     0
1002
}
  0
ARC
  5
144A
330
1F
100
AcDbEntity
  8
AM_11
 48
0.5
100
AcDbCircle
 10
-24.61968229885815
 20
-6.625446930970555
 30
0.0
 40
7.325448036193749
100
AcDbArc
 50
64.74833051131179
 51
115.2516644797366
  0
ARC
  5
144B
330
1F
100
AcDbEntity
  8
AM_11
 48
0.5
100
AcDbCircle
 10
-24.61968229885814
 20
6.625451430235442
 30
0.0
 40
7.325448036193749
100
AcDbArc
 50
244.7482808787518
 51
295.2516148471758
  0
ARC
  5
144E
330
1F
100
AcDbEntity
  8
AM_11
 48
0.5
100
AcDbCircle
 10
-18.36968229885815
 20
-6.625446930970555
 30
0.0
 40
7.325448036193749
100
AcDbArc
 50
64.74833051131179
 51
115.2516644797366
  0
ARC
  5
144F
330
1F
100
AcDbEntity
  8
AM_11
 48
0.5
100
AcDbCircle
 10
-18.36968229885815
 20
6.625451430235442
 30
0.0
 40
7.325448036193749
100
AcDbArc
 50
244.7482808787518
 51
295.2516148471758
  0
ARC
  5
1450
330
1F
100
AcDbEntity
  8
AM_11
 48
0.5
100
AcDbCircle
 10
-12.1196822988599
 20
6.625451430235442
 30
0.0
 40
7.325448036193749
100
AcDbArc
 50
244.7482808787518
 51
295.2516148471758
  0
ARC
  5
1451
330
1F
100
AcDbEntity
  8
AM_11
 48
0.5
100
AcDbCircle
 10
-12.1196822988599
 20
-6.625446930970555
 30
0.0
 40
7.325448036193749
100
AcDbArc
 50
64.74833051131179
 51
115.2516644797366
  0
ARC
  5
1452
330
1F
100
AcDbEntity
  8
AM_11
 48
0.5
100
AcDbCircle
 10
-5.869682298859904
 20
-6.625446930970555
 30
0.0
 40
7.325448036193749
100
AcDbArc
 50
64.74833051131179
 51
115.2516644797366
  0
ARC
  5
1453
330
1F
100
AcDbEntity
  8
AM_11
 48
0.5
100
AcDbCircle
 10
-5.869682298859904
 20
6.625451430235442
 30
0.0
 40
7.325448036193749
100
AcDbArc
 50
244.7482808787518
 51
295.2516148471758
  0
ARC
  5
1454
330
1F
100
AcDbEntity
  8
AM_11
 48
0.5
100
AcDbCircle
 10
0.3803177011401022
 20
6.625451430235442
 30
0.0
 40
7.325448036193749
100
AcDbArc
 50
244.7482808787518
 51
254.0147302238188
  0
ARC
  5
18B8
330
1F
100
AcDbEntity
  8
AM_11
 48
0.5
100
AcDbCircle
 10
-30.8696822988581
 20
6.625451430235421
 30
0.0
 40
7.325448036193749
100
AcDbArc
 50
244.7482808787518
 51
295.2516148471758
  0
ARC
  5
18B9
330
1F
100
AcDbEntity
  8
AM_11
 48
0.5
100
AcDbCircle
 10
-30.8696822988581
 20
-6.625446930970577
 30
0.0
 40
7.325448036193749
100
AcDbArc
 50
64.74833051131179
 51
115.2516644797366
  0
ARC
  5
18BA
330
1F
100
AcDbEntity
  8
AM_11
 48
0.5
100
AcDbCircle
 10
-37.11969506605852
 20
6.625457452091307
 30
0.0
 40
7.325448036193749
100
AcDbArc
 50
244.7482808787518
 51
295.2516148471758
  0
ARC
  5
18BB
330
1F
100
AcDbEntity
  8
AM_11
 48
0.5
100
AcDbCircle
 10
-37.11969506605853
 20
-6.625440909114692
 30
0.0
 40
7.325448036193749
100
AcDbArc
 50
64.74833051131179
 51
115.2516644797366
  0
TEXT
  5
19BD
330
1F
100
AcDbEntity
  8
AM_6
100
AcDbText
 10
-46.24999807949955
 20
-24.75000718101108
 30
0.0
 40
2.5
  1
MDW026MHK
 50
0.0000000000001527
 72
     4
 11
-34.99999807949955
 21
-23.50000718101106
 31
0.0
100
AcDbText
  0
LINE
  5
1B5C
330
1F
100
AcDbEntity
  8
AM_0
 48
0.5
100
AcDbLine
 10
-68.7499999868482
 20
1.500005264989105
 30
0.0
 11
-68.99999998684821
 21
1.250005235204411
 31
0.0
1001
GENIUS_GENFIL_13
1070
     0
1040
0.25
1040
0.25
1040
20.0
1040
0.0
1002
{
1002
}
1001
GENIUS_GENODEF_13
1002
{
1000
HIER
1070
     0
1002
}
1002
{
1000
MANEDIT
1070
     0
1002
}
1002
{
1000
NOSEL
1070
     0
1002
}
1002
{
1000
BEHIND
1070
     0
1002
}
1002
{
1000
REACTOR
1002
}
1001
GENIUS_GENOBJ-N-CHA_13
1002
{
1000
OWNER
1000
GEN
1002
}
  0
LINE
  5
1B60
330
1F
100
AcDbEntity
  8
AM_0
 48
0.5
100
AcDbLine
 10
-68.99999998684821
 20
-1.250006209471275
 30
0.0
 11
-68.7499999868482
 21
-1.500006181011199
 31
0.0
1001
GENIUS_GENFIL_13
1070
     0
1040
0.25
1040
0.25
1040
20.0
1040
0.0
1002
{
1002
}
1001
GENIUS_GENODEF_13
1002
{
1000
HIER
1070
     0
1002
}
1002
{
1000
MANEDIT
1070
     0
1002
}
1002
{
1000
NOSEL
1070
     0
1002
}
1002
{
1000
BEHIND
1070
     0
1002
}
1002
{
1000
REACTOR
1002
}
1001
GENIUS_GENOBJ-N-CHA_13
1002
{
1000
OWNER
1000
GEN
1002
}
  0
LINE
  5
1C15
330
1F
100
AcDbEntity
  8
AM_0
 48
0.5
100
AcDbLine
 10
-20.99999998684821
 20
-1.500000745136699
 30
0.0
 11
-20.99999998684821
 21
1.50001095386569
 31
0.0
  0
LINE
  5
1C1A
330
1F
100
AcDbEntity
  8
AM_0
 48
0.5
100
AcDbLine
 10
-20.99999979570287
 20
1.50001084350788
 30
0.0
 11
-68.7499999868482
 21
1.500005264989105
 31
0.0
  0
LINE
  5
1C1E
330
1F
100
AcDbEntity
  8
AM_0
 48
0.5
100
AcDbLine
 10
-20.99999998684821
 20
-1.499999305169979
 30
0.0
 11
-68.7499999868482
 21
-1.500006181011199
 31
0.0
  0
ARC
  5
1C22
330
1F
100
AcDbEntity
  8
AM_11
 48
0.5
100
AcDbCircle
 10
-49.61969506599473
 20
6.625457452091293
 30
0.0
 40
7.325448036193749
100
AcDbArc
 50
244.7482808787518
 51
295.2516148471758
  0
ARC
  5
1C23
330
1F
100
AcDbEntity
  8
AM_11
 48
0.5
100
AcDbCircle
 10
-49.61969506599474
 20
-6.625440909114706
 30
0.0
 40
7.325448036193749
100
AcDbArc
 50
64.74833051131179
 51
115.2516644797366
  0
ARC
  5
1C24
330
1F
100
AcDbEntity
  8
AM_11
 48
0.5
100
AcDbCircle
 10
-43.3696822987943
 20
6.625451430235407
 30
0.0
 40
7.325448036193749
100
AcDbArc
 50
244.7482808787518
 51
295.2516148471758
  0
ARC
  5
1C25
330
1F
100
AcDbEntity
  8
AM_11
 48
0.5
100
AcDbCircle
 10
-43.36968229879431
 20
-6.625446930970591
 30
0.0
 40
7.325448036193749
100
AcDbArc
 50
64.74833051131179
 51
115.2516644797366
  0
ARC
  5
1C26
330
1F
100
AcDbEntity
  8
AM_11
 48
0.5
100
AcDbCircle
 10
-62.11969506593085
 20
6.625457452091239
 30
0.0
 40
7.325448036193749
100
AcDbArc
 50
244.7482808787518
 51
295.2516148471758
  0
ARC
  5
1C27
330
1F
100
AcDbEntity
  8
AM_11
 48
0.5
100
AcDbCircle
 10
-62.11969506593086
 20
-6.62544090911476
 30
0.0
 40
7.325448036193749
100
AcDbArc
 50
64.74833051131179
 51
115.2516644797366
  0
ARC
  5
1C28
330
1F
100
AcDbEntity
  8
AM_11
 48
0.5
100
AcDbCircle
 10
-55.86968229873042
 20
6.625451430235353
 30
0.0
 40
7.325448036193749
100
AcDbArc
 50
244.7482808787518
 51
295.2516148471758
  0
ARC
  5
1C29
330
1F
100
AcDbEntity
  8
AM_11
 48
0.5
100
AcDbCircle
 10
-55.86968229873043
 20
-6.625446930970645
 30
0.0
 40
7.325448036193749
100
AcDbArc
 50
64.74833051131179
 51
115.2516644797366
  0
ARC
  5
1C2C
330
1F
100
AcDbEntity
  8
AM_11
 48
0.5
100
AcDbCircle
 10
-68.36968229866659
 20
6.625451430235318
 30
0.0
 40
7.325448036193749
100
AcDbArc
 50
265.0638846988117
 51
295.2516148471758
  0
ARC
  5
1C2D
330
1F
100
AcDbEntity
  8
AM_11
 48
0.5
100
AcDbCircle
 10
-68.36968229866659
 20
-6.62544693097068
 30
0.0
 40
7.325448036193749
100
AcDbArc
 50
64.74833051131179
 51
94.93611530118821
  0
DIMENSION
  5
1C71
330
1F
100
AcDbEntity
  8
AM_5
100
AcDbDimension
  2
*D7
 10
7.295959629613277
 20
1.300000762566297
 30
0.0
 11
7.295959629613278
 21
7.354762667328203
 31
0.0
 70
   160
  1
%%c<>
  3
AM_JIS$0
100
AcDbAlignedDimension
 13
-0.9999961721509576
 23
-1.299999237433701
 33
0.0
 14
-0.9999961721509626
 24
1.300000762566299
 34
0.0
 50
89.99999999999991
100
AcDbRotatedDimension
1001
GENIUS_GENDTOL_13
1000

1000
h7
1000

1040
0.0
1001
ACAD
1000
DSTYLE
1002
{
1070
   271
1070
     1
1002
}
  0
LINE
  5
1C85
330
1F
100
AcDbEntity
  8
AM_0
 48
0.5
100
AcDbLine
 10
-0.6484150434684892
 20
0.9981629035081274
 30
0.0
 11
-0.9999961721509626
 21
1.300000762566299
 31
0.0
  0
ELLIPSE
  5
1C86
330
1F
100
AcDbEntity
  8
AM_0
 48
0.5
100
AcDbEllipse
 10
2.184307726411499
 20
1.607193267197503
 30
0.0
 11
2.836893409549336
 21
0.5901859898785923
 31
0.0
210
0.0
220
0.0
230
0.9999999999999998
 40
0.5121575483306189
 41
3.154597222684332
 42
3.655201069360919
  0
LINE
  5
1CF2
330
1F
100
AcDbEntity
  8
AM_0
100
AcDbLine
 10
-20.9999999868482
 20
-1.500000745136699
 30
0.0
 11
-20.65365215156317
 21
-1.300036729201636
 31
0.0
  0
LINE
  5
1CF3
330
1F
100
AcDbEntity
  8
AM_0
100
AcDbLine
 10
-20.99999998684821
 20
1.50001095386569
 30
0.0
 11
-20.65375063326062
 21
1.300103796365163
 31
0.0
  0
LINE
  5
1CF4
330
1F
100
AcDbEntity
  8
AM_0
100
AcDbLine
 10
-20.65375063326062
 20
1.300103796365164
 30
0.0
 11
-20.6537514962651
 21
-1.300036728136236
 31
0.0
  0
DIMENSION
  5
1DEF
330
1F
100
AcDbEntity
  8
AM_5
100
AcDbDimension
  2
*D8
 10
-76.75000132837162
 20
1.500013847201807
 30
0.0
 11
-76.75000132837162
 21
0.0000038330952925
 31
0.0
 70
   160
  1
%%c<>
 51
359.9999999999998
  3
AM_JIS$0
100
AcDbAlignedDimension
 13
-68.74999998684822
 23
-1.500006181011199
 33
0.0
 14
-68.74999998684822
 24
1.500013847201804
 34
0.0
 50
270.0000065225689
100
AcDbRotatedDimension
1001
ACAD
1000
DSTYLE
1002
{
1070
   271
1070
     0
1002
}
1001
GENIUS_GENDTOL_13
1000

1000
h7
1000

1040
0.0
  0
ELLIPSE
  5
25CA
330
1F
100
AcDbEntity
  8
AM_0
 48
0.5
100
AcDbEllipse
 10
2.184307726411502
 20
-1.607193267197498
 30
0.0
 11
2.836893409549338
 21
-0.5901859898785859
 31
0.0
210
0.0
220
0.0
230
-1.0
 40
0.5121575483306189
 41
3.154597222684332
 42
3.655201069360919
  0
LINE
  5
25CB
330
1F
100
AcDbEntity
  8
AM_0
 48
0.5
100
AcDbLine
 10
-0.6484150434684869
 20
-0.9981629035081283
 30
0.0
 11
-0.9999961721509576
 21
-1.299999237433701
 31
0.0
  0
LINE
  5
2B62
330
1F
100
AcDbEntity
  8
AM_0
 48
0.5
100
AcDbLine
 10
-2.124700623991027
 20
1.300000762566319
 30
0.0
 11
-0.9999961721509626
 21
1.300000762566299
 31
0.0
  0
LINE
  5
2B63
330
1F
100
AcDbEntity
  8
AM_0
 48
0.5
100
AcDbLine
 10
-2.124700623990525
 20
-1.299999237433685
 30
0.0
 11
-0.9999961721509576
 21
-1.299999237433701
 31
0.0
  0
LINE
  5
2B64
330
1F
100
AcDbEntity
  8
AM_0
 48
0.5
100
AcDbLine
 10
0.0000000131517908
 20
-0.000000036134484
 30
0.0
 11
-1.243632450990489
 21
0.4991612182613183
 31
0.0
  0
SPLINE
  5
2B71
330
1F
100
AcDbEntity
  8
AM_0
 48
0.5
100
AcDbSpline
210
0.0
220
0.0
230
1.0
 70
     8
 71
     3
 72
    10
 73
     6
 74
     0
 42
0.0000000001
 43
0.0000000001
 40
0.0
 40
0.0
 40
0.0
 40
0.0
 40
2.69986029516136
 40
4.147722969032201
 40
6.285750005020438
 40
6.285750005020438
 40
6.285750005020438
 40
6.285750005020438
 10
-2.470895632374433
 20
0.2353092734724154
 30
0.0
 10
-2.001340753668868
 20
0.1145148496366735
 30
0.0
 10
-1.713865875357918
 20
-0.0710346636261441
 30
0.0
 10
-1.034026405347965
 20
0.0187931062976174
 30
0.0
 10
-1.162059951900988
 20
0.3213449213840151
 30
0.0
 10
-1.246656339064709
 20
0.5057595710242708
 30
0.0
  0
ELLIPSE
  5
2B7A
330
1F
100
AcDbEntity
  8
AM_0
 48
0.5
100
AcDbEllipse
 10
-22.08416259187361
 20
-27.63957941539687
 30
0.0
 11
20.48715026650523
 21
27.29106755937648
 31
0.0
210
0.0
220
0.0
230
0.9999999999999998
 40
0.5288535517494646
 41
-0.0184280219381159
 42
0.0581788759951931
  0
ELLIPSE
  5
2B7B
330
1F
100
AcDbEntity
  8
AM_0
 48
0.5
100
AcDbEllipse
 10
1.141304605866556
 20
-0.288971329108466
 30
0.0
 11
-2.502227257745459
 21
0.0919370882312399
 31
0.0
210
0.0
220
0.0
230
1.0
 40
0.8010372284602926
 41
0.1777050739028223
 42
0.5739211356324901
  0
ELLIPSE
  5
2B7C
330
1F
100
AcDbEntity
  8
AM_0
 48
0.5
100
AcDbEllipse
 10
-0.6812638064036028
 20
-0.3387980077111784
 30
0.0
 11
-0.0523740348984966
 21
0.2119549051101671
 31
0.0
210
0.0
220
0.0
230
1.0
 40
0.5908887124855314
 41
1.748812614015157
 42
4.884154503727131
  0
ELLIPSE
  5
2B7D
330
1F
100
AcDbEntity
  8
AM_0
 48
0.5
100
AcDbEllipse
 10
-0.6812638064036028
 20
-0.3387980077111784
 30
0.0
 11
-0.2300775995389173
 21
0.0995098356895476
 31
0.0
210
0.0
220
0.0
230
0.9999999999999998
 40
0.4482451421413631
 41
4.394295392522118
 42
7.537735733851631
  0
ELLIPSE
  5
2B7E
330
1F
100
AcDbEntity
  8
AM_0
 48
0.5
100
AcDbEllipse
 10
-2.700435991777103
 20
2.181871993000926
 30
0.0
 11
-3.298856304558624
 21
1.491640686207067
 31
0.0
210
0.0
220
0.0
230
1.0
 40
0.6487720490833521
 41
2.525681110930468
 42
2.759643169174458
  0
ELLIPSE
  5
2B7F
330
1F
100
AcDbEntity
  8
AM_0
 48
0.5
100
AcDbEllipse
 10
-0.7950362486244942
 20
-1.469795999067074
 30
0.0
 11
2.045934236119523
 21
0.5573846890804458
 31
0.0
210
0.0
220
0.0
230
1.0
 40
0.4883736038913605
 41
1.438607637521933
 42
1.702985016067862
  0
DIMENSION
  5
2C50
330
1F
100
AcDbEntity
  8
AM_5
100
AcDbDimension
  2
*D9
 10
-0.1380525400625933
 20
-0.3792954225515209
 30
0.0
 11
12.65358385933751
 21
-0.000017002115645
 31
0.0
 70
    34
  1
<>
 51
359.9999999999998
  3
AM_JIS$2
100
AcDb2LineAngularDimension
 13
-0.0000000000000021
 23
-0.0000000000000057
 33
0.0
 14
-0.1380505777151787
 24
0.3792932024930053
 34
0.0
 15
0.0
 25
0.0
 35
0.0
 16
13.04195068964698
 26
-5.625772538805154
 36
0.0
1001
GENIUS_GENDTOL_13
1000

1000
h7
1000

1040
0.0
1001
ACAD
1000
DSTYLE
1002
{
1070
   271
1070
     0
1002
}
  0
LINE
  5
2DA8
330
1F
100
AcDbEntity
  8
AM_0
100
AcDbLine
 10
-20.65375063326062
 20
1.300103796365164
 30
0.0
 11
-17.55926286861082
 21
1.300185451159157
 31
0.0
  0
LINE
  5
2DA9
330
1F
100
AcDbEntity
  8
AM_0
 48
0.5
100
AcDbLine
 10
-14.81682159597981
 20
0.6232044203090233
 30
0.0
 11
-18.49999617215096
 21
-0.1052033106483602
 31
0.0
  0
LINE
  5
2DAA
330
1F
100
AcDbEntity
  8
AM_0
 48
0.5
100
AcDbLine
 10
-20.6537514962651
 20
-1.300036728136235
 30
0.0
 11
-17.91293671280142
 21
-1.300066121418991
 31
0.0
  0
LINE
  5
2DAB
330
1F
100
AcDbEntity
  8
AM_11
 48
0.5
100
AcDbLine
 10
-17.91293671280142
 20
-1.300066121418991
 30
0.0
 11
-12.88287501263546
 21
-1.299986033810871
 31
0.0
  0
ELLIPSE
  5
2DAD
330
1F
100
AcDbEntity
  8
AM_0
 48
0.5
100
AcDbEllipse
 10
-17.91293652850204
 20
-0.8667327880856797
 30
0.0
 11
-0.5870967741935499
 21
0.0000000000000311
 31
0.0
210
0.0
220
0.0
230
1.0
 40
0.7380952380952345
 41
0.0112467747892067
 42
1.570796012878419
  0
ELLIPSE
  5
2DAE
330
1F
100
AcDbEntity
  8
AM_0
 48
0.5
100
AcDbEllipse
 10
-18.05981822268032
 20
-0.8799355824785621
 30
0.0
 11
-0.4403225806451628
 21
0.0000000000000109
 31
0.0
210
0.0
220
0.0
230
1.0
 40
0.7380952380952368
 41
4.317028824483088
 42
6.25755390506937
  0
SPLINE
  5
2DAF
330
1F
100
AcDbEntity
  8
AM_0
100
AcDbSpline
210
0.0
220
0.0
230
1.0
 70
     8
 71
     3
 72
    13
 73
     9
 74
     0
 42
0.0000000001
 43
0.0000000001
 40
16.03460056234195
 40
16.03460056234195
 40
16.03460056234195
 40
16.03460056234195
 40
16.35212717791071
 40
17.38177067057215
 40
18.41822498539278
 40
19.46214186516937
 40
20.5139635832251
 40
21.34083983469381
 40
21.34083983469381
 40
21.34083983469381
 40
21.34083983469381
 10
-17.91293671280142
 20
-1.300066121418991
 30
0.0
 10
-17.82889639909997
 20
-1.295795908866522
 30
0.0
 10
-17.69963622505799
 20
-1.276685441388865
 30
0.0
 10
-17.47194334897661
 20
-1.239239932439375
 30
0.0
 10
-17.17708028054443
 20
-1.183559674601913
 30
0.0
 10
-16.88249114192171
 20
-1.121039810846305
 30
0.0
 10
-16.609899277919
 20
-1.057138898764466
 30
0.0
 10
-16.43599046900199
 20
-1.013138573204234
 30
0.0
 10
-16.3596977168387
 20
-0.9932500251199686
 30
0.0
  0
SPLINE
  5
2DB0
330
1F
100
AcDbEntity
  8
AM_0
 48
0.5
100
AcDbSpline
210
0.0
220
0.0
230
1.0
 70
     8
 71
     3
 72
    26
 73
    22
 74
     0
 42
0.0000000001
 43
0.0000000001
 40
0.0
 40
0.0
 40
0.0
 40
0.0
 40
0.2526859211241313
 40
0.5057083941171959
 40
0.7593947393741639
 40
1.01405318625086
 40
1.26996425091637
 40
1.527375060172565
 40
1.786490330669834
 40
2.047470117551047
 40
2.310425755981314
 40
2.575417325379407
 40
2.842456731169063
 40
3.111495753801943
 40
3.382458822635121
 40
3.655202026904655
 40
3.929554512223505
 40
4.205306020962704
 40
4.482215236978595
 40
4.76001530984208
 40
5.029821427366006
 40
5.029821427366006
 40
5.029821427366006
 40
5.029821427366006
 10
-12.87264277724087
 20
-1.300066121419099
 30
0.0
 10
-12.97154897708041
 20
-1.299292652947229
 30
0.0
 10
-13.16949310972765
 20
-1.297744685822387
 30
0.0
 10
-13.46633727284086
 20
-1.285266331934391
 30
0.0
 10
-13.76316876565769
 20
-1.265429011701921
 30
0.0
 10
-14.05998188427019
 20
-1.237626242945745
 30
0.0
 10
-14.35677368241699
 20
-1.202234850199628
 30
0.0
 10
-14.65353824685421
 20
-1.159412048593948
 30
0.0
 10
-14.95027538015756
 20
-1.109447165591706
 30
0.0
 10
-15.24698305858632
 20
-1.052643662727932
 30
0.0
 10
-15.54366058069483
 20
-0.9893539962470869
 30
0.0
 10
-15.84031038815016
 20
-0.9199720862975837
 30
0.0
 10
-16.13693125173244
 20
-0.8449263438092053
 30
0.0
 10
-16.43352653223951
 20
-0.7646771179757457
 30
0.0
 10
-16.73010019535477
 20
-0.6797272411998432
 30
0.0
 10
-17.02665288186241
 20
-0.5905920413258958
 30
0.0
 10
-17.3231868024069
 20
-0.4978252949473164
 30
0.0
 10
-17.61970740248479
 20
-0.4019993528607939
 30
0.0
 10
-17.91620978176401
 20
-0.3036913183219791
 30
0.0
 10
-18.20966643742088
 20
-0.2045868210237182
 30
0.0
 10
-18.40409251278129
 20
-0.1380077245615708
 30
0.0
 10
-18.49999617215096
 20
-0.1052033106483603
 30
0.0
  0
SPLINE
  5
2DB1
330
1F
100
AcDbEntity
  8
AM_0
 48
0.5
100
AcDbSpline
210
0.0
220
0.0
230
1.0
 70
     8
 71
     3
 72
    22
 73
    18
 74
     0
 42
0.0000000001
 43
0.0000000001
 40
0.0
 40
0.0
 40
0.0
 40
0.0
 40
1.010743684496582
 40
2.022833993863546
 40
3.037578683882831
 40
4.056212471389632
 40
5.079857945358201
 40
6.109499720892564
 40
7.145961650132166
 40
8.189873411961459
 40
9.241710626092514
 40
10.30166235592959
 40
11.36982472628033
 40
12.44598212828784
 40
13.52983440361964
 40
14.62080578343036
 40
14.90544694398022
 40
14.90544694398022
 40
14.90544694398022
 40
14.90544694398022
 10
-13.70360473068096
 20
-1.300066121419084
 30
0.0
 10
-13.80251094940788
 20
-1.299292883988792
 30
0.0
 10
-14.00045516069917
 20
-1.297745378935528
 30
0.0
 10
-14.2972990129544
 20
-1.285263549565412
 30
0.0
 10
-14.59413082629153
 20
-1.265429567082773
 30
0.0
 10
-14.89094410529636
 20
-1.237626779966196
 30
0.0
 10
-15.18773508543031
 20
-1.202232058017463
 30
0.0
 10
-15.48450067048104
 20
-1.159412958956136
 30
0.0
 10
-15.78123651177944
 20
-1.109446260281409
 30
0.0
 10
-16.07794464978469
 20
-1.052641935019367
 30
0.0
 10
-16.37462241220334
 20
-0.9893546598805517
 30
0.0
 10
-16.67127134944422
 20
-0.919969608350353
 30
0.0
 10
-16.96789337380303
 20
-0.8449283092348903
 30
0.0
 10
-17.26448826248179
 20
-0.7646768798806662
 30
0.0
 10
-17.56106157183637
 20
-0.6797265582267712
 30
0.0
 10
-17.78395713967219
 20
-0.6127340383178199
 30
0.0
 10
-17.90816232831673
 20
-0.5744432673544864
 30
0.0
 10
-17.89023212571982
 20
-0.5800067605702855
 30
0.0
  0
LINE
  5
2DB2
330
1F
100
AcDbEntity
  8
AM_0
 48
0.5
100
AcDbLine
 10
-13.70360473068096
 20
-1.300066121419084
 30
0.0
 11
-7.716480271325897
 21
-1.299999237433578
 31
0.0
  0
LINE
  5
2DB3
330
1F
100
AcDbEntity
  8
AM_11
 48
0.5
100
AcDbLine
 10
-7.716480271325897
 20
-1.299999237433578
 30
0.0
 11
-2.124700623991083
 21
-1.299999237433681
 31
0.0
  0
SPLINE
  5
2DB4
330
1F
100
AcDbEntity
  8
AM_0
100
AcDbSpline
210
0.0
220
0.0
230
1.0
 70
     8
 71
     3
 72
    17
 73
    13
 74
     0
 42
0.0000000001
 43
0.0000000001
 40
1.580019955310467
 40
1.580019955310467
 40
1.580019955310467
 40
1.580019955310467
 40
2.030549285115227
 40
3.082371838836284
 40
4.126290986361125
 40
5.162752068350215
 40
6.192395305374981
 40
7.216039564037012
 40
8.234688489606833
 40
9.249433870634691
 40
10.26152376260694
 40
11.27226744710342
 40
11.27226744710342
 40
11.27226744710342
 40
11.27226744710352
 10
-4.920372314009804
 20
-0.9594375180010981
 30
0.0
 10
-4.962370808336158
 20
-0.969318935249203
 30
0.0
 10
-5.102659889292547
 20
-1.001706600131804
 30
0.0
 10
-5.342168140721258
 20
-1.052507811350922
 30
0.0
 10
-5.638834541645566
 20
-1.109398428674678
 30
0.0
 10
-5.935582614552297
 20
-1.159340837224073
 30
0.0
 10
-6.232344284352135
 20
-1.202167319166485
 30
0.0
 10
-6.529138285804036
 20
-1.237566352604053
 30
0.0
 10
-6.825952791901838
 20
-1.265335930861758
 30
0.0
 10
-7.122785780046771
 20
-1.285296097780683
 30
0.0
 10
-7.419629937042701
 20
-1.297318367448354
 30
0.0
 10
-7.6175740728031
 20
-1.299999244872247
 30
0.0
 10
-7.716480271325871
 20
-1.299999237433578
 30
0.0
  0
SPLINE
  5
2DB5
330
1F
100
AcDbEntity
  8
AM_0
100
AcDbSpline
210
0.0
220
0.0
230
1.0
 70
     8
 71
     3
 72
    22
 73
    18
 74
     0
 42
0.0000000001
 43
0.0000000001
 40
17.17441611292
 40
17.17441611292
 40
17.17441611292
 40
17.17441611292
 40
17.38177636558528
 40
18.41823744757437
 40
19.46215659509824
 40
20.51397914882054
 40
21.57394542641293
 40
22.64209583141747
 40
23.71826625065247
 40
24.80210429862395
 40
25.8930771157021
 40
26.99048705697709
 40
28.09349309193389
 40
29.20112995599786
 40
30.31233024745139
 40
31.42594771747373
 40
32.5407895042663
 40
32.54078950426994
 40
32.54078950426994
 40
32.54078950426994
 10
-8.84946868315221
 20
-1.167408646377332
 30
0.0
 10
-8.869345791084004
 20
-1.164399273883633
 30
0.0
 10
-8.988498197614207
 20
-1.146068857091988
 30
0.0
 10
-9.206778692166162
 20
-1.109313985667876
 30
0.0
 10
-9.50348639412372
 20
-1.052510725434171
 30
0.0
 10
-9.800163862189274
 20
-0.989220893769405
 30
0.0
 10
-10.09681319088911
 20
-0.9198395614957345
 30
0.0
 10
-10.39343398837011
 20
-0.8447921387615881
 30
0.0
 10
-10.69002990569032
 20
-0.7645456803576474
 30
0.0
 10
-10.98660231617222
 20
-0.6795933551979107
 30
0.0
 10
-11.28315396381583
 20
-0.5904590596167866
 30
0.0
 10
-11.57968814608745
 20
-0.4976926957594085
 30
0.0
 10
-11.87620743672487
 20
-0.4018646868024583
 30
0.0
 10
-12.17271482067418
 20
-0.3035645828500272
 30
0.0
 10
-12.46921292621524
 20
-0.2033968182721042
 30
0.0
 10
-12.76570614570963
 20
-0.1019794823176122
 30
0.0
 10
-12.963329493327
 20
-0.0339610263703166
 30
0.0
 10
-13.06219545569208
 20
0.0000668839859583
 30
0.0
  0
SPLINE
  5
2DB6
330
1F
100
AcDbEntity
  8
AM_0
100
AcDbSpline
210
0.0
220
0.0
230
1.0
 70
     8
 71
     3
 72
    11
 73
     7
 74
     0
 42
0.0000000001
 43
0.0000000001
 40
11.27226913003534
 40
11.27226913003534
 40
11.27226913003534
 40
11.2722691300354
 40
12.28301561507924
 40
13.29510212255852
 40
14.30984805882082
 40
15.18258238371378
 40
15.18258238371378
 40
15.18258238371378
 40
15.18258238371378
 10
-7.716480271325888
 20
-1.299999237433578
 30
0.0
 10
-7.815010379789276
 20
-1.293636659656043
 30
0.0
 10
-8.01188475019533
 20
-1.278233135767322
 30
0.0
 10
-8.306179683258296
 20
-1.247160418031176
 30
0.0
 10
-8.585470763962783
 20
-1.210047463685975
 30
0.0
 10
-8.76609984090491
 20
-1.181517631128443
 30
0.0
 10
-8.849338862968105
 20
-1.167424681867392
 30
0.0
  0
LINE
  5
2DB7
330
1F
100
AcDbEntity
  8
AM_0
 48
0.5
100
AcDbLine
 10
-13.99080829394423
 20
1.300000762566538
 30
0.0
 11
-7.71648027132584
 21
1.300000762566421
 31
0.0
  0
LINE
  5
2DB8
330
1F
100
AcDbEntity
  8
AM_11
 48
0.5
100
AcDbLine
 10
-7.71648027132584
 20
1.300000762566421
 30
0.0
 11
-2.124700623991027
 21
1.300000762566319
 31
0.0
  0
SPLINE
  5
2DB9
330
1F
100
AcDbEntity
  8
AM_0
100
AcDbSpline
210
0.0
220
0.0
230
1.0
 70
     8
 71
     3
 72
    46
 73
    42
 74
     0
 42
0.0000000001
 43
0.0000000001
 40
0.0
 40
0.0
 40
0.0
 40
0.0
 40
0.5056245176053715
 40
0.759310862862336
 40
1.013969309739036
 40
1.269880374404297
 40
1.527291183660732
 40
1.786406454158005
 40
2.047386241038974
 40
2.310345544571907
 40
2.575337113970003
 40
2.842374715221223
 40
3.111417320030211
 40
3.382376832022752
 40
3.655120036292296
 40
3.929472521611371
 40
4.205224030350333
 40
4.482133246366229
 40
4.759933319229942
 40
5.038338087391601
 40
5.317048131389549
 40
5.595758175387723
 40
5.874162943549383
 40
6.151963016412869
 40
6.428872232428759
 40
6.704623741167955
 40
6.978976226486705
 40
7.251719430756336
 40
7.522680721168327
 40
7.791723325977311
 40
8.058760927228529
 40
8.32375249662655
 40
8.586708135057122
 40
8.84768792193809
 40
9.106803192435362
 40
9.364213819003406
 40
9.620125035580644
 40
9.87478726697307
 40
10.12847352585208
 40
10.38149610319407
 40
10.63418200686337
 40
10.63418200686337
 40
10.63418200686337
 40
10.63418200686337
 10
-1.293738670550987
 20
-1.299999237433696
 30
0.0
 10
-1.491692474409186
 20
-1.297037736942504
 30
0.0
 10
-1.788965388164059
 20
-1.292590366581619
 30
0.0
 10
-2.184262145131576
 20
-1.265208724295082
 30
0.0
 10
-2.481078455259512
 20
-1.237600745030521
 30
0.0
 10
-2.777869394658773
 20
-1.202156789308612
 30
0.0
 10
-3.074634181480401
 20
-1.159348168246707
 30
0.0
 10
-3.37137129118549
 20
-1.109379543523027
 30
0.0
 10
-3.66808022678396
 20
-1.052576429007756
 30
0.0
 10
-3.964759667816251
 20
-0.9892876042326809
 30
0.0
 10
-4.261410207273412
 20
-0.919905609959305
 30
0.0
 10
-4.558031047255689
 20
-0.844858279926364
 30
0.0
 10
-4.854626953135581
 20
-0.7646117965245858
 30
0.0
 10
-5.151199366428478
 20
-0.6796594776773346
 30
0.0
 10
-5.447751014394309
 20
-0.5905251821127641
 30
0.0
 10
-5.744285192502101
 20
-0.4977588117577789
 30
0.0
 10
-6.040804499592405
 20
-0.4019308289693212
 30
0.0
 10
-6.337311821546216
 20
-0.3036306262854213
 30
0.0
 10
-6.633810302186401
 20
-0.2034631838536676
 30
0.0
 10
-6.930302650045963
 20
-0.1020444610334736
 30
0.0
 10
-7.226792505538497
 20
0.0000007625457661
 30
0.0
 10
-7.523282360965891
 20
0.102045986249011
 30
0.0
 10
-7.819774709020831
 20
0.2034647086973698
 30
0.0
 10
-8.1162731889469
 20
0.3036321524880164
 30
0.0
 10
-8.412780513548691
 20
0.401932350132278
 30
0.0
 10
-8.709299810820528
 20
0.497760351607202
 30
0.0
 10
-9.005834025289441
 20
0.5905266527596269
 30
0.0
 10
-9.302386183446667
 20
0.6796613980792653
 30
0.0
 10
-9.598959749076882
 20
0.7646129450916355
 30
0.0
 10
-9.895556184038404
 20
0.8448598399698992
 30
0.0
 10
-10.19217701711451
 20
0.9199071923334146
 30
0.0
 10
-10.48882633796496
 20
0.9892885490455565
 30
0.0
 10
-10.78550380228314
 20
1.05257835284514
 30
0.0
 10
-11.08221152673564
 20
1.10938169940735
 30
0.0
 10
-11.37894846470487
 20
1.159347054921267
 30
0.0
 10
-11.67571346909628
 20
1.202168092170203
 30
0.0
 10
-11.97250630263822
 20
1.237561433468854
 30
0.0
 10
-12.26932108334696
 20
1.265363767764304
 30
0.0
 10
-12.56615422784174
 20
1.285199269321058
 30
0.0
 10
-12.86299814715887
 20
1.297680989998259
 30
0.0
 10
-13.06094236267913
 20
1.299227848315628
 30
0.0
 10
-13.15984858010073
 20
1.300000762566523
 30
0.0
  0
SPLINE
  5
2DBA
330
1F
100
AcDbEntity
  8
AM_0
 48
0.5
100
AcDbSpline
210
0.0
220
0.0
230
1.0
 70
     8
 71
     3
 72
    25
 73
    21
 74
     0
 42
0.0000000001
 43
0.0000000001
 40
6.846175049578289
 40
6.846175049578289
 40
6.846175049578289
 40
6.846175049578289
 40
7.604337694224321
 40
8.711974558287883
 40
9.814980593243754
 40
10.91239053451967
 40
12.0033633515982
 40
13.08720139956839
 40
14.16337181880432
 40
15.23152222380919
 40
16.29148850140128
 40
17.34331105512262
 40
18.38723020264746
 40
19.42369128463655
 40
20.45333379090873
 40
21.47697865721768
 40
22.49561244472435
 40
23.5103574802404
 40
24.52244778960836
 40
25.53320666051913
 40
25.53320666051913
 40
25.53320666051913
 40
25.53320666051913
 10
-2.470895632374433
 20
0.2353092734724154
 30
0.0
 10
-2.538328464968742
 20
0.2581349614309286
 30
0.0
 10
-2.704419134083642
 20
0.3140794017046313
 30
0.0
 10
-2.96941446811605
 20
0.4019323119675529
 30
0.0
 10
-3.265933742548438
 20
0.4977603480028206
 30
0.0
 10
-3.562467929127719
 20
0.5905267046496858
 30
0.0
 10
-3.859019575635188
 20
0.6796610021789775
 30
0.0
 10
-4.155591986388037
 20
0.7646133267015371
 30
0.0
 10
-4.452187903749504
 20
0.8448597857176411
 30
0.0
 10
-4.748808700802478
 20
0.9199072066534444
 30
0.0
 10
-5.045458031154239
 20
0.989288545441061
 30
0.0
 10
-5.342135493106183
 20
1.052578353104288
 30
0.0
 10
-5.638843217630268
 20
1.109381701905965
 30
0.0
 10
-5.935580157631282
 20
1.159347044776676
 30
0.0
 10
-6.232345153904773
 20
1.20216812991315
 30
0.0
 10
-6.529136555093018
 20
1.237561119301086
 30
0.0
 10
-6.825949743240991
 20
1.26536402869019
 30
0.0
 10
-7.122781447166114
 20
1.285199225590562
 30
0.0
 10
-7.419626848395388
 20
1.297681065970601
 30
0.0
 10
-7.617572559609583
 20
1.299227869736343
 30
0.0
 10
-7.71648027132584
 20
1.300000762566421
 30
0.0
  0
SPLINE
  5
2DBB
330
1F
100
AcDbEntity
  8
AM_0
 48
0.5
100
AcDbSpline
210
0.0
220
0.0
230
1.0
 70
     8
 71
     3
 72
    17
 73
    13
 74
     0
 42
0.0000000001
 43
0.0000000001
 40
0.0
 40
0.0
 40
0.0
 40
0.0
 40
1.010743614677189
 40
2.022833924044153
 40
3.037578959561199
 40
4.056212747067873
 40
5.079857613375832
 40
6.109500119648989
 40
7.14596120163808
 40
8.18989512056258
 40
9.241717674284874
 40
9.693948937866434
 40
9.693948937866434
 40
9.693948937866434
 40
9.693948937866434
 10
-2.124700623991027
 20
1.300000762566319
 30
0.0
 10
-2.223606841818414
 20
1.299227851459761
 30
0.0
 10
-2.421551058150712
 20
1.297680999435271
 30
0.0
 10
-2.718394971365301
 20
1.285199231472078
 30
0.0
 10
-3.015226663688287
 20
1.265364008932396
 30
0.0
 10
-3.312039895606135
 20
1.237561192881565
 30
0.0
 10
-3.608831132159247
 20
1.202167853322687
 30
0.0
 10
-3.905596748336053
 20
1.159348086444716
 30
0.0
 10
-4.202332761043223
 20
1.109377537248039
 30
0.0
 10
-4.499050684829177
 20
1.052592620339267
 30
0.0
 10
-4.738569130208099
 20
1.001437993900155
 30
0.0
 10
-4.87922840455967
 20
0.9694589960185467
 30
0.0
 10
-4.921446772256651
 20
0.9596704388437945
 30
0.0
  0
SPLINE
  5
2DBC
330
1F
100
AcDbEntity
  8
AM_0
100
AcDbSpline
210
0.0
220
0.0
230
1.0
 70
     8
 71
     3
 72
    55
 73
    51
 74
     0
 42
0.0000000001
 43
0.0000000001
 40
0.0
 40
0.0
 40
0.0
 40
0.0
 40
1.010743684496582
 40
2.022833576467832
 40
3.037578957496688
 40
4.056212745003489
 40
5.079857003664532
 40
6.109500240690281
 40
7.145961322679372
 40
8.189895241603872
 40
9.241717795325891
 40
10.30168407291828
 40
11.36983447792315
 40
12.44600489715814
 40
13.52984294512926
 40
14.62081576220742
 40
15.7182257034828
 40
16.82123173843959
 40
17.92886860250316
 40
19.0400688939571
 40
20.15368796660465
 40
21.26852814259644
 40
22.38336992938901
 40
23.49698739941135
 40
24.6081876908653
 40
25.71582455492886
 40
26.81883757994213
 40
27.91624752121713
 40
29.00722033829659
 40
30.09105838626677
 40
31.16722880550176
 40
32.23537921050758
 40
33.29534548809967
 40
34.347168041821
 40
35.39108718934584
 40
36.42754827133493
 40
37.45720575381954
 40
38.48085062012849
 40
39.49948440763516
 40
40.51422944315121
 40
41.52631975251916
 40
42.53706336719636
 40
43.54780698187354
 40
44.55989729124051
 40
45.57464232675757
 40
46.59327611426424
 40
47.6169209805722
 40
48.64656348684535
 40
49.68302456883444
 40
50.58557219878025
 40
50.58557219878025
 40
50.58557219878025
 40
50.58557219878025
 10
-2.124700623991083
 20
-1.299999237433681
 30
0.0
 10
-2.223606823818723
 20
-1.299225768928104
 30
0.0
 10
-2.421550956442057
 20
-1.297677801735813
 30
0.0
 10
-2.718395119734215
 20
-1.285199448354661
 30
0.0
 10
-3.01522661186828
 20
-1.265362126188208
 30
0.0
 10
-3.312039733047186
 20
-1.237559364701757
 30
0.0
 10
-3.608831521543221
 20
-1.20216794461854
 30
0.0
 10
-3.905596122317973
 20
-1.159345245943659
 30
0.0
 10
-4.202334528035878
 20
-1.109379737638695
 30
0.0
 10
-4.499044107226973
 20
-1.052577384569844
 30
0.0
 10
-4.795722838758269
 20
-0.9892869497390929
 30
0.0
 10
-5.092372201409226
 20
-0.9199057006634596
 30
0.0
 10
-5.388992989666004
 20
-0.8448582553437507
 30
0.0
 10
-5.685588909567747
 20
-0.7646118031904342
 30
0.0
 10
-5.982161319041061
 20
-0.6796594758453018
 30
0.0
 10
-6.27871296812417
 20
-0.5905251827130391
 30
0.0
 10
-6.575247145614986
 20
-0.4977588112009437
 30
0.0
 10
-6.871766454055777
 20
-0.4019308306028195
 30
0.0
 10
-7.168273771200214
 20
-0.3036306202773494
 30
0.0
 10
-7.464772269802575
 20
-0.2034632063404387
 30
0.0
 10
-7.761264550436962
 20
-0.1020443768877713
 30
0.0
 10
-8.057754800033617
 20
0.0000004973192055
 30
0.0
 10
-8.354243718637128
 20
0.1020472083975131
 30
0.0
 10
-8.65073699304901
 20
0.2034644584907471
 30
0.0
 10
-8.947235125620006
 20
0.3036321756287172
 30
0.0
 10
-9.243742971433704
 20
0.4019327604341739
 30
0.0
 10
-9.540263509978824
 20
0.4977599232194844
 30
0.0
 10
-9.836798155478918
 20
0.5905267651861569
 30
0.0
 10
-10.13334984737421
 20
0.6796609860396973
 30
0.0
 10
-10.4299222460562
 20
0.7646133312499854
 30
0.0
 10
-10.72651816671742
 20
0.8448597835206861
 30
0.0
 10
-11.02313896252936
 20
0.9199072108954192
 30
0.0
 10
-11.31978829456286
 20
0.9892885308156907
 30
0.0
 10
-11.61646575107796
 20
1.052578406792714
 30
0.0
 10
-11.91317349546301
 20
1.109381503830671
 30
0.0
 10
-12.20991179110637
 20
1.159348016879149
 30
0.0
 10
-12.50667851087983
 20
1.202165824607398
 30
0.0
 10
-12.80347127989207
 20
1.237568199083293
 30
0.0
 10
-13.10028448905966
 20
1.265338003984578
 30
0.0
 10
-13.39711618744127
 20
1.285295790982143
 30
0.0
 10
-13.69396009904495
 20
1.297321832945184
 30
0.0
 10
-13.99081053361357
 20
1.301339335634719
 30
0.0
 10
-14.28766096774541
 20
1.297321832938894
 30
0.0
 10
-14.58450488066196
 20
1.285295791007432
 30
0.0
 10
-14.88133657420997
 20
1.265338003889372
 30
0.0
 10
-15.17814980149989
 20
1.237568199441193
 30
0.0
 10
-15.47494105546211
 20
1.202165995854056
 30
0.0
 10
-15.77170660608766
 20
1.159348454668145
 30
0.0
 10
-16.05495285540133
 20
1.111649667183209
 30
0.0
 10
-16.23872624765602
 20
1.07676709296671
 30
0.0
 10
-16.32398639057421
 20
1.059767112876562
 30
0.0
  0
LINE
  5
2DBD
330
1F
100
AcDbEntity
  8
AM_11
 48
0.5
100
AcDbLine
 10
-17.55926286861082
 20
1.300185451159157
 30
0.0
 11
-13.9908034777773
 21
1.300000762566538
 31
0.0
  0
SPLINE
  5
2DBE
330
1F
100
AcDbEntity
  8
AM_0
100
AcDbSpline
210
0.0
220
0.0
230
1.0
 70
     8
 71
     3
 72
    23
 73
    19
 74
     0
 42
0.0000000001
 43
0.0000000001
 40
16.03460024169435
 40
16.03460024169435
 40
16.03460024169435
 40
16.03460024169435
 40
16.35212704903564
 40
17.38177054169784
 40
18.41822485651776
 40
19.46214173629503
 40
20.51396345435107
 40
21.57393551351153
 40
22.64208202342361
 40
23.7182574881101
 40
24.80209208578934
 40
25.89306333925047
 40
26.99048218457928
 40
28.09348763352352
 40
29.20111863782268
 40
30.31232390128032
 40
31.42594612798585
 40
32.5407912310448
 40
32.5407912310486
 40
32.5407912310486
 40
32.5407912310486
 10
-17.55926286861082
 20
1.300185451159157
 30
0.0
 10
-17.52876577890382
 20
1.295796880088657
 30
0.0
 10
-17.39950571182189
 20
1.276685888267
 30
0.0
 10
-17.17181271162155
 20
1.239240816497508
 30
0.0
 10
-16.87694968029654
 20
1.183560404271593
 30
0.0
 10
-16.58236053162445
 20
1.121040582326982
 30
0.0
 10
-16.28802785809753
 20
1.052043183504661
 30
0.0
 10
-15.99394121332761
 20
0.9769528698477113
 30
0.0
 10
-15.70008359981145
 20
0.8961988892555677
 30
0.0
 10
-15.40643455442173
 20
0.810251209639289
 30
0.0
 10
-15.11297739096503
 20
0.7195965476974772
 30
0.0
 10
-14.81968858191646
 20
0.6247624017849588
 30
0.0
 10
-14.52654435949777
 20
0.5262999889307137
 30
0.0
 10
-14.23352519234553
 20
0.4247754267305661
 30
0.0
 10
-13.94060656390189
 20
0.3207790666104867
 30
0.0
 10
-13.64776134369826
 20
0.2149181710159095
 30
0.0
 10
-13.35496568586711
 20
0.107806175170685
 30
0.0
 10
-13.15982101052072
 20
0.0359934387798614
 30
0.0
 10
-13.06219545569077
 20
0.0000668839854913
 30
0.0
  0
VIEWPORT
  5
110
330
101
100
AcDbEntity
 67
     1
  8
0
100
AcDbViewport
 10
420.5
 20
297.0
 30
0.0
 40
948.9782706766916
 41
628.452
 68
     1
 69
     1
1001
ACAD
1000
MVIEW
1002
{
1070
    16
1010
0.0
1020
0.0
1030
0.0
1010
0.0
1020
0.0
1030
1.0
1040
0.0
1040
628.452
1040
420.5
1040
297.0
1040
50.0
1040
0.0
1040
0.0
1070
     0
1070
   100
1070
     1
1070
     1
1070
     0
1070
     0
1070
     0
1070
     0
1040
0.0
1040
0.0
1040
0.0
1040
10.0
1040
10.0
1040
10.0
1040
10.0
1070
     0
1002
{
1002
}
1002
}
  0
ENDSEC
  0
SECTION
  2
OBJECTS
  0
DICTIONARY
  5
C
330
0
100
AcDbDictionary
  3
ACAD_GROUP
350
D
  3
ACAD_LAYOUT
350
1A
  3
ACAD_MLINESTYLE
350
17
  3
ACAD_PLOTSETTINGS
350
19
  3
ACAD_PLOTSTYLENAME
350
E
  3
ACDBVARIABLEDICTIONARY
350
34
  3
ACMDICTIONARY
350
43
  3
AMG
350
2B
  3
AMGSNAPSETTINGS
350
6E
  3
DWGPROPS
350
2F06
  3
ACDBHEADERROUNDTRIPXREC
350
2F13
  0
DICTIONARY
  5
74
330
1F
100
AcDbDictionary
280
     1
  3
ACAD_INDEX
360
2F08
  3
ACAD_LAYOUTSELFREF
360
2F36
  0
DICTIONARY
  5
2F3B
330
101
100
AcDbDictionary
280
     1
  3
ACAD_LAYOUTSELFREF
360
2F3C
  0
DICTIONARY
  5
D
102
{ACAD_REACTORS
330
C
102
}
330
C
100
AcDbDictionary
  0
DICTIONARY
  5
1A
102
{ACAD_REACTORS
330
C
102
}
330
C
100
AcDbDictionary
  0
DICTIONARY
  5
17
102
{ACAD_REACTORS
330
C
102
}
330
C
100
AcDbDictionary
  3
STANDARD
350
18
  0
DICTIONARY
  5
19
102
{ACAD_REACTORS
330
C
102
}
330
C
100
AcDbDictionary
  0
ACDBDICTIONARYWDFLT
  5
E
102
{ACAD_REACTORS
330
C
102
}
330
C
100
AcDbDictionary
281
     1
  3
Normal
350
F
100
AcDbDictionaryWithDefault
340
F
  0
DICTIONARY
  5
34
102
{ACAD_REACTORS
330
C
102
}
330
C
100
AcDbDictionary
  3
INDEXCTL
350
35
  3
SORTENTS
350
B5E
  0
DICTIONARY
  5
43
102
{ACAD_REACTORS
330
C
102
}
330
C
100
AcDbDictionary
  3
ACMSTDDICTIONARY
350
260
  0
DICTIONARY
  5
2B
102
{ACAD_REACTORS
330
C
102
}
330
C
100
AcDbDictionary
  3
ACMGSETTINGS
350
2C
  0
DICTIONARY
  5
6E
102
{ACAD_REACTORS
330
C
102
}
330
C
100
AcDbDictionary
  0
XRECORD
  5
2F06
102
{ACAD_REACTORS
330
C
102
}
330
C
100
AcDbXrecord
  1
DWGPROPS COOKIE
  2

  3

  4

  6

  7

  8

  9

300
AmdtFileType=82
301
=
302
=
303
=
304
=
305
=
306
=
307
=
308
=
309
=
 40
0.0559221180555556
 41
2452800.443498622
 42
2452946.596194653
  1

 90
        1
  0
DICTIONARY
  5
2F13
102
{ACAD_REACTORS
330
C
102
}
330
C
100
AcDbDictionary
  3
TSTACKALIGN
350
2F14
  3
TSTACKSIZE
350
2F15
  3
HYPERLINKBASE
350
2F16
  3
STYLESHEET
350
2F17
  3
LAYOUTDICT
350
2F18
  3
PLOTSETDICT
350
2F19
  3
PLOTSTYLNAMDICT
350
2F1A
  3
LWETCUNION
350
2F1B
  3
INSUNITS
350
2F1C
  3
CEPSNTYPE
350
2F1D
  3
FINGERPRINTGUID
350
2F1E
  3
VERSIONGUID
350
2F1F
  3
PSVPSCALE
350
2F20
  3
DIMSTYLEDATA
350
2F21
  3
PUCSORTHOREF
350
2F22
  3
PUCSORTHOVIEW
350
2F23
  3
PUCSBASE
350
2F24
  3
PUCSORGTOP
350
2F25
  3
PUCSORGBOTTOM
350
2F26
  3
PUCSORGLEFT
350
2F27
  3
PUCSORGRIGHT
350
2F28
  3
PUCSORGFRONT
350
2F29
  3
PUCSORGBACK
350
2F2A
  3
UCSORTHOREF
350
2F2B
  3
UCSORTHOVIEW
350
2F2C
  3
UCSBASE
350
2F2D
  3
UCSORGTOP
350
2F2E
  3
UCSORGBOTTOM
350
2F2F
  3
UCSORGLEFT
350
2F30
  3
UCSORGRIGHT
350
2F31
  3
UCSORGFRONT
350
2F32
  3
UCSORGBACK
350
2F33
  0
DICTIONARY
  5
2F08
102
{ACAD_REACTORS
330
74
102
}
330
74
100
AcDbDictionary
  3
*A1
350
2F09
  0
XRECORD
  5
2F36
102
{ACAD_REACTORS
330
74
102
}
330
74
100
AcDbXrecord
340
1F
  0
XRECORD
  5
2F3C
102
{ACAD_REACTORS
330
2F3B
102
}
330
2F3B
100
AcDbXrecord
340
101
  0
MLINESTYLE
  5
18
102
{ACAD_REACTORS
330
17
102
}
330
17
100
AcDbMlineStyle
  2
STANDARD
 70
     0
  3

 62
   256
 51
90.0
 52
90.0
 71
     2
 49
0.5
 62
   256
  6
BYLAYER
 49
-0.5
 62
   256
  6
BYLAYER
  0
ACDBPLACEHOLDER
  5
F
102
{ACAD_REACTORS
330
E
102
}
330
E
100
AcDbPlaceHolder
280
     0
  0
DICTIONARYVAR
  5
35
102
{ACAD_REACTORS
330
34
102
}
330
34
100
DictionaryVariables
280
     0
  1
1
  0
DICTIONARYVAR
  5
B5E
102
{ACAD_REACTORS
330
34
102
}
330
34
100
DictionaryVariables
280
     0
  1
96
  0
DICTIONARY
  5
260
102
{ACAD_REACTORS
330
43
102
}
330
43
100
AcDbDictionary
  0
DICTIONARY
  5
2C
102
{ACAD_REACTORS
330
2B
102
}
330
2B
100
AcDbDictionary
  3
DWGSETTINGS
350
2D
  0
XRECORD
  5
2F14
102
{ACAD_REACTORS
330
2F13
102
}
330
2F13
100
AcDbXrecord
 90
        1
  0
XRECORD
  5
2F15
102
{ACAD_REACTORS
330
2F13
102
}
330
2F13
100
AcDbXrecord
 90
       70
  0
XRECORD
  5
2F16
102
{ACAD_REACTORS
330
2F13
102
}
330
2F13
100
AcDbXrecord
  1

  0
XRECORD
  5
2F17
102
{ACAD_REACTORS
330
2F13
102
}
330
2F13
100
AcDbXrecord
  1
ASAMI.ctb
  0
XRECORD
  5
2F18
102
{ACAD_REACTORS
330
2F13
102
}
330
2F13
100
AcDbXrecord
340
1A
  0
XRECORD
  5
2F19
102
{ACAD_REACTORS
330
2F13
102
}
330
2F13
100
AcDbXrecord
340
19
  0
XRECORD
  5
2F1A
102
{ACAD_REACTORS
330
2F13
102
}
330
2F13
100
AcDbXrecord
340
E
  0
XRECORD
  5
2F1B
102
{ACAD_REACTORS
330
2F13
102
}
330
2F13
100
AcDbXrecord
 90
    10781
  0
XRECORD
  5
2F1C
102
{ACAD_REACTORS
330
2F13
102
}
330
2F13
100
AcDbXrecord
 90
        4
  0
XRECORD
  5
2F1D
102
{ACAD_REACTORS
330
2F13
102
}
330
2F13
100
AcDbXrecord
 90
        0
  0
XRECORD
  5
2F1E
102
{ACAD_REACTORS
330
2F13
102
}
330
2F13
100
AcDbXrecord
  1
{AFB28963-8C59-40AE-9337-C84526B81ACE}
  0
XRECORD
  5
2F1F
102
{ACAD_REACTORS
330
2F13
102
}
330
2F13
100
AcDbXrecord
  1
{D0153B26-73EE-49A9-A631-08A57A70B86F}
  0
XRECORD
  5
2F20
102
{ACAD_REACTORS
330
2F13
102
}
330
2F13
100
AcDbXrecord
 40
0.0
  0
XRECORD
  5
2F21
102
{ACAD_REACTORS
330
2F13
102
}
330
2F13
100
AcDbXrecord
1000
DSTYLE
1002
{
1070
    79
 70
     2
1070
   341
340
59
1070
   342
340
59
1070
   371
 70
    -1
1070
   372
 70
    -1
1002
}
  0
XRECORD
  5
2F22
102
{ACAD_REACTORS
330
2F13
102
}
330
2F13
100
AcDbXrecord
340
0
  0
XRECORD
  5
2F23
102
{ACAD_REACTORS
330
2F13
102
}
330
2F13
100
AcDbXrecord
 70
     0
  0
XRECORD
  5
2F24
102
{ACAD_REACTORS
330
2F13
102
}
330
2F13
100
AcDbXrecord
340
0
  0
XRECORD
  5
2F25
102
{ACAD_REACTORS
330
2F13
102
}
330
2F13
100
AcDbXrecord
 10
0.0
 20
0.0
 30
0.0
  0
XRECORD
  5
2F26
102
{ACAD_REACTORS
330
2F13
102
}
330
2F13
100
AcDbXrecord
 10
0.0
 20
0.0
 30
0.0
  0
XRECORD
  5
2F27
102
{ACAD_REACTORS
330
2F13
102
}
330
2F13
100
AcDbXrecord
 10
0.0
 20
0.0
 30
0.0
  0
XRECORD
  5
2F28
102
{ACAD_REACTORS
330
2F13
102
}
330
2F13
100
AcDbXrecord
 10
0.0
 20
0.0
 30
0.0
  0
XRECORD
  5
2F29
102
{ACAD_REACTORS
330
2F13
102
}
330
2F13
100
AcDbXrecord
 10
0.0
 20
0.0
 30
0.0
  0
XRECORD
  5
2F2A
102
{ACAD_REACTORS
330
2F13
102
}
330
2F13
100
AcDbXrecord
 10
0.0
 20
0.0
 30
0.0
  0
XRECORD
  5
2F2B
102
{ACAD_REACTORS
330
2F13
102
}
330
2F13
100
AcDbXrecord
340
0
  0
XRECORD
  5
2F2C
102
{ACAD_REACTORS
330
2F13
102
}
330
2F13
100
AcDbXrecord
 70
     0
  0
XRECORD
  5
2F2D
102
{ACAD_REACTORS
330
2F13
102
}
330
2F13
100
AcDbXrecord
340
0
  0
XRECORD
  5
2F2E
102
{ACAD_REACTORS
330
2F13
102
}
330
2F13
100
AcDbXrecord
 10
0.0
 20
0.0
 30
0.0
  0
XRECORD
  5
2F2F
102
{ACAD_REACTORS
330
2F13
102
}
330
2F13
100
AcDbXrecord
 10
0.0
 20
0.0
 30
0.0
  0
XRECORD
  5
2F30
102
{ACAD_REACTORS
330
2F13
102
}
330
2F13
100
AcDbXrecord
 10
0.0
 20
0.0
 30
0.0
  0
XRECORD
  5
2F31
102
{ACAD_REACTORS
330
2F13
102
}
330
2F13
100
AcDbXrecord
 10
0.0
 20
0.0
 30
0.0
  0
XRECORD
  5
2F32
102
{ACAD_REACTORS
330
2F13
102
}
330
2F13
100
AcDbXrecord
 10
0.0
 20
0.0
 30
0.0
  0
XRECORD
  5
2F33
102
{ACAD_REACTORS
330
2F13
102
}
330
2F13
100
AcDbXrecord
 10
0.0
 20
0.0
 30
0.0
  0
LAYER_INDEX
  5
2F09
102
{ACAD_REACTORS
330
2F08
102
}
330
2F08
100
AcDbIndex
 40
2453151.575936759
100
AcDbLayerIndex
  8
0
360
2F0A
 90
        0
  8
AM_0
360
2F0B
 90
       44
  8
AM_7
360
2F0C
 90
        1
  8
AM_11
360
2F0D
 90
       27
  8
AM_5
360
2F0E
 90
        5
  8
Defpoints
360
2F0F
 90
        0
  8
AM_6
360
2F10
 90
        1
  8
AM_CL
360
2F11
 90
        0
  0
XRECORD
  5
2D
102
{ACAD_REACTORS
330
2C
102
}
330
2C
100
AcDbXrecord
  1
VERSION
140
15.0
  1
PRODUCT
  2
AutoCAD Mechanical 2000
  0
IDBUFFER
  5
2F0A
330
0
100
AcDbIdBuffer
  0
IDBUFFER
  5
2F0B
330
0
100
AcDbIdBuffer
330
2B62
330
2B63
330
2B64
330
2B71
330
2B7A
330
2B7B
330
2B7C
330
2B7D
330
2B7E
330
2B7F
330
2DA8
330
2DA9
330
2DAA
330
2DAD
330
2DAE
330
2DAF
330
2DB0
330
2DB1
330
2DB2
330
2DB4
330
2DB5
330
2DB6
330
2DB7
330
2DB9
330
2DBA
330
2DBB
330
2DBC
330
2DBE
330
C1D
330
C20
330
C2E
330
C30
330
1B5C
330
1B60
330
1C15
330
1C1A
330
1C1E
330
1C85
330
1C86
330
1CF2
330
1CF3
330
1CF4
330
25CA
330
25CB
  0
IDBUFFER
  5
2F0C
330
0
100
AcDbIdBuffer
330
C9F
  0
IDBUFFER
  5
2F0D
330
0
100
AcDbIdBuffer
330
1C25
330
1C26
330
1C27
330
1C28
330
1C29
330
1C2C
330
1C2D
330
2DAB
330
2DB3
330
2DB8
330
2DBD
330
144A
330
144B
330
144E
330
144F
330
1450
330
1451
330
1452
330
1453
330
1454
330
18B8
330
18B9
330
18BA
330
18BB
330
1C22
330
1C23
330
1C24
  0
IDBUFFER
  5
2F0E
330
0
100
AcDbIdBuffer
330
CC6
330
DF5
330
1C71
330
1DEF
330
2C50
  0
IDBUFFER
  5
2F0F
330
0
100
AcDbIdBuffer
  0
IDBUFFER
  5
2F10
330
0
100
AcDbIdBuffer
330
19BD
  0
IDBUFFER
  5
2F11
330
0
100
AcDbIdBuffer
  0
ENDSEC
  0
EOF
