  0
SECTION
  2
HEADER
  9
$ACADVER
  1
AC1014
  9
$ACADMAINTVER
 70
     9
  9
$DWGCODEPAGE
  3
ANSI_932
  9
$INSBASE
 10
0.0
 20
0.0
 30
0.0
  9
$EXTMIN
 10
-89.40000135426986
 20
-24.75000718101107
 30
-0.00000001
  9
$EXTMAX
 10
14.08668560106962
 20
13.70700103240375
 30
0.00000001
  9
$LIMMIN
 10
-100.8202718087565
 20
-35.3515339624532
  9
$LIMMAX
 10
23.01513788927292
 20
26.17939617649975
  9
$ORTHOMODE
 70
     0
  9
$REGENMODE
 70
     1
  9
$FILLMODE
 70
     1
  9
$QTEXTMODE
 70
     0
  9
$MIRRTEXT
 70
     0
  9
$DRAGMODE
 70
     2
  9
$LTSCALE
 40
1.0
  9
$OSMODE
 70
    55
  9
$ATTMODE
 70
     1
  9
$TEXTSIZE
 40
2.5
  9
$TRACEWID
 40
1.0
  9
$TEXTSTYLE
  7
STANDARD
  9
$CLAYER
  8
AM_0
  9
$CELTYPE
  6
BYLAYER
  9
$CECOLOR
 62
   256
  9
$CELTSCALE
 40
1.0
  9
$DELOBJ
 70
     1
  9
$DISPSILH
 70
     0
  9
$DIMSCALE
 40
0.5
  9
$DIMASZ
 40
2.5
  9
$DIMEXO
 40
1.0
  9
$DIMDLI
 40
12.0
  9
$DIMRND
 40
0.0
  9
$DIMDLE
 40
0.0
  9
$DIMEXE
 40
1.0
  9
$DIMTP
 40
0.1
  9
$DIMTM
 40
0.1
  9
$DIMTXT
 40
3.2
  9
$DIMCEN
 40
0.0
  9
$DIMTSZ
 40
0.0
  9
$DIMTOL
 70
     0
  9
$DIMLIM
 70
     0
  9
$DIMTIH
 70
     0
  9
$DIMTOH
 70
     0
  9
$DIMSE1
 70
     0
  9
$DIMSE2
 70
     0
  9
$DIMTAD
 70
     3
  9
$DIMZIN
 70
     8
  9
$DIMBLK
  1
OPEN30
  9
$DIMASO
 70
     1
  9
$DIMSHO
 70
     1
  9
$DIMPOST
  1

  9
$DIMAPOST
  1
"
  9
$DIMALT
 70
     0
  9
$DIMALTD
 70
     2
  9
$DIMALTF
 40
0.0393701
  9
$DIMLFAC
 40
1.0
  9
$DIMTOFL
 70
     1
  9
$DIMTVP
 40
0.0
  9
$DIMTIX
 70
     0
  9
$DIMSOXD
 70
     0
  9
$DIMSAH
 70
     0
  9
$DIMBLK1
  1

  9
$DIMBLK2
  1

  9
$DIMSTYLE
  2
AM_JIS
  9
$DIMCLRD
 70
   256
  9
$DIMCLRE
 70
   256
  9
$DIMCLRT
 70
     2
  9
$DIMTFAC
 40
0.71
  9
$DIMGAP
 40
1.5
  9
$DIMJUST
 70
     0
  9
$DIMSD1
 70
     0
  9
$DIMSD2
 70
     0
  9
$DIMTOLJ
 70
     0
  9
$DIMTZIN
 70
     0
  9
$DIMALTZ
 70
     0
  9
$DIMALTTZ
 70
     0
  9
$DIMFIT
 70
     3
  9
$DIMUPT
 70
     0
  9
$DIMUNIT
 70
     2
  9
$DIMDEC
 70
     3
  9
$DIMTDEC
 70
     3
  9
$DIMALTU
 70
     2
  9
$DIMALTTD
 70
     2
  9
$DIMTXSTY
  7
ASAMI
  9
$DIMAUNIT
 70
     0
  9
$LUNITS
 70
     2
  9
$LUPREC
 70
     2
  9
$SKETCHINC
 40
1.0
  9
$FILLETRAD
 40
2.5
  9
$AUNITS
 70
     0
  9
$AUPREC
 70
     0
  9
$MENU
  1
.
  9
$ELEVATION
 40
0.0
  9
$PELEVATION
 40
0.0
  9
$THICKNESS
 40
0.0
  9
$LIMCHECK
 70
     0
  9
$BLIPMODE
 70
     0
  9
$CHAMFERA
 40
0.25
  9
$CHAMFERB
 40
0.25
  9
$CHAMFERC
 40
20.0
  9
$CHAMFERD
 40
0.0
  9
$SKPOLY
 70
     0
  9
$TDCREATE
 40
2452800.443498622
  9
$TDUPDATE
 40
2453151.688296782
  9
$TDINDWG
 40
0.0330566435
  9
$TDUSRTIMER
 40
0.0330566435
  9
$USRTIMER
 70
     1
  9
$ANGBASE
 50
0.0
  9
$ANGDIR
 70
     0
  9
$PDMODE
 70
     0
  9
$PDSIZE
 40
0.0
  9
$PLINEWID
 40
0.0
  9
$COORDS
 70
     1
  9
$SPLFRAME
 70
     0
  9
$SPLINETYPE
 70
     6
  9
$SPLINESEGS
 70
     8
  9
$ATTDIA
 70
     1
  9
$ATTREQ
 70
     1
  9
$HANDLING
 70
 12289
  9
$HANDSEED
  5
236F
  9
$SURFTAB1
 70
     6
  9
$SURFTAB2
 70
     6
  9
$SURFTYPE
 70
     6
  9
$SURFU
 70
     6
  9
$SURFV
 70
     6
  9
$UCSNAME
  2

  9
$UCSORG
 10
0.0
 20
-0.0000000000000003
 30
0.0
  9
$UCSXDIR
 10
1.0
 20
0.000000000000002
 30
0.0
  9
$UCSYDIR
 10
-0.000000000000002
 20
1.0
 30
0.0
  9
$PUCSNAME
  2

  9
$PUCSORG
 10
0.0
 20
0.0
 30
0.0
  9
$PUCSXDIR
 10
1.0
 20
0.0
 30
0.0
  9
$PUCSYDIR
 10
0.0
 20
1.0
 30
0.0
  9
$USERI1
 70
     0
  9
$USERI2
 70
     0
  9
$USERI3
 70
     0
  9
$USERI4
 70
     0
  9
$USERI5
 70
     0
  9
$USERR1
 40
0.0
  9
$USERR2
 40
0.0
  9
$USERR3
 40
0.0
  9
$USERR4
 40
0.0
  9
$USERR5
 40
0.0
  9
$WORLDVIEW
 70
     1
  9
$SHADEDGE
 70
     3
  9
$SHADEDIF
 70
    70
  9
$TILEMODE
 70
     1
  9
$MAXACTVP
 70
    64
  9
$PINSBASE
 10
0.0
 20
0.0
 30
0.0
  9
$PLIMCHECK
 70
     0
  9
$PEXTMIN
 10
1.000000000000000E+20
 20
1.000000000000000E+20
 30
1.000000000000000E+20
  9
$PEXTMAX
 10
-1.000000000000000E+20
 20
-1.000000000000000E+20
 30
-1.000000000000000E+20
  9
$PLIMMIN
 10
0.0
 20
0.0
  9
$PLIMMAX
 10
841.0
 20
594.0
  9
$UNITMODE
 70
     0
  9
$VISRETAIN
 70
     1
  9
$PLINEGEN
 70
     0
  9
$PSLTSCALE
 70
     0
  9
$TREEDEPTH
 70
  3020
  9
$PICKSTYLE
 70
     0
  9
$CMLSTYLE
  2
STANDARD
  9
$CMLJUST
 70
     0
  9
$CMLSCALE
 40
20.0
  9
$PROXYGRAPHICS
 70
     1
  9
$MEASUREMENT
 70
     1
  0
ENDSEC
  0
SECTION
  2
CLASSES
  0
CLASS
  1
ACDBDICTIONARYWDFLT
  2
AcDbDictionaryWithDefault
  3
AutoCAD 2000
 90
        0
280
     0
281
     0
  0
CLASS
  1
ACDBPLACEHOLDER
  2
AcDbPlaceHolder
  3
AutoCAD 2000
 90
        0
280
     0
281
     0
  0
CLASS
  1
LAYOUT
  2
AcDbLayout
  3
AutoCAD 2000
 90
        0
280
     0
281
     0
  0
CLASS
  1
AMGSETTINGSOBJ
  2
AmgSettingsObj
  3
"AcadM|Product Description: AutoCAD Mechanical 2000|Company: Autodesk"
 90
        0
280
     0
281
     0
  0
CLASS
  1
ACME_DOCUMENT
  2
AcMeDbDoc
  3
AcMeServices
 90
        0
280
     0
281
     0
  0
CLASS
  1
ACMESCOPE
  2
AcMeScope
  3
AcMeServices
 90
        0
280
     0
281
     0
  0
CLASS
  1
ACMECOMMANDHISTORY
  2
AcMeCommandHistory
  3
AcMeServices
 90
        0
280
     0
281
     0
  0
CLASS
  1
DICTIONARYVAR
  2
AcDbDictionaryVar
  3
AutoCAD 2000
 90
        0
280
     0
281
     0
  0
CLASS
  1
ACIMSYSVARMAN
  2
AcImSysVarManager
  3
AcMeServices
 90
        0
280
     0
281
     0
  0
CLASS
  1
ACIMREALSYSVAR
  2
AcImRealSysVar
  3
AcMeServices
 90
        0
280
     0
281
     0
  0
CLASS
  1
ACIMINTSYSVAR
  2
AcImIntSysVar
  3
AcMeServices
 90
        0
280
     0
281
     0
  0
CLASS
  1
ACMEDRAWINGMAN
  2
AcMeDrawingMan
  3
AcMeServices
 90
        0
280
     0
281
     0
  0
CLASS
  1
ACMEVIEW
  2
AcMeView
  3
AcMeServices
 90
        0
280
     0
281
     0
  0
CLASS
  1
ACDBENTITYCACHE
  2
AcMeEntityCache
  3
AcMeServices
 90
        0
280
     0
281
     0
  0
CLASS
  1
GSMANAGER
  2
AcMeGSManager
  3
AcMeServices
 90
        0
280
     0
281
     0
  0
CLASS
  1
AmdtInternalReactor
  2
AmdtInternalReactor
  3
AcMeServices
 90
        0
280
     0
281
     0
  0
CLASS
  1
ACMESTATEMGR
  2
AcMeStateMgr
  3
AcMeServices
 90
        0
280
     0
281
     0
  0
CLASS
  1
ACME_DATABASE
  2
AcMeDbDatabase
  3
AcMeServices
 90
        0
280
     0
281
     0
  0
CLASS
  1
ACRFINSADJUSTERMGR
  2
AcRfInsAdjusterMgr
  3
AcMeServices
 90
        0
280
     0
281
     0
  0
CLASS
  1
ACMDATADICTIONARY
  2
AcmDataDictionary
  3
"AcmSymBB|Product Description: AutoCAD Mechanical 2000|Company: Autodesk"
 90
        0
280
     0
281
     0
  0
CLASS
  1
ACMDATAENTRYBLOCK
  2
AcmDataEntryBlock
  3
"AcmSymBB|Product Description: AutoCAD Mechanical 2000|Company: Autodesk"
 90
        0
280
     0
281
     0
  0
CLASS
  1
AMGOBJPROPCFG
  2
AmgObjPropCfg
  3
"AmgLay|Product Description: AutoCAD Mechanical 2000|Company: Autodesk"
 90
        1
280
     0
281
     0
  0
CLASS
  1
ACAMGFILTERDAT
  2
AcAmgFilterDat
  3
"AcadM|Product Description: AutoCAD Mechanical 2000|Company: Autodesk"
 90
        0
280
     0
281
     0
  0
CLASS
  1
LAYER_INDEX
  2
AcDbLayerIndex
  3
AutoCAD 2000
 90
        0
280
     0
281
     0
  0
CLASS
  1
IDBUFFER
  2
AcDbIdBuffer
  3
AutoCAD 2000
 90
        0
280
     0
281
     0
  0
CLASS
  1
ACIMSTRSYSVAR
  2
AcImStrSysVar
  3
AcMeServices
 90
        0
280
     0
281
     0
  0
CLASS
  1
ACMSTANDARDJIS
  2
AcmStandardJIS
  3
"AcmSymBB|Product Description: AutoCAD Mechanical 2000|Company: Autodesk"
 90
        0
280
     0
281
     0
  0
CLASS
  1
ACMSURFSTANDARDJIS
  2
AcmSurfTextStdJIS
  3
"AcmSymBB|Product Description: AutoCAD Mechanical 2000|Company: Autodesk"
 90
        0
280
     0
281
     0
  0
CLASS
  1
ACMFCFSTANDARDJIS
  2
AcmFCFStdJIS
  3
"AcmSymBB|Product Description: AutoCAD Mechanical 2000|Company: Autodesk"
 90
        0
280
     0
281
     0
  0
CLASS
  1
ACMWELDSTANDARDJIS
  2
AcmWeldingStdJIS
  3
"AcmSymBB|Product Description: AutoCAD Mechanical 2000|Company: Autodesk"
 90
        0
280
     0
281
     0
  0
CLASS
  1
ACMIDSTANDARDJIS
  2
AcmIdStdJIS
  3
"AcmSymBB|Product Description: AutoCAD Mechanical 2000|Company: Autodesk"
 90
        0
280
     0
281
     0
  0
CLASS
  1
ACMDATUMSTANDARDJIS
  2
AcmDatumStdJIS
  3
"AcmSymBB|Product Description: AutoCAD Mechanical 2000|Company: Autodesk"
 90
        0
280
     0
281
     0
  0
CLASS
  1
ACMBOMSTANDARDJIS
  2
AcmBOMStdJIS
  3
"AcmSymBB|Product Description: AutoCAD Mechanical 2000|Company: Autodesk"
 90
        0
280
     0
281
     0
  0
CLASS
  1
ACMSTANDARDANSI
  2
AcmStandardANSI
  3
"AcmSymBB|Product Description: AutoCAD Mechanical 2000|Company: Autodesk"
 90
        0
280
     0
281
     0
  0
CLASS
  1
ACMSURFSTANDARDANSI
  2
AcmSurfTextStdANSI
  3
"AcmSymBB|Product Description: AutoCAD Mechanical 2000|Company: Autodesk"
 90
        0
280
     0
281
     0
  0
CLASS
  1
ACMFCFSTANDARDANSI
  2
AcmFCFStdANSI
  3
"AcmSymBB|Product Description: AutoCAD Mechanical 2000|Company: Autodesk"
 90
        0
280
     0
281
     0
  0
CLASS
  1
ACMWELDSTANDARDANSI
  2
AcmWeldingStdANSI
  3
"AcmSymBB|Product Description: AutoCAD Mechanical 2000|Company: Autodesk"
 90
        0
280
     0
281
     0
  0
CLASS
  1
ACMIDSTANDARDANSI
  2
AcmIdStdANSI
  3
"AcmSymBB|Product Description: AutoCAD Mechanical 2000|Company: Autodesk"
 90
        0
280
     0
281
     0
  0
CLASS
  1
ACMDATUMSTANDARDANSI
  2
AcmDatumStdANSI
  3
"AcmSymBB|Product Description: AutoCAD Mechanical 2000|Company: Autodesk"
 90
        0
280
     0
281
     0
  0
CLASS
  1
ACMBOMSTANDARDANSI
  2
AcmBOMStdANSI
  3
"AcmSymBB|Product Description: AutoCAD Mechanical 2000|Company: Autodesk"
 90
        0
280
     0
281
     0
  0
CLASS
  1
ACMSTANDARDBSI
  2
AcmStandardBSI
  3
"AcmSymBB|Product Description: AutoCAD Mechanical 2000|Company: Autodesk"
 90
        0
280
     0
281
     0
  0
CLASS
  1
ACMSURFSTANDARDBSI
  2
AcmSurfTextStdBSI
  3
"AcmSymBB|Product Description: AutoCAD Mechanical 2000|Company: Autodesk"
 90
        0
280
     0
281
     0
  0
CLASS
  1
ACMFCFSTANDARDBSI
  2
AcmFCFStdBSI
  3
"AcmSymBB|Product Description: AutoCAD Mechanical 2000|Company: Autodesk"
 90
        0
280
     0
281
     0
  0
CLASS
  1
ACMWELDSTANDARDBSI
  2
AcmWeldingStdBSI
  3
"AcmSymBB|Product Description: AutoCAD Mechanical 2000|Company: Autodesk"
 90
        0
280
     0
281
     0
  0
CLASS
  1
ACMIDSTANDARDBSI
  2
AcmIdStdBSI
  3
"AcmSymBB|Product Description: AutoCAD Mechanical 2000|Company: Autodesk"
 90
        0
280
     0
281
     0
  0
CLASS
  1
ACMDATUMSTANDARDBSI
  2
AcmDatumStdBSI
  3
"AcmSymBB|Product Description: AutoCAD Mechanical 2000|Company: Autodesk"
 90
        0
280
     0
281
     0
  0
CLASS
  1
ACMBOMSTANDARDBSI
  2
AcmBOMStdBSI
  3
"AcmSymBB|Product Description: AutoCAD Mechanical 2000|Company: Autodesk"
 90
        0
280
     0
281
     0
  0
CLASS
  1
LONG_TRANSACTION
  2
AcDbLongTransaction
  3
AutoCAD 2000
 90
        0
280
     0
281
     0
  0
CLASS
  1
LWPOLYLINE
  2
AcDbPolyline
  3
AutoCAD 2000
 90
        0
280
     0
281
     1
  0
CLASS
  1
HATCH
  2
AcDbHatch
  3
AutoCAD 2000
 90
        0
280
     0
281
     1
  0
CLASS
  1
XRECORD
  2
AcDbXrecord
  3
AutoCAD 2000
 90
        0
280
     0
281
     0
  0
ENDSEC
  0
SECTION
  2
TABLES
  0
TABLE
  2
VPORT
  5
8
330
0
100
AcDbSymbolTable
 70
     3
  0
VPORT
  5
2344
330
8
100
AcDbSymbolTableRecord
100
AcDbViewportTableRecord
  2
*ACTIVE
 70
     0
 10
0.0
 20
0.0
 11
1.0
 21
1.0
 12
-35.73777741464437
 22
-5.522609015904336
 13
0.0
 23
0.0
 14
2.5
 24
2.5
 15
10.0
 25
10.0
 16
0.0
 26
0.0
 36
1.0
 17
0.0
 27
0.0
 37
0.0
 40
68.87758368976617
 41
1.56570841889117
 42
50.0
 43
0.0
 44
0.0
 50
0.0
 51
0.0
 71
     0
 72
   100
 73
     1
 74
     1
 75
     0
 76
     0
 77
     0
 78
     0
  0
ENDTAB
  0
TABLE
  2
LTYPE
  5
5
330
0
100
AcDbSymbolTable
 70
    10
  0
LTYPE
  5
14
330
5
100
AcDbSymbolTableRecord
100
AcDbLinetypeTableRecord
  2
BYBLOCK
 70
     0
  3

 72
    65
 73
     0
 40
0.0
  0
LTYPE
  5
15
330
5
100
AcDbSymbolTableRecord
100
AcDbLinetypeTableRecord
  2
BYLAYER
 70
     0
  3

 72
    65
 73
     0
 40
0.0
  0
LTYPE
  5
16
330
5
100
AcDbSymbolTableRecord
100
AcDbLinetypeTableRecord
  2
CONTINUOUS
 70
     0
  3
Solid line
 72
    65
 73
     0
 40
0.0
  0
LTYPE
  5
4B
330
5
100
AcDbSymbolTableRecord
100
AcDbLinetypeTableRecord
  2
AM_ISO02W050
 70
     0
  3
__ __ __ __ __ __ __ __ __ __ __ __ __ __ __
 72
    65
 73
     2
 40
7.5
 49
6.0
 74
     0
 49
-1.5
 74
     0
  0
LTYPE
  5
4C
330
5
100
AcDbSymbolTableRecord
100
AcDbLinetypeTableRecord
  2
AM_ISO08W050
 70
     0
  3
____ . ____ . ____ . ____ . ____ . ____ . ____
 72
    65
 73
     4
 40
18.0
 49
12.0
 74
     0
 49
-1.5
 74
     0
 49
3.0
 74
     0
 49
-1.5
 74
     0
  0
LTYPE
  5
4D
330
5
100
AcDbSymbolTableRecord
100
AcDbLinetypeTableRecord
  2
AM_ISO09W050
 70
     0
  3
_____ . . _____ . . _____ . . ____ .. ____
 72
    65
 73
     6
 40
22.5
 49
12.0
 74
     0
 49
-1.5
 74
     0
 49
3.0
 74
     0
 49
-1.5
 74
     0
 49
3.0
 74
     0
 49
-1.5
 74
     0
  0
LTYPE
  5
4E
330
5
100
AcDbSymbolTableRecord
100
AcDbLinetypeTableRecord
  2
AMCONSTR
 70
     0
  3
_______________________
 72
    65
 73
     2
 40
9999.0
 49
9999.0
 74
     0
 49
0.0
 74
     0
  0
LTYPE
  5
4F
330
5
100
AcDbSymbolTableRecord
100
AcDbLinetypeTableRecord
  2
AM_ISO02W050X2
 70
     0
  3
 _ _ _ _ _ _ _ _ _ _ _ _
 72
    65
 73
     2
 40
3.75
 49
3.0
 74
     0
 49
-0.75
 74
     0
  0
LTYPE
  5
50
330
5
100
AcDbSymbolTableRecord
100
AcDbLinetypeTableRecord
  2
AM_ISO08W050X2
 70
     0
  3
__ . __ . __ . __ . __ . __
 72
    65
 73
     4
 40
9.0
 49
6.0
 74
     0
 49
-0.75
 74
     0
 49
1.5
 74
     0
 49
-0.75
 74
     0
  0
LTYPE
  5
53
330
5
100
AcDbSymbolTableRecord
100
AcDbLinetypeTableRecord
  2
AMZIGZAG
 70
     0
  3
/\/-/\/-/\/-/\/-/\/-/\/
 72
    65
 73
     2
 40
11.00009999999999
 49
0.0001
 74
     4
 75
   135
340
52
 46
0.04
 50
0.0
 44
0.0
 45
0.0
 49
-11.0
 74
     0
  0
LTYPE
  5
166
330
5
100
AcDbSymbolTableRecord
100
AcDbLinetypeTableRecord
  2
ACJISTGL
 70
     0
  3
_ _ _ _ _
 72
    65
 73
     2
 40
3.0
 49
2.0
 74
     0
 49
-1.0
 74
     0
  0
LTYPE
  5
26A
330
5
100
AcDbSymbolTableRecord
100
AcDbLinetypeTableRecord
  2
ACJISTGB
 70
     0
  3
__ . . __ . .
 72
    65
 73
     6
 40
9.0
 49
4.0
 74
     0
 49
-1.0
 74
     0
 49
1.0
 74
     0
 49
-1.0
 74
     0
 49
1.0
 74
     0
 49
-1.0
 74
     0
  0
ENDTAB
  0
TABLE
  2
LAYER
  5
2
330
0
100
AcDbSymbolTable
 70
     8
  0
LAYER
  5
10
330
2
100
AcDbSymbolTableRecord
100
AcDbLayerTableRecord
  2
0
 70
     0
 62
     7
  6
CONTINUOUS
  0
LAYER
  5
3F9
330
2
100
AcDbSymbolTableRecord
100
AcDbLayerTableRecord
  2
AM_0
 70
     0
 62
     7
  6
CONTINUOUS
  0
LAYER
  5
C7C
330
2
100
AcDbSymbolTableRecord
100
AcDbLayerTableRecord
  2
AM_7
 70
     0
 62
     4
  6
AM_ISO08W050
  0
LAYER
  5
C97
330
2
100
AcDbSymbolTableRecord
100
AcDbLayerTableRecord
  2
AM_11
 70
     0
 62
     3
  6
AM_ISO09W050
  0
LAYER
  5
CC5
330
2
100
AcDbSymbolTableRecord
100
AcDbLayerTableRecord
  2
AM_5
 70
     0
 62
     3
  6
CONTINUOUS
  0
LAYER
  5
CC7
330
2
100
AcDbSymbolTableRecord
100
AcDbLayerTableRecord
  2
DEFPOINTS
 70
     0
 62
     7
  6
CONTINUOUS
  0
LAYER
  5
19BC
330
2
100
AcDbSymbolTableRecord
100
AcDbLayerTableRecord
  2
AM_6
 70
     0
 62
     2
  6
CONTINUOUS
  0
LAYER
  5
21C2
330
2
100
AcDbSymbolTableRecord
100
AcDbLayerTableRecord
  2
AM_CL
 70
     0
 62
     1
  6
AMCONSTR
  0
ENDTAB
  0
TABLE
  2
STYLE
  5
3
330
0
100
AcDbSymbolTable
 70
     5
  0
STYLE
  5
11
330
3
100
AcDbSymbolTableRecord
100
AcDbTextStyleTableRecord
  2
STANDARD
 70
     0
 40
0.0
 41
1.0
 50
0.0
 71
     0
 42
2.5
  3
simplex.shx
  4
EXTFONT.SHX
  0
STYLE
  5
52
330
3
100
AcDbSymbolTableRecord
100
AcDbTextStyleTableRecord
  2

 70
     1
 40
0.0
 41
1.0
 50
0.0
 71
     0
 42
2.5
  3
ltypeshp.shx
  4

  0
STYLE
  5
6B
330
3
100
AcDbSymbolTableRecord
100
AcDbTextStyleTableRecord
  2
ASAMI
 70
     0
 40
0.0
 41
1.0
 50
0.0
 71
     0
 42
2.5
  3
simplex.shx
  4
EXTFONT.SHX
  0
STYLE
  5
262
330
3
100
AcDbSymbolTableRecord
100
AcDbTextStyleTableRecord
  2
ACJISTS
 70
     0
 40
1.0
 41
1.0
 50
0.0
 71
     0
 42
2.5
  3
simplex.shx
  4
bigfont.shx
  0
STYLE
  5
269
330
3
100
AcDbSymbolTableRecord
100
AcDbTextStyleTableRecord
  2
ACJISGDT
 70
     0
 40
0.0
 41
1.0
 50
0.0
 71
     0
 42
2.5
  3
amgdtans.shx
  4

  0
ENDTAB
  0
TABLE
  2
VIEW
  5
6
330
0
100
AcDbSymbolTable
 70
     0
  0
ENDTAB
  0
TABLE
  2
UCS
  5
7
330
0
100
AcDbSymbolTable
 70
     0
  0
ENDTAB
  0
TABLE
  2
APPID
  5
9
330
0
100
AcDbSymbolTable
 70
    16
  0
APPID
  5
12
330
9
100
AcDbSymbolTableRecord
100
AcDbRegAppTableRecord
  2
ACAD
 70
     0
  0
APPID
  5
30
330
9
100
AcDbSymbolTableRecord
100
AcDbRegAppTableRecord
  2
MCAD_NO_VIS
 70
     0
  0
APPID
  5
31
330
9
100
AcDbSymbolTableRecord
100
AcDbRegAppTableRecord
  2
ACAD_TEMP_GRAPHIC
 70
     0
  0
APPID
  5
2C2
330
9
100
AcDbSymbolTableRecord
100
AcDbRegAppTableRecord
  2
GENIUS_GENDTOL_13
 70
     0
  0
APPID
  5
339
330
9
100
AcDbSymbolTableRecord
100
AcDbRegAppTableRecord
  2
GENIUS_GENODEF_13
 70
     0
  0
APPID
  5
33A
330
9
100
AcDbSymbolTableRecord
100
AcDbRegAppTableRecord
  2
GENIUS_GENOBJ-N-RSBK_13
 70
     0
  0
APPID
  5
33B
330
9
100
AcDbSymbolTableRecord
100
AcDbRegAppTableRecord
  2
GENIUS_GENOBJ-N-LIB_13
 70
     0
  0
APPID
  5
33C
330
9
100
AcDbSymbolTableRecord
100
AcDbRegAppTableRecord
  2
GENIUS_GENSCALE_13
 70
     0
  0
APPID
  5
378
330
9
100
AcDbSymbolTableRecord
100
AcDbRegAppTableRecord
  2
GENIUS_GENDIMSH_14
 70
     0
  0
APPID
  5
C82
330
9
100
AcDbSymbolTableRecord
100
AcDbRegAppTableRecord
  2
GENIUS_GENOBJ-N-CRS_13
 70
     0
  0
APPID
  5
C83
330
9
100
AcDbSymbolTableRecord
100
AcDbRegAppTableRecord
  2
GENIUS_GENOENT_13
 70
     0
  0
APPID
  5
C84
330
9
100
AcDbSymbolTableRecord
100
AcDbRegAppTableRecord
  2
GENIUS_GENOREF_13
 70
     0
  0
APPID
  5
C85
330
9
100
AcDbSymbolTableRecord
100
AcDbRegAppTableRecord
  2
GENIUS_GENOLIS_13
 70
     0
  0
APPID
  5
CA0
330
9
100
AcDbSymbolTableRecord
100
AcDbRegAppTableRecord
  2
GENIUS_GENOBJ-N-CEN_13
 70
     0
  0
APPID
  5
1B6F
330
9
100
AcDbSymbolTableRecord
100
AcDbRegAppTableRecord
  2
GENIUS_GENFIL_13
 70
     0
  0
APPID
  5
1B70
330
9
100
AcDbSymbolTableRecord
100
AcDbRegAppTableRecord
  2
GENIUS_GENOBJ-N-CHA_13
 70
     0
  0
ENDTAB
  0
TABLE
  2
DIMSTYLE
  5
A
330
0
100
AcDbSymbolTable
 70
     9
  0
DIMSTYLE
105
58
330
A
100
AcDbSymbolTableRecord
100
AcDbDimStyleTableRecord
  2
AM_JIS
 70
     0
  3

  4
"
  5
OPEN30
  6

  7

 40
0.5
 41
2.5
 42
1.0
 43
12.0
 44
1.0
 45
0.0
 46
0.0
 47
0.1
 48
0.1
140
3.2
141
0.0
142
0.0
143
0.0393701
144
1.0
145
0.0
146
0.71
147
1.5
 71
     0
 72
     0
 73
     0
 74
     0
 75
     0
 76
     0
 77
     3
 78
     8
170
     0
171
     2
172
     1
173
     0
174
     0
175
     0
176
   256
177
   256
178
     2
270
     2
271
     3
272
     3
273
     2
274
     2
340
6B
275
     0
280
     0
281
     0
282
     0
283
     0
284
     0
285
     0
286
     0
287
     3
288
     0
  0
DIMSTYLE
105
5F
330
A
100
AcDbSymbolTableRecord
100
AcDbDimStyleTableRecord
  2
AM_JIS$3
 70
     0
  3

  4
"
  5
OPEN30
  6

  7

 40
0.5
 41
2.5
 42
1.0
 43
10.0
 44
1.0
 45
0.0
 46
0.0
 47
0.1
 48
0.1
140
3.2
141
0.0
142
0.0
143
0.0393701
144
1.0
145
0.0
146
0.71
147
1.5
 71
     0
 72
     0
 73
     0
 74
     1
 75
     0
 76
     0
 77
     3
 78
     8
170
     0
171
     2
172
     0
173
     0
174
     0
175
     0
176
   256
177
   256
178
     2
270
     2
271
     2
272
     3
273
     2
274
     2
340
6B
275
     0
280
     0
281
     0
282
     0
283
     0
284
     0
285
     0
286
     0
287
     0
288
     1
  0
DIMSTYLE
105
60
330
A
100
AcDbSymbolTableRecord
100
AcDbDimStyleTableRecord
  2
AM_JIS$4
 70
     0
  3

  4
"
  5
OPEN30
  6

  7

 40
0.5
 41
2.5
 42
1.0
 43
10.0
 44
1.0
 45
0.0
 46
0.0
 47
0.1
 48
0.1
140
3.2
141
0.0
142
0.0
143
0.0393701
144
1.0
145
0.0
146
0.71
147
1.5
 71
     0
 72
     0
 73
     0
 74
     1
 75
     0
 76
     0
 77
     3
 78
     8
170
     0
171
     2
172
     0
173
     0
174
     0
175
     0
176
   256
177
   256
178
     2
270
     2
271
     2
272
     3
273
     2
274
     2
340
6B
275
     0
280
     0
281
     0
282
     0
283
     0
284
     0
285
     0
286
     0
287
     0
288
     1
  0
DIMSTYLE
105
61
330
A
100
AcDbSymbolTableRecord
100
AcDbDimStyleTableRecord
  2
AM_JIS$6
 70
     0
  3

  4
"
  5
OPEN30
  6

  7

 40
0.5
 41
2.5
 42
1.0
 43
10.0
 44
1.0
 45
0.0
 46
0.0
 47
0.1
 48
0.1
140
3.2
141
0.0
142
0.0
143
0.0393701
144
1.0
145
0.0
146
0.71
147
1.5
 71
     0
 72
     0
 73
     0
 74
     0
 75
     0
 76
     0
 77
     0
 78
     8
170
     0
171
     2
172
     1
173
     0
174
     0
175
     0
176
   256
177
   256
178
     2
270
     2
271
     2
272
     2
273
     2
274
     2
340
6B
275
     0
280
     0
281
     0
282
     0
283
     0
284
     0
285
     0
286
     0
287
     3
288
     0
  0
DIMSTYLE
105
62
330
A
100
AcDbSymbolTableRecord
100
AcDbDimStyleTableRecord
  2
AM_JIS$7
 70
     0
  3

  4
"
  5
OPEN30
  6

  7

 40
0.5
 41
2.5
 42
1.0
 43
10.0
 44
1.0
 45
0.0
 46
0.0
 47
0.1
 48
0.1
140
3.2
141
0.0
142
0.0
143
0.0393701
144
1.0
145
0.0
146
0.71
147
1.5
 71
     0
 72
     0
 73
     0
 74
     0
 75
     0
 76
     0
 77
     3
 78
     8
170
     0
171
     2
172
     1
173
     0
174
     0
175
     0
176
   256
177
   256
178
     2
270
     2
271
     2
272
     3
273
     2
274
     2
340
6B
275
     0
280
     0
281
     0
282
     0
283
     0
284
     0
285
     0
286
     0
287
     3
288
     0
  0
DIMSTYLE
105
63
330
A
100
AcDbSymbolTableRecord
100
AcDbDimStyleTableRecord
  2
AM_JIS$SF
 70
     0
  3

  4
"
  5
OPEN30
  6

  7

 40
0.5
 41
2.5
 42
1.0
 43
10.0
 44
1.0
 45
0.0
 46
0.0
 47
0.1
 48
0.1
140
3.2
141
0.0
142
0.0
143
0.0393701
144
1.0
145
0.0
146
0.71
147
1.5
 71
     0
 72
     0
 73
     0
 74
     0
 75
     1
 76
     1
 77
     3
 78
     8
170
     0
171
     2
172
     1
173
     0
174
     0
175
     0
176
   256
177
   256
178
     2
270
     2
271
     2
272
     2
273
     2
274
     2
340
6B
275
     0
280
     0
281
     0
282
     0
283
     0
284
     0
285
     0
286
     0
287
     3
288
     0
  0
DIMSTYLE
105
68
330
A
100
AcDbSymbolTableRecord
100
AcDbDimStyleTableRecord
  2
AM_JIS$SH
 70
     0
  3

  4
"
  5

  6
GENAXEH
  7
OPEN30
 40
0.5
 41
2.5
 42
1.0
 43
10.0
 44
1.0
 45
0.0
 46
0.0
 47
0.1
 48
0.1
140
3.2
141
0.0
142
0.0
143
0.0393701
144
2.0
145
0.0
146
0.71
147
1.5
 71
     0
 72
     0
 73
     0
 74
     0
 75
     1
 76
     1
 77
     3
 78
     8
170
     0
171
     2
172
     1
173
     1
174
     0
175
     0
176
   256
177
   256
178
     2
270
     2
271
     2
272
     2
273
     2
274
     2
340
6B
275
     0
280
     0
281
     0
282
     0
283
     0
284
     0
285
     0
286
     0
287
     3
288
     0
  0
DIMSTYLE
105
B34
102
{ACAD_REACTORS
330
2211
102
}
330
A
100
AcDbSymbolTableRecord
100
AcDbDimStyleTableRecord
  2
AM_JIS$2
 70
     0
  3

  4
"
  5
OPEN30
  6

  7

 40
0.5
 41
2.5
 42
1.0
 43
12.0
 44
1.0
 45
0.0
 46
0.0
 47
0.1
 48
0.1
140
3.2
141
0.0
142
0.0
143
0.0393701
144
1.0
145
0.0
146
0.71
147
1.5
 71
     0
 72
     0
 73
     0
 74
     0
 75
     0
 76
     0
 77
     3
 78
     8
170
     0
171
     2
172
     1
173
     0
174
     0
175
     0
176
   256
177
   256
178
     2
270
     2
271
     3
272
     3
273
     2
274
     2
340
6B
275
     0
280
     0
281
     0
282
     0
283
     0
284
     0
285
     0
286
     0
287
     3
288
     0
  0
DIMSTYLE
105
BA5
102
{ACAD_REACTORS
330
CC6
330
1BC7
330
1DDA
330
1F56
102
}
330
A
100
AcDbSymbolTableRecord
100
AcDbDimStyleTableRecord
  2
AM_JIS$0
 70
     0
  3

  4
"
  5
OPEN30
  6

  7

 40
0.5
 41
2.5
 42
0.0
 43
10.0
 44
1.0
 45
0.0
 46
0.0
 47
0.1
 48
0.1000000001
140
3.799999999999999
141
0.0
142
0.0
143
0.0393701
144
1.0
145
0.0
146
0.71
147
1.5
 71
     0
 72
     0
 73
     0
 74
     0
 75
     0
 76
     0
 77
     3
 78
     1
170
     0
171
     2
172
     1
173
     0
174
     0
175
     0
176
     3
177
     3
178
     2
270
     2
271
     2
272
     2
273
     2
274
     2
340
11
275
     1
280
     0
281
     0
282
     0
283
     0
284
     8
285
     0
286
     0
287
     0
288
     0
  0
ENDTAB
  0
TABLE
  2
BLOCK_RECORD
  5
1
330
0
100
AcDbSymbolTable
 70
    11
  0
BLOCK_RECORD
  5
1F
102
{ACAD_XDICTIONARY
360
74
102
}
330
1
100
AcDbSymbolTableRecord
100
AcDbBlockTableRecord
  2
*MODEL_SPACE
  0
BLOCK_RECORD
  5
101
102
{ACAD_XDICTIONARY
360
236D
102
}
330
1
100
AcDbSymbolTableRecord
100
AcDbBlockTableRecord
  2
*PAPER_SPACE
  0
BLOCK_RECORD
  5
59
330
1
100
AcDbSymbolTableRecord
100
AcDbBlockTableRecord
  2
_OPEN30
  0
BLOCK_RECORD
  5
64
330
1
100
AcDbSymbolTableRecord
100
AcDbBlockTableRecord
  2
GENAXEH
  0
BLOCK_RECORD
  5
CC8
330
1
100
AcDbSymbolTableRecord
100
AcDbBlockTableRecord
  2
*D5
  0
BLOCK_RECORD
  5
1BC8
330
1
100
AcDbSymbolTableRecord
100
AcDbBlockTableRecord
  2
*D7
  0
BLOCK_RECORD
  5
1DDB
330
1
100
AcDbSymbolTableRecord
100
AcDbBlockTableRecord
  2
*D8
  0
BLOCK_RECORD
  5
1F57
330
1
100
AcDbSymbolTableRecord
100
AcDbBlockTableRecord
  2
*D9
  0
BLOCK_RECORD
  5
2212
330
1
100
AcDbSymbolTableRecord
100
AcDbBlockTableRecord
  2
*D10
  0
ENDTAB
  0
ENDSEC
  0
SECTION
  2
BLOCKS
  0
BLOCK
  5
20
330
1F
100
AcDbEntity
  8
0
100
AcDbBlockBegin
  2
*MODEL_SPACE
 70
     0
 10
0.0
 20
0.0
 30
0.0
  3
*MODEL_SPACE
  1

  0
ENDBLK
  5
21
330
1F
100
AcDbEntity
  8
0
100
AcDbBlockEnd
  0
BLOCK
  5
103
330
101
100
AcDbEntity
 67
     1
  8
0
100
AcDbBlockBegin
  2
*PAPER_SPACE
 70
     0
 10
0.0
 20
0.0
 30
0.0
  3
*PAPER_SPACE
  1

  0
ENDBLK
  5
104
330
101
100
AcDbEntity
 67
     1
  8
0
100
AcDbBlockEnd
  0
BLOCK
  5
5D
330
59
100
AcDbEntity
  8
0
100
AcDbBlockBegin
  2
_OPEN30
 70
     0
 10
0.0
 20
0.0
 30
0.0
  3
_OPEN30
  1

  0
LINE
  5
5A
330
59
100
AcDbEntity
  8
0
 62
     0
100
AcDbLine
 10
-1.0
 20
0.26794919
 30
0.0
 11
0.0
 21
0.0
 31
0.0
  0
LINE
  5
5B
330
59
100
AcDbEntity
  8
0
 62
     0
100
AcDbLine
 10
0.0
 20
0.0
 30
0.0
 11
-1.0
 21
-0.26794919
 31
0.0
  0
LINE
  5
5C
330
59
100
AcDbEntity
  8
0
 62
     0
100
AcDbLine
 10
0.0
 20
0.0
 30
0.0
 11
-1.0
 21
0.0
 31
0.0
  0
ENDBLK
  5
5E
330
59
100
AcDbEntity
  8
0
100
AcDbBlockEnd
  0
BLOCK
  5
66
330
64
100
AcDbEntity
  8
0
100
AcDbBlockBegin
  2
GENAXEH
 70
     0
 10
0.0
 20
0.0
 30
0.0
  3
GENAXEH
  1

  0
LINE
  5
65
330
64
100
AcDbEntity
  8
0
100
AcDbLine
 10
-1.0
 20
0.0
 30
0.0
 11
1.0
 21
0.0
 31
0.0
  0
ENDBLK
  5
67
330
64
100
AcDbEntity
  8
0
100
AcDbBlockEnd
  0
BLOCK
  5
CD2
330
CC8
100
AcDbEntity
  8
0
100
AcDbBlockBegin
  2
*D5
 70
     1
 10
0.0
 20
0.0
 30
0.0
  3
*D5
  1

  0
LINE
  5
22EC
330
CC8
100
AcDbEntity
  8
AM_5
 62
     3
100
AcDbLine
 10
-79.0
 20
-1.250006209471281
 30
0.0
 11
-79.0
 21
-14.00000718101105
 31
0.0
  0
LINE
  5
22ED
330
CC8
100
AcDbEntity
  8
AM_5
 62
     3
100
AcDbLine
 10
-0.999999999999995
 20
-1.500000000000006
 30
0.0
 11
-0.9999999999999959
 21
-14.00000718101105
 31
0.0
  0
LINE
  5
22EE
330
CC8
100
AcDbEntity
  8
AM_5
 62
     3
100
AcDbLine
 10
-77.75
 20
-13.50000718101105
 30
0.0
 11
-2.249999999999996
 21
-13.50000718101105
 31
0.0
  0
INSERT
  5
22EF
330
CC8
100
AcDbEntity
  8
AM_5
 62
     3
100
AcDbBlockReference
  2
_OPEN30
 10
-79.0
 20
-13.50000718101105
 30
0.0
 41
1.25
 42
1.25
 43
1.25
 50
180.0
  0
INSERT
  5
22F0
330
CC8
100
AcDbEntity
  8
AM_5
 62
     3
100
AcDbBlockReference
  2
_OPEN30
 10
-0.9999999999999959
 20
-13.50000718101105
 30
0.0
 41
1.25
 42
1.25
 43
1.25
  0
MTEXT
  5
22F1
330
CC8
100
AcDbEntity
  8
AM_5
 62
     2
100
AcDbMText
 10
-40.0
 20
-11.80000718101105
 30
0.0
 40
1.9
 41
0.0
 71
     5
 72
     1
  1
78
1001
ACAD
1000
MTEXTBEGIN
1070
    73
1070
     1
1070
    44
1040
1.0
1070
    74
1070
     0
1000
MTEXTEND
  0
POINT
  5
22F2
330
CC8
100
AcDbEntity
  8
DEFPOINTS
 62
     0
100
AcDbPoint
 10
-79.0
 20
-1.250006209471281
 30
0.0
  0
POINT
  5
22F3
330
CC8
100
AcDbEntity
  8
DEFPOINTS
 62
     0
100
AcDbPoint
 10
-0.999999999999995
 20
-1.500000000000006
 30
0.0
  0
POINT
  5
22F4
330
CC8
100
AcDbEntity
  8
DEFPOINTS
 62
     0
100
AcDbPoint
 10
-0.9999999999999959
 20
-13.50000718101105
 30
0.0
  0
ENDBLK
  5
CD3
330
CC8
100
AcDbEntity
  8
0
100
AcDbBlockEnd
  0
BLOCK
  5
1BD2
330
1BC8
100
AcDbEntity
  8
0
100
AcDbBlockBegin
  2
*D7
 70
     1
 10
0.0
 20
0.0
 30
0.0
  3
*D7
  1

  0
LINE
  5
230B
330
1BC8
100
AcDbEntity
  8
AM_5
 62
     3
100
AcDbLine
 10
-30.99999999999999
 20
-1.500000542241563
 30
0.0
 11
-30.99999999999999
 21
-9.00000718101109
 31
0.0
  0
LINE
  5
230C
330
1BC8
100
AcDbEntity
  8
AM_5
 62
     3
100
AcDbLine
 10
-0.999999999999998
 20
-1.450000000000004
 30
0.0
 11
-0.9999999999999985
 21
-9.00000718101109
 31
0.0
  0
LINE
  5
230D
330
1BC8
100
AcDbEntity
  8
AM_5
 62
     3
100
AcDbLine
 10
-29.74999999999999
 20
-8.50000718101109
 30
0.0
 11
-2.249999999999998
 21
-8.50000718101109
 31
0.0
  0
INSERT
  5
230E
330
1BC8
100
AcDbEntity
  8
AM_5
 62
     3
100
AcDbBlockReference
  2
_OPEN30
 10
-30.99999999999999
 20
-8.50000718101109
 30
0.0
 41
1.25
 42
1.25
 43
1.25
 50
180.0
  0
INSERT
  5
230F
330
1BC8
100
AcDbEntity
  8
AM_5
 62
     3
100
AcDbBlockReference
  2
_OPEN30
 10
-0.9999999999999985
 20
-8.50000718101109
 30
0.0
 41
1.25
 42
1.25
 43
1.25
  0
MTEXT
  5
2310
330
1BC8
100
AcDbEntity
  8
AM_5
 62
     2
100
AcDbMText
 10
-15.99999999999999
 20
-6.80000718101109
 30
0.0
 40
1.9
 41
0.0
 71
     5
 72
     1
  1
30
1001
ACAD
1000
MTEXTBEGIN
1070
    73
1070
     1
1070
    44
1040
1.0
1070
    74
1070
     0
1000
MTEXTEND
  0
POINT
  5
2311
330
1BC8
100
AcDbEntity
  8
DEFPOINTS
 62
     0
100
AcDbPoint
 10
-30.99999999999999
 20
-1.500000542241563
 30
0.0
  0
POINT
  5
2312
330
1BC8
100
AcDbEntity
  8
DEFPOINTS
 62
     0
100
AcDbPoint
 10
-0.999999999999998
 20
-1.450000000000004
 30
0.0
  0
POINT
  5
2313
330
1BC8
100
AcDbEntity
  8
DEFPOINTS
 62
     0
100
AcDbPoint
 10
-0.9999999999999985
 20
-8.50000718101109
 30
0.0
  0
ENDBLK
  5
1BD3
330
1BC8
100
AcDbEntity
  8
0
100
AcDbBlockEnd
  0
BLOCK
  5
1DE7
330
1DDB
100
AcDbEntity
  8
0
100
AcDbBlockBegin
  2
*D8
 70
     1
 10
0.0
 20
0.0
 30
0.0
  3
*D8
  1

  0
LINE
  5
2314
330
1DDB
100
AcDbEntity
  8
AM_5
 62
     3
100
AcDbLine
 10
-0.999999999999998
 20
-1.450000000000004
 30
0.0
 11
7.84145171927261
 21
-1.450000000000007
 31
0.0
  0
LINE
  5
2315
330
1DDB
100
AcDbEntity
  8
AM_5
 62
     3
100
AcDbLine
 10
-0.9999999999999856
 20
1.449999999999995
 30
0.0
 11
7.84145171927261
 21
1.449999999999992
 31
0.0
  0
LINE
  5
2316
330
1DDB
100
AcDbEntity
  8
AM_5
 62
     3
100
AcDbLine
 10
7.341451719272609
 20
-2.700000000000007
 30
0.0
 11
7.341451719272609
 21
-3.950000000000007
 31
0.0
  0
LINE
  5
2317
330
1DDB
100
AcDbEntity
  8
AM_5
 62
     3
100
AcDbLine
 10
7.341451719272611
 20
2.699999999999992
 30
0.0
 11
7.341451719272613
 21
11.0595238095238
 31
0.0
  0
LINE
  5
2318
330
1DDB
100
AcDbEntity
  8
AM_5
 62
     3
100
AcDbLine
 10
7.34145171927261
 20
-1.450000000000007
 30
0.0
 11
7.34145171927261
 21
1.449999999999992
 31
0.0
  0
INSERT
  5
2319
330
1DDB
100
AcDbEntity
  8
AM_5
 62
     3
100
AcDbBlockReference
  2
_OPEN30
 10
7.34145171927261
 20
-1.450000000000007
 30
0.0
 41
1.25
 42
1.25
 43
1.25
 50
90.0
  0
INSERT
  5
231A
330
1DDB
100
AcDbEntity
  8
AM_5
 62
     3
100
AcDbBlockReference
  2
_OPEN30
 10
7.34145171927261
 20
1.449999999999992
 30
0.0
 41
1.25
 42
1.25
 43
1.25
 50
270.0
  0
MTEXT
  5
231B
330
1DDB
100
AcDbEntity
  8
AM_5
 62
     2
100
AcDbMText
 10
5.641451719272611
 20
7.504761904761898
 30
0.0
 40
1.9
 41
0.0
 71
     5
 72
     1
  1
%%c2.9
 11
0.0000000000000001
 21
1.0
 31
0.0
1001
ACAD
1000
MTEXTBEGIN
1070
    73
1070
     1
1070
    44
1040
1.0
1070
    74
1070
     0
1000
MTEXTEND
  0
POINT
  5
231C
330
1DDB
100
AcDbEntity
  8
DEFPOINTS
 62
     0
100
AcDbPoint
 10
-0.999999999999998
 20
-1.450000000000004
 30
0.0
  0
POINT
  5
231D
330
1DDB
100
AcDbEntity
  8
DEFPOINTS
 62
     0
100
AcDbPoint
 10
-0.9999999999999856
 20
1.449999999999995
 30
0.0
  0
POINT
  5
231E
330
1DDB
100
AcDbEntity
  8
DEFPOINTS
 62
     0
100
AcDbPoint
 10
7.34145171927261
 20
1.449999999999992
 30
0.0
  0
ENDBLK
  5
1DE8
330
1DDB
100
AcDbEntity
  8
0
100
AcDbBlockEnd
  0
BLOCK
  5
1F63
330
1F57
100
AcDbEntity
  8
0
100
AcDbBlockBegin
  2
*D9
 70
     1
 10
0.0
 20
0.0
 30
0.0
  3
*D9
  1

  0
LINE
  5
22F5
330
1F57
100
AcDbEntity
  8
AM_5
 62
     3
100
AcDbLine
 10
-78.74999999999997
 20
-1.50000618101138
 30
0.0
 11
-87.25000135426986
 21
-1.500006181011397
 31
0.0
  0
LINE
  5
22F6
330
1F57
100
AcDbEntity
  8
AM_5
 62
     3
100
AcDbLine
 10
-78.74999999999997
 20
1.500005264989023
 30
0.0
 11
-87.25000135426986
 21
1.500005264989006
 31
0.0
  0
LINE
  5
22F7
330
1F57
100
AcDbEntity
  8
AM_5
 62
     3
100
AcDbLine
 10
-86.75000135426985
 20
-2.750006181011396
 30
0.0
 11
-86.75000135426984
 21
-4.000006181011396
 31
0.0
  0
LINE
  5
22F8
330
1F57
100
AcDbEntity
  8
AM_5
 62
     3
100
AcDbLine
 10
-86.75000135426985
 20
2.750005264989008
 30
0.0
 11
-86.75000135426987
 21
4.000005264989008
 31
0.0
  0
LINE
  5
22F9
330
1F57
100
AcDbEntity
  8
AM_5
 62
     3
100
AcDbLine
 10
-86.75000135426985
 20
-1.500006181011396
 30
0.0
 11
-86.75000135426985
 21
1.500005264989007
 31
0.0
  0
INSERT
  5
22FA
330
1F57
100
AcDbEntity
  8
AM_5
 62
     3
100
AcDbBlockReference
  2
_OPEN30
 10
-86.75000135426985
 20
-1.500006181011396
 30
0.0
 41
1.25
 42
1.25
 43
1.25
 50
90.0000000000001
  0
INSERT
  5
22FB
330
1F57
100
AcDbEntity
  8
AM_5
 62
     3
100
AcDbBlockReference
  2
_OPEN30
 10
-86.75000135426985
 20
1.500005264989007
 30
0.0
 41
1.25
 42
1.25
 43
1.25
 50
270.0000000000001
  0
MTEXT
  5
22FC
330
1F57
100
AcDbEntity
  8
AM_5
 62
     2
100
AcDbMText
 10
-88.45000135426985
 20
-0.0000004580111941
 30
0.0
 40
1.9
 41
0.0
 71
     5
 72
     1
  1
%%c3
 11
-0.000000000000002
 21
1.0
 31
0.0
1001
ACAD
1000
MTEXTBEGIN
1070
    73
1070
     1
1070
    44
1040
1.0
1070
    74
1070
     0
1000
MTEXTEND
  0
POINT
  5
22FD
330
1F57
100
AcDbEntity
  8
DEFPOINTS
 62
     0
100
AcDbPoint
 10
-78.74999999999997
 20
-1.500006181011205
 30
0.0
  0
POINT
  5
22FE
330
1F57
100
AcDbEntity
  8
DEFPOINTS
 62
     0
100
AcDbPoint
 10
-78.74999999999997
 20
1.500005264989198
 30
0.0
  0
POINT
  5
22FF
330
1F57
100
AcDbEntity
  8
DEFPOINTS
 62
     0
100
AcDbPoint
 10
-86.75000135426985
 20
1.5000052649892
 30
0.0
  0
ENDBLK
  5
1F64
330
1F57
100
AcDbEntity
  8
0
100
AcDbBlockEnd
  0
BLOCK
  5
2222
330
2212
100
AcDbEntity
  8
0
100
AcDbBlockBegin
  2
*D10
 70
     1
 10
0.0
 20
0.0
 30
0.0
  3
*D10
  1

  0
LINE
  5
2300
330
2212
100
AcDbEntity
  8
AM_5
100
AcDbLine
 10
0.1710087926304704
 20
-0.4698467759206878
 30
0.0
 11
4.988902986242893
 21
-13.70701440207448
 31
0.0
  0
LINE
  5
2301
330
2212
100
AcDbEntity
  8
AM_5
100
AcDbLine
 10
0.171010051759084
 20
0.4698463176373253
 30
0.0
 11
4.988939719269327
 21
13.70700103240375
 31
0.0
  0
ARC
  5
2302
330
2212
100
AcDbEntity
  8
AM_5
100
AcDbCircle
 10
-0.0000000000000071
 20
0.0000000000000014
 30
0.0
 40
14.08668560108226
100
AcDbArc
 50
295.085727596878
 51
64.9141188577656
  0
INSERT
  5
2303
330
2212
100
AcDbEntity
  8
AM_5
100
AcDbBlockReference
  2
_OPEN30
 10
4.817894193612415
 20
-13.23716762615379
 30
0.0
 41
1.25
 42
1.25
 43
1.25
 50
202.542785812172
  0
INSERT
  5
2304
330
2212
100
AcDbEntity
  8
AM_5
100
AcDbBlockReference
  2
_OPEN30
 10
4.817929667510237
 20
13.23715471476643
 30
0.0
 41
1.25
 42
1.25
 43
1.25
 50
157.4570606424717
  0
MTEXT
  5
2305
330
2212
100
AcDbEntity
  8
AM_5
 62
     2
100
AcDbMText
 10
12.536685601071
 20
-0.0000167983564725
 30
0.0
 40
1.6
 41
0.0
 71
     5
 72
     1
  1
140°
  7
ASAMI
 11
0.0000013399360091
 21
0.9999999999991022
 31
0.0
1001
ACAD
1000
MTEXTBEGIN
1070
    73
1070
     1
1070
    44
1040
1.0
1070
    74
1070
     0
1000
MTEXTEND
  0
POINT
  5
2306
330
2212
100
AcDbEntity
  8
DEFPOINTS
 62
     0
100
AcDbPoint
 10
12.93461156452184
 20
-5.579474428535011
 30
0.0
  0
POINT
  5
2307
330
2212
100
AcDbEntity
  8
DEFPOINTS
 62
     0
100
AcDbPoint
 10
-0.0000000000000071
 20
0.0000000000000014
 30
0.0
  0
POINT
  5
2308
330
2212
100
AcDbEntity
  8
DEFPOINTS
 62
     0
100
AcDbPoint
 10
-0.0000000000000071
 20
0.0000000000000014
 30
0.0
  0
POINT
  5
2309
330
2212
100
AcDbEntity
  8
DEFPOINTS
 62
     0
100
AcDbPoint
 10
-0.1486123801499026
 20
0.4083126171541928
 30
0.0
  0
POINT
  5
230A
330
2212
100
AcDbEntity
  8
DEFPOINTS
 62
     0
100
AcDbPoint
 10
-0.1486151411107404
 20
-0.4083167982101767
 30
0.0
  0
ENDBLK
  5
2223
330
2212
100
AcDbEntity
  8
0
100
AcDbBlockEnd
  0
ENDSEC
  0
SECTION
  2
ENTITIES
  0
LINE
  5
C30
330
1F
100
AcDbEntity
  8
AM_0
 48
0.5
100
AcDbLine
 10
-79.0
 20
-1.250006209471281
 30
0.0
 11
-79.00000000000007
 21
1.250005235204404
 31
0.0
  0
LINE
  5
C9F
330
1F
100
AcDbEntity
  8
AM_7
100
AcDbLine
 10
-79.74999999999997
 20
-0.0000000000000809
 30
0.0
 11
0.3414507133674719
 21
0.0000000000000001
 31
0.0
1001
GENIUS_GENODEF_13
1002
{
1000
HIER
1070
     0
1002
}
1002
{
1000
MANEDIT
1070
     0
1002
}
1002
{
1000
NOSEL
1070
     0
1002
}
1002
{
1000
BEHIND
1070
     0
1002
}
1002
{
1000
REACTOR
1002
}
1001
GENIUS_GENOBJ-N-CEN_13
1002
{
1000
OWNER
1000
GEN
1002
}
  0
DIMENSION
  5
CC6
330
1F
100
AcDbEntity
  8
AM_5
100
AcDbDimension
  2
*D5
 10
-0.9999999999999959
 20
-13.50000718101105
 30
0.0
 11
-40.0
 21
-11.80000718101105
 31
0.0
 70
    32
  1
<>
  3
AM_JIS$0
100
AcDbAlignedDimension
 13
-79.0
 23
-1.250006209471281
 33
0.0
 14
-0.999999999999995
 24
-1.500000000000006
 34
0.0
 50
0.0000000000001132
100
AcDbRotatedDimension
1001
GENIUS_GENDTOL_13
1000

1000
h7
1000

1040
0.0
1001
ACAD
1000
DSTYLE
1002
{
1070
   271
1070
     0
1002
}
  0
ARC
  5
144A
330
1F
100
AcDbEntity
  8
AM_11
 48
0.5
100
AcDbCircle
 10
-24.57419016387426
 20
-6.625446930970555
 30
0.0
 40
7.325448036193749
100
AcDbArc
 50
64.74833051131179
 51
115.2516644797366
  0
ARC
  5
144B
330
1F
100
AcDbEntity
  8
AM_11
 48
0.5
100
AcDbCircle
 10
-24.57419016387426
 20
6.625451430235442
 30
0.0
 40
7.325448036193749
100
AcDbArc
 50
244.7482808787518
 51
295.2516148471758
  0
ARC
  5
144E
330
1F
100
AcDbEntity
  8
AM_11
 48
0.5
100
AcDbCircle
 10
-18.32419016387426
 20
-6.625446930970555
 30
0.0
 40
7.325448036193749
100
AcDbArc
 50
64.74833051131179
 51
115.2516644797366
  0
ARC
  5
144F
330
1F
100
AcDbEntity
  8
AM_11
 48
0.5
100
AcDbCircle
 10
-18.32419016387426
 20
6.625451430235442
 30
0.0
 40
7.325448036193749
100
AcDbArc
 50
244.7482808787518
 51
295.2516148471758
  0
ARC
  5
1450
330
1F
100
AcDbEntity
  8
AM_11
 48
0.5
100
AcDbCircle
 10
-12.07419016387601
 20
6.625451430235442
 30
0.0
 40
7.325448036193749
100
AcDbArc
 50
244.7482808787518
 51
295.2516148471758
  0
ARC
  5
1451
330
1F
100
AcDbEntity
  8
AM_11
 48
0.5
100
AcDbCircle
 10
-12.07419016387601
 20
-6.625446930970555
 30
0.0
 40
7.325448036193749
100
AcDbArc
 50
64.74833051131179
 51
115.2516644797366
  0
ARC
  5
1452
330
1F
100
AcDbEntity
  8
AM_11
 48
0.5
100
AcDbCircle
 10
-5.824190163876016
 20
-6.625446930970555
 30
0.0
 40
7.325448036193749
100
AcDbArc
 50
64.74833051131179
 51
115.2516644797366
  0
ARC
  5
1453
330
1F
100
AcDbEntity
  8
AM_11
 48
0.5
100
AcDbCircle
 10
-5.824190163876016
 20
6.625451430235442
 30
0.0
 40
7.325448036193749
100
AcDbArc
 50
244.7482808787518
 51
295.2516148471758
  0
ARC
  5
1454
330
1F
100
AcDbEntity
  8
AM_11
 48
0.5
100
AcDbCircle
 10
0.4258098361239906
 20
6.625451430235442
 30
0.0
 40
7.325448036193749
100
AcDbArc
 50
244.7482808787518
 51
254.0147302238188
  0
ARC
  5
18B8
330
1F
100
AcDbEntity
  8
AM_11
 48
0.5
100
AcDbCircle
 10
-30.8241901638742
 20
6.625451430235421
 30
0.0
 40
7.325448036193749
100
AcDbArc
 50
244.7482808787518
 51
295.2516148471758
  0
ARC
  5
18B9
330
1F
100
AcDbEntity
  8
AM_11
 48
0.5
100
AcDbCircle
 10
-30.82419016387421
 20
-6.625446930970577
 30
0.0
 40
7.325448036193749
100
AcDbArc
 50
64.74833051131179
 51
115.2516644797366
  0
ARC
  5
18BA
330
1F
100
AcDbEntity
  8
AM_11
 48
0.5
100
AcDbCircle
 10
-37.07420293107463
 20
6.625457452091307
 30
0.0
 40
7.325448036193749
100
AcDbArc
 50
244.7482808787518
 51
295.2516148471758
  0
ARC
  5
18BB
330
1F
100
AcDbEntity
  8
AM_11
 48
0.5
100
AcDbCircle
 10
-37.07420293107464
 20
-6.625440909114692
 30
0.0
 40
7.325448036193749
100
AcDbArc
 50
64.74833051131179
 51
115.2516644797366
  0
TEXT
  5
19BD
330
1F
100
AcDbEntity
  8
AM_6
100
AcDbText
 10
-50.8333333333333
 20
-24.75000718101107
 30
0.0
 40
2.5
  1
MDW029LHK
 50
0.0000000000001527
 72
     4
 11
-39.99999999999997
 21
-23.50000718101104
 31
0.0
100
AcDbText
  0
LINE
  5
1B73
330
1F
100
AcDbEntity
  8
AM_0
 48
0.5
100
AcDbLine
 10
-79.00000000000007
 20
1.250005235204404
 30
0.0
 11
-78.75000000000008
 21
1.500005264989098
 31
0.0
1001
GENIUS_GENFIL_13
1070
     0
1040
0.25
1040
0.25
1040
20.0
1040
0.0
1002
{
1002
}
1001
GENIUS_GENODEF_13
1002
{
1000
HIER
1070
     0
1002
}
1002
{
1000
MANEDIT
1070
     0
1002
}
1002
{
1000
NOSEL
1070
     0
1002
}
1002
{
1000
BEHIND
1070
     0
1002
}
1002
{
1000
REACTOR
1002
}
1001
GENIUS_GENOBJ-N-CHA_13
1002
{
1000
OWNER
1000
GEN
1002
}
  0
LINE
  5
1B77
330
1F
100
AcDbEntity
  8
AM_0
 48
0.5
100
AcDbLine
 10
-78.74999999999999
 20
-1.500006181011205
 30
0.0
 11
-79.0
 21
-1.250006209471281
 31
0.0
1001
GENIUS_GENFIL_13
1070
     0
1040
0.25
1040
0.25
1040
20.0
1040
0.0
1002
{
1002
}
1001
GENIUS_GENODEF_13
1002
{
1000
HIER
1070
     0
1002
}
1002
{
1000
MANEDIT
1070
     0
1002
}
1002
{
1000
NOSEL
1070
     0
1002
}
1002
{
1000
BEHIND
1070
     0
1002
}
1002
{
1000
REACTOR
1002
}
1001
GENIUS_GENOBJ-N-CHA_13
1002
{
1000
OWNER
1000
GEN
1002
}
  0
LINE
  5
1B8A
330
1F
100
AcDbEntity
  8
AM_0
100
AcDbLine
 10
-78.74999999999999
 20
-1.500006181011205
 30
0.0
 11
-78.74999999999999
 21
1.500005264989098
 31
0.0
  0
DIMENSION
  5
1BC7
330
1F
100
AcDbEntity
  8
AM_5
100
AcDbDimension
  2
*D7
 10
-0.9999999999999985
 20
-8.50000718101109
 30
0.0
 11
-15.99999999999999
 21
-6.80000718101109
 31
0.0
 70
    32
  1
<>
  3
AM_JIS$0
100
AcDbAlignedDimension
 13
-30.99999999999999
 23
-1.500000542241563
 33
0.0
 14
-0.999999999999998
 24
-1.450000000000004
 34
0.0
 50
0.0000000000000364
100
AcDbRotatedDimension
1001
GENIUS_GENDTOL_13
1000

1000
h7
1000

1040
0.0
1001
ACAD
1000
DSTYLE
1002
{
1070
   271
1070
     0
1002
}
  0
ARC
  5
1C60
330
1F
100
AcDbEntity
  8
AM_11
 48
0.5
100
AcDbCircle
 10
-49.57421569827501
 20
-6.625446930970602
 30
0.0
 40
7.325448036193749
100
AcDbArc
 50
64.74833051131179
 51
115.2516644797366
  0
ARC
  5
1C61
330
1F
100
AcDbEntity
  8
AM_11
 48
0.5
100
AcDbCircle
 10
-49.57421569827499
 20
6.625451430235396
 30
0.0
 40
7.325448036193749
100
AcDbArc
 50
244.7482808787518
 51
295.2516148471758
  0
ARC
  5
1C62
330
1F
100
AcDbEntity
  8
AM_11
 48
0.5
100
AcDbCircle
 10
-43.32420293107458
 20
-6.625452952826488
 30
0.0
 40
7.325448036193749
100
AcDbArc
 50
64.74833051131179
 51
115.2516644797366
  0
ARC
  5
1C63
330
1F
100
AcDbEntity
  8
AM_11
 48
0.5
100
AcDbCircle
 10
-43.32420293107458
 20
6.62544540837951
 30
0.0
 40
7.325448036193749
100
AcDbArc
 50
244.7482808787518
 51
295.2516148471758
  0
ARC
  5
1C64
330
1F
100
AcDbEntity
  8
AM_11
 48
0.5
100
AcDbCircle
 10
-62.07422846547538
 20
-6.625440909114738
 30
0.0
 40
7.325448036193749
100
AcDbArc
 50
64.74833051131179
 51
115.2516644797366
  0
ARC
  5
1C65
330
1F
100
AcDbEntity
  8
AM_11
 48
0.5
100
AcDbCircle
 10
-62.07422846547537
 20
6.625457452091261
 30
0.0
 40
7.325448036193749
100
AcDbArc
 50
244.7482808787518
 51
295.2516148471758
  0
ARC
  5
1C66
330
1F
100
AcDbEntity
  8
AM_11
 48
0.5
100
AcDbCircle
 10
-55.82421569827495
 20
-6.625446930970623
 30
0.0
 40
7.325448036193749
100
AcDbArc
 50
64.74833051131179
 51
115.2516644797366
  0
ARC
  5
1C67
330
1F
100
AcDbEntity
  8
AM_11
 48
0.5
100
AcDbCircle
 10
-55.82421569827495
 20
6.625451430235375
 30
0.0
 40
7.325448036193749
100
AcDbArc
 50
244.7482808787518
 51
295.2516148471758
  0
ARC
  5
1C68
330
1F
100
AcDbEntity
  8
AM_11
 48
0.5
100
AcDbCircle
 10
-74.57421569821118
 20
-6.625446930970629
 30
0.0
 40
7.325448036193749
100
AcDbArc
 50
64.74833051131179
 51
115.2516644797366
  0
ARC
  5
1C69
330
1F
100
AcDbEntity
  8
AM_11
 48
0.5
100
AcDbCircle
 10
-74.57421569821116
 20
6.625451430235369
 30
0.0
 40
7.325448036193749
100
AcDbArc
 50
244.7482808787518
 51
295.2516148471758
  0
ARC
  5
1C6A
330
1F
100
AcDbEntity
  8
AM_11
 48
0.5
100
AcDbCircle
 10
-68.32420293101074
 20
-6.625452952826514
 30
0.0
 40
7.325448036193749
100
AcDbArc
 50
64.74833051131179
 51
115.2516644797366
  0
ARC
  5
1C6B
330
1F
100
AcDbEntity
  8
AM_11
 48
0.5
100
AcDbCircle
 10
-68.32420293101074
 20
6.625445408379484
 30
0.0
 40
7.325448036193749
100
AcDbArc
 50
244.7482808787518
 51
295.2516148471758
  0
ARC
  5
1C6C
330
1F
100
AcDbEntity
  8
AM_11
 48
0.5
100
AcDbCircle
 10
-80.82420202669728
 20
6.625451430235353
 30
0.0
 40
7.325448036193749
100
AcDbArc
 50
284.4196815136692
 51
295.2516148471758
  0
ARC
  5
1C6D
330
1F
100
AcDbEntity
  8
AM_11
 48
0.5
100
AcDbCircle
 10
-80.8242020266973
 20
-6.625446930970646
 30
0.0
 40
7.325448036193749
100
AcDbArc
 50
64.74833051131179
 51
75.58031848633074
  0
LINE
  5
1D7E
330
1F
100
AcDbEntity
  8
AM_0
 48
0.5
100
AcDbLine
 10
-30.99999999999999
 20
-1.500000542241559
 30
0.0
 11
-31.00000000000008
 21
1.500000511136402
 31
0.0
  0
LINE
  5
1D83
330
1F
100
AcDbEntity
  8
AM_0
 48
0.5
100
AcDbLine
 10
-31.00000000000008
 20
1.500000511136402
 30
0.0
 11
-78.75000000000008
 21
1.500005264989098
 31
0.0
  0
LINE
  5
1D87
330
1F
100
AcDbEntity
  8
AM_0
 48
0.5
100
AcDbLine
 10
-30.99999999999999
 20
-1.500000542241559
 30
0.0
 11
-78.74999999999999
 21
-1.500006181011205
 31
0.0
  0
DIMENSION
  5
1DDA
330
1F
100
AcDbEntity
  8
AM_5
100
AcDbDimension
  2
*D8
 10
7.34145171927261
 20
1.449999999999992
 30
0.0
 11
7.341451719272611
 21
7.504761904761897
 31
0.0
 70
   160
  1
%%c<>
  3
AM_JIS$0
100
AcDbAlignedDimension
 13
-0.999999999999998
 23
-1.450000000000004
 33
0.0
 14
-0.9999999999999856
 24
1.449999999999995
 34
0.0
 50
89.99999999999991
100
AcDbRotatedDimension
1001
ACAD
1000
DSTYLE
1002
{
1070
   271
1070
     1
1002
}
1001
GENIUS_GENDTOL_13
1000

1000
h7
1000

1040
0.0
  0
LINE
  5
1DED
330
1F
100
AcDbEntity
  8
AM_0
 48
0.5
100
AcDbLine
 10
-1.876960118611689
 20
-1.450000000000001
 30
0.0
 11
-0.999999999999998
 21
-1.450000000000004
 31
0.0
  0
LINE
  5
1DEE
330
1F
100
AcDbEntity
  8
AM_0
 48
0.5
100
AcDbLine
 10
-1.876960118611678
 20
1.449999999999998
 30
0.0
 11
-0.9999999999999856
 21
1.449999999999995
 31
0.0
  0
LINE
  5
1DF1
330
1F
100
AcDbEntity
  8
AM_0
 48
0.5
100
AcDbLine
 10
-11.62682333030161
 20
-1.449999999999995
 30
0.0
 11
-7.036042531331307
 21
-1.449999999999982
 31
0.0
  0
LINE
  5
1DF2
330
1F
100
AcDbEntity
  8
AM_0
 48
0.5
100
AcDbLine
 10
-12.82485707600896
 20
1.450000000000038
 30
0.0
 11
-7.847883554190165
 21
1.450000000000015
 31
0.0
  0
LINE
  5
1DF3
330
1F
100
AcDbEntity
  8
AM_0
100
AcDbLine
 10
-22.57475789388019
 20
1.450000000000044
 30
0.0
 11
-16.11718123715969
 21
1.450205998814821
 31
0.0
  0
LINE
  5
1DF4
330
1F
100
AcDbEntity
  8
AM_0
 48
0.5
100
AcDbLine
 10
-22.57475996018416
 20
-1.449999999999936
 30
0.0
 11
-16.78590574302163
 21
-1.449999999999944
 31
0.0
  0
LINE
  5
1DF5
330
1F
100
AcDbEntity
  8
AM_11
 48
0.5
100
AcDbLine
 10
-16.11718123715969
 20
1.450205998814821
 30
0.0
 11
-12.82485263252163
 21
1.450000000000038
 31
0.0
  0
LINE
  5
1DF6
330
1F
100
AcDbEntity
  8
AM_11
 48
0.5
100
AcDbLine
 10
-16.78590574302058
 20
-1.449999999999976
 30
0.0
 11
-11.62682333030162
 21
-1.450205998814762
 31
0.0
  0
LINE
  5
1DF7
330
1F
100
AcDbEntity
  8
AM_11
 48
0.5
100
AcDbLine
 10
-7.036042531331307
 20
-1.449999999999982
 30
0.0
 11
-1.876960118611689
 21
-1.450000000000001
 31
0.0
  0
LINE
  5
1DF8
330
1F
100
AcDbEntity
  8
AM_11
 48
0.5
100
AcDbLine
 10
-7.847883554190164
 20
1.450000000000015
 30
0.0
 11
-1.876960118611678
 21
1.449999999999998
 31
0.0
  0
LINE
  5
1DF9
330
1F
100
AcDbEntity
  8
AM_0
100
AcDbLine
 10
-28.99999999999998
 20
1.076609229425218
 30
0.0
 11
-25.86708205503091
 21
1.450000109144358
 31
0.0
  0
POLYLINE
  5
1DFA
330
1F
100
AcDbEntity
  8
AM_0
100
AcDb2dPolyline
 66
     1
 10
0.0
 20
0.0
 30
0.0
 70
     2
  0
VERTEX
  5
1DFB
330
1DFA
100
AcDbEntity
  8
AM_0
100
AcDbVertex
100
AcDb2dVertex
 10
-26.99999999999999
 20
0.0621305648605051
 30
0.0
 42
0.0328772359659946
  0
VERTEX
  5
1DFC
330
1DFA
100
AcDbEntity
  8
AM_0
100
AcDbVertex
100
AcDb2dVertex
 10
-27.4079493986279
 20
0.1879709872422877
 30
0.0
 42
0.0406441426826111
 70
     1
  0
VERTEX
  5
1DFD
330
1DFA
100
AcDbEntity
  8
AM_0
100
AcDbVertex
100
AcDb2dVertex
 10
-27.74999999999999
 20
0.2419821226809314
 30
0.0
 42
0.0349480616290147
  0
VERTEX
  5
1DFE
330
1DFA
100
AcDbEntity
  8
AM_0
100
AcDbVertex
100
AcDb2dVertex
 10
-28.46068563533544
 20
0.249407187081455
 30
0.0
 42
0.0841411130651936
 70
     1
  0
VERTEX
  5
1DFF
330
1DFA
100
AcDbEntity
  8
AM_0
100
AcDbVertex
100
AcDb2dVertex
 10
-28.74999999999999
 20
0.1848242261269539
 30
0.0
 42
0.0979526151427332
  0
VERTEX
  5
1E00
330
1DFA
100
AcDbEntity
  8
AM_0
100
AcDbVertex
100
AcDb2dVertex
 10
-28.95085340515315
 20
0.0547918514981854
 30
0.0
 42
0.1938983539896396
 70
     1
  0
VERTEX
  5
1E01
330
1DFA
100
AcDbEntity
  8
AM_0
100
AcDbVertex
100
AcDb2dVertex
 10
-28.99999999999998
 20
-0.0568424405397115
 30
0.0
 42
0.1455033175112951
  0
VERTEX
  5
1E02
330
1DFA
100
AcDbEntity
  8
AM_0
100
AcDbVertex
100
AcDb2dVertex
 10
-28.96116188432687
 20
-0.1926726570322961
 30
0.0
 42
0.0623373512118238
 70
     1
  0
VERTEX
  5
1E03
330
1DFA
100
AcDbEntity
  8
AM_0
100
AcDbVertex
100
AcDb2dVertex
 10
-28.74999999999998
 20
-0.4434687170477414
 30
0.0
 42
0.038537546653951
  0
VERTEX
  5
1E04
330
1DFA
100
AcDbEntity
  8
AM_0
100
AcDbVertex
100
AcDb2dVertex
 10
-28.40593432441943
 20
-0.7157913393585901
 30
0.0
 42
0.0220442519779929
 70
     1
  0
VERTEX
  5
1E05
330
1DFA
100
AcDbEntity
  8
AM_0
100
AcDbVertex
100
AcDb2dVertex
 10
-27.75000000008599
 20
-1.11772275124728
 30
0.0
 42
0.0372086905244029
  0
VERTEX
  5
1E06
330
1DFA
100
AcDbEntity
  8
AM_0
100
AcDbVertex
100
AcDb2dVertex
 10
-27.46801360741432
 20
-1.248223570848309
 30
0.0
 42
0.0235344846445626
 70
     1
  0
VERTEX
  5
1E07
330
1DFA
100
AcDbEntity
  8
AM_0
100
AcDbVertex
100
AcDb2dVertex
 10
-27.000000000172
 20
-1.400693296646527
 30
0.0
  0
SEQEND
  5
1E08
330
1DFA
100
AcDbEntity
  8
AM_0
  0
LINE
  5
1E09
330
1F
100
AcDbEntity
  8
AM_11
 48
0.5
100
AcDbLine
 10
-26.40909353892025
 20
1.450000000000058
 30
0.0
 11
-22.57475789388019
 21
1.450000000000044
 31
0.0
  0
LINE
  5
1E0A
330
1F
100
AcDbEntity
  8
AM_11
 48
0.5
100
AcDbLine
 10
-26.40909353892027
 20
-1.449999999999941
 30
0.0
 11
-21.3766865427811
 21
-1.449999999999958
 31
0.0
  0
SPLINE
  5
1E0E
330
1F
100
AcDbEntity
  8
AM_0
100
AcDbSpline
210
0.0
220
0.0
230
1.0
 70
     8
 71
     3
 72
    17
 73
    13
 74
     0
 42
0.0000000001
 43
0.0000000001
 40
1.580019955310467
 40
1.580019955310467
 40
1.580019955310467
 40
1.580019955310467
 40
2.030549285115227
 40
3.082371838836284
 40
4.126290986361125
 40
5.162752068350215
 40
6.192395305374981
 40
7.216039564037012
 40
8.234688489606833
 40
9.249433870634691
 40
10.26152376260694
 40
11.27226744710342
 40
11.27226744710342
 40
11.27226744710342
 40
11.27226744710352
 10
-4.4563000707123
 20
-1.070142697556014
 30
0.0
 10
-4.495048681549114
 20
-1.081164278332747
 30
0.0
 10
-4.62448205981245
 20
-1.117288981471036
 30
0.0
 10
-4.84545693464251
 20
-1.173951870907749
 30
0.0
 10
-5.119167006923866
 20
-1.237406790230404
 30
0.0
 10
-5.392952431331861
 20
-1.293111784381658
 30
0.0
 10
-5.666750400492424
 20
-1.340879783471276
 30
0.0
 10
-5.940578199451022
 20
-1.380363320767029
 30
0.0
 10
-6.214424916386494
 20
-1.4113370811314
 30
0.0
 10
-6.488288685210687
 20
-1.433600344233282
 30
0.0
 10
-6.76216275862955
 20
-1.447009798862612
 30
0.0
 10
-6.944789788646585
 20
-1.450000008296959
 30
0.0
 10
-7.036042531331284
 20
-1.449999999999982
 30
0.0
  0
SPLINE
  5
1E0F
330
1F
100
AcDbEntity
  8
AM_0
100
AcDbSpline
210
0.0
220
0.0
230
1.0
 70
     8
 71
     3
 72
    22
 73
    18
 74
     0
 42
0.0000000001
 43
0.0000000001
 40
17.17441611292
 40
17.17441611292
 40
17.17441611292
 40
17.17441611292
 40
17.38177636558528
 40
18.41823744757437
 40
19.46215659509824
 40
20.51397914882054
 40
21.57394542641293
 40
22.64209583141747
 40
23.71826625065247
 40
24.80210429862395
 40
25.8930771157021
 40
26.99048705697709
 40
28.09349309193389
 40
29.20112995599786
 40
30.31233024745139
 40
31.42594771747373
 40
32.5407895042663
 40
32.54078950426994
 40
32.54078950426994
 40
32.54078950426994
 10
-8.081359220813924
 20
-1.302110494591113
 30
0.0
 10
-8.099698219203375
 20
-1.298753886809679
 30
0.0
 10
-8.209630499037789
 20
-1.278308421926693
 30
0.0
 10
-8.41102024103513
 20
-1.237312603799803
 30
0.0
 10
-8.684768418436449
 20
-1.173955121231445
 30
0.0
 10
-8.95848870147312
 20
-1.103362616682286
 30
0.0
 10
-9.232183022594997
 20
-1.025975746069352
 30
0.0
 10
-9.505851020270917
 20
-0.9422690053274244
 30
0.0
 10
-9.779496063036589
 20
-0.8527633401845729
 30
0.0
 10
-10.05311941794548
 20
-0.7580088236602558
 30
0.0
 10
-10.32672361666428
 20
-0.6585898016659312
 30
0.0
 10
-10.60031170149823
 20
-0.5551196265942452
 30
0.0
 10
-10.87388604702681
 20
-0.4482345396807288
 30
0.0
 10
-11.14744940721813
 20
-0.3385921160414841
 30
0.0
 10
-11.42100420697328
 20
-0.2268665324738057
 30
0.0
 10
-11.6945544987687
 20
-0.1137471962168774
 30
0.0
 10
-11.87688556353473
 20
-0.0378804568910511
 30
0.0
 10
-11.96810118357394
 20
0.0000737508140231
 30
0.0
  0
SPLINE
  5
1E10
330
1F
100
AcDbEntity
  8
AM_0
100
AcDbSpline
210
0.0
220
0.0
230
1.0
 70
     8
 71
     3
 72
    11
 73
     7
 74
     0
 42
0.0000000001
 43
0.0000000001
 40
11.27226913003534
 40
11.27226913003534
 40
11.27226913003534
 40
11.2722691300354
 40
12.28301561507924
 40
13.29510212255852
 40
14.30984805882082
 40
15.18258238371378
 40
15.18258238371378
 40
15.18258238371378
 40
15.18258238371378
 10
-7.036042531331299
 20
-1.449999999999982
 30
0.0
 10
-7.126948286163592
 20
-1.442903278632734
 30
0.0
 10
-7.308588330288225
 20
-1.42572242506455
 30
0.0
 10
-7.580110441149892
 20
-1.391064393743468
 30
0.0
 10
-7.837789712037962
 20
-1.349669175435364
 30
0.0
 10
-8.004441538978618
 20
-1.317847439121196
 30
0.0
 10
-8.081239446239301
 20
-1.302128380330026
 30
0.0
  0
SPLINE
  5
1E11
330
1F
100
AcDbEntity
  8
AM_0
100
AcDbSpline
210
0.0
220
0.0
230
1.0
 70
     8
 71
     3
 72
    55
 73
    51
 74
     0
 42
0.0000000001
 43
0.0000000001
 40
0.0
 40
0.0
 40
0.0
 40
0.0
 40
1.010743684496582
 40
2.022833576467832
 40
3.037578957496688
 40
4.056212745003489
 40
5.079857003664532
 40
6.109500240690281
 40
7.145961322679372
 40
8.189895241603872
 40
9.241717795325891
 40
10.30168407291828
 40
11.36983447792315
 40
12.44600489715814
 40
13.52984294512926
 40
14.62081576220742
 40
15.7182257034828
 40
16.82123173843959
 40
17.92886860250316
 40
19.0400688939571
 40
20.15368796660465
 40
21.26852814259644
 40
22.38336992938901
 40
23.49698739941135
 40
24.6081876908653
 40
25.71582455492886
 40
26.81883757994213
 40
27.91624752121713
 40
29.00722033829659
 40
30.09105838626677
 40
31.16722880550176
 40
32.23537921050758
 40
33.29534548809967
 40
34.347168041821
 40
35.39108718934584
 40
36.42754827133493
 40
37.45720575381954
 40
38.48085062012849
 40
39.49948440763516
 40
40.51422944315121
 40
41.52631975251916
 40
42.53706336719636
 40
43.54780698187354
 40
44.55989729124051
 40
45.57464232675757
 40
46.59327611426424
 40
47.6169209805722
 40
48.64656348684535
 40
49.68302456883444
 40
50.58557219878025
 40
50.58557219878025
 40
50.58557219878025
 40
50.58557219878025
 10
-1.876960118611689
 20
-1.450000000000001
 30
0.0
 10
-1.968212862500285
 20
-1.449137285128398
 30
0.0
 10
-2.150839889623005
 20
-1.447410706336999
 30
0.0
 10
-2.424713968850889
 20
-1.433492542950336
 30
0.0
 10
-2.698576357426961
 20
-1.411366298995451
 30
0.0
 10
-2.972421796609882
 20
-1.38035552656826
 30
0.0
 10
-3.246247553853247
 20
-1.340880481090831
 30
0.0
 10
-3.520048227187097
 20
-1.293116701799624
 30
0.0
 10
-3.793824732462545
 20
-1.237385942536399
 30
0.0
 10
-4.067574641835282
 20
-1.174029471805763
 30
0.0
 10
-4.341296090569514
 20
-1.103436294494545
 30
0.0
 10
-4.61499044301534
 20
-1.026049516679421
 30
0.0
 10
-4.888658432180816
 20
-0.9423427507459051
 30
0.0
 10
-5.162303477328261
 20
-0.852837092574903
 30
0.0
 10
-5.435926831306622
 20
-0.7580825736130298
 30
0.0
 10
-5.709531031353539
 20
-0.6586635543501264
 30
0.0
 10
-5.983119111776613
 20
-0.5551933707404865
 30
0.0
 10
-6.256693473730913
 20
-0.4483083154579683
 30
0.0
 10
-6.530256772286792
 20
-0.3386657731718725
 30
0.0
 10
-6.803811934687788
 20
-0.2269405807037848
 30
0.0
 10
-7.077361360273084
 20
-0.1138195786219686
 30
0.0
 10
-7.350908911984283
 20
-0.0000002958526535
 30
0.0
 10
-7.624455235695857
 20
0.1138210357346845
 30
0.0
 10
-7.8980055781592
 20
0.2269402762232865
 30
0.0
 10
-8.171560402852687
 20
0.338665806877171
 30
0.0
 10
-8.445124189168895
 20
0.4483087668524831
 30
0.0
 10
-8.71869968604088
 20
0.5551929099591704
 30
0.0
 10
-8.992288198258227
 20
0.6586636183066076
 30
0.0
 10
-9.26589243780449
 20
0.7580825569509365
 30
0.0
 10
-9.539515781826573
 20
0.8528370958393288
 30
0.0
 10
-9.813160827674712
 20
0.94234275414126
 30
0.0
 10
-10.08682882381073
 20
1.026049500059226
 30
0.0
 10
-10.36052314800831
 20
1.10343635689337
 30
0.0
 10
-10.6342434203883
 20
1.174028910867737
 30
0.0
 10
-10.90799163693404
 20
1.237386211410069
 30
0.0
 10
-11.18176804065261
 20
1.293118091348751
 30
0.0
 10
-11.45557066901503
 20
1.34087641535333
 30
0.0
 10
-11.72939733090132
 20
1.380363679191824
 30
0.0
 10
-12.00324285126428
 20
1.411337692350945
 30
0.0
 10
-12.27710543012826
 20
1.433598300925148
 30
0.0
 10
-12.55097927714356
 20
1.447011963114686
 30
0.0
 10
-12.82485914237056
 20
1.451493023806856
 30
0.0
 10
-13.09873900719458
 20
1.447011963107662
 30
0.0
 10
-13.37261285542116
 20
1.433598300953334
 30
0.0
 10
-13.64647542982557
 20
1.411337692244722
 30
0.0
 10
-13.92032096690854
 20
1.380363679590979
 30
0.0
 10
-14.19414623098083
 20
1.340876606359168
 30
0.0
 10
-14.46794778066511
 20
1.293118579651801
 30
0.0
 10
-14.72927616544856
 20
1.239916085918597
 30
0.0
 10
-14.8988289975883
 20
1.201008599292499
 30
0.0
 10
-14.97749162944735
 20
1.182047083038102
 30
0.0
  0
SPLINE
  5
1E12
330
1F
100
AcDbEntity
  8
AM_0
100
AcDbSpline
210
0.0
220
0.0
230
1.0
 70
     8
 71
     3
 72
    46
 73
    42
 74
     0
 42
0.0000000001
 43
0.0000000001
 40
0.0
 40
0.0
 40
0.0
 40
0.0
 40
0.5056245176053715
 40
0.759310862862336
 40
1.013969309739036
 40
1.269880374404297
 40
1.527291183660732
 40
1.786406454158005
 40
2.047386241038974
 40
2.310345544571907
 40
2.575337113970003
 40
2.842374715221223
 40
3.111417320030211
 40
3.382376832022752
 40
3.655120036292296
 40
3.929472521611371
 40
4.205224030350333
 40
4.482133246366229
 40
4.759933319229942
 40
5.038338087391601
 40
5.317048131389549
 40
5.595758175387723
 40
5.874162943549383
 40
6.151963016412869
 40
6.428872232428759
 40
6.704623741167955
 40
6.978976226486705
 40
7.251719430756336
 40
7.522680721168327
 40
7.791723325977311
 40
8.058760927228529
 40
8.32375249662655
 40
8.586708135057122
 40
8.84768792193809
 40
9.106803192435362
 40
9.364213819003406
 40
9.620125035580644
 40
9.87478726697307
 40
10.12847352585208
 40
10.38149610319407
 40
10.63418200686337
 40
10.63418200686337
 40
10.63418200686337
 40
10.63418200686337
 10
-0.999999999999998
 20
-1.450000000000004
 30
0.0
 10
-1.292934742509345
 20
-1.446696787913677
 30
0.0
 10
-1.567204395080805
 20
-1.441736259434235
 30
0.0
 10
-1.931912712521074
 20
-1.411195196883873
 30
0.0
 10
-2.205761093889111
 20
-1.38040168155033
 30
0.0
 10
-2.47958606773962
 20
-1.340868038629744
 30
0.0
 10
-2.753386912723862
 20
-1.293119961291469
 30
0.0
 10
-3.027162222273199
 20
-1.237385726022756
 30
0.0
 10
-3.300911537855121
 20
-1.174028405986497
 30
0.0
 10
-3.574633641188486
 20
-1.10343702450661
 30
0.0
 10
-3.848329079378131
 20
-1.026049415509387
 30
0.0
 10
-4.121997116266543
 20
-0.9423427781649587
 30
0.0
 10
-4.395642148477156
 20
-0.852837085139903
 30
0.0
 10
-4.669265505979533
 20
-0.7580825756564364
 30
0.0
 10
-4.94286970499563
 20
-0.6586635536805742
 30
0.0
 10
-5.216457785987937
 20
-0.5551933713615576
 30
0.0
 10
-5.490032146696254
 20
-0.4483083136359752
 30
0.0
 10
-5.763595449689354
 20
-0.3386657798731692
 30
0.0
 10
-6.037150595518104
 20
-0.2269405556223721
 30
0.0
 10
-6.310700083126628
 20
-0.1138196724767763
 30
0.0
 10
-6.584247271229859
 20
-0.000000000023014
 30
0.0
 10
-6.85779445927299
 20
0.1138196725690618
 30
0.0
 10
-7.131343947061772
 20
0.2269405552999183
 30
0.0
 10
-7.404899092231666
 20
0.3386657810664037
 30
0.0
 10
-7.678462397667843
 20
0.4483083092080749
 30
0.0
 10
-7.952036749317453
 20
0.5551933877762542
 30
0.0
 10
-8.225624863857223
 20
0.6586634929078001
 30
0.0
 10
-8.499229533585618
 20
0.7580830165335453
 30
0.0
 10
-8.77285395425636
 20
0.8528366651242611
 30
0.0
 10
-9.046499474607767
 20
0.9423428171038574
 30
0.0
 10
-9.320167505124414
 20
1.026049479355466
 30
0.0
 10
-9.59386181900429
 20
1.103436377226695
 30
0.0
 10
-9.867582098583566
 20
1.174028850695457
 30
0.0
 10
-10.14133029673914
 20
1.237386429553302
 30
0.0
 10
-10.41510544784171
 20
1.293117018395743
 30
0.0
 10
-10.68890649355997
 20
1.340878944558013
 30
0.0
 10
-10.96273321498259
 20
1.380356132929579
 30
0.0
 10
-11.23658018527934
 20
1.411366428874499
 30
0.0
 10
-11.51044409835489
 20
1.433490642149335
 30
0.0
 10
-11.78431795248676
 20
1.447412561366208
 30
0.0
 10
-11.96694505609176
 20
1.449137903335577
 30
0.0
 10
-12.05819781621288
 20
1.450000000000035
 30
0.0
  0
SPLINE
  5
1E16
330
1F
100
AcDbEntity
  8
AM_0
 48
0.5
100
AcDbSpline
210
0.0
220
0.0
230
1.0
 70
     8
 71
     3
 72
    17
 73
    13
 74
     0
 42
0.0000000001
 43
0.0000000001
 40
0.0
 40
0.0
 40
0.0
 40
0.0
 40
1.010743614677189
 40
2.022833924044153
 40
3.037578959561199
 40
4.056212747067873
 40
5.079857613375832
 40
6.109500119648989
 40
7.14596120163808
 40
8.18989512056258
 40
9.241717674284874
 40
9.693948937866434
 40
9.693948937866434
 40
9.693948937866434
 40
9.693948937866434
 10
-1.876960118611678
 20
1.449999999999998
 30
0.0
 10
-1.968212879107183
 20
1.449137906842682
 30
0.0
 10
-2.150839983461387
 20
1.447412571892287
 30
0.0
 10
-2.424713831962941
 20
1.433490599933334
 30
0.0
 10
-2.698576405237126
 20
1.411366697869838
 30
0.0
 10
-2.972421946589902
 20
1.380355864582368
 30
0.0
 10
-3.246247194600214
 20
1.340878678151307
 30
0.0
 10
-3.520048804763338
 20
1.293118168941256
 30
0.0
 10
-3.793823102201497
 20
1.237381787144957
 30
0.0
 10
-4.067580710456395
 20
1.174044764439015
 30
0.0
 10
-4.288564990419091
 20
1.116987681103077
 30
0.0
 10
-4.418339916160123
 20
1.081318798850512
 30
0.0
 10
-4.618091771497346
 20
0.9775626471242564
 30
0.0
  0
SPLINE
  5
1E19
330
1F
100
AcDbEntity
  8
AM_0
100
AcDbSpline
210
0.0
220
0.0
230
1.0
 70
     8
 71
     3
 72
    23
 73
    19
 74
     0
 42
0.0000000001
 43
0.0000000001
 40
16.03460024169435
 40
16.03460024169435
 40
16.03460024169435
 40
16.03460024169435
 40
16.35212704903564
 40
17.38177054169784
 40
18.41822485651776
 40
19.46214173629503
 40
20.51396345435107
 40
21.57393551351153
 40
22.64208202342361
 40
23.7182574881101
 40
24.80209208578934
 40
25.89306333925047
 40
26.99048218457928
 40
28.09348763352352
 40
29.20111863782268
 40
30.31232390128032
 40
31.42594612798585
 40
32.5407912310448
 40
32.5407912310486
 40
32.5407912310486
 40
32.5407912310486
 10
-25.86708205503091
 20
1.450205998814826
 30
0.0
 10
-25.8389448591703
 20
1.445311054159269
 30
0.0
 10
-25.71968705918399
 20
1.423994947896653
 30
0.0
 10
-25.50961316018963
 20
1.382229290922994
 30
0.0
 10
-25.23756691105049
 20
1.320124215747939
 30
0.0
 10
-24.96577335126373
 20
1.25039056819434
 30
0.0
 10
-24.69421642033116
 20
1.173431931046372
 30
0.0
 10
-24.42288648021605
 20
1.08967735042901
 30
0.0
 10
-24.15176784869817
 20
0.9996056028454701
 30
0.0
 10
-23.88084164610646
 20
0.9037408832734726
 30
0.0
 10
-23.61009247744106
 20
0.8026260680306865
 30
0.0
 10
-23.33949863575934
 20
0.6968495206667287
 30
0.0
 10
-23.06903819245638
 20
0.5870260601754607
 30
0.0
 10
-22.79869312752424
 20
0.4737871254137631
 30
0.0
 10
-22.52844082151969
 20
0.3577911852798334
 30
0.0
 10
-22.25825624335563
 20
0.2397155709628098
 30
0.0
 10
-21.98811739238046
 20
0.1202444986739105
 30
0.0
 10
-21.80807319786445
 20
0.0401456773149184
 30
0.0
 10
-21.71800200144395
 20
0.0000737508135072
 30
0.0
  0
SPLINE
  5
1E1A
330
1F
100
AcDbEntity
  8
AM_0
100
AcDbSpline
210
0.0
220
0.0
230
1.0
 70
     8
 71
     3
 72
    55
 73
    51
 74
     0
 42
0.0000000001
 43
0.0000000001
 40
0.0
 40
0.0
 40
0.0
 40
0.0
 40
1.010743684496582
 40
2.022833576467832
 40
3.037578957496688
 40
4.056212745003489
 40
5.079857003664532
 40
6.109500240690281
 40
7.145961322679372
 40
8.189895241603872
 40
9.241717795325891
 40
10.30168407291828
 40
11.36983447792315
 40
12.44600489715814
 40
13.52984294512926
 40
14.62081576220742
 40
15.7182257034828
 40
16.82123173843959
 40
17.92886860250316
 40
19.0400688939571
 40
20.15368796660465
 40
21.26852814259644
 40
22.38336992938901
 40
23.49698739941135
 40
24.6081876908653
 40
25.71582455492886
 40
26.81883757994213
 40
27.91624752121713
 40
29.00722033829659
 40
30.09105838626677
 40
31.16722880550176
 40
32.23537921050758
 40
33.29534548809967
 40
34.347168041821
 40
35.39108718934584
 40
36.42754827133493
 40
37.45720575381954
 40
38.48085062012849
 40
39.49948440763516
 40
40.51422944315121
 40
41.52631975251916
 40
42.53706336719636
 40
43.54780698187354
 40
44.55989729124051
 40
45.57464232675757
 40
46.59327611426424
 40
47.6169209805722
 40
48.64656348684535
 40
49.68302456883444
 40
50.58557219878025
 40
50.58557219878025
 40
50.58557219878025
 40
50.58557219878025
 10
-11.62682333030161
 20
-1.449999999999995
 30
0.0
 10
-11.71807607419021
 20
-1.449137285128392
 30
0.0
 10
-11.90070310131293
 20
-1.447410706336993
 30
0.0
 10
-12.17457718054081
 20
-1.43349254295033
 30
0.0
 10
-12.44843956911689
 20
-1.411366298995445
 30
0.0
 10
-12.72228500829981
 20
-1.380355526568254
 30
0.0
 10
-12.99611076554317
 20
-1.340880481090825
 30
0.0
 10
-13.26991143887702
 20
-1.293116701799618
 30
0.0
 10
-13.54368794415247
 20
-1.237385942536393
 30
0.0
 10
-13.8174378535252
 20
-1.174029471805757
 30
0.0
 10
-14.09115930225944
 20
-1.103436294494539
 30
0.0
 10
-14.36485365470526
 20
-1.026049516679415
 30
0.0
 10
-14.63852164387074
 20
-0.9423427507458994
 30
0.0
 10
-14.91216668901818
 20
-0.8528370925748969
 30
0.0
 10
-15.18579004299654
 20
-0.7580825736130238
 30
0.0
 10
-15.45939424304346
 20
-0.6586635543501205
 30
0.0
 10
-15.73298232346654
 20
-0.5551933707404805
 30
0.0
 10
-16.00655668542084
 20
-0.4483083154579625
 30
0.0
 10
-16.28011998397671
 20
-0.3386657731718665
 30
0.0
 10
-16.55367514637771
 20
-0.2269405807037789
 30
0.0
 10
-16.82722457196301
 20
-0.1138195786219627
 30
0.0
 10
-17.1007721236742
 20
-0.0000002958526476
 30
0.0
 10
-17.37431844738578
 20
0.1138210357346904
 30
0.0
 10
-17.64786878984912
 20
0.2269402762232924
 30
0.0
 10
-17.92142361454261
 20
0.3386658068771769
 30
0.0
 10
-18.19498740085882
 20
0.448308766852489
 30
0.0
 10
-18.4685628977308
 20
0.5551929099591764
 30
0.0
 10
-18.74215140994815
 20
0.6586636183066135
 30
0.0
 10
-19.01575564949442
 20
0.7580825569509427
 30
0.0
 10
-19.2893789935165
 20
0.8528370958393349
 30
0.0
 10
-19.56302403936463
 20
0.942342754141266
 30
0.0
 10
-19.83669203550065
 20
1.026049500059232
 30
0.0
 10
-20.11038635969823
 20
1.103436356893376
 30
0.0
 10
-20.38410663207822
 20
1.174028910867743
 30
0.0
 10
-20.65785484862396
 20
1.237386211410075
 30
0.0
 10
-20.93163125234253
 20
1.293118091348757
 30
0.0
 10
-21.20543388070495
 20
1.340876415353336
 30
0.0
 10
-21.47926054259125
 20
1.38036367919183
 30
0.0
 10
-21.75310606295421
 20
1.411337692350951
 30
0.0
 10
-22.02696864181819
 20
1.433598300925154
 30
0.0
 10
-22.30084248883349
 20
1.447011963114692
 30
0.0
 10
-22.57472235406049
 20
1.451493023806861
 30
0.0
 10
-22.84860221888451
 20
1.447011963107668
 30
0.0
 10
-23.12247606711109
 20
1.43359830095334
 30
0.0
 10
-23.3963386415155
 20
1.411337692244728
 30
0.0
 10
-23.67018417859847
 20
1.380363679590985
 30
0.0
 10
-23.94400944267075
 20
1.340876606359174
 30
0.0
 10
-24.21781099235503
 20
1.293118579651807
 30
0.0
 10
-24.47913937713849
 20
1.239916085918603
 30
0.0
 10
-24.64869220927823
 20
1.201008599292505
 30
0.0
 10
-24.72735484113727
 20
1.182047083038108
 30
0.0
  0
SPLINE
  5
1E1B
330
1F
100
AcDbEntity
  8
AM_0
100
AcDbSpline
210
0.0
220
0.0
230
1.0
 70
     8
 71
     3
 72
    46
 73
    42
 74
     0
 42
0.0000000001
 43
0.0000000001
 40
0.0
 40
0.0
 40
0.0
 40
0.0
 40
0.5056245176053715
 40
0.759310862862336
 40
1.013969309739036
 40
1.269880374404297
 40
1.527291183660732
 40
1.786406454158005
 40
2.047386241038974
 40
2.310345544571907
 40
2.575337113970003
 40
2.842374715221223
 40
3.111417320030211
 40
3.382376832022752
 40
3.655120036292296
 40
3.929472521611371
 40
4.205224030350333
 40
4.482133246366229
 40
4.759933319229942
 40
5.038338087391601
 40
5.317048131389549
 40
5.595758175387723
 40
5.874162943549382
 40
6.151963016412868
 40
6.428872232428759
 40
6.704623741167953
 40
6.978976226486702
 40
7.251719430756334
 40
7.522680721168324
 40
7.791723325977308
 40
8.058760927228528
 40
8.323752496626548
 40
8.586708135057122
 40
8.84768792193809
 40
9.106803192435362
 40
9.364213819003406
 40
9.620125035580642
 40
9.874787266973068
 40
10.12847352585207
 40
10.38149610319407
 40
10.63418200686337
 40
10.63418200686337
 40
10.63418200686337
 40
10.63418200686337
 10
-10.86016200421105
 20
-1.449999999999998
 30
0.0
 10
-11.04279795419927
 20
-1.446696787913672
 30
0.0
 10
-11.31706760677073
 20
-1.441736259434229
 30
0.0
 10
-11.681775924211
 20
-1.411195196883867
 30
0.0
 10
-11.95562430557904
 20
-1.380401681550324
 30
0.0
 10
-12.22944927942955
 20
-1.340868038629738
 30
0.0
 10
-12.50325012441378
 20
-1.293119961291463
 30
0.0
 10
-12.77702543396312
 20
-1.23738572602275
 30
0.0
 10
-13.05077474954504
 20
-1.174028405986491
 30
0.0
 10
-13.32449685287841
 20
-1.103437024506604
 30
0.0
 10
-13.59819229106806
 20
-1.026049415509381
 30
0.0
 10
-13.87186032795646
 20
-0.9423427781649531
 30
0.0
 10
-14.14550536016708
 20
-0.8528370851398971
 30
0.0
 10
-14.41912871766946
 20
-0.7580825756564305
 30
0.0
 10
-14.69273291668556
 20
-0.6586635536805682
 30
0.0
 10
-14.96632099767786
 20
-0.5551933713615517
 30
0.0
 10
-15.23989535838618
 20
-0.4483083136359693
 30
0.0
 10
-15.51345866137927
 20
-0.3386657798731634
 30
0.0
 10
-15.78701380720803
 20
-0.2269405556223662
 30
0.0
 10
-16.06056329481655
 20
-0.1138196724767703
 30
0.0
 10
-16.33411048291979
 20
-0.0000000000230083
 30
0.0
 10
-16.60765767096291
 20
0.113819672569068
 30
0.0
 10
-16.8812071587517
 20
0.226940555299924
 30
0.0
 10
-17.15476230392159
 20
0.3386657810664099
 30
0.0
 10
-17.42832560935777
 20
0.4483083092080804
 30
0.0
 10
-17.70189996100737
 20
0.5551933877762602
 30
0.0
 10
-17.97548807554715
 20
0.658663492907806
 30
0.0
 10
-18.24909274527554
 20
0.7580830165335512
 30
0.0
 10
-18.52271716594628
 20
0.8528366651242674
 30
0.0
 10
-18.79636268629768
 20
0.9423428171038638
 30
0.0
 10
-19.07003071681434
 20
1.026049479355471
 30
0.0
 10
-19.34372503069421
 20
1.103436377226702
 30
0.0
 10
-19.61744531027348
 20
1.174028850695463
 30
0.0
 10
-19.89119350842907
 20
1.237386429553308
 30
0.0
 10
-20.16496865953163
 20
1.293117018395749
 30
0.0
 10
-20.4387697052499
 20
1.340878944558018
 30
0.0
 10
-20.71259642667252
 20
1.380356132929586
 30
0.0
 10
-20.98644339696927
 20
1.411366428874504
 30
0.0
 10
-21.26030731004481
 20
1.433490642149342
 30
0.0
 10
-21.53418116417668
 20
1.447412561366214
 30
0.0
 10
-21.71680826778169
 20
1.449137903335582
 30
0.0
 10
-21.80806102790281
 20
1.450000000000041
 30
0.0
  0
SPLINE
  5
1E1C
330
1F
100
AcDbEntity
  8
AM_0
100
AcDbSpline
210
0.0
220
0.0
230
1.0
 70
     8
 71
     3
 72
    22
 73
    18
 74
     0
 42
0.0000000001
 43
0.0000000001
 40
17.17441611292
 40
17.17441611292
 40
17.17441611292
 40
17.17441611292
 40
17.38177636558528
 40
18.41823744757437
 40
19.46215659509824
 40
20.51397914882054
 40
21.57394542641293
 40
22.64209583141747
 40
23.71826625065247
 40
24.80210429862395
 40
25.8930771157021
 40
26.99048705697709
 40
28.09349309193389
 40
29.20112995599786
 40
30.31233024745139
 40
31.42594771747373
 40
32.5407895042663
 40
32.54078950426994
 40
32.54078950426994
 40
32.54078950426994
 10
-17.83122243250385
 20
-1.302110494591107
 30
0.0
 10
-17.8495614308933
 20
-1.298753886809673
 30
0.0
 10
-17.95949371072771
 20
-1.278308421926687
 30
0.0
 10
-18.16088345272506
 20
-1.237312603799797
 30
0.0
 10
-18.43463163012638
 20
-1.173955121231439
 30
0.0
 10
-18.70835191316305
 20
-1.10336261668228
 30
0.0
 10
-18.98204623428492
 20
-1.025975746069346
 30
0.0
 10
-19.25571423196084
 20
-0.9422690053274184
 30
0.0
 10
-19.52935927472651
 20
-0.8527633401845672
 30
0.0
 10
-19.8029826296354
 20
-0.75800882366025
 30
0.0
 10
-20.07658682835421
 20
-0.6585898016659253
 30
0.0
 10
-20.35017491318815
 20
-0.5551196265942391
 30
0.0
 10
-20.62374925871674
 20
-0.448234539680723
 30
0.0
 10
-20.89731261890806
 20
-0.3385921160414782
 30
0.0
 10
-21.17086741866321
 20
-0.2268665324737998
 30
0.0
 10
-21.44441771045863
 20
-0.1137471962168715
 30
0.0
 10
-21.62674877522465
 20
-0.0378804568910451
 30
0.0
 10
-21.71796439526386
 20
0.0000737508140291
 30
0.0
  0
SPLINE
  5
1E1D
330
1F
100
AcDbEntity
  8
AM_0
100
AcDbSpline
210
0.0
220
0.0
230
1.0
 70
     8
 71
     3
 72
    17
 73
    13
 74
     0
 42
0.0000000001
 43
0.0000000001
 40
1.580019955310467
 40
1.580019955310467
 40
1.580019955310467
 40
1.580019955310467
 40
2.030549285115227
 40
3.082371838836284
 40
4.126290986361125
 40
5.162752068350215
 40
6.192395305374981
 40
7.216039564037012
 40
8.234688489606833
 40
9.249433870634691
 40
10.26152376260694
 40
11.27226744710342
 40
11.27226744710342
 40
11.27226744710342
 40
11.27226744710352
 10
-14.20616328240222
 20
-1.070142697556008
 30
0.0
 10
-14.24491189323904
 20
-1.081164278332741
 30
0.0
 10
-14.37434527150237
 20
-1.11728898147103
 30
0.0
 10
-14.59532014633243
 20
-1.173951870907743
 30
0.0
 10
-14.86903021861379
 20
-1.237406790230398
 30
0.0
 10
-15.14281564302178
 20
-1.293111784381652
 30
0.0
 10
-15.41661361218235
 20
-1.34087978347127
 30
0.0
 10
-15.69044141114095
 20
-1.380363320767023
 30
0.0
 10
-15.96428812807642
 20
-1.411337081131394
 30
0.0
 10
-16.23815189690061
 20
-1.433600344233276
 30
0.0
 10
-16.51202597031947
 20
-1.447009798862606
 30
0.0
 10
-16.69465300033651
 20
-1.450000008296953
 30
0.0
 10
-16.78590574302121
 20
-1.449999999999976
 30
0.0
  0
SPLINE
  5
1E1E
330
1F
100
AcDbEntity
  8
AM_0
100
AcDbSpline
210
0.0
220
0.0
230
1.0
 70
     8
 71
     3
 72
    11
 73
     7
 74
     0
 42
0.0000000001
 43
0.0000000001
 40
11.27226913003534
 40
11.27226913003534
 40
11.27226913003534
 40
11.2722691300354
 40
12.28301561507924
 40
13.29510212255852
 40
14.30984805882082
 40
15.18258238371378
 40
15.18258238371378
 40
15.18258238371378
 40
15.18258238371378
 10
-16.78590574302122
 20
-1.449999999999976
 30
0.0
 10
-16.87681149785352
 20
-1.442903278632728
 30
0.0
 10
-17.05845154197815
 20
-1.425722425064544
 30
0.0
 10
-17.32997365283981
 20
-1.391064393743462
 30
0.0
 10
-17.58765292372788
 20
-1.349669175435358
 30
0.0
 10
-17.75430475066854
 20
-1.31784743912119
 30
0.0
 10
-17.83110265792922
 20
-1.30212838033002
 30
0.0
  0
SPLINE
  5
1E1F
330
1F
100
AcDbEntity
  8
AM_0
100
AcDbSpline
210
0.0
220
0.0
230
1.0
 70
     8
 71
     3
 72
    23
 73
    19
 74
     0
 42
0.0000000001
 43
0.0000000001
 40
16.03460024169435
 40
16.03460024169435
 40
16.03460024169435
 40
16.03460024169435
 40
16.35212704903564
 40
17.38177054169784
 40
18.41822485651776
 40
19.46214173629503
 40
20.51396345435107
 40
21.57393551351153
 40
22.64208202342361
 40
23.7182574881101
 40
24.80209208578934
 40
25.89306333925047
 40
26.99048218457928
 40
28.09348763352352
 40
29.20111863782268
 40
30.31232390128032
 40
31.42594612798585
 40
32.5407912310448
 40
32.5407912310486
 40
32.5407912310486
 40
32.5407912310486
 10
-16.11718123715969
 20
1.450205998814821
 30
0.0
 10
-16.08904404129907
 20
1.445311054159264
 30
0.0
 10
-15.96978624131277
 20
1.423994947896648
 30
0.0
 10
-15.7597123423184
 20
1.382229290922989
 30
0.0
 10
-15.48766609317926
 20
1.320124215747934
 30
0.0
 10
-15.21587253339251
 20
1.250390568194335
 30
0.0
 10
-14.94431560245993
 20
1.173431931046367
 30
0.0
 10
-14.67298566234483
 20
1.089677350429005
 30
0.0
 10
-14.40186703082694
 20
0.9996056028454647
 30
0.0
 10
-14.13094082823524
 20
0.9037408832734673
 30
0.0
 10
-13.86019165956983
 20
0.8026260680306815
 30
0.0
 10
-13.58959781788811
 20
0.6968495206667238
 30
0.0
 10
-13.31913737458514
 20
0.5870260601754558
 30
0.0
 10
-13.04879230965301
 20
0.4737871254137579
 30
0.0
 10
-12.77854000364846
 20
0.3577911852798283
 30
0.0
 10
-12.5083554254844
 20
0.2397155709628047
 30
0.0
 10
-12.23821657450923
 20
0.1202444986739055
 30
0.0
 10
-12.05817237999322
 20
0.0401456773149133
 30
0.0
 10
-11.96810118357273
 20
0.0000737508135022
 30
0.0
  0
SPLINE
  5
1E20
330
1F
100
AcDbEntity
  8
AM_0
100
AcDbSpline
210
0.0
220
0.0
230
1.0
 70
     8
 71
     3
 72
    17
 73
    13
 74
     0
 42
0.0000000001
 43
0.0000000001
 40
1.580019955310467
 40
1.580019955310467
 40
1.580019955310467
 40
1.580019955310467
 40
2.030549285115227
 40
3.082371838836284
 40
4.126290986361125
 40
5.162752068350215
 40
6.192395305374981
 40
7.216039564037012
 40
8.234688489606833
 40
9.249433870634691
 40
10.26152376260694
 40
11.27226744710342
 40
11.27226744710342
 40
11.27226744710342
 40
11.27226744710352
 10
-23.9560264948817
 20
-1.070142697555971
 30
0.0
 10
-23.99477510571851
 20
-1.081164278332704
 30
0.0
 10
-24.12420848398185
 20
-1.117288981470994
 30
0.0
 10
-24.34518335881191
 20
-1.173951870907706
 30
0.0
 10
-24.61889343109327
 20
-1.237406790230361
 30
0.0
 10
-24.89267885550126
 20
-1.293111784381615
 30
0.0
 10
-25.16647682466183
 20
-1.340879783471234
 30
0.0
 10
-25.44030462362043
 20
-1.380363320766986
 30
0.0
 10
-25.7141513405559
 20
-1.411337081131357
 30
0.0
 10
-25.98801510938009
 20
-1.433600344233239
 30
0.0
 10
-26.26188918279895
 20
-1.447009798862569
 30
0.0
 10
-26.44451621281598
 20
-1.450000008296916
 30
0.0
 10
-26.53576895550068
 20
-1.449999999999939
 30
0.0
  0
SPLINE
  5
1E21
330
1F
100
AcDbEntity
  8
AM_0
100
AcDbSpline
210
0.0
220
0.0
230
1.0
 70
     8
 71
     3
 72
    37
 73
    33
 74
     0
 42
0.0000000001
 43
0.0000000001
 40
0.0
 40
0.0
 40
0.0
 40
0.0
 40
0.5056245176053715
 40
0.759310862862336
 40
1.013969309739036
 40
1.269880374404297
 40
1.527291183660732
 40
1.786406454158005
 40
2.047386241038974
 40
2.310345544571907
 40
2.575337113970003
 40
2.842374715221223
 40
3.111417320030211
 40
3.382376832022752
 40
3.655120036292296
 40
3.929472521611371
 40
4.205224030350333
 40
4.482133246366229
 40
4.759933319229942
 40
5.038338087391601
 40
5.317048131389549
 40
5.595758175387723
 40
5.874162943549382
 40
6.151963016412868
 40
6.428872232428759
 40
6.704623741167953
 40
6.978976226486702
 40
7.251719430756334
 40
7.522680721168324
 40
7.791723325977308
 40
8.058760927228528
 40
8.232349533780283
 40
8.232349533780283
 40
8.232349533780283
 40
8.232349533780283
 10
-20.61002521669053
 20
-1.449999999999961
 30
0.0
 10
-20.79266116667875
 20
-1.446696787913635
 30
0.0
 10
-21.06693081925021
 20
-1.441736259434192
 30
0.0
 10
-21.43163913669047
 20
-1.41119519688383
 30
0.0
 10
-21.70548751805851
 20
-1.380401681550287
 30
0.0
 10
-21.97931249190902
 20
-1.3408680386297
 30
0.0
 10
-22.25311333689325
 20
-1.293119961291426
 30
0.0
 10
-22.5268886464426
 20
-1.237385726022713
 30
0.0
 10
-22.80063796202453
 20
-1.174028405986454
 30
0.0
 10
-23.07436006535789
 20
-1.103437024506567
 30
0.0
 10
-23.34805550354754
 20
-1.026049415509344
 30
0.0
 10
-23.62172354043595
 20
-0.9423427781649161
 30
0.0
 10
-23.89536857264655
 20
-0.8528370851398602
 30
0.0
 10
-24.16899193014893
 20
-0.7580825756563935
 30
0.0
 10
-24.44259612916503
 20
-0.6586635536805314
 30
0.0
 10
-24.71618421015734
 20
-0.5551933713615149
 30
0.0
 10
-24.98975857086566
 20
-0.4483083136359324
 30
0.0
 10
-25.26332187385875
 20
-0.3386657798731265
 30
0.0
 10
-25.5368770196875
 20
-0.2269405556223293
 30
0.0
 10
-25.81042650729603
 20
-0.1138196724767335
 30
0.0
 10
-26.08397369539927
 20
-0.0000000000229715
 30
0.0
 10
-26.35752088344239
 20
0.1138196725691049
 30
0.0
 10
-26.63107037123117
 20
0.2269405552999609
 30
0.0
 10
-26.90462551640107
 20
0.3386657810664468
 30
0.0
 10
-27.17818882183724
 20
0.4483083092081174
 30
0.0
 10
-27.45176317348685
 20
0.5551933877762969
 30
0.0
 10
-27.72535128802663
 20
0.6586634929078428
 30
0.0
 10
-27.99895595775502
 20
0.758083016533588
 30
0.0
 10
-28.27258037842576
 20
0.8528366651243041
 30
0.0
 10
-28.54622589877716
 20
0.9423428171039008
 30
0.0
 10
-28.78866817700562
 20
1.016498478840739
 30
0.0
 10
-28.94016475991439
 20
1.059931952792382
 30
0.0
 10
-29.00000000002496
 20
1.076609229432178
 30
0.0
  0
SPLINE
  5
1E22
330
1F
100
AcDbEntity
  8
AM_0
100
AcDbSpline
210
0.0
220
0.0
230
1.0
 70
     8
 71
     3
 72
     9
 73
     5
 74
     0
 42
0.0000000001
 43
0.0000000001
 40
11.27226913003534
 40
11.27226913003534
 40
11.27226913003534
 40
11.2722691300354
 40
12.28301561507924
 40
12.99863635197729
 40
12.99863635197729
 40
12.99863635197729
 40
12.99863635197729
 10
-26.5357689555007
 20
-1.449999999999939
 30
0.0
 10
-26.62667471033299
 20
-1.442903278632691
 30
0.0
 10
-26.78169364641318
 20
-1.428240445588772
 30
0.0
 10
-26.93611262418354
 20
-1.409280887091848
 30
0.0
 10
-27.00000000017201
 20
-1.400693296646527
 30
0.0
  0
SPLINE
  5
1E23
330
1F
100
AcDbEntity
  8
AM_0
100
AcDbSpline
210
0.0
220
0.0
230
1.0
 70
     8
 71
     3
 72
    28
 73
    24
 74
     0
 42
0.0000000001
 43
0.0000000001
 40
0.0
 40
0.0
 40
0.0
 40
0.0
 40
1.010743684496582
 40
2.022833576467832
 40
3.037578957496688
 40
4.056212745003489
 40
5.079857003664532
 40
6.109500240690281
 40
7.145961322679372
 40
8.189895241603872
 40
9.241717795325891
 40
10.30168407291828
 40
11.36983447792315
 40
12.44600489715814
 40
13.52984294512926
 40
14.62081576220742
 40
15.7182257034828
 40
16.82123173843959
 40
17.92886860250316
 40
19.0400688939571
 40
20.15368796660465
 40
21.26852814259644
 40
21.87700996060819
 40
21.87700996060819
 40
21.87700996060819
 40
21.87700996060819
 10
-21.3766865427811
 20
-1.449999999999958
 30
0.0
 10
-21.46793928666969
 20
-1.449137285128355
 30
0.0
 10
-21.65056631379241
 20
-1.447410706336956
 30
0.0
 10
-21.92444039302029
 20
-1.433492542950293
 30
0.0
 10
-22.19830278159637
 20
-1.411366298995408
 30
0.0
 10
-22.47214822077928
 20
-1.380355526568217
 30
0.0
 10
-22.74597397802265
 20
-1.340880481090787
 30
0.0
 10
-23.0197746513565
 20
-1.293116701799581
 30
0.0
 10
-23.29355115663195
 20
-1.237385942536356
 30
0.0
 10
-23.56730106600469
 20
-1.17402947180572
 30
0.0
 10
-23.84102251473892
 20
-1.103436294494503
 30
0.0
 10
-24.11471686718474
 20
-1.026049516679378
 30
0.0
 10
-24.38838485635022
 20
-0.9423427507458622
 30
0.0
 10
-24.66202990149766
 20
-0.8528370925748602
 30
0.0
 10
-24.93565325547602
 20
-0.7580825736129869
 30
0.0
 10
-25.20925745552294
 20
-0.6586635543500837
 30
0.0
 10
-25.48284553594601
 20
-0.5551933707404437
 30
0.0
 10
-25.75641989790031
 20
-0.4483083154579256
 30
0.0
 10
-26.02998319645619
 20
-0.3386657731718297
 30
0.0
 10
-26.30353835885719
 20
-0.226940580703742
 30
0.0
 10
-26.57708778444249
 20
-0.1138195786219258
 30
0.0
 10
-26.80920516630759
 20
-0.0172388058937146
 30
0.0
 10
-26.95020624466867
 20
0.0414307763149102
 30
0.0
 10
-27.00000000000004
 20
0.0621305648605256
 30
0.0
  0
LINE
  5
1E24
330
1F
100
AcDbEntity
  8
AM_0
 48
0.5
100
AcDbLine
 10
-26.40821197802684
 20
-1.449999999999941
 30
0.0
 11
-30.91339741119213
 21
-1.450000514280828
 31
0.0
  0
LINE
  5
1E25
330
1F
100
AcDbEntity
  8
AM_0
 48
0.5
100
AcDbLine
 10
-25.86589838437437
 20
1.450000000000056
 30
0.0
 11
-30.91339741567547
 21
1.450000485764073
 31
0.0
  0
LINE
  5
1E69
330
1F
100
AcDbEntity
  8
AM_0
100
AcDbLine
 10
-30.99999999999999
 20
-1.500000542241559
 30
0.0
 11
-30.91339741119213
 21
-1.450000514280828
 31
0.0
  0
LINE
  5
1E6A
330
1F
100
AcDbEntity
  8
AM_0
100
AcDbLine
 10
-31.00000000000008
 20
1.500000511136402
 30
0.0
 11
-30.91339741567547
 21
1.450000485764073
 31
0.0
  0
LINE
  5
1E6B
330
1F
100
AcDbEntity
  8
AM_0
100
AcDbLine
 10
-30.91339741567547
 20
1.450000485764073
 30
0.0
 11
-30.91339741119213
 21
-1.450000514280828
 31
0.0
  0
DIMENSION
  5
1F56
330
1F
100
AcDbEntity
  8
AM_5
100
AcDbDimension
  2
*D9
 10
-86.75000135426985
 20
1.5000052649892
 30
0.0
 11
-86.75000135426985
 21
-0.0000004580110156
 31
0.0
 70
   160
  1
%%c<>
 51
359.9999999999998
  3
AM_JIS$0
100
AcDbAlignedDimension
 13
-78.74999999999997
 23
-1.500006181011205
 33
0.0
 14
-78.74999999999997
 24
1.500005264989198
 34
0.0
 50
270.0000067660251
100
AcDbRotatedDimension
1001
ACAD
1000
DSTYLE
1002
{
1070
   271
1070
     0
1002
}
1001
GENIUS_GENDTOL_13
1000

1000
h7
1000

1040
0.0
  0
ELLIPSE
  5
21E4
330
1F
100
AcDbEntity
  8
AM_0
 48
0.5
100
AcDbEllipse
 10
3.240036922541871
 20
3.754034064262643
 30
0.0
 11
-3.367253784486345
 21
3.367253784486331
 31
0.0
210
0.0
220
0.0
230
1.0
 40
0.9999999999999944
 41
1.334247580774354
 42
1.564421971156354
  0
LINE
  5
21E5
330
1F
100
AcDbEntity
  8
AM_0
 48
0.5
100
AcDbLine
 10
-0.8225596302926838
 20
1.269661840305111
 30
0.0
 11
-0.9999999999999856
 21
1.450000084983004
 31
0.0
  0
SPLINE
  5
21E6
330
1F
100
AcDbEntity
  8
AM_0
 48
0.5
100
AcDbSpline
210
0.0
220
0.0
230
1.0
 70
     8
 71
     3
 72
    10
 73
     6
 74
     0
 42
0.0000000001
 43
0.0000000001
 40
0.0
 40
0.0
 40
0.0
 40
0.0
 40
2.69986029516136
 40
4.147722969032201
 40
6.285750005020438
 40
6.285750005020438
 40
6.285750005020438
 40
6.285750005020438
 10
-1.994051235743485
 20
0.2624423558977021
 30
0.0
 10
-1.776638557460641
 20
0.1277273359461027
 30
0.0
 10
-1.442633290192308
 20
-0.079231736539342
 30
0.0
 10
-0.6527557008377976
 20
0.0209607760679389
 30
0.0
 10
-0.8015126259194378
 20
0.3584224159719969
 30
0.0
 10
-0.8998016975439551
 20
0.5641156790322817
 30
0.0
  0
LINE
  5
21E7
330
1F
100
AcDbEntity
  8
AM_0
 48
0.5
100
AcDbLine
 10
-0.0000000000000071
 20
0.0000000000000014
 30
0.0
 11
-0.1486123801499026
 21
0.4083126171541928
 31
0.0
  0
LINE
  5
21E8
330
1F
100
AcDbEntity
  8
AM_0
 48
0.5
100
AcDbLine
 10
-0.0000000000000071
 20
0.0000000000000014
 30
0.0
 11
-0.8907632607499245
 21
0.5567560409969033
 31
0.0
  0
SPLINE
  5
21E9
330
1F
100
AcDbEntity
  8
AM_0
 48
0.5
100
AcDbSpline
210
0.0
220
0.0
230
1.0
 70
     8
 71
     3
 72
    25
 73
    21
 74
     0
 42
0.0000000001
 43
0.0000000001
 40
6.846175049578289
 40
6.846175049578289
 40
6.846175049578289
 40
6.846175049578289
 40
7.604337694224321
 40
8.711974558287883
 40
9.814980593243754
 40
10.91239053451967
 40
12.0033633515982
 40
13.08720139956839
 40
14.16337181880432
 40
15.23152222380919
 40
16.29148850140128
 40
17.34331105512262
 40
18.38723020264746
 40
19.42369128463655
 40
20.45333379090873
 40
21.47697865721768
 40
22.49561244472435
 40
23.5103574802404
 40
24.52244778960836
 40
25.53320666051913
 40
25.53320666051913
 40
25.53320666051913
 40
25.53320666051913
 10
-1.994051235743485
 20
0.2624423558977074
 30
0.0
 10
-2.247121482424477
 20
0.2879189991012275
 30
0.0
 10
-2.69010631885127
 20
0.3503185670988134
 30
0.0
 10
-2.962806416487644
 20
0.4483083516228398
 30
0.0
 10
-3.267947015977934
 20
0.5551934687390943
 30
0.0
 10
-3.573102961187153
 20
0.6586636357682863
 30
0.0
 10
-3.878276873973575
 20
0.7580826599355688
 30
0.0
 10
-4.183472154727706
 20
0.8528371757491882
 30
0.0
 10
-4.488691625547259
 20
0.9423428415748396
 30
0.0
 10
-4.793936699437626
 20
1.026049580310922
 30
0.0
 10
-5.099211136235055
 20
1.103436458189415
 30
0.0
 10
-5.404514522561516
 20
1.174028935967624
 30
0.0
 10
-5.709849051347175
 20
1.23738651732334
 30
0.0
 10
-6.01521364505243
 20
1.293117092063743
 30
0.0
 10
-6.320607110768857
 20
1.340879071639036
 30
0.0
 10
-6.626027749125352
 20
1.380355867494809
 30
0.0
 10
-6.931470807899422
 20
1.411366804890341
 30
0.0
 10
-7.236932920798558
 20
1.433490678356139
 30
0.0
 10
-7.54240912925222
 20
1.447412731087719
 30
0.0
 10
-7.746110130146863
 20
1.44913801221104
 30
0.0
 10
-7.847893592638754
 20
1.450000084983052
 30
0.0
  0
ELLIPSE
  5
21EA
330
1F
100
AcDbEntity
  8
AM_0
 48
0.5
100
AcDbEllipse
 10
0.7013514469833364
 20
1.74081429396736
 30
0.0
 11
2.174037296208213
 21
2.304069864948997
 31
0.0
210
0.0
220
0.0
230
1.0
 40
0.7777456143968746
 41
2.747563616722619
 42
3.231703436548901
  0
ELLIPSE
  5
21EB
330
1F
100
AcDbEntity
  8
AM_0
 48
0.5
100
AcDbEllipse
 10
-0.5400170662283639
 20
-0.3778907879724102
 30
0.0
 11
-0.063552736540993
 21
0.2357268307356653
 31
0.0
210
0.0
220
0.0
230
1.0
 40
0.6123776719086898
 41
1.730173618767749
 42
4.865515508479723
  0
ELLIPSE
  5
21EC
330
1F
100
AcDbEntity
  8
AM_0
 48
0.5
100
AcDbEllipse
 10
-0.5400170662283639
 20
-0.3778907879724102
 30
0.0
 11
-0.2681126580956854
 21
0.109137132299238
 31
0.0
210
0.0
220
0.0
230
1.0
 40
0.4356078197020576
 41
4.378295523223194
 42
7.521735864552704
  0
ELLIPSE
  5
21ED
330
1F
100
AcDbEntity
  8
AM_0
 48
0.5
100
AcDbEllipse
 10
-3.137525337763554
 20
2.43362575128337
 30
0.0
 11
-4.370071894035165
 21
0.0002183808740148
 31
0.0
210
0.0
220
0.0
230
0.9999999999999998
 40
0.8000029147881821
 41
2.243974158376915
 42
2.371699722597257
  0
ELLIPSE
  5
21EE
330
1F
100
AcDbEntity
  8
AM_0
 48
0.5
100
AcDbEllipse
 10
3.240036922541894
 20
-3.754034064262623
 30
0.0
 11
-3.367253784486324
 21
-3.367253784486351
 31
0.0
210
0.0
220
0.0
230
-1.0
 40
0.9999999999999944
 41
1.334247580774354
 42
1.564421971156354
  0
ELLIPSE
  5
21EF
330
1F
100
AcDbEntity
  8
AM_0
 48
0.5
100
AcDbEllipse
 10
-3.137525337763554
 20
2.43362575128337
 30
0.0
 11
6.176713037488049
 21
1.707941133454738
 31
0.0
210
0.0
220
0.0
230
1.0
 40
0.5544071532722467
 41
-1.424880376263004
 42
-1.31755376938518
  0
LINE
  5
21F0
330
1F
100
AcDbEntity
  8
AM_0
 48
0.5
100
AcDbLine
 10
-0.0000000000000071
 20
0.0000000000000014
 30
0.0
 11
-0.1486151411107404
 21
-0.4083167982101767
 31
0.0
  0
ELLIPSE
  5
21F1
330
1F
100
AcDbEntity
  8
AM_0
 48
0.5
100
AcDbEllipse
 10
1.418979131258489
 20
-0.3223149403465126
 30
0.0
 11
2.702323195664696
 21
0.5222240618542035
 31
0.0
210
0.0
220
0.0
230
0.9999999999999998
 40
0.6940406061570479
 41
3.068439840953584
 42
3.487812965173892
  0
LINE
  5
21F2
330
1F
100
AcDbEntity
  8
AM_0
 48
0.5
100
AcDbLine
 10
-0.8225596302926767
 20
-1.269661840305114
 30
0.0
 11
-0.999999999999998
 21
-1.450000000000004
 31
0.0
  0
DIMENSION
  5
2211
330
1F
100
AcDbEntity
  8
AM_5
100
AcDbDimension
  2
*D10
 10
-0.1486151411107404
 20
-0.4083167982101767
 30
0.0
 11
12.536685601071
 21
-0.0000167983564971
 31
0.0
 70
    34
  1
<>
 51
359.9999999999998
  3
AM_JIS$2
100
AcDb2LineAngularDimension
 13
-0.0000000000000071
 23
0.0000000000000014
 33
0.0
 14
-0.1486123801499026
 24
0.4083126171541928
 34
0.0
 15
-0.0000000000000071
 25
0.0000000000000014
 35
0.0
 16
12.93461156452184
 26
-5.579474428535011
 36
0.0
1001
ACAD
1000
DSTYLE
1002
{
1070
   179
1070
     3
1002
}
1001
GENIUS_GENDTOL_13
1000

1000
h7
1000

1040
0.0
  0
VIEWPORT
  5
110
330
101
100
AcDbEntity
 67
     1
  8
0
100
AcDbViewport
 10
420.5
 20
297.0
 30
0.0
 40
948.9782706766916
 41
628.452
 68
     1
 69
     1
1001
ACAD
1000
MVIEW
1002
{
1070
    16
1010
0.0
1020
0.0
1030
0.0
1010
0.0
1020
0.0
1030
1.0
1040
0.0
1040
628.452
1040
420.5
1040
297.0
1040
50.0
1040
0.0
1040
0.0
1070
     0
1070
   100
1070
     1
1070
     1
1070
     0
1070
     0
1070
     0
1070
     0
1040
0.0
1040
0.0
1040
0.0
1040
10.0
1040
10.0
1040
10.0
1040
10.0
1070
     0
1002
{
1002
}
1002
}
  0
ENDSEC
  0
SECTION
  2
OBJECTS
  0
DICTIONARY
  5
C
330
0
100
AcDbDictionary
  3
ACAD_GROUP
350
D
  3
ACAD_LAYOUT
350
1A
  3
ACAD_MLINESTYLE
350
17
  3
ACAD_PLOTSETTINGS
350
19
  3
ACAD_PLOTSTYLENAME
350
E
  3
ACDBVARIABLEDICTIONARY
350
34
  3
ACMDICTIONARY
350
43
  3
AMG
350
2B
  3
AMGSNAPSETTINGS
350
6E
  3
DWGPROPS
350
2338
  3
ACDBHEADERROUNDTRIPXREC
350
2345
  0
DICTIONARY
  5
74
330
1F
100
AcDbDictionary
280
     1
  3
ACAD_INDEX
360
233A
  3
ACAD_LAYOUTSELFREF
360
2368
  0
DICTIONARY
  5
236D
330
101
100
AcDbDictionary
280
     1
  3
ACAD_LAYOUTSELFREF
360
236E
  0
DICTIONARY
  5
D
102
{ACAD_REACTORS
330
C
102
}
330
C
100
AcDbDictionary
  0
DICTIONARY
  5
1A
102
{ACAD_REACTORS
330
C
102
}
330
C
100
AcDbDictionary
  0
DICTIONARY
  5
17
102
{ACAD_REACTORS
330
C
102
}
330
C
100
AcDbDictionary
  3
STANDARD
350
18
  0
DICTIONARY
  5
19
102
{ACAD_REACTORS
330
C
102
}
330
C
100
AcDbDictionary
  0
ACDBDICTIONARYWDFLT
  5
E
102
{ACAD_REACTORS
330
C
102
}
330
C
100
AcDbDictionary
281
     1
  3
Normal
350
F
100
AcDbDictionaryWithDefault
340
F
  0
DICTIONARY
  5
34
102
{ACAD_REACTORS
330
C
102
}
330
C
100
AcDbDictionary
  3
INDEXCTL
350
35
  3
SORTENTS
350
B5E
  0
DICTIONARY
  5
43
102
{ACAD_REACTORS
330
C
102
}
330
C
100
AcDbDictionary
  3
ACMSTDDICTIONARY
350
260
  0
DICTIONARY
  5
2B
102
{ACAD_REACTORS
330
C
102
}
330
C
100
AcDbDictionary
  3
ACMGSETTINGS
350
2C
  0
DICTIONARY
  5
6E
102
{ACAD_REACTORS
330
C
102
}
330
C
100
AcDbDictionary
  0
XRECORD
  5
2338
102
{ACAD_REACTORS
330
C
102
}
330
C
100
AcDbXrecord
  1
DWGPROPS COOKIE
  2

  3

  4

  6

  7

  8

  9

300
AmdtFileType=82
301
=
302
=
303
=
304
=
305
=
306
=
307
=
308
=
309
=
 40
0.0328949652777778
 41
2452800.443498622
 42
2452946.662556424
  1

 90
        1
  0
DICTIONARY
  5
2345
102
{ACAD_REACTORS
330
C
102
}
330
C
100
AcDbDictionary
  3
TSTACKALIGN
350
2346
  3
TSTACKSIZE
350
2347
  3
HYPERLINKBASE
350
2348
  3
STYLESHEET
350
2349
  3
LAYOUTDICT
350
234A
  3
PLOTSETDICT
350
234B
  3
PLOTSTYLNAMDICT
350
234C
  3
LWETCUNION
350
234D
  3
INSUNITS
350
234E
  3
CEPSNTYPE
350
234F
  3
FINGERPRINTGUID
350
2350
  3
VERSIONGUID
350
2351
  3
PSVPSCALE
350
2352
  3
DIMSTYLEDATA
350
2353
  3
PUCSORTHOREF
350
2354
  3
PUCSORTHOVIEW
350
2355
  3
PUCSBASE
350
2356
  3
PUCSORGTOP
350
2357
  3
PUCSORGBOTTOM
350
2358
  3
PUCSORGLEFT
350
2359
  3
PUCSORGRIGHT
350
235A
  3
PUCSORGFRONT
350
235B
  3
PUCSORGBACK
350
235C
  3
UCSORTHOREF
350
235D
  3
UCSORTHOVIEW
350
235E
  3
UCSBASE
350
235F
  3
UCSORGTOP
350
2360
  3
UCSORGBOTTOM
350
2361
  3
UCSORGLEFT
350
2362
  3
UCSORGRIGHT
350
2363
  3
UCSORGFRONT
350
2364
  3
UCSORGBACK
350
2365
  0
DICTIONARY
  5
233A
102
{ACAD_REACTORS
330
74
102
}
330
74
100
AcDbDictionary
  3
*A1
350
233B
  0
XRECORD
  5
2368
102
{ACAD_REACTORS
330
74
102
}
330
74
100
AcDbXrecord
340
1F
  0
XRECORD
  5
236E
102
{ACAD_REACTORS
330
236D
102
}
330
236D
100
AcDbXrecord
340
101
  0
MLINESTYLE
  5
18
102
{ACAD_REACTORS
330
17
102
}
330
17
100
AcDbMlineStyle
  2
STANDARD
 70
     0
  3

 62
   256
 51
90.0
 52
90.0
 71
     2
 49
0.5
 62
   256
  6
BYLAYER
 49
-0.5
 62
   256
  6
BYLAYER
  0
ACDBPLACEHOLDER
  5
F
102
{ACAD_REACTORS
330
E
102
}
330
E
100
AcDbPlaceHolder
280
     0
  0
DICTIONARYVAR
  5
35
102
{ACAD_REACTORS
330
34
102
}
330
34
100
DictionaryVariables
280
     0
  1
1
  0
DICTIONARYVAR
  5
B5E
102
{ACAD_REACTORS
330
34
102
}
330
34
100
DictionaryVariables
280
     0
  1
96
  0
DICTIONARY
  5
260
102
{ACAD_REACTORS
330
43
102
}
330
43
100
AcDbDictionary
  0
DICTIONARY
  5
2C
102
{ACAD_REACTORS
330
2B
102
}
330
2B
100
AcDbDictionary
  3
DWGSETTINGS
350
2D
  0
XRECORD
  5
2346
102
{ACAD_REACTORS
330
2345
102
}
330
2345
100
AcDbXrecord
 90
        1
  0
XRECORD
  5
2347
102
{ACAD_REACTORS
330
2345
102
}
330
2345
100
AcDbXrecord
 90
       70
  0
XRECORD
  5
2348
102
{ACAD_REACTORS
330
2345
102
}
330
2345
100
AcDbXrecord
  1

  0
XRECORD
  5
2349
102
{ACAD_REACTORS
330
2345
102
}
330
2345
100
AcDbXrecord
  1
ASAMI.ctb
  0
XRECORD
  5
234A
102
{ACAD_REACTORS
330
2345
102
}
330
2345
100
AcDbXrecord
340
1A
  0
XRECORD
  5
234B
102
{ACAD_REACTORS
330
2345
102
}
330
2345
100
AcDbXrecord
340
19
  0
XRECORD
  5
234C
102
{ACAD_REACTORS
330
2345
102
}
330
2345
100
AcDbXrecord
340
E
  0
XRECORD
  5
234D
102
{ACAD_REACTORS
330
2345
102
}
330
2345
100
AcDbXrecord
 90
    10781
  0
XRECORD
  5
234E
102
{ACAD_REACTORS
330
2345
102
}
330
2345
100
AcDbXrecord
 90
        4
  0
XRECORD
  5
234F
102
{ACAD_REACTORS
330
2345
102
}
330
2345
100
AcDbXrecord
 90
        0
  0
XRECORD
  5
2350
102
{ACAD_REACTORS
330
2345
102
}
330
2345
100
AcDbXrecord
  1
{AFB28963-8C59-40AE-9337-C84526B81ACE}
  0
XRECORD
  5
2351
102
{ACAD_REACTORS
330
2345
102
}
330
2345
100
AcDbXrecord
  1
{AD4FCCDB-7185-42CC-B2E4-C00113BCD4BF}
  0
XRECORD
  5
2352
102
{ACAD_REACTORS
330
2345
102
}
330
2345
100
AcDbXrecord
 40
0.0
  0
XRECORD
  5
2353
102
{ACAD_REACTORS
330
2345
102
}
330
2345
100
AcDbXrecord
1000
DSTYLE
1002
{
1070
    79
 70
     2
1070
   341
340
59
1070
   342
340
59
1070
   371
 70
    -1
1070
   372
 70
    -1
1002
}
  0
XRECORD
  5
2354
102
{ACAD_REACTORS
330
2345
102
}
330
2345
100
AcDbXrecord
340
0
  0
XRECORD
  5
2355
102
{ACAD_REACTORS
330
2345
102
}
330
2345
100
AcDbXrecord
 70
     0
  0
XRECORD
  5
2356
102
{ACAD_REACTORS
330
2345
102
}
330
2345
100
AcDbXrecord
340
0
  0
XRECORD
  5
2357
102
{ACAD_REACTORS
330
2345
102
}
330
2345
100
AcDbXrecord
 10
0.0
 20
0.0
 30
0.0
  0
XRECORD
  5
2358
102
{ACAD_REACTORS
330
2345
102
}
330
2345
100
AcDbXrecord
 10
0.0
 20
0.0
 30
0.0
  0
XRECORD
  5
2359
102
{ACAD_REACTORS
330
2345
102
}
330
2345
100
AcDbXrecord
 10
0.0
 20
0.0
 30
0.0
  0
XRECORD
  5
235A
102
{ACAD_REACTORS
330
2345
102
}
330
2345
100
AcDbXrecord
 10
0.0
 20
0.0
 30
0.0
  0
XRECORD
  5
235B
102
{ACAD_REACTORS
330
2345
102
}
330
2345
100
AcDbXrecord
 10
0.0
 20
0.0
 30
0.0
  0
XRECORD
  5
235C
102
{ACAD_REACTORS
330
2345
102
}
330
2345
100
AcDbXrecord
 10
0.0
 20
0.0
 30
0.0
  0
XRECORD
  5
235D
102
{ACAD_REACTORS
330
2345
102
}
330
2345
100
AcDbXrecord
340
0
  0
XRECORD
  5
235E
102
{ACAD_REACTORS
330
2345
102
}
330
2345
100
AcDbXrecord
 70
     0
  0
XRECORD
  5
235F
102
{ACAD_REACTORS
330
2345
102
}
330
2345
100
AcDbXrecord
340
0
  0
XRECORD
  5
2360
102
{ACAD_REACTORS
330
2345
102
}
330
2345
100
AcDbXrecord
 10
0.0
 20
0.0
 30
0.0
  0
XRECORD
  5
2361
102
{ACAD_REACTORS
330
2345
102
}
330
2345
100
AcDbXrecord
 10
0.0
 20
0.0
 30
0.0
  0
XRECORD
  5
2362
102
{ACAD_REACTORS
330
2345
102
}
330
2345
100
AcDbXrecord
 10
0.0
 20
0.0
 30
0.0
  0
XRECORD
  5
2363
102
{ACAD_REACTORS
330
2345
102
}
330
2345
100
AcDbXrecord
 10
0.0
 20
0.0
 30
0.0
  0
XRECORD
  5
2364
102
{ACAD_REACTORS
330
2345
102
}
330
2345
100
AcDbXrecord
 10
0.0
 20
0.0
 30
0.0
  0
XRECORD
  5
2365
102
{ACAD_REACTORS
330
2345
102
}
330
2345
100
AcDbXrecord
 10
0.0
 20
0.0
 30
0.0
  0
LAYER_INDEX
  5
233B
102
{ACAD_REACTORS
330
233A
102
}
330
233A
100
AcDbIndex
 40
2453151.688296782
100
AcDbLayerIndex
  8
0
360
233C
 90
        0
  8
AM_0
360
233D
 90
       52
  8
AM_7
360
233E
 90
        1
  8
AM_11
360
233F
 90
       33
  8
AM_5
360
2340
 90
        5
  8
Defpoints
360
2341
 90
        0
  8
AM_6
360
2342
 90
        1
  8
AM_CL
360
2343
 90
        0
  0
XRECORD
  5
2D
102
{ACAD_REACTORS
330
2C
102
}
330
2C
100
AcDbXrecord
  1
VERSION
140
15.0
  1
PRODUCT
  2
AutoCAD Mechanical 2000
  0
IDBUFFER
  5
233C
330
0
100
AcDbIdBuffer
  0
IDBUFFER
  5
233D
330
0
100
AcDbIdBuffer
330
21EF
330
21F0
330
21F1
330
21F2
330
C30
330
1B73
330
1B77
330
1B8A
330
1D7E
330
1D83
330
1D87
330
1DED
330
1DEE
330
1DF1
330
1DF2
330
1DF3
330
1DF4
330
1DF9
330
1DFA
330
1E0E
330
1E0F
330
1E10
330
1E11
330
1E12
330
1E16
330
1E19
330
1E1A
330
1E1B
330
1E1C
330
1E1D
330
1E1E
330
1E1F
330
1E20
330
1E21
330
1E22
330
1E23
330
1E24
330
1E25
330
1E69
330
1E6A
330
1E6B
330
21E4
330
21E5
330
21E6
330
21E7
330
21E8
330
21E9
330
21EA
330
21EB
330
21EC
330
21ED
330
21EE
  0
IDBUFFER
  5
233E
330
0
100
AcDbIdBuffer
330
C9F
  0
IDBUFFER
  5
233F
330
0
100
AcDbIdBuffer
330
1C63
330
1C64
330
1C65
330
1C66
330
1C67
330
1C68
330
1C69
330
1C6A
330
1C6B
330
1C6C
330
1C6D
330
1DF5
330
1DF6
330
1DF7
330
1DF8
330
1E09
330
1E0A
330
144A
330
144B
330
144E
330
144F
330
1450
330
1451
330
1452
330
1453
330
1454
330
18B8
330
18B9
330
18BA
330
18BB
330
1C60
330
1C61
330
1C62
  0
IDBUFFER
  5
2340
330
0
100
AcDbIdBuffer
330
CC6
330
1BC7
330
1DDA
330
1F56
330
2211
  0
IDBUFFER
  5
2341
330
0
100
AcDbIdBuffer
  0
IDBUFFER
  5
2342
330
0
100
AcDbIdBuffer
330
19BD
  0
IDBUFFER
  5
2343
330
0
100
AcDbIdBuffer
  0
ENDSEC
  0
EOF
