  0
SECTION
  2
HEADER
  9
$ACADVER
  1
AC1014
  9
$ACADMAINTVER
 70
     9
  9
$DWGCODEPAGE
  3
ANSI_932
  9
$INSBASE
 10
0.0
 20
0.0
 30
0.0
  9
$EXTMIN
 10
-98.34201976987472
 20
-25.25000100000003
 30
-0.00000001
  9
$EXTMAX
 10
14.19880504954911
 20
13.81234608451095
 30
0.00000001
  9
$LIMMIN
 10
-103.134137649193
 20
-34.60724519099901
  9
$LIMMAX
 10
18.55390181307279
 20
25.8241434171262
  9
$ORTHOMODE
 70
     0
  9
$REGENMODE
 70
     1
  9
$FILLMODE
 70
     1
  9
$QTEXTMODE
 70
     0
  9
$MIRRTEXT
 70
     0
  9
$DRAGMODE
 70
     2
  9
$LTSCALE
 40
1.0
  9
$OSMODE
 70
    55
  9
$ATTMODE
 70
     1
  9
$TEXTSIZE
 40
2.5
  9
$TRACEWID
 40
1.0
  9
$TEXTSTYLE
  7
STANDARD
  9
$CLAYER
  8
AM_0
  9
$CELTYPE
  6
BYLAYER
  9
$CECOLOR
 62
   256
  9
$CELTSCALE
 40
1.0
  9
$DELOBJ
 70
     1
  9
$DISPSILH
 70
     0
  9
$DIMSCALE
 40
0.5
  9
$DIMASZ
 40
2.5
  9
$DIMEXO
 40
1.0
  9
$DIMDLI
 40
12.0
  9
$DIMRND
 40
0.0
  9
$DIMDLE
 40
0.0
  9
$DIMEXE
 40
1.0
  9
$DIMTP
 40
0.1
  9
$DIMTM
 40
0.1
  9
$DIMTXT
 40
3.2
  9
$DIMCEN
 40
0.0
  9
$DIMTSZ
 40
0.0
  9
$DIMTOL
 70
     0
  9
$DIMLIM
 70
     0
  9
$DIMTIH
 70
     0
  9
$DIMTOH
 70
     0
  9
$DIMSE1
 70
     0
  9
$DIMSE2
 70
     0
  9
$DIMTAD
 70
     3
  9
$DIMZIN
 70
     8
  9
$DIMBLK
  1
OPEN30
  9
$DIMASO
 70
     1
  9
$DIMSHO
 70
     1
  9
$DIMPOST
  1

  9
$DIMAPOST
  1
"
  9
$DIMALT
 70
     0
  9
$DIMALTD
 70
     2
  9
$DIMALTF
 40
0.0393701
  9
$DIMLFAC
 40
1.0
  9
$DIMTOFL
 70
     1
  9
$DIMTVP
 40
0.0
  9
$DIMTIX
 70
     0
  9
$DIMSOXD
 70
     0
  9
$DIMSAH
 70
     0
  9
$DIMBLK1
  1

  9
$DIMBLK2
  1

  9
$DIMSTYLE
  2
AM_JIS
  9
$DIMCLRD
 70
   256
  9
$DIMCLRE
 70
   256
  9
$DIMCLRT
 70
     2
  9
$DIMTFAC
 40
0.71
  9
$DIMGAP
 40
1.5
  9
$DIMJUST
 70
     0
  9
$DIMSD1
 70
     0
  9
$DIMSD2
 70
     0
  9
$DIMTOLJ
 70
     0
  9
$DIMTZIN
 70
     0
  9
$DIMALTZ
 70
     0
  9
$DIMALTTZ
 70
     0
  9
$DIMFIT
 70
     3
  9
$DIMUPT
 70
     0
  9
$DIMUNIT
 70
     2
  9
$DIMDEC
 70
     3
  9
$DIMTDEC
 70
     3
  9
$DIMALTU
 70
     2
  9
$DIMALTTD
 70
     2
  9
$DIMTXSTY
  7
ASAMI
  9
$DIMAUNIT
 70
     0
  9
$LUNITS
 70
     2
  9
$LUPREC
 70
     2
  9
$SKETCHINC
 40
1.0
  9
$FILLETRAD
 40
2.5
  9
$AUNITS
 70
     0
  9
$AUPREC
 70
     0
  9
$MENU
  1
.
  9
$ELEVATION
 40
0.0
  9
$PELEVATION
 40
0.0
  9
$THICKNESS
 40
0.0
  9
$LIMCHECK
 70
     0
  9
$BLIPMODE
 70
     0
  9
$CHAMFERA
 40
0.25
  9
$CHAMFERB
 40
0.25
  9
$CHAMFERC
 40
20.0
  9
$CHAMFERD
 40
0.0
  9
$SKPOLY
 70
     0
  9
$TDCREATE
 40
2452800.443498622
  9
$TDUPDATE
 40
2453151.688683611
  9
$TDINDWG
 40
0.0863941088
  9
$TDUSRTIMER
 40
0.0863941088
  9
$USRTIMER
 70
     1
  9
$ANGBASE
 50
0.0
  9
$ANGDIR
 70
     0
  9
$PDMODE
 70
     3
  9
$PDSIZE
 40
0.0
  9
$PLINEWID
 40
0.0
  9
$COORDS
 70
     1
  9
$SPLFRAME
 70
     0
  9
$SPLINETYPE
 70
     6
  9
$SPLINESEGS
 70
     8
  9
$ATTDIA
 70
     1
  9
$ATTREQ
 70
     1
  9
$HANDLING
 70
 12289
  9
$HANDSEED
  5
2F87
  9
$SURFTAB1
 70
     6
  9
$SURFTAB2
 70
     6
  9
$SURFTYPE
 70
     6
  9
$SURFU
 70
     6
  9
$SURFV
 70
     6
  9
$UCSNAME
  2

  9
$UCSORG
 10
0.0
 20
0.0
 30
0.0
  9
$UCSXDIR
 10
1.0
 20
0.0
 30
0.0
  9
$UCSYDIR
 10
0.0
 20
1.0
 30
0.0
  9
$PUCSNAME
  2

  9
$PUCSORG
 10
0.0
 20
0.0
 30
0.0
  9
$PUCSXDIR
 10
1.0
 20
0.0
 30
0.0
  9
$PUCSYDIR
 10
0.0
 20
1.0
 30
0.0
  9
$USERI1
 70
     0
  9
$USERI2
 70
     0
  9
$USERI3
 70
     0
  9
$USERI4
 70
     0
  9
$USERI5
 70
     0
  9
$USERR1
 40
0.0
  9
$USERR2
 40
0.0
  9
$USERR3
 40
0.0
  9
$USERR4
 40
0.0
  9
$USERR5
 40
0.0
  9
$WORLDVIEW
 70
     1
  9
$SHADEDGE
 70
     3
  9
$SHADEDIF
 70
    70
  9
$TILEMODE
 70
     1
  9
$MAXACTVP
 70
    64
  9
$PINSBASE
 10
0.0
 20
0.0
 30
0.0
  9
$PLIMCHECK
 70
     0
  9
$PEXTMIN
 10
1.000000000000000E+20
 20
1.000000000000000E+20
 30
1.000000000000000E+20
  9
$PEXTMAX
 10
-1.000000000000000E+20
 20
-1.000000000000000E+20
 30
-1.000000000000000E+20
  9
$PLIMMIN
 10
0.0
 20
0.0
  9
$PLIMMAX
 10
841.0
 20
594.0
  9
$UNITMODE
 70
     0
  9
$VISRETAIN
 70
     1
  9
$PLINEGEN
 70
     0
  9
$PSLTSCALE
 70
     0
  9
$TREEDEPTH
 70
  3020
  9
$PICKSTYLE
 70
     0
  9
$CMLSTYLE
  2
STANDARD
  9
$CMLJUST
 70
     0
  9
$CMLSCALE
 40
20.0
  9
$PROXYGRAPHICS
 70
     1
  9
$MEASUREMENT
 70
     1
  0
ENDSEC
  0
SECTION
  2
CLASSES
  0
CLASS
  1
ACDBDICTIONARYWDFLT
  2
AcDbDictionaryWithDefault
  3
AutoCAD 2000
 90
        0
280
     0
281
     0
  0
CLASS
  1
ACDBPLACEHOLDER
  2
AcDbPlaceHolder
  3
AutoCAD 2000
 90
        0
280
     0
281
     0
  0
CLASS
  1
LAYOUT
  2
AcDbLayout
  3
AutoCAD 2000
 90
        0
280
     0
281
     0
  0
CLASS
  1
AMGSETTINGSOBJ
  2
AmgSettingsObj
  3
"AcadM|Product Description: AutoCAD Mechanical 2000|Company: Autodesk"
 90
        0
280
     0
281
     0
  0
CLASS
  1
ACME_DOCUMENT
  2
AcMeDbDoc
  3
AcMeServices
 90
        0
280
     0
281
     0
  0
CLASS
  1
ACMESCOPE
  2
AcMeScope
  3
AcMeServices
 90
        0
280
     0
281
     0
  0
CLASS
  1
ACMECOMMANDHISTORY
  2
AcMeCommandHistory
  3
AcMeServices
 90
        0
280
     0
281
     0
  0
CLASS
  1
DICTIONARYVAR
  2
AcDbDictionaryVar
  3
AutoCAD 2000
 90
        0
280
     0
281
     0
  0
CLASS
  1
ACIMSYSVARMAN
  2
AcImSysVarManager
  3
AcMeServices
 90
        0
280
     0
281
     0
  0
CLASS
  1
ACIMREALSYSVAR
  2
AcImRealSysVar
  3
AcMeServices
 90
        0
280
     0
281
     0
  0
CLASS
  1
ACIMINTSYSVAR
  2
AcImIntSysVar
  3
AcMeServices
 90
        0
280
     0
281
     0
  0
CLASS
  1
ACMEDRAWINGMAN
  2
AcMeDrawingMan
  3
AcMeServices
 90
        0
280
     0
281
     0
  0
CLASS
  1
ACMEVIEW
  2
AcMeView
  3
AcMeServices
 90
        0
280
     0
281
     0
  0
CLASS
  1
ACDBENTITYCACHE
  2
AcMeEntityCache
  3
AcMeServices
 90
        0
280
     0
281
     0
  0
CLASS
  1
GSMANAGER
  2
AcMeGSManager
  3
AcMeServices
 90
        0
280
     0
281
     0
  0
CLASS
  1
AmdtInternalReactor
  2
AmdtInternalReactor
  3
AcMeServices
 90
        0
280
     0
281
     0
  0
CLASS
  1
ACMESTATEMGR
  2
AcMeStateMgr
  3
AcMeServices
 90
        0
280
     0
281
     0
  0
CLASS
  1
ACME_DATABASE
  2
AcMeDbDatabase
  3
AcMeServices
 90
        0
280
     0
281
     0
  0
CLASS
  1
ACRFINSADJUSTERMGR
  2
AcRfInsAdjusterMgr
  3
AcMeServices
 90
        0
280
     0
281
     0
  0
CLASS
  1
ACMDATADICTIONARY
  2
AcmDataDictionary
  3
"AcmSymBB|Product Description: AutoCAD Mechanical 2000|Company: Autodesk"
 90
        0
280
     0
281
     0
  0
CLASS
  1
ACMDATAENTRYBLOCK
  2
AcmDataEntryBlock
  3
"AcmSymBB|Product Description: AutoCAD Mechanical 2000|Company: Autodesk"
 90
        0
280
     0
281
     0
  0
CLASS
  1
AMGOBJPROPCFG
  2
AmgObjPropCfg
  3
"AmgLay|Product Description: AutoCAD Mechanical 2000|Company: Autodesk"
 90
        1
280
     0
281
     0
  0
CLASS
  1
ACAMGFILTERDAT
  2
AcAmgFilterDat
  3
"AcadM|Product Description: AutoCAD Mechanical 2000|Company: Autodesk"
 90
        0
280
     0
281
     0
  0
CLASS
  1
LAYER_INDEX
  2
AcDbLayerIndex
  3
AutoCAD 2000
 90
        0
280
     0
281
     0
  0
CLASS
  1
IDBUFFER
  2
AcDbIdBuffer
  3
AutoCAD 2000
 90
        0
280
     0
281
     0
  0
CLASS
  1
ACIMSTRSYSVAR
  2
AcImStrSysVar
  3
AcMeServices
 90
        0
280
     0
281
     0
  0
CLASS
  1
ACMSTANDARDJIS
  2
AcmStandardJIS
  3
"AcmSymBB|Product Description: AutoCAD Mechanical 2000|Company: Autodesk"
 90
        0
280
     0
281
     0
  0
CLASS
  1
ACMSURFSTANDARDJIS
  2
AcmSurfTextStdJIS
  3
"AcmSymBB|Product Description: AutoCAD Mechanical 2000|Company: Autodesk"
 90
        0
280
     0
281
     0
  0
CLASS
  1
ACMFCFSTANDARDJIS
  2
AcmFCFStdJIS
  3
"AcmSymBB|Product Description: AutoCAD Mechanical 2000|Company: Autodesk"
 90
        0
280
     0
281
     0
  0
CLASS
  1
ACMWELDSTANDARDJIS
  2
AcmWeldingStdJIS
  3
"AcmSymBB|Product Description: AutoCAD Mechanical 2000|Company: Autodesk"
 90
        0
280
     0
281
     0
  0
CLASS
  1
ACMIDSTANDARDJIS
  2
AcmIdStdJIS
  3
"AcmSymBB|Product Description: AutoCAD Mechanical 2000|Company: Autodesk"
 90
        0
280
     0
281
     0
  0
CLASS
  1
ACMDATUMSTANDARDJIS
  2
AcmDatumStdJIS
  3
"AcmSymBB|Product Description: AutoCAD Mechanical 2000|Company: Autodesk"
 90
        0
280
     0
281
     0
  0
CLASS
  1
ACMBOMSTANDARDJIS
  2
AcmBOMStdJIS
  3
"AcmSymBB|Product Description: AutoCAD Mechanical 2000|Company: Autodesk"
 90
        0
280
     0
281
     0
  0
CLASS
  1
ACMSTANDARDANSI
  2
AcmStandardANSI
  3
"AcmSymBB|Product Description: AutoCAD Mechanical 2000|Company: Autodesk"
 90
        0
280
     0
281
     0
  0
CLASS
  1
ACMSURFSTANDARDANSI
  2
AcmSurfTextStdANSI
  3
"AcmSymBB|Product Description: AutoCAD Mechanical 2000|Company: Autodesk"
 90
        0
280
     0
281
     0
  0
CLASS
  1
ACMFCFSTANDARDANSI
  2
AcmFCFStdANSI
  3
"AcmSymBB|Product Description: AutoCAD Mechanical 2000|Company: Autodesk"
 90
        0
280
     0
281
     0
  0
CLASS
  1
ACMWELDSTANDARDANSI
  2
AcmWeldingStdANSI
  3
"AcmSymBB|Product Description: AutoCAD Mechanical 2000|Company: Autodesk"
 90
        0
280
     0
281
     0
  0
CLASS
  1
ACMIDSTANDARDANSI
  2
AcmIdStdANSI
  3
"AcmSymBB|Product Description: AutoCAD Mechanical 2000|Company: Autodesk"
 90
        0
280
     0
281
     0
  0
CLASS
  1
ACMDATUMSTANDARDANSI
  2
AcmDatumStdANSI
  3
"AcmSymBB|Product Description: AutoCAD Mechanical 2000|Company: Autodesk"
 90
        0
280
     0
281
     0
  0
CLASS
  1
ACMBOMSTANDARDANSI
  2
AcmBOMStdANSI
  3
"AcmSymBB|Product Description: AutoCAD Mechanical 2000|Company: Autodesk"
 90
        0
280
     0
281
     0
  0
CLASS
  1
ACMSTANDARDBSI
  2
AcmStandardBSI
  3
"AcmSymBB|Product Description: AutoCAD Mechanical 2000|Company: Autodesk"
 90
        0
280
     0
281
     0
  0
CLASS
  1
ACMSURFSTANDARDBSI
  2
AcmSurfTextStdBSI
  3
"AcmSymBB|Product Description: AutoCAD Mechanical 2000|Company: Autodesk"
 90
        0
280
     0
281
     0
  0
CLASS
  1
ACMFCFSTANDARDBSI
  2
AcmFCFStdBSI
  3
"AcmSymBB|Product Description: AutoCAD Mechanical 2000|Company: Autodesk"
 90
        0
280
     0
281
     0
  0
CLASS
  1
ACMWELDSTANDARDBSI
  2
AcmWeldingStdBSI
  3
"AcmSymBB|Product Description: AutoCAD Mechanical 2000|Company: Autodesk"
 90
        0
280
     0
281
     0
  0
CLASS
  1
ACMIDSTANDARDBSI
  2
AcmIdStdBSI
  3
"AcmSymBB|Product Description: AutoCAD Mechanical 2000|Company: Autodesk"
 90
        0
280
     0
281
     0
  0
CLASS
  1
ACMDATUMSTANDARDBSI
  2
AcmDatumStdBSI
  3
"AcmSymBB|Product Description: AutoCAD Mechanical 2000|Company: Autodesk"
 90
        0
280
     0
281
     0
  0
CLASS
  1
ACMBOMSTANDARDBSI
  2
AcmBOMStdBSI
  3
"AcmSymBB|Product Description: AutoCAD Mechanical 2000|Company: Autodesk"
 90
        0
280
     0
281
     0
  0
CLASS
  1
LONG_TRANSACTION
  2
AcDbLongTransaction
  3
AutoCAD 2000
 90
        0
280
     0
281
     0
  0
CLASS
  1
LWPOLYLINE
  2
AcDbPolyline
  3
AutoCAD 2000
 90
        0
280
     0
281
     1
  0
CLASS
  1
HATCH
  2
AcDbHatch
  3
AutoCAD 2000
 90
        0
280
     0
281
     1
  0
CLASS
  1
XRECORD
  2
AcDbXrecord
  3
AutoCAD 2000
 90
        0
280
     0
281
     0
  0
ENDSEC
  0
SECTION
  2
TABLES
  0
TABLE
  2
VPORT
  5
8
330
0
100
AcDbSymbolTable
 70
     3
  0
VPORT
  5
2F5C
330
8
100
AcDbSymbolTableRecord
100
AcDbViewportTableRecord
  2
*ACTIVE
 70
     0
 10
0.0
 20
0.0
 11
1.0
 21
1.0
 12
-39.98642523619821
 22
-5.719388876375916
 13
0.0
 23
0.0
 14
2.5
 24
2.5
 15
10.0
 25
10.0
 16
0.0
 26
0.0
 36
1.0
 17
0.0
 27
0.0
 37
0.0
 40
74.90629568881971
 41
1.56570841889117
 42
50.0
 43
0.0
 44
0.0
 50
0.0
 51
0.0
 71
     0
 72
   100
 73
     1
 74
     1
 75
     0
 76
     0
 77
     0
 78
     0
  0
ENDTAB
  0
TABLE
  2
LTYPE
  5
5
330
0
100
AcDbSymbolTable
 70
    10
  0
LTYPE
  5
14
330
5
100
AcDbSymbolTableRecord
100
AcDbLinetypeTableRecord
  2
BYBLOCK
 70
     0
  3

 72
    65
 73
     0
 40
0.0
  0
LTYPE
  5
15
330
5
100
AcDbSymbolTableRecord
100
AcDbLinetypeTableRecord
  2
BYLAYER
 70
     0
  3

 72
    65
 73
     0
 40
0.0
  0
LTYPE
  5
16
330
5
100
AcDbSymbolTableRecord
100
AcDbLinetypeTableRecord
  2
CONTINUOUS
 70
     0
  3
Solid line
 72
    65
 73
     0
 40
0.0
  0
LTYPE
  5
4B
330
5
100
AcDbSymbolTableRecord
100
AcDbLinetypeTableRecord
  2
AM_ISO02W050
 70
     0
  3
__ __ __ __ __ __ __ __ __ __ __ __ __ __ __
 72
    65
 73
     2
 40
7.5
 49
6.0
 74
     0
 49
-1.5
 74
     0
  0
LTYPE
  5
4C
330
5
100
AcDbSymbolTableRecord
100
AcDbLinetypeTableRecord
  2
AM_ISO08W050
 70
     0
  3
____ . ____ . ____ . ____ . ____ . ____ . ____
 72
    65
 73
     4
 40
18.0
 49
12.0
 74
     0
 49
-1.5
 74
     0
 49
3.0
 74
     0
 49
-1.5
 74
     0
  0
LTYPE
  5
4D
330
5
100
AcDbSymbolTableRecord
100
AcDbLinetypeTableRecord
  2
AM_ISO09W050
 70
     0
  3
_____ . . _____ . . _____ . . ____ .. ____
 72
    65
 73
     6
 40
22.5
 49
12.0
 74
     0
 49
-1.5
 74
     0
 49
3.0
 74
     0
 49
-1.5
 74
     0
 49
3.0
 74
     0
 49
-1.5
 74
     0
  0
LTYPE
  5
4E
330
5
100
AcDbSymbolTableRecord
100
AcDbLinetypeTableRecord
  2
AMCONSTR
 70
     0
  3
_______________________
 72
    65
 73
     2
 40
9999.0
 49
9999.0
 74
     0
 49
0.0
 74
     0
  0
LTYPE
  5
4F
330
5
100
AcDbSymbolTableRecord
100
AcDbLinetypeTableRecord
  2
AM_ISO02W050X2
 70
     0
  3
 _ _ _ _ _ _ _ _ _ _ _ _
 72
    65
 73
     2
 40
3.75
 49
3.0
 74
     0
 49
-0.75
 74
     0
  0
LTYPE
  5
50
330
5
100
AcDbSymbolTableRecord
100
AcDbLinetypeTableRecord
  2
AM_ISO08W050X2
 70
     0
  3
__ . __ . __ . __ . __ . __
 72
    65
 73
     4
 40
9.0
 49
6.0
 74
     0
 49
-0.75
 74
     0
 49
1.5
 74
     0
 49
-0.75
 74
     0
  0
LTYPE
  5
53
330
5
100
AcDbSymbolTableRecord
100
AcDbLinetypeTableRecord
  2
AMZIGZAG
 70
     0
  3
/\/-/\/-/\/-/\/-/\/-/\/
 72
    65
 73
     2
 40
11.00009999999999
 49
0.0001
 74
     4
 75
   135
340
52
 46
0.04
 50
0.0
 44
0.0
 45
0.0
 49
-11.0
 74
     0
  0
LTYPE
  5
166
330
5
100
AcDbSymbolTableRecord
100
AcDbLinetypeTableRecord
  2
ACJISTGL
 70
     0
  3
_ _ _ _ _
 72
    65
 73
     2
 40
3.0
 49
2.0
 74
     0
 49
-1.0
 74
     0
  0
LTYPE
  5
26A
330
5
100
AcDbSymbolTableRecord
100
AcDbLinetypeTableRecord
  2
ACJISTGB
 70
     0
  3
__ . . __ . .
 72
    65
 73
     6
 40
9.0
 49
4.0
 74
     0
 49
-1.0
 74
     0
 49
1.0
 74
     0
 49
-1.0
 74
     0
 49
1.0
 74
     0
 49
-1.0
 74
     0
  0
ENDTAB
  0
TABLE
  2
LAYER
  5
2
330
0
100
AcDbSymbolTable
 70
     8
  0
LAYER
  5
10
330
2
100
AcDbSymbolTableRecord
100
AcDbLayerTableRecord
  2
0
 70
     0
 62
     7
  6
CONTINUOUS
  0
LAYER
  5
3F9
330
2
100
AcDbSymbolTableRecord
100
AcDbLayerTableRecord
  2
AM_0
 70
     0
 62
     7
  6
CONTINUOUS
  0
LAYER
  5
C7C
330
2
100
AcDbSymbolTableRecord
100
AcDbLayerTableRecord
  2
AM_7
 70
     0
 62
     4
  6
AM_ISO08W050
  0
LAYER
  5
C97
330
2
100
AcDbSymbolTableRecord
100
AcDbLayerTableRecord
  2
AM_11
 70
     0
 62
     3
  6
AM_ISO09W050
  0
LAYER
  5
CC5
330
2
100
AcDbSymbolTableRecord
100
AcDbLayerTableRecord
  2
AM_5
 70
     0
 62
     3
  6
CONTINUOUS
  0
LAYER
  5
CC7
330
2
100
AcDbSymbolTableRecord
100
AcDbLayerTableRecord
  2
DEFPOINTS
 70
     0
 62
     7
  6
CONTINUOUS
  0
LAYER
  5
19BC
330
2
100
AcDbSymbolTableRecord
100
AcDbLayerTableRecord
  2
AM_6
 70
     0
 62
     2
  6
CONTINUOUS
  0
LAYER
  5
2C81
330
2
100
AcDbSymbolTableRecord
100
AcDbLayerTableRecord
  2
AM_CL
 70
     0
 62
     1
  6
AMCONSTR
  0
ENDTAB
  0
TABLE
  2
STYLE
  5
3
330
0
100
AcDbSymbolTable
 70
     5
  0
STYLE
  5
11
330
3
100
AcDbSymbolTableRecord
100
AcDbTextStyleTableRecord
  2
STANDARD
 70
     0
 40
0.0
 41
1.0
 50
0.0
 71
     0
 42
2.5
  3
simplex.shx
  4
EXTFONT.SHX
  0
STYLE
  5
52
330
3
100
AcDbSymbolTableRecord
100
AcDbTextStyleTableRecord
  2

 70
     1
 40
0.0
 41
1.0
 50
0.0
 71
     0
 42
2.5
  3
ltypeshp.shx
  4

  0
STYLE
  5
6B
330
3
100
AcDbSymbolTableRecord
100
AcDbTextStyleTableRecord
  2
ASAMI
 70
     0
 40
0.0
 41
1.0
 50
0.0
 71
     0
 42
2.5
  3
simplex.shx
  4
EXTFONT.SHX
  0
STYLE
  5
262
330
3
100
AcDbSymbolTableRecord
100
AcDbTextStyleTableRecord
  2
ACJISTS
 70
     0
 40
1.0
 41
1.0
 50
0.0
 71
     0
 42
2.5
  3
simplex.shx
  4
bigfont.shx
  0
STYLE
  5
269
330
3
100
AcDbSymbolTableRecord
100
AcDbTextStyleTableRecord
  2
ACJISGDT
 70
     0
 40
0.0
 41
1.0
 50
0.0
 71
     0
 42
2.5
  3
amgdtans.shx
  4

  0
ENDTAB
  0
TABLE
  2
VIEW
  5
6
330
0
100
AcDbSymbolTable
 70
     0
  0
ENDTAB
  0
TABLE
  2
UCS
  5
7
330
0
100
AcDbSymbolTable
 70
     0
  0
ENDTAB
  0
TABLE
  2
APPID
  5
9
330
0
100
AcDbSymbolTable
 70
    16
  0
APPID
  5
12
330
9
100
AcDbSymbolTableRecord
100
AcDbRegAppTableRecord
  2
ACAD
 70
     0
  0
APPID
  5
30
330
9
100
AcDbSymbolTableRecord
100
AcDbRegAppTableRecord
  2
MCAD_NO_VIS
 70
     0
  0
APPID
  5
31
330
9
100
AcDbSymbolTableRecord
100
AcDbRegAppTableRecord
  2
ACAD_TEMP_GRAPHIC
 70
     0
  0
APPID
  5
2C2
330
9
100
AcDbSymbolTableRecord
100
AcDbRegAppTableRecord
  2
GENIUS_GENDTOL_13
 70
     0
  0
APPID
  5
339
330
9
100
AcDbSymbolTableRecord
100
AcDbRegAppTableRecord
  2
GENIUS_GENODEF_13
 70
     0
  0
APPID
  5
33A
330
9
100
AcDbSymbolTableRecord
100
AcDbRegAppTableRecord
  2
GENIUS_GENOBJ-N-RSBK_13
 70
     0
  0
APPID
  5
33B
330
9
100
AcDbSymbolTableRecord
100
AcDbRegAppTableRecord
  2
GENIUS_GENOBJ-N-LIB_13
 70
     0
  0
APPID
  5
33C
330
9
100
AcDbSymbolTableRecord
100
AcDbRegAppTableRecord
  2
GENIUS_GENSCALE_13
 70
     0
  0
APPID
  5
378
330
9
100
AcDbSymbolTableRecord
100
AcDbRegAppTableRecord
  2
GENIUS_GENDIMSH_14
 70
     0
  0
APPID
  5
C82
330
9
100
AcDbSymbolTableRecord
100
AcDbRegAppTableRecord
  2
GENIUS_GENOBJ-N-CRS_13
 70
     0
  0
APPID
  5
C83
330
9
100
AcDbSymbolTableRecord
100
AcDbRegAppTableRecord
  2
GENIUS_GENOENT_13
 70
     0
  0
APPID
  5
C84
330
9
100
AcDbSymbolTableRecord
100
AcDbRegAppTableRecord
  2
GENIUS_GENOREF_13
 70
     0
  0
APPID
  5
C85
330
9
100
AcDbSymbolTableRecord
100
AcDbRegAppTableRecord
  2
GENIUS_GENOLIS_13
 70
     0
  0
APPID
  5
CA0
330
9
100
AcDbSymbolTableRecord
100
AcDbRegAppTableRecord
  2
GENIUS_GENOBJ-N-CEN_13
 70
     0
  0
APPID
  5
1CFA
330
9
100
AcDbSymbolTableRecord
100
AcDbRegAppTableRecord
  2
GENIUS_GENFIL_13
 70
     0
  0
APPID
  5
1CFB
330
9
100
AcDbSymbolTableRecord
100
AcDbRegAppTableRecord
  2
GENIUS_GENOBJ-N-CHA_13
 70
     0
  0
ENDTAB
  0
TABLE
  2
DIMSTYLE
  5
A
330
0
100
AcDbSymbolTable
 70
     9
  0
DIMSTYLE
105
58
330
A
100
AcDbSymbolTableRecord
100
AcDbDimStyleTableRecord
  2
AM_JIS
 70
     0
  3

  4
"
  5
OPEN30
  6

  7

 40
0.5
 41
2.5
 42
1.0
 43
12.0
 44
1.0
 45
0.0
 46
0.0
 47
0.1
 48
0.1
140
3.2
141
0.0
142
0.0
143
0.0393701
144
1.0
145
0.0
146
0.71
147
1.5
 71
     0
 72
     0
 73
     0
 74
     0
 75
     0
 76
     0
 77
     3
 78
     8
170
     0
171
     2
172
     1
173
     0
174
     0
175
     0
176
   256
177
   256
178
     2
270
     2
271
     3
272
     3
273
     2
274
     2
340
6B
275
     0
280
     0
281
     0
282
     0
283
     0
284
     0
285
     0
286
     0
287
     3
288
     0
  0
DIMSTYLE
105
5F
330
A
100
AcDbSymbolTableRecord
100
AcDbDimStyleTableRecord
  2
AM_JIS$3
 70
     0
  3

  4
"
  5
OPEN30
  6

  7

 40
0.5
 41
2.5
 42
1.0
 43
10.0
 44
1.0
 45
0.0
 46
0.0
 47
0.1
 48
0.1
140
3.2
141
0.0
142
0.0
143
0.0393701
144
1.0
145
0.0
146
0.71
147
1.5
 71
     0
 72
     0
 73
     0
 74
     1
 75
     0
 76
     0
 77
     3
 78
     8
170
     0
171
     2
172
     0
173
     0
174
     0
175
     0
176
   256
177
   256
178
     2
270
     2
271
     2
272
     3
273
     2
274
     2
340
6B
275
     0
280
     0
281
     0
282
     0
283
     0
284
     0
285
     0
286
     0
287
     0
288
     1
  0
DIMSTYLE
105
60
330
A
100
AcDbSymbolTableRecord
100
AcDbDimStyleTableRecord
  2
AM_JIS$4
 70
     0
  3

  4
"
  5
OPEN30
  6

  7

 40
0.5
 41
2.5
 42
1.0
 43
10.0
 44
1.0
 45
0.0
 46
0.0
 47
0.1
 48
0.1
140
3.2
141
0.0
142
0.0
143
0.0393701
144
1.0
145
0.0
146
0.71
147
1.5
 71
     0
 72
     0
 73
     0
 74
     1
 75
     0
 76
     0
 77
     3
 78
     8
170
     0
171
     2
172
     0
173
     0
174
     0
175
     0
176
   256
177
   256
178
     2
270
     2
271
     2
272
     3
273
     2
274
     2
340
6B
275
     0
280
     0
281
     0
282
     0
283
     0
284
     0
285
     0
286
     0
287
     0
288
     1
  0
DIMSTYLE
105
61
330
A
100
AcDbSymbolTableRecord
100
AcDbDimStyleTableRecord
  2
AM_JIS$6
 70
     0
  3

  4
"
  5
OPEN30
  6

  7

 40
0.5
 41
2.5
 42
1.0
 43
10.0
 44
1.0
 45
0.0
 46
0.0
 47
0.1
 48
0.1
140
3.2
141
0.0
142
0.0
143
0.0393701
144
1.0
145
0.0
146
0.71
147
1.5
 71
     0
 72
     0
 73
     0
 74
     0
 75
     0
 76
     0
 77
     0
 78
     8
170
     0
171
     2
172
     1
173
     0
174
     0
175
     0
176
   256
177
   256
178
     2
270
     2
271
     2
272
     2
273
     2
274
     2
340
6B
275
     0
280
     0
281
     0
282
     0
283
     0
284
     0
285
     0
286
     0
287
     3
288
     0
  0
DIMSTYLE
105
62
330
A
100
AcDbSymbolTableRecord
100
AcDbDimStyleTableRecord
  2
AM_JIS$7
 70
     0
  3

  4
"
  5
OPEN30
  6

  7

 40
0.5
 41
2.5
 42
1.0
 43
10.0
 44
1.0
 45
0.0
 46
0.0
 47
0.1
 48
0.1
140
3.2
141
0.0
142
0.0
143
0.0393701
144
1.0
145
0.0
146
0.71
147
1.5
 71
     0
 72
     0
 73
     0
 74
     0
 75
     0
 76
     0
 77
     3
 78
     8
170
     0
171
     2
172
     1
173
     0
174
     0
175
     0
176
   256
177
   256
178
     2
270
     2
271
     2
272
     3
273
     2
274
     2
340
6B
275
     0
280
     0
281
     0
282
     0
283
     0
284
     0
285
     0
286
     0
287
     3
288
     0
  0
DIMSTYLE
105
63
330
A
100
AcDbSymbolTableRecord
100
AcDbDimStyleTableRecord
  2
AM_JIS$SF
 70
     0
  3

  4
"
  5
OPEN30
  6

  7

 40
0.5
 41
2.5
 42
1.0
 43
10.0
 44
1.0
 45
0.0
 46
0.0
 47
0.1
 48
0.1
140
3.2
141
0.0
142
0.0
143
0.0393701
144
1.0
145
0.0
146
0.71
147
1.5
 71
     0
 72
     0
 73
     0
 74
     0
 75
     1
 76
     1
 77
     3
 78
     8
170
     0
171
     2
172
     1
173
     0
174
     0
175
     0
176
   256
177
   256
178
     2
270
     2
271
     2
272
     2
273
     2
274
     2
340
6B
275
     0
280
     0
281
     0
282
     0
283
     0
284
     0
285
     0
286
     0
287
     3
288
     0
  0
DIMSTYLE
105
68
330
A
100
AcDbSymbolTableRecord
100
AcDbDimStyleTableRecord
  2
AM_JIS$SH
 70
     0
  3

  4
"
  5

  6
GENAXEH
  7
OPEN30
 40
0.5
 41
2.5
 42
1.0
 43
10.0
 44
1.0
 45
0.0
 46
0.0
 47
0.1
 48
0.1
140
3.2
141
0.0
142
0.0
143
0.0393701
144
2.0
145
0.0
146
0.71
147
1.5
 71
     0
 72
     0
 73
     0
 74
     0
 75
     1
 76
     1
 77
     3
 78
     8
170
     0
171
     2
172
     1
173
     1
174
     0
175
     0
176
   256
177
   256
178
     2
270
     2
271
     2
272
     2
273
     2
274
     2
340
6B
275
     0
280
     0
281
     0
282
     0
283
     0
284
     0
285
     0
286
     0
287
     3
288
     0
  0
DIMSTYLE
105
B34
102
{ACAD_REACTORS
330
2D9D
102
}
330
A
100
AcDbSymbolTableRecord
100
AcDbDimStyleTableRecord
  2
AM_JIS$2
 70
     0
  3

  4
"
  5
OPEN30
  6

  7

 40
0.5
 41
2.5
 42
1.0
 43
12.0
 44
1.0
 45
0.0
 46
0.0
 47
0.1
 48
0.1
140
3.2
141
0.0
142
0.0
143
0.0393701
144
1.0
145
0.0
146
0.71
147
1.5
 71
     0
 72
     0
 73
     0
 74
     0
 75
     0
 76
     0
 77
     3
 78
     8
170
     0
171
     2
172
     1
173
     0
174
     0
175
     0
176
   256
177
   256
178
     2
270
     2
271
     3
272
     3
273
     2
274
     2
340
6B
275
     0
280
     0
281
     0
282
     0
283
     0
284
     0
285
     0
286
     0
287
     3
288
     0
  0
DIMSTYLE
105
BA5
102
{ACAD_REACTORS
330
223E
330
2259
330
282D
330
2ABE
102
}
330
A
100
AcDbSymbolTableRecord
100
AcDbDimStyleTableRecord
  2
AM_JIS$0
 70
     0
  3

  4
"
  5
OPEN30
  6

  7

 40
0.5
 41
2.5
 42
0.0
 43
10.0
 44
1.0
 45
0.0
 46
0.0
 47
0.1
 48
0.1000000001
140
3.799999999999999
141
0.0
142
0.0
143
0.0393701
144
1.0
145
0.0
146
0.71
147
1.5
 71
     0
 72
     0
 73
     0
 74
     0
 75
     0
 76
     0
 77
     3
 78
     1
170
     0
171
     2
172
     1
173
     0
174
     0
175
     0
176
     3
177
     3
178
     2
270
     2
271
     2
272
     2
273
     2
274
     2
340
11
275
     1
280
     0
281
     0
282
     0
283
     0
284
     8
285
     0
286
     0
287
     0
288
     0
  0
ENDTAB
  0
TABLE
  2
BLOCK_RECORD
  5
1
330
0
100
AcDbSymbolTable
 70
    11
  0
BLOCK_RECORD
  5
1F
102
{ACAD_XDICTIONARY
360
74
102
}
330
1
100
AcDbSymbolTableRecord
100
AcDbBlockTableRecord
  2
*MODEL_SPACE
  0
BLOCK_RECORD
  5
101
102
{ACAD_XDICTIONARY
360
2F85
102
}
330
1
100
AcDbSymbolTableRecord
100
AcDbBlockTableRecord
  2
*PAPER_SPACE
  0
BLOCK_RECORD
  5
59
330
1
100
AcDbSymbolTableRecord
100
AcDbBlockTableRecord
  2
_OPEN30
  0
BLOCK_RECORD
  5
64
330
1
100
AcDbSymbolTableRecord
100
AcDbBlockTableRecord
  2
GENAXEH
  0
BLOCK_RECORD
  5
223F
330
1
100
AcDbSymbolTableRecord
100
AcDbBlockTableRecord
  2
*D6
  0
BLOCK_RECORD
  5
225A
330
1
100
AcDbSymbolTableRecord
100
AcDbBlockTableRecord
  2
*D7
  0
BLOCK_RECORD
  5
2833
330
1
100
AcDbSymbolTableRecord
100
AcDbBlockTableRecord
  2
*D8
  0
BLOCK_RECORD
  5
2ABF
330
1
100
AcDbSymbolTableRecord
100
AcDbBlockTableRecord
  2
*D9
  0
BLOCK_RECORD
  5
2D9E
330
1
100
AcDbSymbolTableRecord
100
AcDbBlockTableRecord
  2
*D10
  0
ENDTAB
  0
ENDSEC
  0
SECTION
  2
BLOCKS
  0
BLOCK
  5
20
330
1F
100
AcDbEntity
  8
0
100
AcDbBlockBegin
  2
*MODEL_SPACE
 70
     0
 10
0.0
 20
0.0
 30
0.0
  3
*MODEL_SPACE
  1

  0
ENDBLK
  5
21
330
1F
100
AcDbEntity
  8
0
100
AcDbBlockEnd
  0
BLOCK
  5
103
330
101
100
AcDbEntity
 67
     1
  8
0
100
AcDbBlockBegin
  2
*PAPER_SPACE
 70
     0
 10
0.0
 20
0.0
 30
0.0
  3
*PAPER_SPACE
  1

  0
ENDBLK
  5
104
330
101
100
AcDbEntity
 67
     1
  8
0
100
AcDbBlockEnd
  0
BLOCK
  5
5D
330
59
100
AcDbEntity
  8
0
100
AcDbBlockBegin
  2
_OPEN30
 70
     0
 10
0.0
 20
0.0
 30
0.0
  3
_OPEN30
  1

  0
LINE
  5
5A
330
59
100
AcDbEntity
  8
0
 62
     0
100
AcDbLine
 10
-1.0
 20
0.26794919
 30
0.0
 11
0.0
 21
0.0
 31
0.0
  0
LINE
  5
5B
330
59
100
AcDbEntity
  8
0
 62
     0
100
AcDbLine
 10
0.0
 20
0.0
 30
0.0
 11
-1.0
 21
-0.26794919
 31
0.0
  0
LINE
  5
5C
330
59
100
AcDbEntity
  8
0
 62
     0
100
AcDbLine
 10
0.0
 20
0.0
 30
0.0
 11
-1.0
 21
0.0
 31
0.0
  0
ENDBLK
  5
5E
330
59
100
AcDbEntity
  8
0
100
AcDbBlockEnd
  0
BLOCK
  5
66
330
64
100
AcDbEntity
  8
0
100
AcDbBlockBegin
  2
GENAXEH
 70
     0
 10
0.0
 20
0.0
 30
0.0
  3
GENAXEH
  1

  0
LINE
  5
65
330
64
100
AcDbEntity
  8
0
100
AcDbLine
 10
-1.0
 20
0.0
 30
0.0
 11
1.0
 21
0.0
 31
0.0
  0
ENDBLK
  5
67
330
64
100
AcDbEntity
  8
0
100
AcDbBlockEnd
  0
BLOCK
  5
2249
330
223F
100
AcDbEntity
  8
0
100
AcDbBlockBegin
  2
*D6
 70
     1
 10
0.0
 20
0.0
 30
0.0
  3
*D6
  1

  0
LINE
  5
2EAC
330
223F
100
AcDbEntity
  8
AM_5
 62
     3
100
AcDbLine
 10
-39.00000000000003
 20
-2.000000000000004
 30
0.0
 11
-39.00000000000003
 21
-9.500000999999979
 31
0.0
  0
LINE
  5
2EAD
330
223F
100
AcDbEntity
  8
AM_5
 62
     3
100
AcDbLine
 10
-1.000001010404564
 20
-1.549995830482747
 30
0.0
 11
-1.000001010404565
 21
-9.500000999999979
 31
0.0
  0
LINE
  5
2EAE
330
223F
100
AcDbEntity
  8
AM_5
 62
     3
100
AcDbLine
 10
-37.75000000000003
 20
-9.000000999999979
 30
0.0
 11
-2.250001010404565
 21
-9.000000999999979
 31
0.0
  0
INSERT
  5
2EAF
330
223F
100
AcDbEntity
  8
AM_5
 62
     3
100
AcDbBlockReference
  2
_OPEN30
 10
-39.00000000000003
 20
-9.000000999999979
 30
0.0
 41
1.25
 42
1.25
 43
1.25
 50
180.0
  0
INSERT
  5
2EB0
330
223F
100
AcDbEntity
  8
AM_5
 62
     3
100
AcDbBlockReference
  2
_OPEN30
 10
-1.000001010404565
 20
-9.000000999999979
 30
0.0
 41
1.25
 42
1.25
 43
1.25
  0
MTEXT
  5
2EB1
330
223F
100
AcDbEntity
  8
AM_5
 62
     2
100
AcDbMText
 10
-20.0000005052023
 20
-7.300000999999979
 30
0.0
 40
1.9
 41
0.0
 71
     5
 72
     1
  1
38
1001
ACAD
1000
MTEXTBEGIN
1070
    73
1070
     1
1070
    44
1040
1.0
1070
    74
1070
     0
1000
MTEXTEND
  0
POINT
  5
2EB2
330
223F
100
AcDbEntity
  8
DEFPOINTS
 62
     0
100
AcDbPoint
 10
-39.00000000000003
 20
-2.000000000000004
 30
0.0
  0
POINT
  5
2EB3
330
223F
100
AcDbEntity
  8
DEFPOINTS
 62
     0
100
AcDbPoint
 10
-1.000001010404564
 20
-1.549995830482747
 30
0.0
  0
POINT
  5
2EB4
330
223F
100
AcDbEntity
  8
DEFPOINTS
 62
     0
100
AcDbPoint
 10
-1.000001010404565
 20
-9.000000999999979
 30
0.0
  0
ENDBLK
  5
224A
330
223F
100
AcDbEntity
  8
0
100
AcDbBlockEnd
  0
BLOCK
  5
2264
330
225A
100
AcDbEntity
  8
0
100
AcDbBlockBegin
  2
*D7
 70
     1
 10
0.0
 20
0.0
 30
0.0
  3
*D7
  1

  0
LINE
  5
2EB5
330
225A
100
AcDbEntity
  8
AM_5
 62
     3
100
AcDbLine
 10
-87.00000000000001
 20
-1.531249841054188
 30
0.0
 11
-87.00000000000001
 21
-14.500001
 31
0.0
  0
LINE
  5
2EB6
330
225A
100
AcDbEntity
  8
AM_5
 62
     3
100
AcDbLine
 10
-1.000001010404564
 20
-1.549995830482747
 30
0.0
 11
-1.000001010404565
 21
-14.500001
 31
0.0
  0
LINE
  5
2EB7
330
225A
100
AcDbEntity
  8
AM_5
 62
     3
100
AcDbLine
 10
-85.75000000000001
 20
-14.000001
 30
0.0
 11
-2.250001010404565
 21
-14.000001
 31
0.0
  0
INSERT
  5
2EB8
330
225A
100
AcDbEntity
  8
AM_5
 62
     3
100
AcDbBlockReference
  2
_OPEN30
 10
-87.00000000000001
 20
-14.000001
 30
0.0
 41
1.25
 42
1.25
 43
1.25
 50
180.0
  0
INSERT
  5
2EB9
330
225A
100
AcDbEntity
  8
AM_5
 62
     3
100
AcDbBlockReference
  2
_OPEN30
 10
-1.000001010404565
 20
-14.000001
 30
0.0
 41
1.25
 42
1.25
 43
1.25
  0
MTEXT
  5
2EBA
330
225A
100
AcDbEntity
  8
AM_5
 62
     2
100
AcDbMText
 10
-44.00000050520229
 20
-12.300001
 30
0.0
 40
1.9
 41
0.0
 71
     5
 72
     1
  1
86
1001
ACAD
1000
MTEXTBEGIN
1070
    73
1070
     1
1070
    44
1040
1.0
1070
    74
1070
     0
1000
MTEXTEND
  0
POINT
  5
2EBB
330
225A
100
AcDbEntity
  8
DEFPOINTS
 62
     0
100
AcDbPoint
 10
-87.00000000000001
 20
-1.531249841054188
 30
0.0
  0
POINT
  5
2EBC
330
225A
100
AcDbEntity
  8
DEFPOINTS
 62
     0
100
AcDbPoint
 10
-1.000001010404564
 20
-1.549995830482747
 30
0.0
  0
POINT
  5
2EBD
330
225A
100
AcDbEntity
  8
DEFPOINTS
 62
     0
100
AcDbPoint
 10
-1.000001010404565
 20
-14.000001
 30
0.0
  0
ENDBLK
  5
2265
330
225A
100
AcDbEntity
  8
0
100
AcDbBlockEnd
  0
BLOCK
  5
283F
330
2833
100
AcDbEntity
  8
0
100
AcDbBlockBegin
  2
*D8
 70
     1
 10
0.0
 20
0.0
 30
0.0
  3
*D8
  1

  0
LINE
  5
2E7E
330
2833
100
AcDbEntity
  8
AM_5
 62
     3
100
AcDbLine
 10
-86.74285714285717
 20
-1.999999999999955
 30
0.0
 11
-96.1920197698747
 21
-1.999999999999952
 31
0.0
  0
LINE
  5
2E7F
330
2833
100
AcDbEntity
  8
AM_5
 62
     3
100
AcDbLine
 10
-86.74285714285716
 20
2.000000000000045
 30
0.0
 11
-96.1920197698747
 21
2.000000000000047
 31
0.0
  0
LINE
  5
2E80
330
2833
100
AcDbEntity
  8
AM_5
 62
     3
100
AcDbLine
 10
-95.6920197698747
 20
-0.7499999999999529
 30
0.0
 11
-95.6920197698747
 21
0.7500000000000479
 31
0.0
  0
INSERT
  5
2E81
330
2833
100
AcDbEntity
  8
AM_5
 62
     3
100
AcDbBlockReference
  2
_OPEN30
 10
-95.6920197698747
 20
-1.999999999999952
 30
0.0
 41
1.25
 42
1.25
 43
1.25
 50
270.0
  0
INSERT
  5
2E82
330
2833
100
AcDbEntity
  8
AM_5
 62
     3
100
AcDbBlockReference
  2
_OPEN30
 10
-95.6920197698747
 20
2.000000000000047
 30
0.0
 41
1.25
 42
1.25
 43
1.25
 50
90.0
  0
MTEXT
  5
2E83
330
2833
100
AcDbEntity
  8
AM_5
 62
     2
100
AcDbMText
 10
-97.39201976987471
 20
0.0000000000000324
 30
0.0
 40
1.9
 41
0.0
 71
     5
 72
     1
  1
%%c4
 11
0.0000000000000001
 21
1.0
 31
0.0
1001
ACAD
1000
MTEXTBEGIN
1070
    73
1070
     1
1070
    44
1040
1.0
1070
    74
1070
     0
1000
MTEXTEND
  0
POINT
  5
2E84
330
2833
100
AcDbEntity
  8
DEFPOINTS
 62
     0
100
AcDbPoint
 10
-86.74285714285717
 20
-1.999999999999955
 30
0.0
  0
POINT
  5
2E85
330
2833
100
AcDbEntity
  8
DEFPOINTS
 62
     0
100
AcDbPoint
 10
-86.74285714285716
 20
2.000000000000045
 30
0.0
  0
POINT
  5
2E86
330
2833
100
AcDbEntity
  8
DEFPOINTS
 62
     0
100
AcDbPoint
 10
-95.6920197698747
 20
2.000000000000047
 30
0.0
  0
ENDBLK
  5
2840
330
2833
100
AcDbEntity
  8
0
100
AcDbBlockEnd
  0
BLOCK
  5
2ACB
330
2ABF
100
AcDbEntity
  8
0
100
AcDbBlockBegin
  2
*D9
 70
     1
 10
0.0
 20
0.0
 30
0.0
  3
*D9
  1

  0
LINE
  5
2E9B
330
2ABF
100
AcDbEntity
  8
AM_5
 62
     3
100
AcDbLine
 10
-1.000001010404564
 20
-1.549995830482747
 30
0.0
 11
8.215865571920929
 21
-1.549995830482749
 31
0.0
  0
LINE
  5
2E9C
330
2ABF
100
AcDbEntity
  8
AM_5
 62
     3
100
AcDbLine
 10
-1.000001258850046
 20
1.549999263310749
 30
0.0
 11
8.215865571920931
 21
1.549999263310746
 31
0.0
  0
LINE
  5
2E9D
330
2ABF
100
AcDbEntity
  8
AM_5
 62
     3
100
AcDbLine
 10
7.715865571920929
 20
-2.799995830482749
 30
0.0
 11
7.715865571920929
 21
-4.04999583048275
 31
0.0
  0
LINE
  5
2E9E
330
2ABF
100
AcDbEntity
  8
AM_5
 62
     3
100
AcDbLine
 10
7.715865571920931
 20
2.799999263310747
 30
0.0
 11
7.715865571920932
 21
10.43571354902503
 31
0.0
  0
LINE
  5
2E9F
330
2ABF
100
AcDbEntity
  8
AM_5
 62
     3
100
AcDbLine
 10
7.71586557192093
 20
-1.549995830482749
 30
0.0
 11
7.71586557192093
 21
1.549999263310746
 31
0.0
  0
INSERT
  5
2EA0
330
2ABF
100
AcDbEntity
  8
AM_5
 62
     3
100
AcDbBlockReference
  2
_OPEN30
 10
7.71586557192093
 20
-1.549995830482749
 30
0.0
 41
1.25
 42
1.25
 43
1.25
 50
90.0
  0
INSERT
  5
2EA1
330
2ABF
100
AcDbEntity
  8
AM_5
 62
     3
100
AcDbBlockReference
  2
_OPEN30
 10
7.71586557192093
 20
1.549999263310746
 30
0.0
 41
1.25
 42
1.25
 43
1.25
 50
270.0
  0
MTEXT
  5
2EA2
330
2ABF
100
AcDbEntity
  8
AM_5
 62
     2
100
AcDbMText
 10
6.015865571920929
 20
7.242856406167891
 30
0.0
 40
1.9
 41
0.0
 71
     5
 72
     1
  1
%%c3.1
 11
0.0000000000000001
 21
1.0
 31
0.0
1001
ACAD
1000
MTEXTBEGIN
1070
    73
1070
     1
1070
    44
1040
1.0
1070
    74
1070
     0
1000
MTEXTEND
  0
POINT
  5
2EA3
330
2ABF
100
AcDbEntity
  8
DEFPOINTS
 62
     0
100
AcDbPoint
 10
-1.000001010404564
 20
-1.549995830482747
 30
0.0
  0
POINT
  5
2EA4
330
2ABF
100
AcDbEntity
  8
DEFPOINTS
 62
     0
100
AcDbPoint
 10
-1.000001258850046
 20
1.549999263310749
 30
0.0
  0
POINT
  5
2EA5
330
2ABF
100
AcDbEntity
  8
DEFPOINTS
 62
     0
100
AcDbPoint
 10
7.71586557192093
 20
1.549999263310746
 30
0.0
  0
ENDBLK
  5
2ACC
330
2ABF
100
AcDbEntity
  8
0
100
AcDbBlockEnd
  0
BLOCK
  5
2DAE
330
2D9E
100
AcDbEntity
  8
0
100
AcDbBlockBegin
  2
*D10
 70
     1
 10
0.0
 20
0.0
 30
0.0
  3
*D10
  1

  0
LINE
  5
2E87
330
2D9E
100
AcDbEntity
  8
AM_5
100
AcDbLine
 10
0.1710100716628505
 20
-0.4698463103929424
 30
0.0
 11
5.02728740976704
 21
-13.81235863944219
 31
0.0
  0
LINE
  5
2E88
330
2D9E
100
AcDbEntity
  8
AM_5
100
AcDbLine
 10
0.1710112450322504
 20
0.4698458833197615
 30
0.0
 11
5.02732190402316
 21
13.81234608451095
 31
0.0
  0
ARC
  5
2E89
330
2D9E
100
AcDbEntity
  8
AM_5
100
AcDbCircle
 10
0.0000000000000025
 20
0.0000000000000069
 30
0.0
 40
14.19880504956018
100
AcDbArc
 50
295.0456973186918
 51
64.95415959378461
  0
INSERT
  5
2E8A
330
2D9E
100
AcDbEntity
  8
AM_5
100
AcDbBlockReference
  2
_OPEN30
 10
4.856277338104191
 20
-13.34251232904924
 30
0.0
 41
1.25
 42
1.25
 43
1.25
 50
202.5228486593467
  0
INSERT
  5
2E8B
330
2D9E
100
AcDbEntity
  8
AM_5
100
AcDbBlockReference
  2
_OPEN30
 10
4.856310658990912
 20
13.34250020119119
 30
0.0
 41
1.25
 42
1.25
 43
1.25
 50
157.4770082531297
  0
MTEXT
  5
2E8C
330
2D9E
100
AcDbEntity
  8
AM_5
 62
     2
100
AcDbMText
 10
12.64880504955032
 20
-0.0000157942365316
 30
0.0
 40
1.6
 41
0.0
 71
     5
 72
     1
  1
140°
  7
ASAMI
 11
0.0000012486742028
 21
0.9999999999992203
 31
0.0
1001
ACAD
1000
MTEXTBEGIN
1070
    73
1070
     1
1070
    44
1040
1.0
1070
    74
1070
     0
1000
MTEXTEND
  0
POINT
  5
2E8D
330
2D9E
100
AcDbEntity
  8
DEFPOINTS
 62
     0
100
AcDbPoint
 10
13.03756681337591
 20
-5.623870235182769
 30
0.0
  0
POINT
  5
2E8E
330
2D9E
100
AcDbEntity
  8
DEFPOINTS
 62
     0
100
AcDbPoint
 10
0.0000000000000025
 20
0.0000000000000069
 30
0.0
  0
POINT
  5
2E8F
330
2D9E
100
AcDbEntity
  8
DEFPOINTS
 62
     0
100
AcDbPoint
 10
0.0000000000000025
 20
0.0000000000000069
 30
0.0
  0
POINT
  5
2E90
330
2D9E
100
AcDbEntity
  8
DEFPOINTS
 62
     0
100
AcDbPoint
 10
-0.1953259571887222
 20
0.5366536568093395
 30
0.0
  0
POINT
  5
2E91
330
2D9E
100
AcDbEntity
  8
DEFPOINTS
 62
     0
100
AcDbPoint
 10
-0.1953291676508636
 20
-0.5366583074447902
 30
0.0
  0
ENDBLK
  5
2DAF
330
2D9E
100
AcDbEntity
  8
0
100
AcDbBlockEnd
  0
ENDSEC
  0
SECTION
  2
ENTITIES
  0
LINE
  5
C1D
330
1F
100
AcDbEntity
  8
AM_0
 48
0.5
100
AcDbLine
 10
0.0000000000000025
 20
0.0000000000000069
 30
0.0
 11
-0.1953259571887222
 21
0.5366536568093396
 31
0.0
  0
LINE
  5
C20
330
1F
100
AcDbEntity
  8
AM_0
 48
0.5
100
AcDbLine
 10
0.0000000000000025
 20
0.0000000000000069
 30
0.0
 11
-0.1953291676508637
 21
-0.5366583074447903
 31
0.0
  0
TEXT
  5
19BD
330
1F
100
AcDbEntity
  8
AM_6
100
AcDbText
 10
-54.59523809523811
 20
-25.25000100000003
 30
0.0
 40
2.5
  1
MDW031LHK
 50
0.0000000000001527
 72
     4
 11
-44.00000000000001
 21
-24.000001
 31
0.0
100
AcDbText
  0
ELLIPSE
  5
21FC
330
1F
100
AcDbEntity
  8
AM_11
 48
0.5
100
AcDbEllipse
 10
-6.843618774414058
 20
7.72969349422042
 30
0.0
 11
-8.7905376434325
 21
0.000000000000022
 31
0.0
210
0.0
220
0.0
230
1.0
 40
0.9722222222222219
 41
1.130070686340307
 42
2.011520147323599
  0
ELLIPSE
  5
21FD
330
1F
100
AcDbEntity
  8
AM_11
 48
0.5
100
AcDbEllipse
 10
-6.843618774414091
 20
-7.72968792718658
 30
0.0
 11
8.790537643432497
 21
0.000000000000022
 31
0.0
210
0.0
220
0.0
230
1.0
 40
0.9722222222222226
 41
1.130071552591889
 42
2.011521013575197
  0
ELLIPSE
  5
2200
330
1F
100
AcDbEntity
  8
AM_11
 48
0.5
100
AcDbEllipse
 10
-14.34361877441409
 20
-7.729687927186565
 30
0.0
 11
-8.7905376434325
 21
0.0000000000000142
 31
0.0
210
0.0
220
0.0
230
1.0
 40
0.9722222222222219
 41
4.271664206181687
 42
5.153113667164993
  0
ELLIPSE
  5
2201
330
1F
100
AcDbEntity
  8
AM_11
 48
0.5
100
AcDbEllipse
 10
-14.34361877441405
 20
7.729693494220436
 30
0.0
 11
8.790537643432497
 21
0.0000000000000669
 31
0.0
210
0.0
220
0.0
230
1.0
 40
0.9722222222222224
 41
4.271663339930089
 42
5.153112800913382
  0
ELLIPSE
  5
2206
330
1F
100
AcDbEntity
  8
AM_11
 48
0.5
100
AcDbEllipse
 10
-29.34361877441194
 20
7.729693494220463
 30
0.0
 11
8.790537643432497
 21
0.0000000000000142
 31
0.0
210
0.0
220
0.0
230
1.0
 40
0.9722222222222224
 41
4.271663339930095
 42
5.153112800913389
  0
ELLIPSE
  5
2207
330
1F
100
AcDbEntity
  8
AM_11
 48
0.5
100
AcDbEllipse
 10
-29.34361877441198
 20
-7.729687927186537
 30
0.0
 11
-8.79053764343249
 21
0.0000000000000083
 31
0.0
210
0.0
220
0.0
230
1.0
 40
0.9722222222222233
 41
4.271664206181686
 42
5.153113667164993
  0
ELLIPSE
  5
220B
330
1F
100
AcDbEntity
  8
AM_11
 48
0.5
100
AcDbEllipse
 10
-21.84361877441195
 20
7.72969349422045
 30
0.0
 11
-8.790537643432497
 21
0.0000000000000005
 31
0.0
210
0.0
220
0.0
230
1.0
 40
0.9722222222222224
 41
1.130070686340304
 42
2.011520147323597
  0
ELLIPSE
  5
220C
330
1F
100
AcDbEntity
  8
AM_11
 48
0.5
100
AcDbEllipse
 10
-21.84361877441199
 20
-7.72968792718655
 30
0.0
 11
-8.790537643432495
 21
0.0000000000000044
 31
0.0
210
0.0
220
0.0
230
1.0
 40
0.9722222222222226
 41
4.271664206181685
 42
5.153113667164992
  0
ELLIPSE
  5
220D
330
1F
100
AcDbEntity
  8
AM_11
 48
0.5
100
AcDbEllipse
 10
-44.34358596277846
 20
7.729693494220453
 30
0.0
 11
8.79053764343249
 21
0.0000000000000669
 31
0.0
210
0.0
220
0.0
230
1.0
 40
0.9722222222222233
 41
4.271663339930089
 42
5.153112800913382
  0
ELLIPSE
  5
220E
330
1F
100
AcDbEntity
  8
AM_11
 48
0.5
100
AcDbEllipse
 10
-44.34358596277848
 20
-7.729687927186548
 30
0.0
 11
-8.79053764343249
 21
0.0000000000000083
 31
0.0
210
0.0
220
0.0
230
1.0
 40
0.9722222222222233
 41
4.271664206181686
 42
5.153113667164993
  0
ELLIPSE
  5
220F
330
1F
100
AcDbEntity
  8
AM_11
 48
0.5
100
AcDbEllipse
 10
-51.84356955696181
 20
-7.729687927186554
 30
0.0
 11
8.790537643432477
 21
0.0000000000000552
 31
0.0
210
0.0
220
0.0
230
1.0
 40
0.9722222222222244
 41
1.130071552591885
 42
2.011521013575192
  0
ELLIPSE
  5
2210
330
1F
100
AcDbEntity
  8
AM_11
 48
0.5
100
AcDbEllipse
 10
-51.84356955696178
 20
7.729693494220448
 30
0.0
 11
-8.790537643432493
 21
0.0000000000000669
 31
0.0
210
0.0
220
0.0
230
1.0
 40
0.972222222222223
 41
1.130070686340312
 42
2.011520147323604
  0
ELLIPSE
  5
2219
330
1F
100
AcDbEntity
  8
AM_11
 48
0.5
100
AcDbEllipse
 10
-59.34355315114502
 20
7.72969349422044
 30
0.0
 11
-8.790537643432497
 21
0.0000000000000005
 31
0.0
210
0.0
220
0.0
230
1.0
 40
0.9722222222222224
 41
1.130070686340304
 42
2.011520147323597
  0
ELLIPSE
  5
221A
330
1F
100
AcDbEntity
  8
AM_11
 48
0.5
100
AcDbEllipse
 10
-59.34355315114506
 20
-7.729687927186558
 30
0.0
 11
-8.79053764343249
 21
0.0000000000000083
 31
0.0
210
0.0
220
0.0
230
1.0
 40
0.9722222222222233
 41
4.271664206181686
 42
5.153113667164993
  0
ELLIPSE
  5
2228
330
1F
100
AcDbEntity
  8
AM_11
 48
0.5
100
AcDbEllipse
 10
-36.8436023685952
 20
7.729693494220457
 30
0.0
 11
8.790537643432491
 21
0.0000000000000747
 31
0.0
210
0.0
220
0.0
230
1.0
 40
0.972222222222223
 41
4.271663339930089
 42
5.153112800913382
  0
ELLIPSE
  5
2229
330
1F
100
AcDbEntity
  8
AM_11
 48
0.5
100
AcDbEllipse
 10
-36.84360236859524
 20
-7.729687927186542
 30
0.0
 11
-8.79053764343249
 21
0.0000000000000083
 31
0.0
210
0.0
220
0.0
230
1.0
 40
0.9722222222222233
 41
4.271664206181686
 42
5.153113667164993
  0
DIMENSION
  5
223E
330
1F
100
AcDbEntity
  8
AM_5
100
AcDbDimension
  2
*D6
 10
-1.000001010404565
 20
-9.000000999999979
 30
0.0
 11
-20.0000005052023
 21
-7.300000999999979
 31
0.0
 70
    32
  1
<>
  3
AM_JIS$0
100
AcDbAlignedDimension
 13
-39.00000000000003
 23
-2.000000000000004
 33
0.0
 14
-1.000001010404564
 24
-1.549995830482747
 34
0.0
 50
0.0000000000000384
100
AcDbRotatedDimension
1001
GENIUS_GENDTOL_13
1000

1000
h7
1000

1040
0.0
1001
ACAD
1000
DSTYLE
1002
{
1070
   271
1070
     0
1002
}
  0
LINE
  5
224B
330
1F
100
AcDbEntity
  8
AM_7
100
AcDbLine
 10
-88.69201876987471
 20
0.0000000000001052
 30
0.0
 11
0.71586457192093
 21
0.0000000000000148
 31
0.0
1001
GENIUS_GENODEF_13
1002
{
1000
HIER
1070
     0
1002
}
1002
{
1000
MANEDIT
1070
     0
1002
}
1002
{
1000
NOSEL
1070
     0
1002
}
1002
{
1000
BEHIND
1070
     0
1002
}
1002
{
1000
REACTOR
1002
}
1001
GENIUS_GENOBJ-N-CEN_13
1002
{
1000
OWNER
1000
GEN
1002
}
  0
DIMENSION
  5
2259
330
1F
100
AcDbEntity
  8
AM_5
100
AcDbDimension
  2
*D7
 10
-1.000001010404565
 20
-14.000001
 30
0.0
 11
-44.00000050520229
 21
-12.300001
 31
0.0
 70
    32
  1
<>
  3
AM_JIS$0
100
AcDbAlignedDimension
 13
-87.00000000000001
 23
-1.531249841054188
 33
0.0
 14
-1.000001010404564
 24
-1.549995830482747
 34
0.0
100
AcDbRotatedDimension
1001
GENIUS_GENDTOL_13
1000

1000
h7
1000

1040
0.0
1001
ACAD
1000
DSTYLE
1002
{
1070
   271
1070
     0
1002
}
  0
ELLIPSE
  5
27F0
330
1F
100
AcDbEntity
  8
AM_11
 48
0.5
100
AcDbEllipse
 10
-66.84356049944485
 20
7.729699137863121
 30
0.0
 11
8.79053764343249
 21
0.0000000000000669
 31
0.0
210
0.0
220
0.0
230
1.0
 40
0.9722222222222233
 41
4.271663339930089
 42
5.153112800913382
  0
ELLIPSE
  5
27F1
330
1F
100
AcDbEntity
  8
AM_11
 48
0.5
100
AcDbEllipse
 10
-66.84356049944487
 20
-7.72968228354388
 30
0.0
 11
-8.79053764343249
 21
0.0000000000000083
 31
0.0
210
0.0
220
0.0
230
1.0
 40
0.9722222222222233
 41
4.271664206181686
 42
5.153113667164993
  0
ELLIPSE
  5
27F2
330
1F
100
AcDbEntity
  8
AM_11
 48
0.5
100
AcDbEllipse
 10
-74.34354409362818
 20
-7.729682283543886
 30
0.0
 11
8.790537643432477
 21
0.0000000000000552
 31
0.0
210
0.0
220
0.0
230
1.0
 40
0.9722222222222244
 41
1.130071552591885
 42
2.011521013575192
  0
ELLIPSE
  5
27F3
330
1F
100
AcDbEntity
  8
AM_11
 48
0.5
100
AcDbEllipse
 10
-74.34354409362815
 20
7.729699137863116
 30
0.0
 11
-8.790537643432493
 21
0.0000000000000669
 31
0.0
210
0.0
220
0.0
230
1.0
 40
0.972222222222223
 41
1.130070686340312
 42
2.011520147323604
  0
ELLIPSE
  5
27F4
330
1F
100
AcDbEntity
  8
AM_11
 48
0.5
100
AcDbEllipse
 10
-81.8435276878114
 20
7.729699137863108
 30
0.0
 11
-8.790537643432497
 21
0.0000000000000005
 31
0.0
210
0.0
220
0.0
230
1.0
 40
0.9722222222222224
 41
1.130070686340304
 42
2.011520147323597
  0
ELLIPSE
  5
27F5
330
1F
100
AcDbEntity
  8
AM_11
 48
0.5
100
AcDbEllipse
 10
-81.84352768781144
 20
-7.72968228354389
 30
0.0
 11
-8.79053764343249
 21
0.0000000000000083
 31
0.0
210
0.0
220
0.0
230
1.0
 40
0.9722222222222233
 41
4.271664206181686
 42
5.153113667164993
  0
ELLIPSE
  5
27F6
330
1F
100
AcDbEntity
  8
AM_11
 48
0.5
100
AcDbEllipse
 10
-89.34348597424627
 20
-7.729682283543896
 30
0.0
 11
-8.79053764343249
 21
0.0000000000000083
 31
0.0
210
0.0
220
0.0
230
1.0
 40
0.9722222222222233
 41
4.271664206181686
 42
4.442533778161017
  0
ELLIPSE
  5
27F7
330
1F
100
AcDbEntity
  8
AM_11
 48
0.5
100
AcDbEllipse
 10
-89.34348597424623
 20
7.729699137863103
 30
0.0
 11
-8.790537643432497
 21
0.0000000000000005
 31
0.0
210
0.0
220
0.0
230
1.0
 40
0.9722222222222224
 41
1.840651529018564
 42
2.011520147323597
  0
LINE
  5
27F8
330
1F
100
AcDbEntity
  8
AM_0
 48
0.5
100
AcDbLine
 10
-39.00000000000004
 20
-2.000000000000004
 30
0.0
 11
-38.99999999999999
 21
1.999999999999994
 31
0.0
  0
LINE
  5
2827
330
1F
100
AcDbEntity
  8
AM_0
100
AcDbLine
 10
-86.74285714285716
 20
2.000000000000041
 30
0.0
 11
-86.74285714285717
 21
-1.999999999999958
 31
0.0
  0
LINE
  5
2828
330
1F
100
AcDbEntity
  8
AM_0
 48
0.5
100
AcDbLine
 10
-87.00000000000002
 20
-1.749999999999954
 30
0.0
 11
-87.00000000000001
 21
1.750000000000045
 31
0.0
  0
LINE
  5
2829
330
1F
100
AcDbEntity
  8
AM_0
100
AcDbLine
 10
-87.00000000000002
 20
-1.749999999999954
 30
0.0
 11
-86.75000000000002
 21
-1.999999999999955
 31
0.0
1001
GENIUS_GENFIL_13
1070
     0
1040
0.25
1040
0.25
1040
20.0
1040
0.0
1002
{
1002
}
1001
GENIUS_GENODEF_13
1002
{
1000
HIER
1070
     0
1002
}
1002
{
1000
MANEDIT
1070
     0
1002
}
1002
{
1000
NOSEL
1070
     0
1002
}
1002
{
1000
BEHIND
1070
     0
1002
}
1002
{
1000
REACTOR
1002
}
1001
GENIUS_GENOBJ-N-CHA_13
1002
{
1000
OWNER
1000
GEN
1002
}
  0
LINE
  5
282B
330
1F
100
AcDbEntity
  8
AM_0
100
AcDbLine
 10
-86.75000000000002
 20
-1.999999999999955
 30
0.0
 11
-39.00000000000003
 21
-2.000000000000004
 31
0.0
1001
GENIUS_GENODEF_13
1002
{
1000
HIER
1070
     0
1002
}
1002
{
1000
MANEDIT
1070
     0
1002
}
1002
{
1000
NOSEL
1070
     0
1002
}
1002
{
1000
BEHIND
1070
     0
1002
}
1002
{
1000
REACTOR
1002
}
1001
GENIUS_GENOBJ-N-CEN_13
1002
{
1000
OWNER
1000
GEN
1002
}
  0
LINE
  5
282C
330
1F
100
AcDbEntity
  8
AM_0
100
AcDbLine
 10
-86.75000000000002
 20
2.000000000000045
 30
0.0
 11
-39.00000000000001
 21
1.999999999999994
 31
0.0
1001
GENIUS_GENODEF_13
1002
{
1000
HIER
1070
     0
1002
}
1002
{
1000
MANEDIT
1070
     0
1002
}
1002
{
1000
NOSEL
1070
     0
1002
}
1002
{
1000
BEHIND
1070
     0
1002
}
1002
{
1000
REACTOR
1002
}
1001
GENIUS_GENOBJ-N-CEN_13
1002
{
1000
OWNER
1000
GEN
1002
}
  0
DIMENSION
  5
282D
330
1F
100
AcDbEntity
  8
AM_5
100
AcDbDimension
  2
*D8
 10
-95.6920197698747
 20
2.000000000000047
 30
0.0
 11
-95.6920197698747
 21
0.0000000000000322
 31
0.0
 70
   160
  1
%%c<>
  3
AM_JIS$0
100
AcDbAlignedDimension
 13
-86.74285714285717
 23
-1.999999999999955
 33
0.0
 14
-86.74285714285716
 24
2.000000000000045
 34
0.0
 50
270.0
100
AcDbRotatedDimension
1001
ACAD
1000
DSTYLE
1002
{
1070
   271
1070
     0
1002
}
1001
GENIUS_GENDTOL_13
1000

1000
h7
1000

1040
0.0
  0
LINE
  5
2830
330
1F
100
AcDbEntity
  8
AM_0
100
AcDbLine
 10
-39.00000000000003
 20
-2.000000000000004
 30
0.0
 11
-38.22057670570441
 21
-1.549999751225803
 31
0.0
  0
LINE
  5
2831
330
1F
100
AcDbEntity
  8
AM_0
100
AcDbLine
 10
-39.00000000000001
 20
1.999999999999994
 30
0.0
 11
-38.22091180833877
 21
1.550193222821936
 31
0.0
  0
LINE
  5
2964
330
1F
100
AcDbEntity
  8
AM_0
100
AcDbLine
 10
-87.00000000000001
 20
1.750000000000045
 30
0.0
 11
-86.75000000000002
 21
2.000000000000045
 31
0.0
1001
GENIUS_GENFIL_13
1070
     0
1040
0.25
1040
0.25
1040
20.0
1040
0.0
1002
{
1002
}
1001
GENIUS_GENODEF_13
1002
{
1000
HIER
1070
     0
1002
}
1002
{
1000
MANEDIT
1070
     0
1002
}
1002
{
1000
NOSEL
1070
     0
1002
}
1002
{
1000
BEHIND
1070
     0
1002
}
1002
{
1000
REACTOR
1002
}
1001
GENIUS_GENOBJ-N-CHA_13
1002
{
1000
OWNER
1000
GEN
1002
}
  0
DIMENSION
  5
2ABE
330
1F
100
AcDbEntity
  8
AM_5
100
AcDbDimension
  2
*D9
 10
7.71586557192093
 20
1.549999263310746
 30
0.0
 11
7.71586557192093
 21
7.242856406167891
 31
0.0
 70
   160
  1
%%c<>
  3
AM_JIS$0
100
AcDbAlignedDimension
 13
-1.000001010404564
 23
-1.549995830482747
 33
0.0
 14
-1.000001258850046
 24
1.549999263310749
 34
0.0
 50
89.99999999999991
100
AcDbRotatedDimension
1001
ACAD
1000
DSTYLE
1002
{
1070
   271
1070
     1
1002
}
1001
GENIUS_GENDTOL_13
1000

1000
h7
1000

1040
0.0
  0
ELLIPSE
  5
2ADE
330
1F
100
AcDbEntity
  8
AM_11
 48
0.5
100
AcDbEllipse
 10
0.6563812255859496
 20
7.49546035803191
 30
0.0
 11
-8.790537643432738
 21
0.0000000000016421
 31
0.0
210
0.0
220
0.0
230
1.0
 40
0.9427609427609203
 41
1.130070686340493
 42
1.291800737381179
  0
ELLIPSE
  5
2B49
330
1F
100
AcDbEntity
  8
AM_0
 48
0.5
100
AcDbEllipse
 10
-3.585346907179238
 20
2.948270842641184
 30
0.0
 11
5.19991691382074
 21
0.0001012831014872
 31
0.0
210
0.0
220
0.0
230
0.9999999999999998
 40
0.7828264949669923
 41
-0.9323896476911867
 42
-0.8100119704228767
  0
LINE
  5
2B4A
330
1F
100
AcDbEntity
  8
AM_0
 48
0.5
100
AcDbLine
 10
0.0000000000000025
 20
0.0000000000000069
 30
0.0
 11
-1.008440689813346
 21
0.5951531672717382
 31
0.0
  0
LINE
  5
2B4B
330
1F
100
AcDbEntity
  8
AM_0
 48
0.5
100
AcDbLine
 10
-2.137266447884776
 20
1.550000248774129
 30
0.0
 11
-0.9999962234496598
 21
1.550001234237518
 31
0.0
  0
LINE
  5
2B4C
330
1F
100
AcDbEntity
  8
AM_0
 48
0.5
100
AcDbLine
 10
-2.13726644788479
 20
-1.54999975122587
 30
0.0
 11
-0.9999962234496745
 21
-1.549998765762482
 31
0.0
  0
LINE
  5
2B4E
330
1F
100
AcDbEntity
  8
AM_0
 48
0.5
100
AcDbLine
 10
-0.7858858157510778
 20
1.357596214423829
 30
0.0
 11
-0.9999962234496598
 21
1.550001234237518
 31
0.0
  0
LINE
  5
2B4F
330
1F
100
AcDbEntity
  8
AM_11
 48
0.5
100
AcDbLine
 10
-8.423409941537006
 20
-1.54999975122585
 30
0.0
 11
-2.13726644788479
 21
-1.54999975122587
 31
0.0
  0
LINE
  5
2B50
330
1F
100
AcDbEntity
  8
AM_11
 48
0.5
100
AcDbLine
 10
-8.423409941536991
 20
1.550000248774149
 30
0.0
 11
-2.137266447884776
 21
1.550000248774129
 31
0.0
  0
LINE
  5
2B51
330
1F
100
AcDbEntity
  8
AM_11
 48
0.5
100
AcDbLine
 10
-19.48842818002328
 20
1.550220454403769
 30
0.0
 11
-15.47685240329506
 21
1.550000248774173
 31
0.0
  0
LINE
  5
2B52
330
1F
100
AcDbEntity
  8
AM_11
 48
0.5
100
AcDbLine
 10
-20.30324327024147
 20
-1.549999751225843
 30
0.0
 11
-14.01709977659006
 21
-1.550219956855442
 31
0.0
  0
LINE
  5
2B53
330
1F
100
AcDbEntity
  8
AM_11
 48
0.5
100
AcDbLine
 10
-31.36830733041406
 20
1.550220454403774
 30
0.0
 11
-27.35673696790426
 21
1.55000024877418
 31
0.0
  0
LINE
  5
2B54
330
1F
100
AcDbEntity
  8
AM_0
100
AcDbLine
 10
-27.35673696790426
 20
1.55000024877418
 30
0.0
 11
-19.48842818002328
 21
1.550220454403769
 31
0.0
  0
LINE
  5
2B55
330
1F
100
AcDbEntity
  8
AM_0
 48
0.5
100
AcDbLine
 10
-27.35673948561618
 20
-1.549999751225799
 30
0.0
 11
-20.30324234408654
 21
-1.54999975122581
 31
0.0
  0
LINE
  5
2B56
330
1F
100
AcDbEntity
  8
AM_0
 48
0.5
100
AcDbLine
 10
-15.47685781751347
 20
1.550000248774173
 30
0.0
 11
-8.423409941536991
 21
1.550000248774149
 31
0.0
  0
LINE
  5
2B57
330
1F
100
AcDbEntity
  8
AM_0
 48
0.5
100
AcDbLine
 10
-14.01709977659005
 20
-1.549999751225864
 30
0.0
 11
-8.423409941537006
 21
-1.54999975122585
 31
0.0
  0
LINE
  5
2B59
330
1F
100
AcDbEntity
  8
AM_0
100
AcDbLine
 10
-38.22057670570441
 20
-1.549999751225803
 30
0.0
 11
-32.34000121758946
 21
-1.550140716894591
 31
0.0
1001
GENIUS_GENODEF_13
1002
{
1000
HIER
1070
     0
1002
}
1002
{
1000
MANEDIT
1070
     0
1002
}
1002
{
1000
NOSEL
1070
     0
1002
}
1002
{
1000
BEHIND
1070
     0
1002
}
1002
{
1000
REACTOR
1002
}
1001
GENIUS_GENOBJ-N-CEN_13
1002
{
1000
OWNER
1000
GEN
1002
}
  0
LINE
  5
2B5A
330
1F
100
AcDbEntity
  8
AM_11
 48
0.5
100
AcDbLine
 10
-32.34000121758946
 20
-1.550140716894591
 30
0.0
 11
-27.35673696790428
 21
-1.54999975122582
 31
0.0
  0
LINE
  5
2B5B
330
1F
100
AcDbEntity
  8
AM_0
 48
0.5
100
AcDbLine
 10
-28.40687727246969
 20
0.7853564842782161
 30
0.0
 11
-33.00000101040456
 21
-0.0422743621439503
 31
0.0
  0
LINE
  5
2B5C
330
1F
100
AcDbEntity
  8
AM_0
100
AcDbLine
 10
-38.22091180833877
 20
1.550193222821936
 30
0.0
 11
-31.36830733041406
 21
1.550220454403774
 31
0.0
1001
GENIUS_GENODEF_13
1002
{
1000
HIER
1070
     0
1002
}
1002
{
1000
MANEDIT
1070
     0
1002
}
1002
{
1000
NOSEL
1070
     0
1002
}
1002
{
1000
BEHIND
1070
     0
1002
}
1002
{
1000
REACTOR
1002
}
1001
GENIUS_GENOBJ-N-CEN_13
1002
{
1000
OWNER
1000
GEN
1002
}
  0
ELLIPSE
  5
2B5D
330
1F
100
AcDbEntity
  8
AM_0
 48
0.5
100
AcDbEllipse
 10
1.680211524172005
 20
-0.2027723961170561
 30
0.0
 11
3.073046261148219
 21
0.5334868873465256
 31
0.0
210
0.0
220
0.0
230
1.0
 40
0.713122159487491
 41
3.147512270016214
 42
3.5429527760656
  0
ELLIPSE
  5
2B5E
330
1F
100
AcDbEntity
  8
AM_0
 48
0.5
100
AcDbEllipse
 10
-3.462834572564798
 20
2.60146216792278
 30
0.0
 11
-3.933258991132758
 21
1.781187190591074
 31
0.0
210
0.0
220
0.0
230
1.0
 40
0.7793309132597031
 41
2.430018610758212
 42
2.611614096779853
  0
ELLIPSE
  5
2B5F
330
1F
100
AcDbEntity
  8
AM_0
 48
0.5
100
AcDbEllipse
 10
0.9159080473223076
 20
1.860867674822502
 30
0.0
 11
3.092416355224793
 21
1.895945625885575
 31
0.0
210
0.0
220
0.0
230
0.9999999999999998
 40
0.7095420174015585
 41
3.005304410607553
 42
3.548934549246738
  0
SPLINE
  5
2B60
330
1F
100
AcDbEntity
  8
AM_0
100
AcDbSpline
210
0.0
220
0.0
230
1.0
 70
     8
 71
     3
 72
    23
 73
    19
 74
     0
 42
0.0000000001
 43
0.0000000001
 40
16.03460024169435
 40
16.03460024169435
 40
16.03460024169435
 40
16.03460024169435
 40
16.35212704903564
 40
17.38177054169784
 40
18.41822485651776
 40
19.46214173629503
 40
20.51396345435107
 40
21.57393551351153
 40
22.64208202342361
 40
23.7182574881101
 40
24.80209208578934
 40
25.89306333925047
 40
26.99048218457928
 40
28.09348763352352
 40
29.20111863782268
 40
30.31232390128032
 40
31.42594612798585
 40
32.5407912310448
 40
32.5407912310486
 40
32.5407912310486
 40
32.5407912310486
 10
-19.48842818002328
 20
1.550220454403769
 30
0.0
 10
-19.45414408906696
 20
1.544987927358173
 30
0.0
 10
-19.30883304662211
 20
1.522201744801584
 30
0.0
 10
-19.05286608046282
 20
1.47755569769181
 30
0.0
 10
-18.72138818920405
 20
1.411167513883992
 30
0.0
 10
-18.39021819020234
 20
1.336624649257731
 30
0.0
 10
-18.05933651435835
 20
1.254358519892663
 30
0.0
 10
-17.72873141809503
 20
1.164827761301688
 30
0.0
 10
-17.39838379323015
 20
1.068544169057215
 30
0.0
 10
-17.06827063561072
 20
0.9660680895147347
 30
0.0
 10
-16.73837318702149
 20
0.8579798387379634
 30
0.0
 10
-16.40866499838775
 20
0.7449083570730434
 30
0.0
 10
-16.07911935054784
 20
0.6275108648237571
 30
0.0
 10
-15.74971428681515
 20
0.5064623483543559
 30
0.0
 10
-15.42042224626806
 20
0.3824666882111895
 30
0.0
 10
-15.0912127294897
 20
0.2562479280791987
 30
0.0
 10
-14.76205892953226
 20
0.1285374714945133
 30
0.0
 10
-14.54268200329121
 20
0.0429145934900733
 30
0.0
 10
-14.43293371472963
 20
0.0000790858506338
 30
0.0
  0
SPLINE
  5
2B61
330
1F
100
AcDbEntity
  8
AM_0
100
AcDbSpline
210
0.0
220
0.0
230
1.0
 70
     8
 71
     3
 72
    11
 73
     7
 74
     0
 42
0.0000000001
 43
0.0000000001
 40
11.27226913003534
 40
11.27226913003534
 40
11.27226913003534
 40
11.2722691300354
 40
12.28301561507924
 40
13.29510212255852
 40
14.30984805882082
 40
15.18258238371378
 40
15.18258238371378
 40
15.18258238371378
 40
15.18258238371378
 10
-20.30324327024226
 20
-1.549999751225843
 30
0.0
 10
-20.41400843613022
 20
-1.542413600798785
 30
0.0
 10
-20.63532984374054
 20
-1.524047860777622
 30
0.0
 10
-20.96616909266737
 20
-1.486999620399915
 30
0.0
 10
-21.2801413735033
 20
-1.442749559449872
 30
0.0
 10
-21.48320021494483
 20
-1.408733220631279
 30
0.0
 10
-21.57677551117631
 20
-1.391930088820028
 30
0.0
  0
SPLINE
  5
2B62
330
1F
100
AcDbEntity
  8
AM_0
100
AcDbSpline
210
0.0
220
0.0
230
1.0
 70
     8
 71
     3
 72
    17
 73
    13
 74
     0
 42
0.0000000001
 43
0.0000000001
 40
1.580019955310467
 40
1.580019955310467
 40
1.580019955310467
 40
1.580019955310467
 40
2.030549285115227
 40
3.082371838836284
 40
4.126290986361125
 40
5.162752068350215
 40
6.192395305374981
 40
7.216039564037012
 40
8.234688489606833
 40
9.249433870634691
 40
10.26152376260694
 40
11.27226744710342
 40
11.27226744710342
 40
11.27226744710342
 40
11.27226744710352
 10
-17.15992630284188
 20
-1.143945393440912
 30
0.0
 10
-17.20713999481535
 20
-1.15572708323673
 30
0.0
 10
-17.36484958802237
 20
-1.194343145212143
 30
0.0
 10
-17.63409897396915
 20
-1.25491382012725
 30
0.0
 10
-17.9676041697335
 20
-1.322744940782501
 30
0.0
 10
-18.30120117916602
 20
-1.382291658668324
 30
0.0
 10
-18.63481347389705
 20
-1.433354002522744
 30
0.0
 10
-18.96846211508967
 20
-1.475560542390618
 30
0.0
 10
-19.3021338071095
 20
-1.508670424159428
 30
0.0
 10
-19.63582627619991
 20
-1.532469084716612
 30
0.0
 10
-19.96953130104259
 20
-1.546803329320379
 30
0.0
 10
-20.19205531300181
 20
-1.549999760095026
 30
0.0
 10
-20.30324327024224
 20
-1.549999751225843
 30
0.0
  0
SPLINE
  5
2B63
330
1F
100
AcDbEntity
  8
AM_0
100
AcDbSpline
210
0.0
220
0.0
230
1.0
 70
     8
 71
     3
 72
    22
 73
    18
 74
     0
 42
0.0000000001
 43
0.0000000001
 40
17.17441611292
 40
17.17441611292
 40
17.17441611292
 40
17.17441611292
 40
17.38177636558528
 40
18.41823744757437
 40
19.46215659509824
 40
20.51397914882054
 40
21.57394542641293
 40
22.64209583141747
 40
23.71826625065247
 40
24.80210429862395
 40
25.8930771157021
 40
26.99048705697709
 40
28.09349309193389
 40
29.20112995599786
 40
30.31233024745139
 40
31.42594771747373
 40
32.5407895042663
 40
32.54078950426994
 40
32.54078950426994
 40
32.54078950426994
 10
-21.57692145188878
 20
-1.39191096958188
 30
0.0
 10
-21.59926681608023
 20
-1.388322871608623
 30
0.0
 10
-21.73321507089386
 20
-1.366467374664741
 30
0.0
 10
-21.97860072575831
 20
-1.322644258735997
 30
0.0
 10
-22.31215235114576
 20
-1.254917294611201
 30
0.0
 10
-22.64566998832276
 20
-1.179456341472445
 30
0.0
 10
-22.97915599190511
 20
-1.096732445299997
 30
0.0
 10
-23.312609921381
 20
-1.007252825886212
 30
0.0
 10
-23.64603588118163
 20
-0.9115743562507507
 30
0.0
 10
-23.97943541516293
 20
-0.810285045483377
 30
0.0
 10
-24.31281160806339
 20
-0.7040095392135818
 30
0.0
 10
-24.64616816681489
 20
-0.5934034899990205
 30
0.0
 10
-24.97950798475126
 20
-0.4791470177811238
 30
0.0
 10
-25.31283441747669
 20
-0.3619430476840004
 30
0.0
 10
-25.64615041963987
 20
-0.2425122514564819
 30
0.0
 10
-25.97946092902753
 20
-0.1215915816645929
 30
0.0
 10
-26.20162431871168
 20
-0.0404926534197441
 30
0.0
 10
-26.31276704343638
 20
0.0000790858511973
 30
0.0
  0
SPLINE
  5
2B64
330
1F
100
AcDbEntity
  8
AM_0
100
AcDbSpline
210
0.0
220
0.0
230
1.0
 70
     8
 71
     3
 72
    46
 73
    42
 74
     0
 42
0.0000000001
 43
0.0000000001
 40
0.0
 40
0.0
 40
0.0
 40
0.0
 40
0.8427075293422831
 40
1.265518104770557
 40
1.689948849565058
 40
2.116467290673825
 40
2.545485306101222
 40
2.97734409026334
 40
3.412310401731621
 40
3.850575907619841
 40
4.292228523283341
 40
4.737291192035375
 40
5.185695533383689
 40
5.637294720037917
 40
6.09186672715383
 40
6.549120869352283
 40
7.008706717250553
 40
7.470222077277046
 40
7.933222198716568
 40
8.397230145652669
 40
8.861746885649248
 40
9.326263625646204
 40
9.790271572582303
 40
10.25327169402144
 40
10.71478705404793
 40
11.17437290194658
 40
11.6316270441445
 40
12.08619905126055
 40
12.5378012019472
 40
12.98620554329551
 40
13.43126821204755
 40
13.87292082771092
 40
14.31118022509521
 40
14.74614653656349
 40
15.17800532072561
 40
15.60702303167235
 40
16.03354172596773
 40
16.45797877828844
 40
16.88078920975347
 40
17.30249350532346
 40
17.72363667810562
 40
17.72363667810562
 40
17.72363667810562
 40
17.72363667810562
 10
-13.08295243772278
 20
-1.549999751225867
 30
0.0
 10
-13.30548731832381
 20
-1.546468731409449
 30
0.0
 10
-13.63967434114935
 20
-1.541166097517631
 30
0.0
 10
-14.08405739870733
 20
-1.508518754791382
 30
0.0
 10
-14.41773111877423
 20
-1.475601548745181
 30
0.0
 10
-14.75137631768132
 20
-1.43334144769214
 30
0.0
 10
-15.08499211649288
 20
-1.382300399502951
 30
0.0
 10
-15.41857680135916
 20
-1.322722423870877
 30
0.0
 10
-15.7521298135759
 20
-1.254995633487291
 30
0.0
 10
-16.0856496687144
 20
-1.179535880870857
 30
0.0
 10
-16.41913703340086
 20
-1.096811195391071
 30
0.0
 10
-16.75259101065567
 20
-1.007331686505645
 30
0.0
 10
-17.08601695759537
 20
-0.9116531870650707
 30
0.0
 10
-17.41941649473672
 20
-0.8103638838241197
 30
0.0
 10
-17.75279268799942
 20
-0.704088377574064
 30
0.0
 10
-18.08614924207004
 20
-0.5934823206123536
 30
0.0
 10
-18.41948907850232
 20
-0.4792258795953536
 30
0.0
 10
-18.75281544153392
 20
-0.3620217917799393
 30
0.0
 10
-19.08613186537449
 20
-0.2425913796497772
 30
0.0
 10
-19.41944139489133
 20
-0.1216690562872439
 30
0.0
 10
-19.75274812254942
 20
0.0000002487495366
 30
0.0
 10
-20.08605485013429
 20
0.1216695539341699
 30
0.0
 10
-20.41936437987078
 20
0.242591876853361
 30
0.0
 10
-20.75268080290856
 20
0.3620222906037421
 30
0.0
 10
-21.08600716891693
 20
0.4792263724103555
 30
0.0
 10
-21.41934699431155
 20
0.5934828357073761
 30
0.0
 10
-21.75270358925847
 20
0.7040888101583384
 30
0.0
 10
-22.08608035606598
 20
0.8103648526548241
 30
0.0
 10
-22.4194811886371
 20
0.9116532356311076
 30
0.0
 10
-22.75290773035758
 20
1.007332225678261
 30
0.0
 10
-23.08636169984864
 20
1.096811761188602
 30
0.0
 10
-23.41984769460689
 20
1.179535686499227
 30
0.0
 10
-23.75336532757117
 20
1.25499660641411
 30
0.0
 10
-24.08691697824691
 20
1.322723673469047
 30
0.0
 10
-24.42050147005188
 20
1.382297751197175
 30
0.0
 10
-24.75411751345012
 20
1.433353603301669
 30
0.0
 10
-25.08776484170661
 20
1.475553356388517
 30
0.0
 10
-25.42143684243743
 20
1.508702293433086
 30
0.0
 10
-25.75512948729254
 20
1.53235231451998
 30
0.0
 10
-26.08883424494245
 20
1.547234366096637
 30
0.0
 10
-26.31135834656579
 20
1.549078697167341
 30
0.0
 10
-26.42254632505183
 20
1.550000248774176
 30
0.0
  0
SPLINE
  5
2B65
330
1F
100
AcDbEntity
  8
AM_0
100
AcDbSpline
210
0.0
220
0.0
230
1.0
 70
     8
 71
     3
 72
    55
 73
    51
 74
     0
 42
0.0000000001
 43
0.0000000001
 40
0.0
 40
0.0
 40
0.0
 40
0.0
 40
1.010743684496582
 40
2.022833576467832
 40
3.037578957496688
 40
4.056212745003489
 40
5.079857003664532
 40
6.109500240690281
 40
7.145961322679372
 40
8.189895241603872
 40
9.241717795325891
 40
10.30168407291828
 40
11.36983447792315
 40
12.44600489715814
 40
13.52984294512926
 40
14.62081576220742
 40
15.7182257034828
 40
16.82123173843959
 40
17.92886860250316
 40
19.0400688939571
 40
20.15368796660465
 40
21.26852814259644
 40
22.38336992938901
 40
23.49698739941135
 40
24.6081876908653
 40
25.71582455492886
 40
26.81883757994213
 40
27.91624752121713
 40
29.00722033829659
 40
30.09105838626677
 40
31.16722880550176
 40
32.23537921050758
 40
33.29534548809967
 40
34.347168041821
 40
35.39108718934584
 40
36.42754827133493
 40
37.45720575381954
 40
38.48085062012849
 40
39.49948440763516
 40
40.51422944315121
 40
41.52631975251916
 40
42.53706336719636
 40
43.54780698187354
 40
44.55989729124051
 40
45.57464232675757
 40
46.59327611426424
 40
47.6169209805722
 40
48.64656348684535
 40
49.68302456883444
 40
50.58557219878025
 40
50.58557219878025
 40
50.58557219878025
 40
50.58557219878025
 10
-14.01709977659006
 20
-1.549999751225864
 30
0.0
 10
-14.12828773529739
 20
-1.549077538776909
 30
0.0
 10
-14.35081174372999
 20
-1.547231885586103
 30
0.0
 10
-14.68451677565074
 20
-1.532353848862428
 30
0.0
 10
-15.0182075629619
 20
-1.508701657048586
 30
0.0
 10
-15.35187769808939
 20
-1.475552210660899
 30
0.0
 10
-15.68552385153054
 20
-1.433354748253992
 30
0.0
 10
-16.01913944119271
 20
-1.382296915218564
 30
0.0
 10
-16.35272558300525
 20
-1.322722655316497
 30
0.0
 10
-16.68627931873326
 20
-1.254996772811333
 30
0.0
 10
-17.0197983762679
 20
-1.179535100513135
 30
0.0
 10
-17.35328441801727
 20
-1.096811303538347
 30
0.0
 10
-17.68673833712352
 20
-1.007331657195622
 30
0.0
 10
-18.02016429982625
 20
-0.9116531950128274
 30
0.0
 10
-18.35356383267373
 20
-0.8103638816397907
 30
0.0
 10
-18.68694002719244
 20
-0.7040883782897903
 30
0.0
 10
-19.02029658056947
 20
-0.5934823199484511
 30
0.0
 10
-19.35363641851994
 20
-0.479225881543001
 30
0.0
 10
-19.68696277614495
 20
-0.3620217846164844
 30
0.0
 10
-20.02027922017816
 20
-0.2425914064609424
 30
0.0
 10
-20.35358867412209
 20
-0.1216689559596906
 30
0.0
 10
-20.68689584482251
 20
-0.0000000674821468
 30
0.0
 10
-21.02020151925261
 20
0.1216710111112146
 30
0.0
 10
-21.35351209037718
 20
0.242591578530065
 30
0.0
 10
-21.68682812292678
 20
0.3620223181945623
 30
0.0
 10
-22.02015507486899
 20
0.4792268616164478
 30
0.0
 10
-22.35349629567301
 20
0.5934823249373897
 30
0.0
 10
-22.68685337517476
 20
0.7040889442053397
 30
0.0
 10
-23.0202296178219
 20
0.8103643613768634
 30
0.0
 10
-23.35362913853804
 20
0.9116536960506625
 30
0.0
 10
-23.68705510209454
 20
1.007332158373416
 30
0.0
 10
-24.02050902969412
 20
1.096811783320207
 30
0.0
 10
-24.35399503702409
 20
1.179535664763603
 30
0.0
 10
-24.68751266121634
 20
1.254996670736203
 30
0.0
 10
-25.02106433429975
 20
1.322723440281453
 30
0.0
 10
-25.35465035236915
 20
1.382298898146941
 30
0.0
 10
-25.68826832415845
 20
1.433350899669078
 30
0.0
 10
-26.0219155798722
 20
1.47556142308264
 30
0.0
 10
-26.35558581391445
 20
1.508671575080321
 30
0.0
 10
-26.6892768330841
 20
1.532467398038952
 30
0.0
 10
-27.02298158206275
 20
1.546806140379493
 30
0.0
 10
-27.35669366400088
 20
1.551596239740088
 30
0.0
 10
-27.69040574544799
 20
1.546806140371984
 30
0.0
 10
-28.02411049590253
 20
1.532467398069082
 30
0.0
 10
-28.35780150963836
 20
1.508671574966772
 30
0.0
 10
-28.6914717640533
 20
1.475561423509323
 30
0.0
 10
-29.02511731658446
 20
1.433351103847732
 30
0.0
 10
-29.35873397404592
 20
1.382299420126064
 30
0.0
 10
-29.67715255981284
 20
1.325427788894018
 30
0.0
 10
-29.88374616451234
 20
1.283837027328189
 30
0.0
 10
-29.97959355594674
 20
1.263567820297627
 30
0.0
  0
SPLINE
  5
2B66
330
1F
100
AcDbEntity
  8
AM_0
 48
0.5
100
AcDbSpline
210
0.0
220
0.0
230
1.0
 70
     8
 71
     3
 72
    22
 73
    18
 74
     0
 42
0.0000000001
 43
0.0000000001
 40
0.0
 40
0.0
 40
0.0
 40
0.0
 40
1.010743684496582
 40
2.022833993863546
 40
3.037578683882831
 40
4.056212471389632
 40
5.079857945358201
 40
6.109499720892564
 40
7.145961650132166
 40
8.189873411961459
 40
9.241710626092514
 40
10.30166235592959
 40
11.36982472628033
 40
12.44598212828784
 40
13.52983440361964
 40
14.62080578343036
 40
14.90544694398022
 40
14.90544694398022
 40
14.90544694398022
 40
14.90544694398022
 10
-27.60813707302666
 20
-1.549999751225821
 30
0.0
 10
-27.71932505298012
 20
-1.549077814289706
 30
0.0
 10
-27.94184914984934
 20
-1.547232712110818
 30
0.0
 10
-28.27555383210988
 20
-1.532350530938762
 30
0.0
 10
-28.60924498050975
 20
-1.508702321055622
 30
0.0
 10
-28.94291529306134
 20
-1.475552844108938
 30
0.0
 10
-29.27656053776137
 20
-1.433351444862376
 30
0.0
 10
-29.61017723392279
 20
-1.382297903673878
 30
0.0
 10
-29.94376049287692
 20
-1.322722224484786
 30
0.0
 10
-30.27731260845866
 20
-1.254993990518511
 30
0.0
 10
-30.61083057654029
 20
-1.179536085545312
 30
0.0
 10
-30.94431614005394
 20
-1.096807754874696
 30
0.0
 10
-31.2777714487562
 20
-1.007335436698572
 30
0.0
 10
-31.611196252183
 20
-0.9116510401608493
 30
0.0
 10
-31.94459679665523
 20
-0.8103641181889036
 30
0.0
 10
-32.1951706053322
 20
-0.7304884213743886
 30
0.0
 10
-32.33479907564358
 20
-0.6848340406104166
 30
0.0
 10
-32.36366960030387
 20
-0.6753474666592921
 30
0.0
  0
SPLINE
  5
2B67
330
1F
100
AcDbEntity
  8
AM_0
100
AcDbSpline
210
0.0
220
0.0
230
1.0
 70
     8
 71
     3
 72
    13
 73
     9
 74
     0
 42
0.0000000001
 43
0.0000000001
 40
16.03460056234195
 40
16.03460056234195
 40
16.03460056234195
 40
16.03460056234195
 40
16.35212717791071
 40
17.38177067057215
 40
18.41822498539278
 40
19.46214186516937
 40
20.5139635832251
 40
21.34083983469381
 40
21.34083983469381
 40
21.34083983469381
 40
21.34083983469381
 10
-32.27997433918696
 20
-1.550140716894591
 30
0.0
 10
-32.24569023433727
 20
-1.544908343951687
 30
0.0
 10
-32.10037907165052
 20
-1.522122786574479
 30
0.0
 10
-31.84441224502276
 20
-1.477476218211623
 30
0.0
 10
-31.51293431204901
 20
-1.411088218482335
 30
0.0
 10
-31.18176432434455
 20
-1.336545304004489
 30
0.0
 10
-30.87532314096569
 20
-1.26035575498383
 30
0.0
 10
-30.67981906236997
 20
-1.207893828354319
 30
0.0
 10
-30.59405259482818
 20
-1.184180559484616
 30
0.0
  0
SPLINE
  5
2B68
330
1F
100
AcDbEntity
  8
AM_0
100
AcDbSpline
210
0.0
220
0.0
230
1.0
 70
     8
 71
     3
 72
    23
 73
    19
 74
     0
 42
0.0000000001
 43
0.0000000001
 40
16.03460024169435
 40
16.03460024169435
 40
16.03460024169435
 40
16.03460024169435
 40
16.35212704903564
 40
17.38177054169784
 40
18.41822485651776
 40
19.46214173629503
 40
20.51396345435107
 40
21.57393551351153
 40
22.64208202342361
 40
23.7182574881101
 40
24.80209208578934
 40
25.89306333925047
 40
26.99048218457928
 40
28.09348763352352
 40
29.20111863782268
 40
30.31232390128032
 40
31.42594612798585
 40
32.5407912310448
 40
32.5407912310486
 40
32.5407912310486
 40
32.5407912310486
 10
-31.36830733041406
 20
1.550220454403774
 30
0.0
 10
-31.33402323945774
 20
1.544987927358178
 30
0.0
 10
-31.18871219701289
 20
1.522201744801589
 30
0.0
 10
-30.9327452308536
 20
1.477555697691816
 30
0.0
 10
-30.60126733959483
 20
1.411167513883997
 30
0.0
 10
-30.27009734059314
 20
1.336624649257737
 30
0.0
 10
-29.93921566474914
 20
1.254358519892668
 30
0.0
 10
-29.60861056848581
 20
1.164827761301694
 30
0.0
 10
-29.27826294362095
 20
1.068544169057221
 30
0.0
 10
-28.94814978600152
 20
0.9660680895147402
 30
0.0
 10
-28.61825233741228
 20
0.8579798387379696
 30
0.0
 10
-28.28854414877855
 20
0.7449083570730492
 30
0.0
 10
-27.95899850093864
 20
0.6275108648237627
 30
0.0
 10
-27.62959343720595
 20
0.5064623483543615
 30
0.0
 10
-27.30030139665885
 20
0.3824666882111951
 30
0.0
 10
-26.97109187988049
 20
0.2562479280792043
 30
0.0
 10
-26.64193807992305
 20
0.128537471494519
 30
0.0
 10
-26.422561153682
 20
0.042914593490079
 30
0.0
 10
-26.31281286512042
 20
0.0000790858506395
 30
0.0
  0
ELLIPSE
  5
2B69
330
1F
100
AcDbEntity
  8
AM_0
 48
0.5
100
AcDbEllipse
 10
-0.6252807090394452
 20
-0.4039520636954599
 30
0.0
 11
-0.0711787691353887
 21
0.2515046325192873
 31
0.0
210
0.0
220
0.0
230
1.0
 40
0.6238880224581506
 41
1.719030338923623
 42
4.854372228635599
  0
ELLIPSE
  5
2B6A
330
1F
100
AcDbEntity
  8
AM_0
 48
0.5
100
AcDbEllipse
 10
-0.6252807090394452
 20
-0.4039520636954599
 30
0.0
 11
-0.2932942599014086
 21
0.115665912033472
 31
0.0
210
0.0
220
0.0
230
0.9999999999999998
 40
0.4288242339354038
 41
4.370331907883885
 42
7.513772249213392
  0
SPLINE
  5
2B6B
330
1F
100
AcDbEntity
  8
AM_0
 48
0.5
100
AcDbSpline
210
0.0
220
0.0
230
1.0
 70
     8
 71
     3
 72
    17
 73
    13
 74
     0
 42
0.0000000001
 43
0.0000000001
 40
0.0
 40
0.0
 40
0.0
 40
0.0
 40
1.010743614677189
 40
2.022833924044153
 40
3.037578959561199
 40
4.056212747067873
 40
5.079857613375832
 40
6.109500119648989
 40
7.14596120163808
 40
8.18989512056258
 40
9.241717674284874
 40
9.693948937866434
 40
9.693948937866434
 40
9.693948937866434
 40
9.693948937866434
 10
-2.137266447884776
 20
1.550000248774129
 30
0.0
 10
-2.248454426826992
 20
1.549078700916308
 30
0.0
 10
-2.47097852936319
 20
1.547234377348645
 30
0.0
 10
-2.804683280152778
 20
1.532352269392523
 30
0.0
 10
-3.138374292511476
 20
1.50870258097982
 30
0.0
 10
-3.472044552129013
 20
1.475553069534594
 30
0.0
 10
-3.805690085089269
 20
1.433353318522081
 30
0.0
 10
-4.139306816241875
 20
1.382298981090646
 30
0.0
 10
-4.472890267889602
 20
1.322718710894603
 30
0.0
 10
-4.806453384409415
 20
1.255013617657216
 30
0.0
 10
-5.075714230148578
 20
1.194021563056731
 30
0.0
 10
-5.233839985820728
 20
1.155892757890196
 30
0.0
 10
-5.281300854121838
 20
1.144221785874145
 30
0.0
  0
SPLINE
  5
2B6C
330
1F
100
AcDbEntity
  8
AM_0
 48
0.5
100
AcDbSpline
210
0.0
220
0.0
230
1.0
 70
     8
 71
     3
 72
    25
 73
    21
 74
     0
 42
0.0000000001
 43
0.0000000001
 40
6.846175049578289
 40
6.846175049578289
 40
6.846175049578289
 40
6.846175049578289
 40
7.604337694224321
 40
8.711974558287883
 40
9.814980593243754
 40
10.91239053451967
 40
12.0033633515982
 40
13.08720139956839
 40
14.16337181880432
 40
15.23152222380919
 40
16.29148850140128
 40
17.34331105512262
 40
18.38723020264746
 40
19.42369128463655
 40
20.45333379090873
 40
21.47697865721768
 40
22.49561244472435
 40
23.5103574802404
 40
24.52244778960836
 40
25.53320666051913
 40
25.53320666051913
 40
25.53320666051913
 40
25.53320666051913
 10
-2.330607839498519
 20
0.2806215863477748
 30
0.0
 10
-2.541723708966933
 20
0.3140785005157992
 30
0.0
 10
-2.788971981758105
 20
0.3744786262082602
 30
0.0
 10
-3.086873329796738
 20
0.4792263269063544
 30
0.0
 10
-3.420213129515786
 20
0.5934828314099376
 30
0.0
 10
-3.753569693109855
 20
0.7040888720273481
 30
0.0
 10
-4.086945884733093
 20
0.8103643806199599
 30
0.0
 10
-4.420345419018987
 20
0.9116536906276213
 30
0.0
 10
-4.753771378866
 20
1.007332160992971
 30
0.0
 10
-5.087225307860721
 20
1.096811778262576
 30
0.0
 10
-5.420711313300116
 20
1.179535682201653
 30
0.0
 10
-5.754228943604336
 20
1.254996606723187
 30
0.0
 10
-6.087780594360531
 20
1.322723676448259
 30
0.0
 10
-6.421365088449584
 20
1.382297739101793
 30
0.0
 10
-6.754981122721872
 20
1.433353648302968
 30
0.0
 10
-7.088626840760969
 20
1.475552981803965
 30
0.0
 10
-7.422297051173466
 20
1.508702604537119
 30
0.0
 10
-7.755988076575012
 20
1.532352262379866
 30
0.0
 10
-8.089694500154735
 20
1.547234456679139
 30
0.0
 10
-8.312220283201025
 20
1.549078722707518
 30
0.0
 10
-8.423409941536991
 20
1.550000248774149
 30
0.0
  0
SPLINE
  5
2B6D
330
1F
100
AcDbEntity
  8
AM_0
 48
0.5
100
AcDbSpline
210
0.0
220
0.0
230
1.0
 70
     8
 71
     3
 72
    10
 73
     6
 74
     0
 42
0.0000000001
 43
0.0000000001
 40
0.0
 40
0.0
 40
0.0
 40
0.0
 40
2.69986029516136
 40
4.147722969032201
 40
6.285750005020438
 40
6.285750005020438
 40
6.285750005020438
 40
6.285750005020438
 10
-2.330577960414822
 20
0.2805419866484502
 30
0.0
 10
-1.976183082909743
 20
0.1365362756657078
 30
0.0
 10
-1.611311121976611
 20
-0.0846958363014926
 30
0.0
 10
-0.7484379485024424
 20
0.0224065047614663
 30
0.0
 10
-0.910942065281285
 20
0.3831413612106301
 30
0.0
 10
-1.018314402835239
 20
0.6030203665509337
 30
0.0
  0
SPLINE
  5
2B6E
330
1F
100
AcDbEntity
  8
AM_0
100
AcDbSpline
210
0.0
220
0.0
230
1.0
 70
     8
 71
     3
 72
    46
 73
    42
 74
     0
 42
0.0000000001
 43
0.0000000001
 40
0.0
 40
0.0
 40
0.0
 40
0.0
 40
0.8427075293422856
 40
1.265518104770559
 40
1.68994884956506
 40
2.116467290673827
 40
2.54548530610122
 40
2.977344090263341
 40
3.412310401731622
 40
3.850575907619845
 40
4.292228523283339
 40
4.737291192035371
 40
5.185695533383685
 40
5.63729472003792
 40
6.091866727153825
 40
6.549120869352286
 40
7.008706717250554
 40
7.470222077277051
 40
7.933222198716569
 40
8.397230145652669
 40
8.861746885649248
 40
9.326263625646204
 40
9.790271572582303
 40
10.25327169402144
 40
10.71478705404793
 40
11.17437290194659
 40
11.6316270441445
 40
12.08619905126056
 40
12.53780120194721
 40
12.98620554329551
 40
13.43126821204755
 40
13.87292082771091
 40
14.3111802250952
 40
14.74614653656348
 40
15.17800532072561
 40
15.60702303167234
 40
16.03354172596774
 40
16.45797877828845
 40
16.88078920975347
 40
17.30249350532345
 40
17.72363667810562
 40
17.72363667810562
 40
17.72363667810562
 40
17.72363667810562
 10
-1.203119109017519
 20
-1.549999751225873
 30
0.0
 10
-1.425653989618549
 20
-1.546468731409456
 30
0.0
 10
-1.759841012444082
 20
-1.541166097517638
 30
0.0
 10
-2.20422407000207
 20
-1.508518754791389
 30
0.0
 10
-2.537897790068972
 20
-1.475601548745189
 30
0.0
 10
-2.871542988976054
 20
-1.433341447692147
 30
0.0
 10
-3.205158787787622
 20
-1.382300399502957
 30
0.0
 10
-3.538743472653891
 20
-1.322722423870884
 30
0.0
 10
-3.872296484870636
 20
-1.254995633487296
 30
0.0
 10
-4.205816340009135
 20
-1.179535880870866
 30
0.0
 10
-4.539303704695592
 20
-1.096811195391076
 30
0.0
 10
-4.8727576819504
 20
-1.007331686505652
 30
0.0
 10
-5.206183628890099
 20
-0.911653187065076
 30
0.0
 10
-5.539583166031452
 20
-0.8103638838241289
 30
0.0
 10
-5.872959359294147
 20
-0.7040883775740678
 30
0.0
 10
-6.206315913364772
 20
-0.5934823206123622
 30
0.0
 10
-6.539655749797059
 20
-0.4792258795953586
 30
0.0
 10
-6.872982112828656
 20
-0.3620217917799477
 30
0.0
 10
-7.206298536669216
 20
-0.242591379649783
 30
0.0
 10
-7.539608066186072
 20
-0.1216690562872506
 30
0.0
 10
-7.872914793844159
 20
0.00000024874953
 30
0.0
 10
-8.206221521429023
 20
0.1216695539341632
 30
0.0
 10
-8.539531051165509
 20
0.2425918768533543
 30
0.0
 10
-8.872847474203284
 20
0.3620222906037354
 30
0.0
 10
-9.206173840211674
 20
0.4792263724103496
 30
0.0
 10
-9.539513665606275
 20
0.5934828357073685
 30
0.0
 10
-9.872870260553204
 20
0.7040888101583319
 30
0.0
 10
-10.20624702736071
 20
0.8103648526548179
 30
0.0
 10
-10.53964785993183
 20
0.9116532356310999
 30
0.0
 10
-10.87307440165232
 20
1.007332225678256
 30
0.0
 10
-11.20652837114337
 20
1.096811761188595
 30
0.0
 10
-11.54001436590162
 20
1.17953568649922
 30
0.0
 10
-11.87353199886591
 20
1.254996606414103
 30
0.0
 10
-12.20708364954163
 20
1.322723673469041
 30
0.0
 10
-12.5406681413466
 20
1.382297751197168
 30
0.0
 10
-12.87428418474485
 20
1.433353603301662
 30
0.0
 10
-13.20793151300135
 20
1.47555335638851
 30
0.0
 10
-13.54160351373215
 20
1.508702293433079
 30
0.0
 10
-13.87529615858728
 20
1.532352314519973
 30
0.0
 10
-14.20900091623718
 20
1.547234366096631
 30
0.0
 10
-14.43152501786052
 20
1.549078697167334
 30
0.0
 10
-14.54271299634656
 20
1.550000248774169
 30
0.0
  0
SPLINE
  5
2B6F
330
1F
100
AcDbEntity
  8
AM_0
100
AcDbSpline
210
0.0
220
0.0
230
1.0
 70
     8
 71
     3
 72
    55
 73
    51
 74
     0
 42
0.0000000001
 43
0.0000000001
 40
0.0
 40
0.0
 40
0.0
 40
0.0
 40
1.010743684496582
 40
2.022833576467832
 40
3.037578957496688
 40
4.056212745003489
 40
5.079857003664532
 40
6.109500240690281
 40
7.145961322679372
 40
8.189895241603872
 40
9.241717795325891
 40
10.30168407291828
 40
11.36983447792315
 40
12.44600489715814
 40
13.52984294512926
 40
14.62081576220742
 40
15.7182257034828
 40
16.82123173843959
 40
17.92886860250316
 40
19.0400688939571
 40
20.15368796660465
 40
21.26852814259644
 40
22.38336992938901
 40
23.49698739941135
 40
24.6081876908653
 40
25.71582455492886
 40
26.81883757994213
 40
27.91624752121713
 40
29.00722033829659
 40
30.09105838626677
 40
31.16722880550176
 40
32.23537921050758
 40
33.29534548809967
 40
34.347168041821
 40
35.39108718934584
 40
36.42754827133493
 40
37.45720575381954
 40
38.48085062012849
 40
39.49948440763516
 40
40.51422944315121
 40
41.52631975251916
 40
42.53706336719636
 40
43.54780698187354
 40
44.55989729124051
 40
45.57464232675757
 40
46.59327611426424
 40
47.6169209805722
 40
48.64656348684535
 40
49.68302456883444
 40
50.58557219878025
 40
50.58557219878025
 40
50.58557219878025
 40
50.58557219878025
 10
-2.13726644788479
 20
-1.549999751225871
 30
0.0
 10
-2.248454406592126
 20
-1.549077538776916
 30
0.0
 10
-2.470978415024733
 20
-1.54723188558611
 30
0.0
 10
-2.804683446945478
 20
-1.532353848862435
 30
0.0
 10
-3.13837423425663
 20
-1.508701657048593
 30
0.0
 10
-3.472044369384127
 20
-1.475552210660906
 30
0.0
 10
-3.805690522825274
 20
-1.433354748253998
 30
0.0
 10
-4.139306112487441
 20
-1.382296915218571
 30
0.0
 10
-4.472892254299988
 20
-1.322722655316503
 30
0.0
 10
-4.806445990028
 20
-1.25499677281134
 30
0.0
 10
-5.139965047562632
 20
-1.179535100513142
 30
0.0
 10
-5.473451089312007
 20
-1.096811303538353
 30
0.0
 10
-5.806905008418249
 20
-1.007331657195629
 30
0.0
 10
-6.140330971120979
 20
-0.911653195012834
 30
0.0
 10
-6.473730503968459
 20
-0.8103638816397973
 30
0.0
 10
-6.807106698487165
 20
-0.704088378289797
 30
0.0
 10
-7.140463251864205
 20
-0.5934823199484579
 30
0.0
 10
-7.473803089814675
 20
-0.4792258815430074
 30
0.0
 10
-7.807129447439685
 20
-0.3620217846164913
 30
0.0
 10
-8.140445891472898
 20
-0.2425914064609492
 30
0.0
 10
-8.473755345416829
 20
-0.1216689559596972
 30
0.0
 10
-8.807062516117245
 20
-0.0000000674821534
 30
0.0
 10
-9.140368190547347
 20
0.1216710111112079
 30
0.0
 10
-9.473678761671916
 20
0.2425915785300583
 30
0.0
 10
-9.806994794221514
 20
0.3620223181945557
 30
0.0
 10
-10.14032174616372
 20
0.4792268616164412
 30
0.0
 10
-10.47366296696774
 20
0.593482324937383
 30
0.0
 10
-10.8070200464695
 20
0.7040889442053332
 30
0.0
 10
-11.14039628911663
 20
0.8103643613768568
 30
0.0
 10
-11.47379580983277
 20
0.9116536960506557
 30
0.0
 10
-11.80722177338927
 20
1.007332158373409
 30
0.0
 10
-12.14067570098885
 20
1.0968117833202
 30
0.0
 10
-12.47416170831882
 20
1.179535664763597
 30
0.0
 10
-12.80767933251106
 20
1.254996670736196
 30
0.0
 10
-13.14123100559448
 20
1.322723440281446
 30
0.0
 10
-13.47481702366388
 20
1.382298898146935
 30
0.0
 10
-13.80843499545318
 20
1.433350899669071
 30
0.0
 10
-14.14208225116693
 20
1.475561423082633
 30
0.0
 10
-14.47575248520918
 20
1.508671575080314
 30
0.0
 10
-14.80944350437883
 20
1.532467398038945
 30
0.0
 10
-15.14314825335748
 20
1.546806140379486
 30
0.0
 10
-15.47686033529561
 20
1.551596239740081
 30
0.0
 10
-15.81057241674272
 20
1.546806140371977
 30
0.0
 10
-16.14427716719726
 20
1.532467398069075
 30
0.0
 10
-16.4779681809331
 20
1.508671574966765
 30
0.0
 10
-16.81163843534803
 20
1.475561423509317
 30
0.0
 10
-17.14528398787919
 20
1.433351103847726
 30
0.0
 10
-17.47890064534066
 20
1.382299420126057
 30
0.0
 10
-17.79731923110756
 20
1.325427788894012
 30
0.0
 10
-18.00391283580707
 20
1.283837027328182
 30
0.0
 10
-18.09976022724147
 20
1.263567820297621
 30
0.0
  0
SPLINE
  5
2B70
330
1F
100
AcDbEntity
  8
AM_0
100
AcDbSpline
210
0.0
220
0.0
230
1.0
 70
     8
 71
     3
 72
    11
 73
     7
 74
     0
 42
0.0000000001
 43
0.0000000001
 40
11.27226913003534
 40
11.27226913003534
 40
11.27226913003534
 40
11.2722691300354
 40
12.28301561507924
 40
13.29510212255852
 40
14.30984805882082
 40
15.18258238371378
 40
15.18258238371378
 40
15.18258238371378
 40
15.18258238371378
 10
-8.423409941536993
 20
-1.54999975122585
 30
0.0
 10
-8.534175107424957
 20
-1.542413600798792
 30
0.0
 10
-8.755496515035277
 20
-1.524047860777629
 30
0.0
 10
-9.086335763962109
 20
-1.486999620399921
 30
0.0
 10
-9.400308044798038
 20
-1.442749559449879
 30
0.0
 10
-9.603366886239573
 20
-1.408733220631285
 30
0.0
 10
-9.696942182471053
 20
-1.391930088820035
 30
0.0
  0
SPLINE
  5
2B71
330
1F
100
AcDbEntity
  8
AM_0
100
AcDbSpline
210
0.0
220
0.0
230
1.0
 70
     8
 71
     3
 72
    22
 73
    18
 74
     0
 42
0.0000000001
 43
0.0000000001
 40
17.17441611292
 40
17.17441611292
 40
17.17441611292
 40
17.17441611292
 40
17.38177636558528
 40
18.41823744757437
 40
19.46215659509824
 40
20.51397914882054
 40
21.57394542641293
 40
22.64209583141747
 40
23.71826625065247
 40
24.80210429862395
 40
25.8930771157021
 40
26.99048705697709
 40
28.09349309193389
 40
29.20112995599786
 40
30.31233024745139
 40
31.42594771747373
 40
32.5407895042663
 40
32.54078950426994
 40
32.54078950426994
 40
32.54078950426994
 10
-9.697088123183512
 20
-1.391910969581887
 30
0.0
 10
-9.719433487374971
 20
-1.38832287160863
 30
0.0
 10
-9.853381742188595
 20
-1.366467374664748
 30
0.0
 10
-10.09876739705304
 20
-1.322644258736003
 30
0.0
 10
-10.4323190224405
 20
-1.254917294611207
 30
0.0
 10
-10.76583665961749
 20
-1.179456341472451
 30
0.0
 10
-11.09932266319984
 20
-1.096732445300004
 30
0.0
 10
-11.43277659267573
 20
-1.007252825886218
 30
0.0
 10
-11.76620255247636
 20
-0.9115743562507574
 30
0.0
 10
-12.09960208645765
 20
-0.810285045483384
 30
0.0
 10
-12.43297827935811
 20
-0.7040095392135884
 30
0.0
 10
-12.76633483810962
 20
-0.5934034899990272
 30
0.0
 10
-13.09967465604599
 20
-0.4791470177811305
 30
0.0
 10
-13.43300108877142
 20
-0.3619430476840069
 30
0.0
 10
-13.76631709093461
 20
-0.2425122514564884
 30
0.0
 10
-14.09962760032226
 20
-0.1215915816645996
 30
0.0
 10
-14.32179099000641
 20
-0.0404926534197507
 30
0.0
 10
-14.4329337147311
 20
0.0000790858511907
 30
0.0
  0
SPLINE
  5
2B72
330
1F
100
AcDbEntity
  8
AM_0
100
AcDbSpline
210
0.0
220
0.0
230
1.0
 70
     8
 71
     3
 72
    17
 73
    13
 74
     0
 42
0.0000000001
 43
0.0000000001
 40
1.580019955310467
 40
1.580019955310467
 40
1.580019955310467
 40
1.580019955310467
 40
2.030549285115227
 40
3.082371838836284
 40
4.126290986361125
 40
5.162752068350215
 40
6.192395305374981
 40
7.216039564037012
 40
8.234688489606833
 40
9.249433870634691
 40
10.26152376260694
 40
11.27226744710342
 40
11.27226744710342
 40
11.27226744710342
 40
11.27226744710352
 10
-5.280092974136612
 20
-1.143945393440918
 30
0.0
 10
-5.327306666110084
 20
-1.155727083236737
 30
0.0
 10
-5.485016259317101
 20
-1.194343145212149
 30
0.0
 10
-5.754265645263882
 20
-1.254913820127256
 30
0.0
 10
-6.087770841028244
 20
-1.322744940782508
 30
0.0
 10
-6.421367850460752
 20
-1.382291658668331
 30
0.0
 10
-6.754980145191779
 20
-1.433354002522751
 30
0.0
 10
-7.088628786384408
 20
-1.475560542390624
 30
0.0
 10
-7.422300478404245
 20
-1.508670424159435
 30
0.0
 10
-7.755992947494647
 20
-1.532469084716619
 30
0.0
 10
-8.089697972337322
 20
-1.546803329320385
 30
0.0
 10
-8.31222198429654
 20
-1.549999760095032
 30
0.0
 10
-8.423409941536977
 20
-1.54999975122585
 30
0.0
  0
ELLIPSE
  5
2B73
330
1F
100
AcDbEntity
  8
AM_0
 48
0.5
100
AcDbEllipse
 10
-32.34000101040457
 20
-1.033333084559147
 30
0.0
 11
-0.6600000000000002
 21
0.0000000000000175
 31
0.0
210
0.0
220
0.0
230
1.0
 40
0.7828282828282818
 41
0.0000000000000286
 42
1.570796012878417
  0
ELLIPSE
  5
2B74
330
1F
100
AcDbEntity
  8
AM_0
 48
0.5
100
AcDbEllipse
 10
-32.5051218600138
 20
-1.049074877873739
 30
0.0
 11
-0.4949999999999904
 21
0.0000000000000007
 31
0.0
210
0.0
220
0.0
230
1.0
 40
0.7828282828282994
 41
4.317028824483083
 42
6.283185307179584
  0
SPLINE
  5
2B75
330
1F
100
AcDbEntity
  8
AM_0
 48
0.5
100
AcDbSpline
210
0.0
220
0.0
230
1.0
 70
     8
 71
     3
 72
    26
 73
    22
 74
     0
 42
0.0000000001
 43
0.0000000001
 40
0.0
 40
0.0
 40
0.0
 40
0.0
 40
0.4211432018735474
 40
0.8428473235286537
 40
1.265657898956934
 40
1.690088643751428
 40
2.116607084860617
 40
2.545625100287603
 40
2.977483884449724
 40
3.412450195918404
 40
3.850709593302191
 40
4.292362208965671
 40
4.737427885281768
 40
5.185826256336565
 40
5.637431371058531
 40
6.092003378174421
 40
6.549257520372505
 40
7.008843368271169
 40
7.470358728297647
 40
7.933358849736796
 40
8.383035712276667
 40
8.383035712276667
 40
8.383035712276667
 40
8.383035712276667
 10
-26.42259214673737
 20
-1.549999751225824
 30
0.0
 10
-26.53378010545808
 20
-1.549077538817056
 30
0.0
 10
-26.75630411391756
 20
-1.547231885706672
 30
0.0
 10
-27.09000914563715
 20
-1.532353848378682
 30
0.0
 10
-27.42369993371584
 20
-1.508701658870742
 30
0.0
 10
-27.75737006595823
 20
-1.475552203815307
 30
0.0
 10
-28.09101623024855
 20
-1.433354774002636
 30
0.0
 10
-28.42463177906093
 20
-1.38229681824202
 30
0.0
 10
-28.7582164904558
 20
-1.322723303893201
 30
0.0
 10
-29.09176808939275
 20
-1.254996050478703
 30
0.0
 10
-29.42528578732352
 20
-1.179535294290014
 30
0.0
 10
-29.75877232911124
 20
-1.096810709350222
 30
0.0
 10
-30.09222633289659
 20
-1.007333093306395
 30
0.0
 10
-30.42565157680728
 20
-0.9116513240434269
 30
0.0
 10
-30.75905251896874
 20
-0.8103649325029358
 30
0.0
 10
-31.092429879735
 20
-0.7040883480378481
 30
0.0
 10
-31.42578614425921
 20
-0.593481842740318
 30
0.0
 10
-31.75912743423688
 20
-0.4792278348679321
 30
0.0
 10
-32.09244824083318
 20
-0.362014409071655
 30
0.0
 10
-32.42234511856613
 20
-0.243851354600661
 30
0.0
 10
-32.64091421207569
 20
-0.1644685857419485
 30
0.0
 10
-33.00000101040456
 20
-0.0422743621439491
 30
0.0
  0
ELLIPSE
  5
2B77
330
1F
100
AcDbEntity
  8
AM_0
 48
0.5
100
AcDbEllipse
 10
2.790271909704657
 20
2.009522195823107
 30
0.0
 11
3.665247657849054
 21
0.2244004417932865
 31
0.0
210
0.0
220
0.0
230
1.0
 40
0.6391101187018299
 41
3.326796296840896
 42
3.722367000840705
  0
LINE
  5
2B9A
330
1F
100
AcDbEntity
  8
AM_0
100
AcDbLine
 10
-38.22091180833877
 20
1.550193222821936
 30
0.0
 11
-38.22091180833877
 21
-1.549999751225803
 31
0.0
  0
ELLIPSE
  5
2CD5
330
1F
100
AcDbEntity
  8
AM_0
 48
0.5
100
AcDbEllipse
 10
2.790271909704653
 20
-2.009522195823081
 30
0.0
 11
3.665247657849054
 21
-0.2244004417932884
 31
0.0
210
0.0
220
0.0
230
-1.0
 40
0.6391101187018299
 41
3.326796296840899
 42
3.722367000840705
  0
LINE
  5
2CD6
330
1F
100
AcDbEntity
  8
AM_0
 48
0.5
100
AcDbLine
 10
-0.7858858157510805
 20
-1.357596214423797
 30
0.0
 11
-0.9999962234496628
 21
-1.550001234237485
 31
0.0
  0
DIMENSION
  5
2D9D
330
1F
100
AcDbEntity
  8
AM_5
100
AcDbDimension
  2
*D10
 10
-0.1953291676508637
 20
-0.5366583074447903
 30
0.0
 11
12.64880504955032
 21
-0.0000157942365336
 31
0.0
 70
    34
  1
<>
  3
AM_JIS$2
100
AcDb2LineAngularDimension
 13
0.0000000000000025
 23
0.0000000000000069
 33
0.0
 14
-0.1953259571887222
 24
0.5366536568093396
 34
0.0
 15
0.0000000000000025
 25
0.0000000000000069
 35
0.0
 16
13.03756681337591
 26
-5.623870235182769
 36
0.0
1001
ACAD
1000
DSTYLE
1002
{
1070
   179
1070
     3
1002
}
1001
GENIUS_GENDTOL_13
1000

1000
h7
1000

1040
0.0
  0
VIEWPORT
  5
110
330
101
100
AcDbEntity
 67
     1
  8
0
100
AcDbViewport
 10
420.5
 20
297.0
 30
0.0
 40
948.9782706766916
 41
628.452
 68
     1
 69
     1
1001
ACAD
1000
MVIEW
1002
{
1070
    16
1010
0.0
1020
0.0
1030
0.0
1010
0.0
1020
0.0
1030
1.0
1040
0.0
1040
628.452
1040
420.5
1040
297.0
1040
50.0
1040
0.0
1040
0.0
1070
     0
1070
   100
1070
     1
1070
     1
1070
     0
1070
     0
1070
     0
1070
     0
1040
0.0
1040
0.0
1040
0.0
1040
10.0
1040
10.0
1040
10.0
1040
10.0
1070
     0
1002
{
1002
}
1002
}
  0
ENDSEC
  0
SECTION
  2
OBJECTS
  0
DICTIONARY
  5
C
330
0
100
AcDbDictionary
  3
ACAD_GROUP
350
D
  3
ACAD_LAYOUT
350
1A
  3
ACAD_MLINESTYLE
350
17
  3
ACAD_PLOTSETTINGS
350
19
  3
ACAD_PLOTSTYLENAME
350
E
  3
ACDBVARIABLEDICTIONARY
350
34
  3
ACMDICTIONARY
350
43
  3
AMG
350
2B
  3
AMGSNAPSETTINGS
350
6E
  3
DWGPROPS
350
2F50
  3
ACDBHEADERROUNDTRIPXREC
350
2F5D
  0
DICTIONARY
  5
74
330
1F
100
AcDbDictionary
280
     1
  3
ACAD_INDEX
360
2F52
  3
ACAD_LAYOUTSELFREF
360
2F80
  0
DICTIONARY
  5
2F85
330
101
100
AcDbDictionary
280
     1
  3
ACAD_LAYOUTSELFREF
360
2F86
  0
DICTIONARY
  5
D
102
{ACAD_REACTORS
330
C
102
}
330
C
100
AcDbDictionary
  0
DICTIONARY
  5
1A
102
{ACAD_REACTORS
330
C
102
}
330
C
100
AcDbDictionary
  0
DICTIONARY
  5
17
102
{ACAD_REACTORS
330
C
102
}
330
C
100
AcDbDictionary
  3
STANDARD
350
18
  0
DICTIONARY
  5
19
102
{ACAD_REACTORS
330
C
102
}
330
C
100
AcDbDictionary
  0
ACDBDICTIONARYWDFLT
  5
E
102
{ACAD_REACTORS
330
C
102
}
330
C
100
AcDbDictionary
281
     1
  3
Normal
350
F
100
AcDbDictionaryWithDefault
340
F
  0
DICTIONARY
  5
34
102
{ACAD_REACTORS
330
C
102
}
330
C
100
AcDbDictionary
  3
INDEXCTL
350
35
  3
SORTENTS
350
B5E
  0
DICTIONARY
  5
43
102
{ACAD_REACTORS
330
C
102
}
330
C
100
AcDbDictionary
  3
ACMSTDDICTIONARY
350
260
  0
DICTIONARY
  5
2B
102
{ACAD_REACTORS
330
C
102
}
330
C
100
AcDbDictionary
  3
ACMGSETTINGS
350
2C
  0
DICTIONARY
  5
6E
102
{ACAD_REACTORS
330
C
102
}
330
C
100
AcDbDictionary
  0
XRECORD
  5
2F50
102
{ACAD_REACTORS
330
C
102
}
330
C
100
AcDbXrecord
  1
DWGPROPS COOKIE
  2

  3

  4

  6

  7

  8

  9

300
AmdtFileType=82
301
=
302
=
303
=
304
=
305
=
306
=
307
=
308
=
309
=
 40
0.0862329745370371
 41
2452800.443498622
 42
2452946.674170822
  1

 90
        1
  0
DICTIONARY
  5
2F5D
102
{ACAD_REACTORS
330
C
102
}
330
C
100
AcDbDictionary
  3
TSTACKALIGN
350
2F5E
  3
TSTACKSIZE
350
2F5F
  3
HYPERLINKBASE
350
2F60
  3
STYLESHEET
350
2F61
  3
LAYOUTDICT
350
2F62
  3
PLOTSETDICT
350
2F63
  3
PLOTSTYLNAMDICT
350
2F64
  3
LWETCUNION
350
2F65
  3
INSUNITS
350
2F66
  3
CEPSNTYPE
350
2F67
  3
FINGERPRINTGUID
350
2F68
  3
VERSIONGUID
350
2F69
  3
PSVPSCALE
350
2F6A
  3
DIMSTYLEDATA
350
2F6B
  3
PUCSORTHOREF
350
2F6C
  3
PUCSORTHOVIEW
350
2F6D
  3
PUCSBASE
350
2F6E
  3
PUCSORGTOP
350
2F6F
  3
PUCSORGBOTTOM
350
2F70
  3
PUCSORGLEFT
350
2F71
  3
PUCSORGRIGHT
350
2F72
  3
PUCSORGFRONT
350
2F73
  3
PUCSORGBACK
350
2F74
  3
UCSORTHOREF
350
2F75
  3
UCSORTHOVIEW
350
2F76
  3
UCSBASE
350
2F77
  3
UCSORGTOP
350
2F78
  3
UCSORGBOTTOM
350
2F79
  3
UCSORGLEFT
350
2F7A
  3
UCSORGRIGHT
350
2F7B
  3
UCSORGFRONT
350
2F7C
  3
UCSORGBACK
350
2F7D
  0
DICTIONARY
  5
2F52
102
{ACAD_REACTORS
330
74
102
}
330
74
100
AcDbDictionary
  3
*A1
350
2F53
  0
XRECORD
  5
2F80
102
{ACAD_REACTORS
330
74
102
}
330
74
100
AcDbXrecord
340
1F
  0
XRECORD
  5
2F86
102
{ACAD_REACTORS
330
2F85
102
}
330
2F85
100
AcDbXrecord
340
101
  0
MLINESTYLE
  5
18
102
{ACAD_REACTORS
330
17
102
}
330
17
100
AcDbMlineStyle
  2
STANDARD
 70
     0
  3

 62
   256
 51
90.0
 52
90.0
 71
     2
 49
0.5
 62
   256
  6
BYLAYER
 49
-0.5
 62
   256
  6
BYLAYER
  0
ACDBPLACEHOLDER
  5
F
102
{ACAD_REACTORS
330
E
102
}
330
E
100
AcDbPlaceHolder
280
     0
  0
DICTIONARYVAR
  5
35
102
{ACAD_REACTORS
330
34
102
}
330
34
100
DictionaryVariables
280
     0
  1
1
  0
DICTIONARYVAR
  5
B5E
102
{ACAD_REACTORS
330
34
102
}
330
34
100
DictionaryVariables
280
     0
  1
96
  0
DICTIONARY
  5
260
102
{ACAD_REACTORS
330
43
102
}
330
43
100
AcDbDictionary
  0
DICTIONARY
  5
2C
102
{ACAD_REACTORS
330
2B
102
}
330
2B
100
AcDbDictionary
  3
DWGSETTINGS
350
2D
  0
XRECORD
  5
2F5E
102
{ACAD_REACTORS
330
2F5D
102
}
330
2F5D
100
AcDbXrecord
 90
        1
  0
XRECORD
  5
2F5F
102
{ACAD_REACTORS
330
2F5D
102
}
330
2F5D
100
AcDbXrecord
 90
       70
  0
XRECORD
  5
2F60
102
{ACAD_REACTORS
330
2F5D
102
}
330
2F5D
100
AcDbXrecord
  1

  0
XRECORD
  5
2F61
102
{ACAD_REACTORS
330
2F5D
102
}
330
2F5D
100
AcDbXrecord
  1
ASAMI.ctb
  0
XRECORD
  5
2F62
102
{ACAD_REACTORS
330
2F5D
102
}
330
2F5D
100
AcDbXrecord
340
1A
  0
XRECORD
  5
2F63
102
{ACAD_REACTORS
330
2F5D
102
}
330
2F5D
100
AcDbXrecord
340
19
  0
XRECORD
  5
2F64
102
{ACAD_REACTORS
330
2F5D
102
}
330
2F5D
100
AcDbXrecord
340
E
  0
XRECORD
  5
2F65
102
{ACAD_REACTORS
330
2F5D
102
}
330
2F5D
100
AcDbXrecord
 90
    10781
  0
XRECORD
  5
2F66
102
{ACAD_REACTORS
330
2F5D
102
}
330
2F5D
100
AcDbXrecord
 90
        4
  0
XRECORD
  5
2F67
102
{ACAD_REACTORS
330
2F5D
102
}
330
2F5D
100
AcDbXrecord
 90
        0
  0
XRECORD
  5
2F68
102
{ACAD_REACTORS
330
2F5D
102
}
330
2F5D
100
AcDbXrecord
  1
{AFB28963-8C59-40AE-9337-C84526B81ACE}
  0
XRECORD
  5
2F69
102
{ACAD_REACTORS
330
2F5D
102
}
330
2F5D
100
AcDbXrecord
  1
{15C57A5F-CDE3-4CF8-8181-3346AB1C9400}
  0
XRECORD
  5
2F6A
102
{ACAD_REACTORS
330
2F5D
102
}
330
2F5D
100
AcDbXrecord
 40
0.0
  0
XRECORD
  5
2F6B
102
{ACAD_REACTORS
330
2F5D
102
}
330
2F5D
100
AcDbXrecord
1000
DSTYLE
1002
{
1070
    79
 70
     2
1070
   341
340
59
1070
   342
340
59
1070
   371
 70
    -1
1070
   372
 70
    -1
1002
}
  0
XRECORD
  5
2F6C
102
{ACAD_REACTORS
330
2F5D
102
}
330
2F5D
100
AcDbXrecord
340
0
  0
XRECORD
  5
2F6D
102
{ACAD_REACTORS
330
2F5D
102
}
330
2F5D
100
AcDbXrecord
 70
     0
  0
XRECORD
  5
2F6E
102
{ACAD_REACTORS
330
2F5D
102
}
330
2F5D
100
AcDbXrecord
340
0
  0
XRECORD
  5
2F6F
102
{ACAD_REACTORS
330
2F5D
102
}
330
2F5D
100
AcDbXrecord
 10
0.0
 20
0.0
 30
0.0
  0
XRECORD
  5
2F70
102
{ACAD_REACTORS
330
2F5D
102
}
330
2F5D
100
AcDbXrecord
 10
0.0
 20
0.0
 30
0.0
  0
XRECORD
  5
2F71
102
{ACAD_REACTORS
330
2F5D
102
}
330
2F5D
100
AcDbXrecord
 10
0.0
 20
0.0
 30
0.0
  0
XRECORD
  5
2F72
102
{ACAD_REACTORS
330
2F5D
102
}
330
2F5D
100
AcDbXrecord
 10
0.0
 20
0.0
 30
0.0
  0
XRECORD
  5
2F73
102
{ACAD_REACTORS
330
2F5D
102
}
330
2F5D
100
AcDbXrecord
 10
0.0
 20
0.0
 30
0.0
  0
XRECORD
  5
2F74
102
{ACAD_REACTORS
330
2F5D
102
}
330
2F5D
100
AcDbXrecord
 10
0.0
 20
0.0
 30
0.0
  0
XRECORD
  5
2F75
102
{ACAD_REACTORS
330
2F5D
102
}
330
2F5D
100
AcDbXrecord
340
0
  0
XRECORD
  5
2F76
102
{ACAD_REACTORS
330
2F5D
102
}
330
2F5D
100
AcDbXrecord
 70
     0
  0
XRECORD
  5
2F77
102
{ACAD_REACTORS
330
2F5D
102
}
330
2F5D
100
AcDbXrecord
340
0
  0
XRECORD
  5
2F78
102
{ACAD_REACTORS
330
2F5D
102
}
330
2F5D
100
AcDbXrecord
 10
0.0
 20
0.0
 30
0.0
  0
XRECORD
  5
2F79
102
{ACAD_REACTORS
330
2F5D
102
}
330
2F5D
100
AcDbXrecord
 10
0.0
 20
0.0
 30
0.0
  0
XRECORD
  5
2F7A
102
{ACAD_REACTORS
330
2F5D
102
}
330
2F5D
100
AcDbXrecord
 10
0.0
 20
0.0
 30
0.0
  0
XRECORD
  5
2F7B
102
{ACAD_REACTORS
330
2F5D
102
}
330
2F5D
100
AcDbXrecord
 10
0.0
 20
0.0
 30
0.0
  0
XRECORD
  5
2F7C
102
{ACAD_REACTORS
330
2F5D
102
}
330
2F5D
100
AcDbXrecord
 10
0.0
 20
0.0
 30
0.0
  0
XRECORD
  5
2F7D
102
{ACAD_REACTORS
330
2F5D
102
}
330
2F5D
100
AcDbXrecord
 10
0.0
 20
0.0
 30
0.0
  0
LAYER_INDEX
  5
2F53
102
{ACAD_REACTORS
330
2F52
102
}
330
2F52
100
AcDbIndex
 40
2453151.688683611
100
AcDbLayerIndex
  8
0
360
2F54
 90
        0
  8
AM_0
360
2F55
 90
       52
  8
AM_7
360
2F56
 90
        1
  8
AM_11
360
2F57
 90
       31
  8
AM_5
360
2F58
 90
        5
  8
Defpoints
360
2F59
 90
        0
  8
AM_6
360
2F5A
 90
        1
  8
AM_CL
360
2F5B
 90
        0
  0
XRECORD
  5
2D
102
{ACAD_REACTORS
330
2C
102
}
330
2C
100
AcDbXrecord
  1
VERSION
140
15.0
  1
PRODUCT
  2
AutoCAD Mechanical 2000
  0
IDBUFFER
  5
2F54
330
0
100
AcDbIdBuffer
  0
IDBUFFER
  5
2F55
330
0
100
AcDbIdBuffer
330
2B77
330
2B9A
330
2CD5
330
2CD6
330
C1D
330
C20
330
27F8
330
2827
330
2828
330
2829
330
282B
330
282C
330
2830
330
2831
330
2964
330
2B49
330
2B4A
330
2B4B
330
2B4C
330
2B4E
330
2B54
330
2B55
330
2B56
330
2B57
330
2B59
330
2B5B
330
2B5C
330
2B5D
330
2B5E
330
2B5F
330
2B60
330
2B61
330
2B62
330
2B63
330
2B64
330
2B65
330
2B66
330
2B67
330
2B68
330
2B69
330
2B6A
330
2B6B
330
2B6C
330
2B6D
330
2B6E
330
2B6F
330
2B70
330
2B71
330
2B72
330
2B73
330
2B74
330
2B75
  0
IDBUFFER
  5
2F56
330
0
100
AcDbIdBuffer
330
224B
  0
IDBUFFER
  5
2F57
330
0
100
AcDbIdBuffer
330
27F0
330
27F1
330
27F2
330
27F3
330
27F4
330
27F5
330
27F6
330
27F7
330
2ADE
330
2B4F
330
2B50
330
2B51
330
2B52
330
2B53
330
2B5A
330
21FC
330
21FD
330
2200
330
2201
330
2206
330
2207
330
220B
330
220C
330
220D
330
220E
330
220F
330
2210
330
2219
330
221A
330
2228
330
2229
  0
IDBUFFER
  5
2F58
330
0
100
AcDbIdBuffer
330
223E
330
2259
330
282D
330
2ABE
330
2D9D
  0
IDBUFFER
  5
2F59
330
0
100
AcDbIdBuffer
  0
IDBUFFER
  5
2F5A
330
0
100
AcDbIdBuffer
330
19BD
  0
IDBUFFER
  5
2F5B
330
0
100
AcDbIdBuffer
  0
ENDSEC
  0
EOF
