  0
SECTION
  2
HEADER
  9
$ACADVER
  1
AC1014
  9
$ACADMAINTVER
 70
     9
  9
$DWGCODEPAGE
  3
ANSI_932
  9
$INSBASE
 10
0.0
 20
0.0
 30
0.0
  9
$EXTMIN
 10
-104.6446895947447
 20
-25.25001073155852
 30
-0.00000001
  9
$EXTMAX
 10
14.84194578297221
 20
14.4703034949927
 30
0.00000001
  9
$LIMMIN
 10
-109.032545557114
 20
-40.44309181815902
  9
$LIMMAX
 10
19.90752724773165
 20
26.73300811459594
  9
$ORTHOMODE
 70
     0
  9
$REGENMODE
 70
     1
  9
$FILLMODE
 70
     1
  9
$QTEXTMODE
 70
     0
  9
$MIRRTEXT
 70
     0
  9
$DRAGMODE
 70
     2
  9
$LTSCALE
 40
1.0
  9
$OSMODE
 70
    55
  9
$ATTMODE
 70
     1
  9
$TEXTSIZE
 40
2.5
  9
$TRACEWID
 40
1.0
  9
$TEXTSTYLE
  7
STANDARD
  9
$CLAYER
  8
AM_0
  9
$CELTYPE
  6
BYLAYER
  9
$CECOLOR
 62
   256
  9
$CELTSCALE
 40
1.0
  9
$DELOBJ
 70
     1
  9
$DISPSILH
 70
     0
  9
$DIMSCALE
 40
0.5
  9
$DIMASZ
 40
2.5
  9
$DIMEXO
 40
1.0
  9
$DIMDLI
 40
12.0
  9
$DIMRND
 40
0.0
  9
$DIMDLE
 40
0.0
  9
$DIMEXE
 40
1.0
  9
$DIMTP
 40
0.1
  9
$DIMTM
 40
0.1
  9
$DIMTXT
 40
3.2
  9
$DIMCEN
 40
0.0
  9
$DIMTSZ
 40
0.0
  9
$DIMTOL
 70
     0
  9
$DIMLIM
 70
     0
  9
$DIMTIH
 70
     0
  9
$DIMTOH
 70
     0
  9
$DIMSE1
 70
     0
  9
$DIMSE2
 70
     0
  9
$DIMTAD
 70
     3
  9
$DIMZIN
 70
     8
  9
$DIMBLK
  1
OPEN30
  9
$DIMASO
 70
     1
  9
$DIMSHO
 70
     1
  9
$DIMPOST
  1

  9
$DIMAPOST
  1
"
  9
$DIMALT
 70
     0
  9
$DIMALTD
 70
     2
  9
$DIMALTF
 40
0.0393701
  9
$DIMLFAC
 40
1.0
  9
$DIMTOFL
 70
     1
  9
$DIMTVP
 40
0.0
  9
$DIMTIX
 70
     0
  9
$DIMSOXD
 70
     0
  9
$DIMSAH
 70
     0
  9
$DIMBLK1
  1

  9
$DIMBLK2
  1

  9
$DIMSTYLE
  2
AM_JIS
  9
$DIMCLRD
 70
   256
  9
$DIMCLRE
 70
   256
  9
$DIMCLRT
 70
     2
  9
$DIMTFAC
 40
0.71
  9
$DIMGAP
 40
1.5
  9
$DIMJUST
 70
     0
  9
$DIMSD1
 70
     0
  9
$DIMSD2
 70
     0
  9
$DIMTOLJ
 70
     0
  9
$DIMTZIN
 70
     0
  9
$DIMALTZ
 70
     0
  9
$DIMALTTZ
 70
     0
  9
$DIMFIT
 70
     3
  9
$DIMUPT
 70
     0
  9
$DIMUNIT
 70
     2
  9
$DIMDEC
 70
     3
  9
$DIMTDEC
 70
     3
  9
$DIMALTU
 70
     2
  9
$DIMALTTD
 70
     2
  9
$DIMTXSTY
  7
ASAMI
  9
$DIMAUNIT
 70
     0
  9
$LUNITS
 70
     2
  9
$LUPREC
 70
     2
  9
$SKETCHINC
 40
1.0
  9
$FILLETRAD
 40
2.5
  9
$AUNITS
 70
     0
  9
$AUPREC
 70
     0
  9
$MENU
  1
.
  9
$ELEVATION
 40
0.0
  9
$PELEVATION
 40
0.0
  9
$THICKNESS
 40
0.0
  9
$LIMCHECK
 70
     0
  9
$BLIPMODE
 70
     0
  9
$CHAMFERA
 40
0.25
  9
$CHAMFERB
 40
0.25
  9
$CHAMFERC
 40
20.0
  9
$CHAMFERD
 40
0.0
  9
$SKPOLY
 70
     0
  9
$TDCREATE
 40
2452800.443498622
  9
$TDUPDATE
 40
2453151.721112905
  9
$TDINDWG
 40
0.1108734606
  9
$TDUSRTIMER
 40
0.1108734606
  9
$USRTIMER
 70
     1
  9
$ANGBASE
 50
0.0
  9
$ANGDIR
 70
     0
  9
$PDMODE
 70
     0
  9
$PDSIZE
 40
0.0
  9
$PLINEWID
 40
0.0
  9
$COORDS
 70
     1
  9
$SPLFRAME
 70
     0
  9
$SPLINETYPE
 70
     6
  9
$SPLINESEGS
 70
     8
  9
$ATTDIA
 70
     1
  9
$ATTREQ
 70
     1
  9
$HANDLING
 70
 12289
  9
$HANDSEED
  5
4757
  9
$SURFTAB1
 70
     6
  9
$SURFTAB2
 70
     6
  9
$SURFTYPE
 70
     6
  9
$SURFU
 70
     6
  9
$SURFV
 70
     6
  9
$UCSNAME
  2

  9
$UCSORG
 10
0.0
 20
0.0
 30
0.0
  9
$UCSXDIR
 10
1.0
 20
0.000000000000002
 30
0.0
  9
$UCSYDIR
 10
-0.000000000000002
 20
1.0
 30
0.0
  9
$PUCSNAME
  2

  9
$PUCSORG
 10
0.0
 20
0.0
 30
0.0
  9
$PUCSXDIR
 10
1.0
 20
0.0
 30
0.0
  9
$PUCSYDIR
 10
0.0
 20
1.0
 30
0.0
  9
$USERI1
 70
     0
  9
$USERI2
 70
     0
  9
$USERI3
 70
     0
  9
$USERI4
 70
     0
  9
$USERI5
 70
     0
  9
$USERR1
 40
0.0
  9
$USERR2
 40
0.0
  9
$USERR3
 40
0.0
  9
$USERR4
 40
0.0
  9
$USERR5
 40
0.0
  9
$WORLDVIEW
 70
     1
  9
$SHADEDGE
 70
     3
  9
$SHADEDIF
 70
    70
  9
$TILEMODE
 70
     1
  9
$MAXACTVP
 70
    64
  9
$PINSBASE
 10
0.0
 20
0.0
 30
0.0
  9
$PLIMCHECK
 70
     0
  9
$PEXTMIN
 10
1.000000000000000E+20
 20
1.000000000000000E+20
 30
1.000000000000000E+20
  9
$PEXTMAX
 10
-1.000000000000000E+20
 20
-1.000000000000000E+20
 30
-1.000000000000000E+20
  9
$PLIMMIN
 10
0.0
 20
0.0
  9
$PLIMMAX
 10
841.0
 20
594.0
  9
$UNITMODE
 70
     0
  9
$VISRETAIN
 70
     1
  9
$PLINEGEN
 70
     0
  9
$PSLTSCALE
 70
     0
  9
$TREEDEPTH
 70
  3020
  9
$PICKSTYLE
 70
     0
  9
$CMLSTYLE
  2
STANDARD
  9
$CMLJUST
 70
     0
  9
$CMLSCALE
 40
20.0
  9
$PROXYGRAPHICS
 70
     1
  9
$MEASUREMENT
 70
     1
  0
ENDSEC
  0
SECTION
  2
CLASSES
  0
CLASS
  1
ACDBDICTIONARYWDFLT
  2
AcDbDictionaryWithDefault
  3
AutoCAD 2000
 90
        0
280
     0
281
     0
  0
CLASS
  1
ACDBPLACEHOLDER
  2
AcDbPlaceHolder
  3
AutoCAD 2000
 90
        0
280
     0
281
     0
  0
CLASS
  1
LAYOUT
  2
AcDbLayout
  3
AutoCAD 2000
 90
        0
280
     0
281
     0
  0
CLASS
  1
AMGSETTINGSOBJ
  2
AmgSettingsObj
  3
"AcadM|Product Description: AutoCAD Mechanical 2000|Company: Autodesk"
 90
        0
280
     0
281
     0
  0
CLASS
  1
ACME_DOCUMENT
  2
AcMeDbDoc
  3
AcMeServices
 90
        0
280
     0
281
     0
  0
CLASS
  1
ACMESCOPE
  2
AcMeScope
  3
AcMeServices
 90
        0
280
     0
281
     0
  0
CLASS
  1
ACMECOMMANDHISTORY
  2
AcMeCommandHistory
  3
AcMeServices
 90
        0
280
     0
281
     0
  0
CLASS
  1
DICTIONARYVAR
  2
AcDbDictionaryVar
  3
AutoCAD 2000
 90
        0
280
     0
281
     0
  0
CLASS
  1
ACIMSYSVARMAN
  2
AcImSysVarManager
  3
AcMeServices
 90
        0
280
     0
281
     0
  0
CLASS
  1
ACIMREALSYSVAR
  2
AcImRealSysVar
  3
AcMeServices
 90
        0
280
     0
281
     0
  0
CLASS
  1
ACIMINTSYSVAR
  2
AcImIntSysVar
  3
AcMeServices
 90
        0
280
     0
281
     0
  0
CLASS
  1
ACMEDRAWINGMAN
  2
AcMeDrawingMan
  3
AcMeServices
 90
        0
280
     0
281
     0
  0
CLASS
  1
ACMEVIEW
  2
AcMeView
  3
AcMeServices
 90
        0
280
     0
281
     0
  0
CLASS
  1
ACDBENTITYCACHE
  2
AcMeEntityCache
  3
AcMeServices
 90
        0
280
     0
281
     0
  0
CLASS
  1
GSMANAGER
  2
AcMeGSManager
  3
AcMeServices
 90
        0
280
     0
281
     0
  0
CLASS
  1
AmdtInternalReactor
  2
AmdtInternalReactor
  3
AcMeServices
 90
        0
280
     0
281
     0
  0
CLASS
  1
ACMESTATEMGR
  2
AcMeStateMgr
  3
AcMeServices
 90
        0
280
     0
281
     0
  0
CLASS
  1
ACME_DATABASE
  2
AcMeDbDatabase
  3
AcMeServices
 90
        0
280
     0
281
     0
  0
CLASS
  1
ACRFINSADJUSTERMGR
  2
AcRfInsAdjusterMgr
  3
AcMeServices
 90
        0
280
     0
281
     0
  0
CLASS
  1
ACMDATADICTIONARY
  2
AcmDataDictionary
  3
"AcmSymBB|Product Description: AutoCAD Mechanical 2000|Company: Autodesk"
 90
        0
280
     0
281
     0
  0
CLASS
  1
ACMDATAENTRYBLOCK
  2
AcmDataEntryBlock
  3
"AcmSymBB|Product Description: AutoCAD Mechanical 2000|Company: Autodesk"
 90
        0
280
     0
281
     0
  0
CLASS
  1
AMGOBJPROPCFG
  2
AmgObjPropCfg
  3
"AmgLay|Product Description: AutoCAD Mechanical 2000|Company: Autodesk"
 90
        1
280
     0
281
     0
  0
CLASS
  1
ACAMGFILTERDAT
  2
AcAmgFilterDat
  3
"AcadM|Product Description: AutoCAD Mechanical 2000|Company: Autodesk"
 90
        0
280
     0
281
     0
  0
CLASS
  1
LAYER_INDEX
  2
AcDbLayerIndex
  3
AutoCAD 2000
 90
        0
280
     0
281
     0
  0
CLASS
  1
IDBUFFER
  2
AcDbIdBuffer
  3
AutoCAD 2000
 90
        0
280
     0
281
     0
  0
CLASS
  1
ACIMSTRSYSVAR
  2
AcImStrSysVar
  3
AcMeServices
 90
        0
280
     0
281
     0
  0
CLASS
  1
ACMSTANDARDJIS
  2
AcmStandardJIS
  3
"AcmSymBB|Product Description: AutoCAD Mechanical 2000|Company: Autodesk"
 90
        0
280
     0
281
     0
  0
CLASS
  1
ACMSURFSTANDARDJIS
  2
AcmSurfTextStdJIS
  3
"AcmSymBB|Product Description: AutoCAD Mechanical 2000|Company: Autodesk"
 90
        0
280
     0
281
     0
  0
CLASS
  1
ACMFCFSTANDARDJIS
  2
AcmFCFStdJIS
  3
"AcmSymBB|Product Description: AutoCAD Mechanical 2000|Company: Autodesk"
 90
        0
280
     0
281
     0
  0
CLASS
  1
ACMWELDSTANDARDJIS
  2
AcmWeldingStdJIS
  3
"AcmSymBB|Product Description: AutoCAD Mechanical 2000|Company: Autodesk"
 90
        0
280
     0
281
     0
  0
CLASS
  1
ACMIDSTANDARDJIS
  2
AcmIdStdJIS
  3
"AcmSymBB|Product Description: AutoCAD Mechanical 2000|Company: Autodesk"
 90
        0
280
     0
281
     0
  0
CLASS
  1
ACMDATUMSTANDARDJIS
  2
AcmDatumStdJIS
  3
"AcmSymBB|Product Description: AutoCAD Mechanical 2000|Company: Autodesk"
 90
        0
280
     0
281
     0
  0
CLASS
  1
ACMBOMSTANDARDJIS
  2
AcmBOMStdJIS
  3
"AcmSymBB|Product Description: AutoCAD Mechanical 2000|Company: Autodesk"
 90
        0
280
     0
281
     0
  0
CLASS
  1
ACMSTANDARDANSI
  2
AcmStandardANSI
  3
"AcmSymBB|Product Description: AutoCAD Mechanical 2000|Company: Autodesk"
 90
        0
280
     0
281
     0
  0
CLASS
  1
ACMSURFSTANDARDANSI
  2
AcmSurfTextStdANSI
  3
"AcmSymBB|Product Description: AutoCAD Mechanical 2000|Company: Autodesk"
 90
        0
280
     0
281
     0
  0
CLASS
  1
ACMFCFSTANDARDANSI
  2
AcmFCFStdANSI
  3
"AcmSymBB|Product Description: AutoCAD Mechanical 2000|Company: Autodesk"
 90
        0
280
     0
281
     0
  0
CLASS
  1
ACMWELDSTANDARDANSI
  2
AcmWeldingStdANSI
  3
"AcmSymBB|Product Description: AutoCAD Mechanical 2000|Company: Autodesk"
 90
        0
280
     0
281
     0
  0
CLASS
  1
ACMIDSTANDARDANSI
  2
AcmIdStdANSI
  3
"AcmSymBB|Product Description: AutoCAD Mechanical 2000|Company: Autodesk"
 90
        0
280
     0
281
     0
  0
CLASS
  1
ACMDATUMSTANDARDANSI
  2
AcmDatumStdANSI
  3
"AcmSymBB|Product Description: AutoCAD Mechanical 2000|Company: Autodesk"
 90
        0
280
     0
281
     0
  0
CLASS
  1
ACMBOMSTANDARDANSI
  2
AcmBOMStdANSI
  3
"AcmSymBB|Product Description: AutoCAD Mechanical 2000|Company: Autodesk"
 90
        0
280
     0
281
     0
  0
CLASS
  1
ACMSTANDARDBSI
  2
AcmStandardBSI
  3
"AcmSymBB|Product Description: AutoCAD Mechanical 2000|Company: Autodesk"
 90
        0
280
     0
281
     0
  0
CLASS
  1
ACMSURFSTANDARDBSI
  2
AcmSurfTextStdBSI
  3
"AcmSymBB|Product Description: AutoCAD Mechanical 2000|Company: Autodesk"
 90
        0
280
     0
281
     0
  0
CLASS
  1
ACMFCFSTANDARDBSI
  2
AcmFCFStdBSI
  3
"AcmSymBB|Product Description: AutoCAD Mechanical 2000|Company: Autodesk"
 90
        0
280
     0
281
     0
  0
CLASS
  1
ACMWELDSTANDARDBSI
  2
AcmWeldingStdBSI
  3
"AcmSymBB|Product Description: AutoCAD Mechanical 2000|Company: Autodesk"
 90
        0
280
     0
281
     0
  0
CLASS
  1
ACMIDSTANDARDBSI
  2
AcmIdStdBSI
  3
"AcmSymBB|Product Description: AutoCAD Mechanical 2000|Company: Autodesk"
 90
        0
280
     0
281
     0
  0
CLASS
  1
ACMDATUMSTANDARDBSI
  2
AcmDatumStdBSI
  3
"AcmSymBB|Product Description: AutoCAD Mechanical 2000|Company: Autodesk"
 90
        0
280
     0
281
     0
  0
CLASS
  1
ACMBOMSTANDARDBSI
  2
AcmBOMStdBSI
  3
"AcmSymBB|Product Description: AutoCAD Mechanical 2000|Company: Autodesk"
 90
        0
280
     0
281
     0
  0
CLASS
  1
LONG_TRANSACTION
  2
AcDbLongTransaction
  3
AutoCAD 2000
 90
        0
280
     0
281
     0
  0
CLASS
  1
LWPOLYLINE
  2
AcDbPolyline
  3
AutoCAD 2000
 90
        0
280
     0
281
     1
  0
CLASS
  1
HATCH
  2
AcDbHatch
  3
AutoCAD 2000
 90
        0
280
     0
281
     1
  0
CLASS
  1
XRECORD
  2
AcDbXrecord
  3
AutoCAD 2000
 90
        0
280
     0
281
     0
  0
ENDSEC
  0
SECTION
  2
TABLES
  0
TABLE
  2
VPORT
  5
8
330
0
100
AcDbSymbolTable
 70
     3
  0
VPORT
  5
472C
330
8
100
AcDbSymbolTableRecord
100
AcDbViewportTableRecord
  2
*ACTIVE
 70
     0
 10
0.0
 20
0.0
 11
1.0
 21
1.0
 12
-39.37130113272761
 22
-12.83887240990674
 13
0.0
 23
0.0
 14
2.5
 24
2.5
 15
10.0
 25
10.0
 16
0.0
 26
0.0
 36
1.0
 17
0.0
 27
0.0
 37
0.0
 40
123.0566483666025
 41
1.56570841889117
 42
50.0
 43
0.0
 44
0.0
 50
0.0
 51
0.0
 71
     0
 72
   100
 73
     1
 74
     1
 75
     0
 76
     0
 77
     0
 78
     0
  0
ENDTAB
  0
TABLE
  2
LTYPE
  5
5
330
0
100
AcDbSymbolTable
 70
    10
  0
LTYPE
  5
14
330
5
100
AcDbSymbolTableRecord
100
AcDbLinetypeTableRecord
  2
BYBLOCK
 70
     0
  3

 72
    65
 73
     0
 40
0.0
  0
LTYPE
  5
15
330
5
100
AcDbSymbolTableRecord
100
AcDbLinetypeTableRecord
  2
BYLAYER
 70
     0
  3

 72
    65
 73
     0
 40
0.0
  0
LTYPE
  5
16
330
5
100
AcDbSymbolTableRecord
100
AcDbLinetypeTableRecord
  2
CONTINUOUS
 70
     0
  3
Solid line
 72
    65
 73
     0
 40
0.0
  0
LTYPE
  5
4B
330
5
100
AcDbSymbolTableRecord
100
AcDbLinetypeTableRecord
  2
AM_ISO02W050
 70
     0
  3
__ __ __ __ __ __ __ __ __ __ __ __ __ __ __
 72
    65
 73
     2
 40
7.5
 49
6.0
 74
     0
 49
-1.5
 74
     0
  0
LTYPE
  5
4C
330
5
100
AcDbSymbolTableRecord
100
AcDbLinetypeTableRecord
  2
AM_ISO08W050
 70
     0
  3
____ . ____ . ____ . ____ . ____ . ____ . ____
 72
    65
 73
     4
 40
18.0
 49
12.0
 74
     0
 49
-1.5
 74
     0
 49
3.0
 74
     0
 49
-1.5
 74
     0
  0
LTYPE
  5
4D
330
5
100
AcDbSymbolTableRecord
100
AcDbLinetypeTableRecord
  2
AM_ISO09W050
 70
     0
  3
_____ . . _____ . . _____ . . ____ .. ____
 72
    65
 73
     6
 40
22.5
 49
12.0
 74
     0
 49
-1.5
 74
     0
 49
3.0
 74
     0
 49
-1.5
 74
     0
 49
3.0
 74
     0
 49
-1.5
 74
     0
  0
LTYPE
  5
4E
330
5
100
AcDbSymbolTableRecord
100
AcDbLinetypeTableRecord
  2
AMCONSTR
 70
     0
  3
_______________________
 72
    65
 73
     2
 40
9999.0
 49
9999.0
 74
     0
 49
0.0
 74
     0
  0
LTYPE
  5
4F
330
5
100
AcDbSymbolTableRecord
100
AcDbLinetypeTableRecord
  2
AM_ISO02W050X2
 70
     0
  3
 _ _ _ _ _ _ _ _ _ _ _ _
 72
    65
 73
     2
 40
3.75
 49
3.0
 74
     0
 49
-0.75
 74
     0
  0
LTYPE
  5
50
330
5
100
AcDbSymbolTableRecord
100
AcDbLinetypeTableRecord
  2
AM_ISO08W050X2
 70
     0
  3
__ . __ . __ . __ . __ . __
 72
    65
 73
     4
 40
9.0
 49
6.0
 74
     0
 49
-0.75
 74
     0
 49
1.5
 74
     0
 49
-0.75
 74
     0
  0
LTYPE
  5
53
330
5
100
AcDbSymbolTableRecord
100
AcDbLinetypeTableRecord
  2
AMZIGZAG
 70
     0
  3
/\/-/\/-/\/-/\/-/\/-/\/
 72
    65
 73
     2
 40
11.00009999999999
 49
0.0001
 74
     4
 75
   135
340
52
 46
0.04
 50
0.0
 44
0.0
 45
0.0
 49
-11.0
 74
     0
  0
LTYPE
  5
166
330
5
100
AcDbSymbolTableRecord
100
AcDbLinetypeTableRecord
  2
ACJISTGL
 70
     0
  3
_ _ _ _ _
 72
    65
 73
     2
 40
3.0
 49
2.0
 74
     0
 49
-1.0
 74
     0
  0
LTYPE
  5
26A
330
5
100
AcDbSymbolTableRecord
100
AcDbLinetypeTableRecord
  2
ACJISTGB
 70
     0
  3
__ . . __ . .
 72
    65
 73
     6
 40
9.0
 49
4.0
 74
     0
 49
-1.0
 74
     0
 49
1.0
 74
     0
 49
-1.0
 74
     0
 49
1.0
 74
     0
 49
-1.0
 74
     0
  0
ENDTAB
  0
TABLE
  2
LAYER
  5
2
330
0
100
AcDbSymbolTable
 70
     8
  0
LAYER
  5
10
330
2
100
AcDbSymbolTableRecord
100
AcDbLayerTableRecord
  2
0
 70
     0
 62
     7
  6
CONTINUOUS
  0
LAYER
  5
3F9
330
2
100
AcDbSymbolTableRecord
100
AcDbLayerTableRecord
  2
AM_0
 70
     0
 62
     7
  6
CONTINUOUS
  0
LAYER
  5
C7C
330
2
100
AcDbSymbolTableRecord
100
AcDbLayerTableRecord
  2
AM_7
 70
     0
 62
     4
  6
AM_ISO08W050
  0
LAYER
  5
C97
330
2
100
AcDbSymbolTableRecord
100
AcDbLayerTableRecord
  2
AM_11
 70
     0
 62
     3
  6
AM_ISO09W050
  0
LAYER
  5
CC5
330
2
100
AcDbSymbolTableRecord
100
AcDbLayerTableRecord
  2
AM_5
 70
     0
 62
     3
  6
CONTINUOUS
  0
LAYER
  5
CC7
330
2
100
AcDbSymbolTableRecord
100
AcDbLayerTableRecord
  2
DEFPOINTS
 70
     0
 62
     7
  6
CONTINUOUS
  0
LAYER
  5
19BC
330
2
100
AcDbSymbolTableRecord
100
AcDbLayerTableRecord
  2
AM_6
 70
     0
 62
     2
  6
CONTINUOUS
  0
LAYER
  5
4625
330
2
100
AcDbSymbolTableRecord
100
AcDbLayerTableRecord
  2
AM_CL
 70
     0
 62
     1
  6
AMCONSTR
  0
ENDTAB
  0
TABLE
  2
STYLE
  5
3
330
0
100
AcDbSymbolTable
 70
     5
  0
STYLE
  5
11
330
3
100
AcDbSymbolTableRecord
100
AcDbTextStyleTableRecord
  2
STANDARD
 70
     0
 40
0.0
 41
1.0
 50
0.0
 71
     0
 42
2.5
  3
simplex.shx
  4
EXTFONT.SHX
  0
STYLE
  5
52
330
3
100
AcDbSymbolTableRecord
100
AcDbTextStyleTableRecord
  2

 70
     1
 40
0.0
 41
1.0
 50
0.0
 71
     0
 42
2.5
  3
ltypeshp.shx
  4

  0
STYLE
  5
6B
330
3
100
AcDbSymbolTableRecord
100
AcDbTextStyleTableRecord
  2
ASAMI
 70
     0
 40
0.0
 41
1.0
 50
0.0
 71
     0
 42
2.5
  3
simplex.shx
  4
EXTFONT.SHX
  0
STYLE
  5
262
330
3
100
AcDbSymbolTableRecord
100
AcDbTextStyleTableRecord
  2
ACJISTS
 70
     0
 40
1.0
 41
1.0
 50
0.0
 71
     0
 42
2.5
  3
simplex.shx
  4
bigfont.shx
  0
STYLE
  5
269
330
3
100
AcDbSymbolTableRecord
100
AcDbTextStyleTableRecord
  2
ACJISGDT
 70
     0
 40
0.0
 41
1.0
 50
0.0
 71
     0
 42
2.5
  3
amgdtans.shx
  4

  0
ENDTAB
  0
TABLE
  2
VIEW
  5
6
330
0
100
AcDbSymbolTable
 70
     0
  0
ENDTAB
  0
TABLE
  2
UCS
  5
7
330
0
100
AcDbSymbolTable
 70
     0
  0
ENDTAB
  0
TABLE
  2
APPID
  5
9
330
0
100
AcDbSymbolTable
 70
    18
  0
APPID
  5
12
330
9
100
AcDbSymbolTableRecord
100
AcDbRegAppTableRecord
  2
ACAD
 70
     0
  0
APPID
  5
30
330
9
100
AcDbSymbolTableRecord
100
AcDbRegAppTableRecord
  2
MCAD_NO_VIS
 70
     0
  0
APPID
  5
31
330
9
100
AcDbSymbolTableRecord
100
AcDbRegAppTableRecord
  2
ACAD_TEMP_GRAPHIC
 70
     0
  0
APPID
  5
2C2
330
9
100
AcDbSymbolTableRecord
100
AcDbRegAppTableRecord
  2
GENIUS_GENDTOL_13
 70
     0
  0
APPID
  5
339
330
9
100
AcDbSymbolTableRecord
100
AcDbRegAppTableRecord
  2
GENIUS_GENODEF_13
 70
     0
  0
APPID
  5
33A
330
9
100
AcDbSymbolTableRecord
100
AcDbRegAppTableRecord
  2
GENIUS_GENOBJ-N-RSBK_13
 70
     0
  0
APPID
  5
33B
330
9
100
AcDbSymbolTableRecord
100
AcDbRegAppTableRecord
  2
GENIUS_GENOBJ-N-LIB_13
 70
     0
  0
APPID
  5
33C
330
9
100
AcDbSymbolTableRecord
100
AcDbRegAppTableRecord
  2
GENIUS_GENSCALE_13
 70
     0
  0
APPID
  5
378
330
9
100
AcDbSymbolTableRecord
100
AcDbRegAppTableRecord
  2
GENIUS_GENDIMSH_14
 70
     0
  0
APPID
  5
C82
330
9
100
AcDbSymbolTableRecord
100
AcDbRegAppTableRecord
  2
GENIUS_GENOBJ-N-CRS_13
 70
     0
  0
APPID
  5
C83
330
9
100
AcDbSymbolTableRecord
100
AcDbRegAppTableRecord
  2
GENIUS_GENOENT_13
 70
     0
  0
APPID
  5
C84
330
9
100
AcDbSymbolTableRecord
100
AcDbRegAppTableRecord
  2
GENIUS_GENOREF_13
 70
     0
  0
APPID
  5
C85
330
9
100
AcDbSymbolTableRecord
100
AcDbRegAppTableRecord
  2
GENIUS_GENOLIS_13
 70
     0
  0
APPID
  5
CA0
330
9
100
AcDbSymbolTableRecord
100
AcDbRegAppTableRecord
  2
GENIUS_GENOBJ-N-CEN_13
 70
     0
  0
APPID
  5
1B5D
330
9
100
AcDbSymbolTableRecord
100
AcDbRegAppTableRecord
  2
GENIUS_GENFIL_13
 70
     0
  0
APPID
  5
1B5E
330
9
100
AcDbSymbolTableRecord
100
AcDbRegAppTableRecord
  2
GENIUS_GENOBJ-N-CHA_13
 70
     0
  0
APPID
  5
1FBC
330
9
100
AcDbSymbolTableRecord
100
AcDbRegAppTableRecord
  2
GENIUS_GENREC_14
 70
     0
  0
APPID
  5
1FBD
330
9
100
AcDbSymbolTableRecord
100
AcDbRegAppTableRecord
  2
GENIUS_GENOBJ-N-REC_13
 70
     0
  0
ENDTAB
  0
TABLE
  2
DIMSTYLE
  5
A
330
0
100
AcDbSymbolTable
 70
     9
  0
DIMSTYLE
105
58
330
A
100
AcDbSymbolTableRecord
100
AcDbDimStyleTableRecord
  2
AM_JIS
 70
     0
  3

  4
"
  5
OPEN30
  6

  7

 40
0.5
 41
2.5
 42
1.0
 43
12.0
 44
1.0
 45
0.0
 46
0.0
 47
0.1
 48
0.1
140
3.2
141
0.0
142
0.0
143
0.0393701
144
1.0
145
0.0
146
0.71
147
1.5
 71
     0
 72
     0
 73
     0
 74
     0
 75
     0
 76
     0
 77
     3
 78
     8
170
     0
171
     2
172
     1
173
     0
174
     0
175
     0
176
   256
177
   256
178
     2
270
     2
271
     3
272
     3
273
     2
274
     2
340
6B
275
     0
280
     0
281
     0
282
     0
283
     0
284
     0
285
     0
286
     0
287
     3
288
     0
  0
DIMSTYLE
105
5F
330
A
100
AcDbSymbolTableRecord
100
AcDbDimStyleTableRecord
  2
AM_JIS$3
 70
     0
  3

  4
"
  5
OPEN30
  6

  7

 40
0.5
 41
2.5
 42
1.0
 43
10.0
 44
1.0
 45
0.0
 46
0.0
 47
0.1
 48
0.1
140
3.2
141
0.0
142
0.0
143
0.0393701
144
1.0
145
0.0
146
0.71
147
1.5
 71
     0
 72
     0
 73
     0
 74
     1
 75
     0
 76
     0
 77
     3
 78
     8
170
     0
171
     2
172
     0
173
     0
174
     0
175
     0
176
   256
177
   256
178
     2
270
     2
271
     2
272
     3
273
     2
274
     2
340
6B
275
     0
280
     0
281
     0
282
     0
283
     0
284
     0
285
     0
286
     0
287
     0
288
     1
  0
DIMSTYLE
105
60
330
A
100
AcDbSymbolTableRecord
100
AcDbDimStyleTableRecord
  2
AM_JIS$4
 70
     0
  3

  4
"
  5
OPEN30
  6

  7

 40
0.5
 41
2.5
 42
1.0
 43
10.0
 44
1.0
 45
0.0
 46
0.0
 47
0.1
 48
0.1
140
3.2
141
0.0
142
0.0
143
0.0393701
144
1.0
145
0.0
146
0.71
147
1.5
 71
     0
 72
     0
 73
     0
 74
     1
 75
     0
 76
     0
 77
     3
 78
     8
170
     0
171
     2
172
     0
173
     0
174
     0
175
     0
176
   256
177
   256
178
     2
270
     2
271
     2
272
     3
273
     2
274
     2
340
6B
275
     0
280
     0
281
     0
282
     0
283
     0
284
     0
285
     0
286
     0
287
     0
288
     1
  0
DIMSTYLE
105
61
330
A
100
AcDbSymbolTableRecord
100
AcDbDimStyleTableRecord
  2
AM_JIS$6
 70
     0
  3

  4
"
  5
OPEN30
  6

  7

 40
0.5
 41
2.5
 42
1.0
 43
10.0
 44
1.0
 45
0.0
 46
0.0
 47
0.1
 48
0.1
140
3.2
141
0.0
142
0.0
143
0.0393701
144
1.0
145
0.0
146
0.71
147
1.5
 71
     0
 72
     0
 73
     0
 74
     0
 75
     0
 76
     0
 77
     0
 78
     8
170
     0
171
     2
172
     1
173
     0
174
     0
175
     0
176
   256
177
   256
178
     2
270
     2
271
     2
272
     2
273
     2
274
     2
340
6B
275
     0
280
     0
281
     0
282
     0
283
     0
284
     0
285
     0
286
     0
287
     3
288
     0
  0
DIMSTYLE
105
62
330
A
100
AcDbSymbolTableRecord
100
AcDbDimStyleTableRecord
  2
AM_JIS$7
 70
     0
  3

  4
"
  5
OPEN30
  6

  7

 40
0.5
 41
2.5
 42
1.0
 43
10.0
 44
1.0
 45
0.0
 46
0.0
 47
0.1
 48
0.1
140
3.2
141
0.0
142
0.0
143
0.0393701
144
1.0
145
0.0
146
0.71
147
1.5
 71
     0
 72
     0
 73
     0
 74
     0
 75
     0
 76
     0
 77
     3
 78
     8
170
     0
171
     2
172
     1
173
     0
174
     0
175
     0
176
   256
177
   256
178
     2
270
     2
271
     2
272
     3
273
     2
274
     2
340
6B
275
     0
280
     0
281
     0
282
     0
283
     0
284
     0
285
     0
286
     0
287
     3
288
     0
  0
DIMSTYLE
105
63
330
A
100
AcDbSymbolTableRecord
100
AcDbDimStyleTableRecord
  2
AM_JIS$SF
 70
     0
  3

  4
"
  5
OPEN30
  6

  7

 40
0.5
 41
2.5
 42
1.0
 43
10.0
 44
1.0
 45
0.0
 46
0.0
 47
0.1
 48
0.1
140
3.2
141
0.0
142
0.0
143
0.0393701
144
1.0
145
0.0
146
0.71
147
1.5
 71
     0
 72
     0
 73
     0
 74
     0
 75
     1
 76
     1
 77
     3
 78
     8
170
     0
171
     2
172
     1
173
     0
174
     0
175
     0
176
   256
177
   256
178
     2
270
     2
271
     2
272
     2
273
     2
274
     2
340
6B
275
     0
280
     0
281
     0
282
     0
283
     0
284
     0
285
     0
286
     0
287
     3
288
     0
  0
DIMSTYLE
105
68
330
A
100
AcDbSymbolTableRecord
100
AcDbDimStyleTableRecord
  2
AM_JIS$SH
 70
     0
  3

  4
"
  5

  6
GENAXEH
  7
OPEN30
 40
0.5
 41
2.5
 42
1.0
 43
10.0
 44
1.0
 45
0.0
 46
0.0
 47
0.1
 48
0.1
140
3.2
141
0.0
142
0.0
143
0.0393701
144
2.0
145
0.0
146
0.71
147
1.5
 71
     0
 72
     0
 73
     0
 74
     0
 75
     1
 76
     1
 77
     3
 78
     8
170
     0
171
     2
172
     1
173
     1
174
     0
175
     0
176
   256
177
   256
178
     2
270
     2
271
     2
272
     2
273
     2
274
     2
340
6B
275
     0
280
     0
281
     0
282
     0
283
     0
284
     0
285
     0
286
     0
287
     3
288
     0
  0
DIMSTYLE
105
B34
102
{ACAD_REACTORS
330
43EF
102
}
330
A
100
AcDbSymbolTableRecord
100
AcDbDimStyleTableRecord
  2
AM_JIS$2
 70
     0
  3

  4
"
  5
OPEN30
  6

  7

 40
0.5
 41
2.5
 42
1.0
 43
12.0
 44
1.0
 45
0.0
 46
0.0
 47
0.1
 48
0.1
140
3.2
141
0.0
142
0.0
143
0.0393701
144
1.0
145
0.0
146
0.71
147
1.5
 71
     0
 72
     0
 73
     0
 74
     0
 75
     0
 76
     0
 77
     3
 78
     8
170
     0
171
     2
172
     1
173
     0
174
     0
175
     0
176
   256
177
   256
178
     2
270
     2
271
     3
272
     3
273
     2
274
     2
340
6B
275
     0
280
     0
281
     0
282
     0
283
     0
284
     0
285
     0
286
     0
287
     3
288
     0
  0
DIMSTYLE
105
BA5
102
{ACAD_REACTORS
330
CC6
330
DF5
330
1DEF
330
1C71
102
}
330
A
100
AcDbSymbolTableRecord
100
AcDbDimStyleTableRecord
  2
AM_JIS$0
 70
     0
  3

  4
"
  5
OPEN30
  6

  7

 40
0.5
 41
2.5
 42
0.0
 43
10.0
 44
1.0
 45
0.0
 46
0.0
 47
0.1
 48
0.1000000001
140
3.799999999999999
141
0.0
142
0.0
143
0.0393701
144
1.0
145
0.0
146
0.71
147
1.5
 71
     0
 72
     0
 73
     0
 74
     0
 75
     0
 76
     0
 77
     3
 78
     1
170
     0
171
     2
172
     1
173
     0
174
     0
175
     0
176
     3
177
     3
178
     2
270
     2
271
     2
272
     2
273
     2
274
     2
340
11
275
     1
280
     0
281
     0
282
     0
283
     0
284
     8
285
     0
286
     0
287
     0
288
     0
  0
ENDTAB
  0
TABLE
  2
BLOCK_RECORD
  5
1
330
0
100
AcDbSymbolTable
 70
    10
  0
BLOCK_RECORD
  5
1F
102
{ACAD_XDICTIONARY
360
74
102
}
330
1
100
AcDbSymbolTableRecord
100
AcDbBlockTableRecord
  2
*MODEL_SPACE
  0
BLOCK_RECORD
  5
101
102
{ACAD_XDICTIONARY
360
4755
102
}
330
1
100
AcDbSymbolTableRecord
100
AcDbBlockTableRecord
  2
*PAPER_SPACE
  0
BLOCK_RECORD
  5
59
330
1
100
AcDbSymbolTableRecord
100
AcDbBlockTableRecord
  2
_OPEN30
  0
BLOCK_RECORD
  5
64
330
1
100
AcDbSymbolTableRecord
100
AcDbBlockTableRecord
  2
GENAXEH
  0
BLOCK_RECORD
  5
CC8
330
1
100
AcDbSymbolTableRecord
100
AcDbBlockTableRecord
  2
*D5
  0
BLOCK_RECORD
  5
DF6
330
1
100
AcDbSymbolTableRecord
100
AcDbBlockTableRecord
  2
*D6
  0
BLOCK_RECORD
  5
1C72
330
1
100
AcDbSymbolTableRecord
100
AcDbBlockTableRecord
  2
*D7
  0
BLOCK_RECORD
  5
1DF0
330
1
100
AcDbSymbolTableRecord
100
AcDbBlockTableRecord
  2
*D8
  0
BLOCK_RECORD
  5
43F0
330
1
100
AcDbSymbolTableRecord
100
AcDbBlockTableRecord
  2
*D9
  0
ENDTAB
  0
ENDSEC
  0
SECTION
  2
BLOCKS
  0
BLOCK
  5
20
330
1F
100
AcDbEntity
  8
0
100
AcDbBlockBegin
  2
*MODEL_SPACE
 70
     0
 10
0.0
 20
0.0
 30
0.0
  3
*MODEL_SPACE
  1

  0
ENDBLK
  5
21
330
1F
100
AcDbEntity
  8
0
100
AcDbBlockEnd
  0
BLOCK
  5
103
330
101
100
AcDbEntity
 67
     1
  8
0
100
AcDbBlockBegin
  2
*PAPER_SPACE
 70
     0
 10
0.0
 20
0.0
 30
0.0
  3
*PAPER_SPACE
  1

  0
ENDBLK
  5
104
330
101
100
AcDbEntity
 67
     1
  8
0
100
AcDbBlockEnd
  0
BLOCK
  5
5D
330
59
100
AcDbEntity
  8
0
100
AcDbBlockBegin
  2
_OPEN30
 70
     0
 10
0.0
 20
0.0
 30
0.0
  3
_OPEN30
  1

  0
LINE
  5
5A
330
59
100
AcDbEntity
  8
0
 62
     0
100
AcDbLine
 10
-1.0
 20
0.26794919
 30
0.0
 11
0.0
 21
0.0
 31
0.0
  0
LINE
  5
5B
330
59
100
AcDbEntity
  8
0
 62
     0
100
AcDbLine
 10
0.0
 20
0.0
 30
0.0
 11
-1.0
 21
-0.26794919
 31
0.0
  0
LINE
  5
5C
330
59
100
AcDbEntity
  8
0
 62
     0
100
AcDbLine
 10
0.0
 20
0.0
 30
0.0
 11
-1.0
 21
0.0
 31
0.0
  0
ENDBLK
  5
5E
330
59
100
AcDbEntity
  8
0
100
AcDbBlockEnd
  0
BLOCK
  5
66
330
64
100
AcDbEntity
  8
0
100
AcDbBlockBegin
  2
GENAXEH
 70
     0
 10
0.0
 20
0.0
 30
0.0
  3
GENAXEH
  1

  0
LINE
  5
65
330
64
100
AcDbEntity
  8
0
100
AcDbLine
 10
-1.0
 20
0.0
 30
0.0
 11
1.0
 21
0.0
 31
0.0
  0
ENDBLK
  5
67
330
64
100
AcDbEntity
  8
0
100
AcDbBlockEnd
  0
BLOCK
  5
CD2
330
CC8
100
AcDbEntity
  8
0
100
AcDbBlockBegin
  2
*D5
 70
     1
 10
0.0
 20
0.0
 30
0.0
  3
*D5
  1

  0
LINE
  5
46D6
330
CC8
100
AcDbEntity
  8
AM_5
 62
     3
100
AcDbLine
 10
-92.99999999999998
 20
-1.750006209471332
 30
0.0
 11
-92.99999999999998
 21
-14.50001073155849
 31
0.0
  0
LINE
  5
46D7
330
CC8
100
AcDbEntity
  8
AM_5
 62
     3
100
AcDbLine
 10
-0.999999999999985
 20
-1.750001377810814
 30
0.0
 11
-0.9999999999999859
 21
-14.50001073155849
 31
0.0
  0
LINE
  5
46D8
330
CC8
100
AcDbEntity
  8
AM_5
 62
     3
100
AcDbLine
 10
-91.74999999999998
 20
-14.00001073155849
 30
0.0
 11
-2.249999999999985
 21
-14.00001073155849
 31
0.0
  0
INSERT
  5
46D9
330
CC8
100
AcDbEntity
  8
AM_5
 62
     3
100
AcDbBlockReference
  2
_OPEN30
 10
-92.99999999999998
 20
-14.00001073155849
 30
0.0
 41
1.25
 42
1.25
 43
1.25
 50
180.0
  0
INSERT
  5
46DA
330
CC8
100
AcDbEntity
  8
AM_5
 62
     3
100
AcDbBlockReference
  2
_OPEN30
 10
-0.9999999999999859
 20
-14.00001073155849
 30
0.0
 41
1.25
 42
1.25
 43
1.25
  0
MTEXT
  5
46DB
330
CC8
100
AcDbEntity
  8
AM_5
 62
     2
100
AcDbMText
 10
-46.99999999999998
 20
-12.30001073155849
 30
0.0
 40
1.9
 41
0.0
 71
     5
 72
     1
  1
92
1001
ACAD
1000
MTEXTBEGIN
1070
    73
1070
     1
1070
    44
1040
1.0
1070
    74
1070
     0
1000
MTEXTEND
  0
POINT
  5
46DC
330
CC8
100
AcDbEntity
  8
DEFPOINTS
 62
     0
100
AcDbPoint
 10
-92.99999999999998
 20
-1.750006209471332
 30
0.0
  0
POINT
  5
46DD
330
CC8
100
AcDbEntity
  8
DEFPOINTS
 62
     0
100
AcDbPoint
 10
-0.999999999999985
 20
-1.750001377810814
 30
0.0
  0
POINT
  5
46DE
330
CC8
100
AcDbEntity
  8
DEFPOINTS
 62
     0
100
AcDbPoint
 10
-0.9999999999999859
 20
-14.00001073155849
 30
0.0
  0
ENDBLK
  5
CD3
330
CC8
100
AcDbEntity
  8
0
100
AcDbBlockEnd
  0
BLOCK
  5
E00
330
DF6
100
AcDbEntity
  8
0
100
AcDbBlockBegin
  2
*D6
 70
     1
 10
0.0
 20
0.0
 30
0.0
  3
*D6
  1

  0
LINE
  5
46F3
330
DF6
100
AcDbEntity
  8
AM_5
 62
     3
100
AcDbLine
 10
-44.99999999999999
 20
-2.000009731558581
 30
0.0
 11
-44.99999999999999
 21
-9.500010731558472
 31
0.0
  0
LINE
  5
46F4
330
DF6
100
AcDbEntity
  8
AM_5
 62
     3
100
AcDbLine
 10
-0.999999999999985
 20
-1.750001377810814
 30
0.0
 11
-0.9999999999999856
 21
-9.500010731558472
 31
0.0
  0
LINE
  5
46F5
330
DF6
100
AcDbEntity
  8
AM_5
 62
     3
100
AcDbLine
 10
-43.74999999999999
 20
-9.000010731558472
 30
0.0
 11
-2.249999999999985
 21
-9.000010731558472
 31
0.0
  0
INSERT
  5
46F6
330
DF6
100
AcDbEntity
  8
AM_5
 62
     3
100
AcDbBlockReference
  2
_OPEN30
 10
-44.99999999999999
 20
-9.000010731558472
 30
0.0
 41
1.25
 42
1.25
 43
1.25
 50
180.0
  0
INSERT
  5
46F7
330
DF6
100
AcDbEntity
  8
AM_5
 62
     3
100
AcDbBlockReference
  2
_OPEN30
 10
-0.9999999999999856
 20
-9.000010731558472
 30
0.0
 41
1.25
 42
1.25
 43
1.25
  0
MTEXT
  5
46F8
330
DF6
100
AcDbEntity
  8
AM_5
 62
     2
100
AcDbMText
 10
-22.99999999999998
 20
-7.300010731558471
 30
0.0
 40
1.9
 41
0.0
 71
     5
 72
     1
  1
44
1001
ACAD
1000
MTEXTBEGIN
1070
    73
1070
     1
1070
    44
1040
1.0
1070
    74
1070
     0
1000
MTEXTEND
  0
POINT
  5
46F9
330
DF6
100
AcDbEntity
  8
DEFPOINTS
 62
     0
100
AcDbPoint
 10
-44.99999999999999
 20
-2.000009731558581
 30
0.0
  0
POINT
  5
46FA
330
DF6
100
AcDbEntity
  8
DEFPOINTS
 62
     0
100
AcDbPoint
 10
-0.999999999999985
 20
-1.750001377810814
 30
0.0
  0
POINT
  5
46FB
330
DF6
100
AcDbEntity
  8
DEFPOINTS
 62
     0
100
AcDbPoint
 10
-0.9999999999999856
 20
-9.000010731558472
 30
0.0
  0
ENDBLK
  5
E01
330
DF6
100
AcDbEntity
  8
0
100
AcDbBlockEnd
  0
BLOCK
  5
1C7E
330
1C72
100
AcDbEntity
  8
0
100
AcDbBlockBegin
  2
*D7
 70
     1
 10
0.0
 20
0.0
 30
0.0
  3
*D7
  1

  0
LINE
  5
46FC
330
1C72
100
AcDbEntity
  8
AM_5
 62
     3
100
AcDbLine
 10
-0.9999999999999971
 20
-1.750001377810822
 30
0.0
 11
7.795959565407684
 21
-1.750001377810825
 31
0.0
  0
LINE
  5
46FD
330
1C72
100
AcDbEntity
  8
AM_5
 62
     3
100
AcDbLine
 10
-0.9999999999999857
 20
1.750001377810813
 30
0.0
 11
7.795959565407684
 21
1.750001377810811
 31
0.0
  0
LINE
  5
46FE
330
1C72
100
AcDbEntity
  8
AM_5
 62
     3
100
AcDbLine
 10
7.295959565407683
 20
-3.000001377810825
 30
0.0
 11
7.295959565407683
 21
-4.250001377810825
 31
0.0
  0
LINE
  5
46FF
330
1C72
100
AcDbEntity
  8
AM_5
 62
     3
100
AcDbLine
 10
7.295959565407684
 20
3.000001377810811
 30
0.0
 11
7.295959565407686
 21
11.45000137781081
 31
0.0
  0
LINE
  5
4700
330
1C72
100
AcDbEntity
  8
AM_5
 62
     3
100
AcDbLine
 10
7.295959565407684
 20
-1.750001377810824
 30
0.0
 11
7.295959565407684
 21
1.750001377810811
 31
0.0
  0
INSERT
  5
4701
330
1C72
100
AcDbEntity
  8
AM_5
 62
     3
100
AcDbBlockReference
  2
_OPEN30
 10
7.295959565407684
 20
-1.750001377810824
 30
0.0
 41
1.25
 42
1.25
 43
1.25
 50
90.0
  0
INSERT
  5
4702
330
1C72
100
AcDbEntity
  8
AM_5
 62
     3
100
AcDbBlockReference
  2
_OPEN30
 10
7.295959565407684
 20
1.750001377810811
 30
0.0
 41
1.25
 42
1.25
 43
1.25
 50
270.0
  0
MTEXT
  5
4703
330
1C72
100
AcDbEntity
  8
AM_5
 62
     2
100
AcDbMText
 10
5.595959565407684
 20
7.850001377810812
 30
0.0
 40
1.9
 41
0.0
 71
     5
 72
     1
  1
%%c3.5
 11
0.0000000000000001
 21
1.0
 31
0.0
1001
ACAD
1000
MTEXTBEGIN
1070
    73
1070
     1
1070
    44
1040
1.0
1070
    74
1070
     0
1000
MTEXTEND
  0
POINT
  5
4704
330
1C72
100
AcDbEntity
  8
DEFPOINTS
 62
     0
100
AcDbPoint
 10
-0.9999999999999971
 20
-1.750001377810822
 30
0.0
  0
POINT
  5
4705
330
1C72
100
AcDbEntity
  8
DEFPOINTS
 62
     0
100
AcDbPoint
 10
-0.9999999999999857
 20
1.750001377810813
 30
0.0
  0
POINT
  5
4706
330
1C72
100
AcDbEntity
  8
DEFPOINTS
 62
     0
100
AcDbPoint
 10
7.295959565407684
 20
1.750001377810811
 30
0.0
  0
ENDBLK
  5
1C7F
330
1C72
100
AcDbEntity
  8
0
100
AcDbBlockEnd
  0
BLOCK
  5
1DFC
330
1DF0
100
AcDbEntity
  8
0
100
AcDbBlockBegin
  2
*D8
 70
     1
 10
0.0
 20
0.0
 30
0.0
  3
*D8
  1

  0
LINE
  5
46DF
330
1DF0
100
AcDbEntity
  8
AM_5
 62
     3
100
AcDbLine
 10
-92.74999999999998
 20
-2.000006181011474
 30
0.0
 11
-102.4946895947447
 21
-2.000006181011493
 31
0.0
  0
LINE
  5
46E0
330
1DF0
100
AcDbEntity
  8
AM_5
 62
     3
100
AcDbLine
 10
-92.75
 20
2.000005264988815
 30
0.0
 11
-102.4946895947447
 21
2.000005264988796
 31
0.0
  0
LINE
  5
46E1
330
1DF0
100
AcDbEntity
  8
AM_5
 62
     3
100
AcDbLine
 10
-101.9946895947448
 20
-0.7500061810114929
 30
0.0
 11
-101.9946895947448
 21
0.750005264988797
 31
0.0
  0
INSERT
  5
46E2
330
1DF0
100
AcDbEntity
  8
AM_5
 62
     3
100
AcDbBlockReference
  2
_OPEN30
 10
-101.9946895947448
 20
-2.000006181011492
 30
0.0
 41
1.25
 42
1.25
 43
1.25
 50
270.0000000000001
  0
INSERT
  5
46E3
330
1DF0
100
AcDbEntity
  8
AM_5
 62
     3
100
AcDbBlockReference
  2
_OPEN30
 10
-101.9946895947448
 20
2.000005264988796
 30
0.0
 41
1.25
 42
1.25
 43
1.25
 50
90.0000000000001
  0
MTEXT
  5
46E4
330
1DF0
100
AcDbEntity
  8
AM_5
 62
     2
100
AcDbMText
 10
-103.6946895947447
 20
-0.0000004580113473
 30
0.0
 40
1.9
 41
0.0
 71
     5
 72
     1
  1
%%c4
 11
-0.000000000000002
 21
1.0
 31
0.0
1001
ACAD
1000
MTEXTBEGIN
1070
    73
1070
     1
1070
    44
1040
1.0
1070
    74
1070
     0
1000
MTEXTEND
  0
POINT
  5
46E5
330
1DF0
100
AcDbEntity
  8
DEFPOINTS
 62
     0
100
AcDbPoint
 10
-92.74999999999998
 20
-2.000006181011269
 30
0.0
  0
POINT
  5
46E6
330
1DF0
100
AcDbEntity
  8
DEFPOINTS
 62
     0
100
AcDbPoint
 10
-92.75
 20
2.00000526498902
 30
0.0
  0
POINT
  5
46E7
330
1DF0
100
AcDbEntity
  8
DEFPOINTS
 62
     0
100
AcDbPoint
 10
-101.9946895947448
 20
2.000005264989023
 30
0.0
  0
ENDBLK
  5
1DFD
330
1DF0
100
AcDbEntity
  8
0
100
AcDbBlockEnd
  0
BLOCK
  5
43FE
330
43F0
100
AcDbEntity
  8
0
100
AcDbBlockBegin
  2
*D9
 70
     1
 10
0.0
 20
0.0
 30
0.0
  3
*D9
  1

  0
LINE
  5
46E8
330
43F0
100
AcDbEntity
  8
AM_5
100
AcDbLine
 10
0.171010071662855
 20
-0.4698463103929546
 30
0.0
 11
5.266759752975634
 21
-14.47030349499272
 31
0.0
  0
LINE
  5
46E9
330
43F0
100
AcDbEntity
  8
AM_5
100
AcDbLine
 10
0.171010071662857
 20
0.4698463103929587
 30
0.0
 11
5.266759752975696
 21
14.4703034949927
 31
0.0
  0
ARC
  5
46EA
330
43F0
100
AcDbEntity
  8
AM_5
100
AcDbCircle
 10
0.0000000000000174
 20
0.0000000000000025
 30
0.0
 40
14.89897534035178
100
AcDbArc
 50
294.8084344522541
 51
65.19156554774558
  0
INSERT
  5
46EB
330
43F0
100
AcDbEntity
  8
AM_5
100
AcDbBlockReference
  2
_OPEN30
 10
5.095749681312797
 20
-14.00045718459976
 30
0.0
 41
1.25
 42
1.25
 43
1.25
 50
202.4042172261272
  0
INSERT
  5
46EC
330
43F0
100
AcDbEntity
  8
AM_5
100
AcDbBlockReference
  2
_OPEN30
 10
5.095749681312858
 20
14.00045718459975
 30
0.0
 41
1.25
 42
1.25
 43
1.25
 50
157.5957827738725
  0
MTEXT
  5
46ED
330
43F0
100
AcDbEntity
  8
AM_5
 62
     2
100
AcDbMText
 10
13.3489753403518
 20
-0.0000000000000269
 30
0.0
 40
1.6
 41
0.0
 71
     5
 72
     1
  1
140°
  7
ASAMI
 11
-0.000000000000002
 21
1.0
 31
0.0
1001
ACAD
1000
MTEXTBEGIN
1070
    73
1070
     1
1070
    44
1040
1.0
1070
    74
1070
     0
1000
MTEXTEND
  0
POINT
  5
46EE
330
43F0
100
AcDbEntity
  8
DEFPOINTS
 62
     0
100
AcDbPoint
 10
13.68047913352302
 20
-5.901182667029726
 30
0.0
  0
POINT
  5
46EF
330
43F0
100
AcDbEntity
  8
DEFPOINTS
 62
     0
100
AcDbPoint
 10
0.0000000000000187
 20
0.000000000000006
 30
0.0
  0
POINT
  5
46F0
330
43F0
100
AcDbEntity
  8
DEFPOINTS
 62
     0
100
AcDbPoint
 10
0.0000000000000187
 20
-0.000000000000001
 30
0.0
  0
POINT
  5
46F1
330
43F0
100
AcDbEntity
  8
DEFPOINTS
 62
     0
100
AcDbPoint
 10
-0.2765455889895443
 20
0.7598027611985977
 30
0.0
  0
POINT
  5
46F2
330
43F0
100
AcDbEntity
  8
DEFPOINTS
 62
     0
100
AcDbPoint
 10
-0.2765455889895507
 20
-0.7598027611985905
 30
0.0
  0
ENDBLK
  5
43FF
330
43F0
100
AcDbEntity
  8
0
100
AcDbBlockEnd
  0
ENDSEC
  0
SECTION
  2
ENTITIES
  0
LINE
  5
C1D
330
1F
100
AcDbEntity
  8
AM_0
 48
0.5
100
AcDbLine
 10
0.0000000000000187
 20
-0.000000000000001
 30
0.0
 11
-0.2765455889895443
 21
0.7598027611985977
 31
0.0
  0
LINE
  5
C2E
330
1F
100
AcDbEntity
  8
AM_0
 48
0.5
100
AcDbLine
 10
-92.75
 20
-2.000006181011257
 30
0.0
 11
-92.74999999999996
 21
2.000005264989042
 31
0.0
  0
LINE
  5
C30
330
1F
100
AcDbEntity
  8
AM_0
 48
0.5
100
AcDbLine
 10
-92.99999999999998
 20
-1.750006209471332
 30
0.0
 11
-92.99999999999998
 21
1.750005235204347
 31
0.0
  0
LINE
  5
C9F
330
1F
100
AcDbEntity
  8
AM_7
100
AcDbLine
 10
-93.74999999999998
 20
-0.0000000000001451
 30
0.0
 11
0.295958565231807
 21
0.0000000000000005
 31
0.0
1001
GENIUS_GENODEF_13
1002
{
1000
HIER
1070
     0
1002
}
1002
{
1000
MANEDIT
1070
     0
1002
}
1002
{
1000
NOSEL
1070
     0
1002
}
1002
{
1000
BEHIND
1070
     0
1002
}
1002
{
1000
REACTOR
1002
}
1001
GENIUS_GENOBJ-N-CEN_13
1002
{
1000
OWNER
1000
GEN
1002
}
  0
DIMENSION
  5
CC6
330
1F
100
AcDbEntity
  8
AM_5
100
AcDbDimension
  2
*D5
 10
-0.9999999999999859
 20
-14.00001073155849
 30
0.0
 11
-46.99999999999998
 21
-12.30001073155849
 31
0.0
 70
    32
  1
<>
  3
AM_JIS$0
100
AcDbAlignedDimension
 13
-92.99999999999998
 23
-1.750006209471332
 33
0.0
 14
-0.999999999999985
 24
-1.750001377810814
 34
0.0
 50
0.0000000000001132
100
AcDbRotatedDimension
1001
GENIUS_GENDTOL_13
1000

1000
h7
1000

1040
0.0
1001
ACAD
1000
DSTYLE
1002
{
1070
   271
1070
     0
1002
}
  0
DIMENSION
  5
DF5
330
1F
100
AcDbEntity
  8
AM_5
100
AcDbDimension
  2
*D6
 10
-0.9999999999999856
 20
-9.000010731558472
 30
0.0
 11
-22.99999999999998
 21
-7.300010731558471
 31
0.0
 70
    32
  1
<>
  3
AM_JIS$0
100
AcDbAlignedDimension
 13
-44.99999999999999
 23
-2.000009731558581
 33
0.0
 14
-0.999999999999985
 24
-1.750001377810814
 34
0.0
 50
0.0000000000001527
100
AcDbRotatedDimension
1001
GENIUS_GENDTOL_13
1000

1000
h7
1000

1040
0.0
1001
ACAD
1000
DSTYLE
1002
{
1070
   271
1070
     0
1002
}
  0
TEXT
  5
19BD
330
1F
100
AcDbEntity
  8
AM_6
100
AcDbText
 10
-58.07142857142853
 20
-25.25001073155852
 30
0.0
 40
2.5
  1
MDW035DHK
 50
0.0000000000001527
 72
     4
 11
-46.99999999999995
 21
-24.00001073155849
 31
0.0
100
AcDbText
  0
LINE
  5
1B5C
330
1F
100
AcDbEntity
  8
AM_0
 48
0.5
100
AcDbLine
 10
-92.74999999999998
 20
2.000005264989034
 30
0.0
 11
-92.99999999999998
 21
1.750005235204341
 31
0.0
1001
GENIUS_GENFIL_13
1070
     0
1040
0.25
1040
0.25
1040
20.0
1040
0.0
1002
{
1002
}
1001
GENIUS_GENODEF_13
1002
{
1000
HIER
1070
     0
1002
}
1002
{
1000
MANEDIT
1070
     0
1002
}
1002
{
1000
NOSEL
1070
     0
1002
}
1002
{
1000
BEHIND
1070
     0
1002
}
1002
{
1000
REACTOR
1002
}
1001
GENIUS_GENOBJ-N-CHA_13
1002
{
1000
OWNER
1000
GEN
1002
}
  0
LINE
  5
1B60
330
1F
100
AcDbEntity
  8
AM_0
 48
0.5
100
AcDbLine
 10
-92.99999999999998
 20
-1.750006209471344
 30
0.0
 11
-92.74999999999998
 21
-2.000006181011269
 31
0.0
1001
GENIUS_GENFIL_13
1070
     0
1040
0.25
1040
0.25
1040
20.0
1040
0.0
1002
{
1002
}
1001
GENIUS_GENODEF_13
1002
{
1000
HIER
1070
     0
1002
}
1002
{
1000
MANEDIT
1070
     0
1002
}
1002
{
1000
NOSEL
1070
     0
1002
}
1002
{
1000
BEHIND
1070
     0
1002
}
1002
{
1000
REACTOR
1002
}
1001
GENIUS_GENOBJ-N-CHA_13
1002
{
1000
OWNER
1000
GEN
1002
}
  0
LINE
  5
1C1A
330
1F
100
AcDbEntity
  8
AM_0
 48
0.5
100
AcDbLine
 10
-44.99999999999999
 20
2.000009731558435
 30
0.0
 11
-92.74999999999998
 21
2.000005264989034
 31
0.0
  0
LINE
  5
1C1E
330
1F
100
AcDbEntity
  8
AM_0
 48
0.5
100
AcDbLine
 10
-44.99999999999998
 20
-2.000001913084137
 30
0.0
 11
-92.74999999999998
 21
-2.000006181011269
 31
0.0
  0
DIMENSION
  5
1C71
330
1F
100
AcDbEntity
  8
AM_5
100
AcDbDimension
  2
*D7
 10
7.295959565407684
 20
1.750001377810811
 30
0.0
 11
7.295959565407684
 21
7.850001377810811
 31
0.0
 70
   160
  1
%%c<>
  3
AM_JIS$0
100
AcDbAlignedDimension
 13
-0.9999999999999971
 23
-1.750001377810822
 33
0.0
 14
-0.9999999999999857
 24
1.750001377810813
 34
0.0
 50
89.99999999999991
100
AcDbRotatedDimension
1001
GENIUS_GENDTOL_13
1000

1000
h7
1000

1040
0.0
1001
ACAD
1000
DSTYLE
1002
{
1070
   271
1070
     1
1002
}
  0
LINE
  5
1C85
330
1F
100
AcDbEntity
  8
AM_0
 48
0.5
100
AcDbLine
 10
-0.8407846240681895
 20
1.535010320282598
 30
0.0
 11
-0.9999999999999857
 21
1.750001377810813
 31
0.0
  0
ELLIPSE
  5
1C86
330
1F
100
AcDbEntity
  8
AM_0
 48
0.5
100
AcDbEllipse
 10
0.8844515937076273
 20
3.582887610164779
 30
0.0
 11
0.6527524322185975
 21
3.06438664734486
 31
0.0
210
0.0
220
0.0
230
0.9999999999999998
 40
0.6125710561723813
 41
2.424920596804919
 42
2.852383539109754
  0
DIMENSION
  5
1DEF
330
1F
100
AcDbEntity
  8
AM_5
100
AcDbDimension
  2
*D8
 10
-101.9946895947448
 20
2.000005264989023
 30
0.0
 11
-101.9946895947448
 21
-0.0000004580111379
 31
0.0
 70
   160
  1
%%c<>
 51
359.9999999999998
  3
AM_JIS$0
100
AcDbAlignedDimension
 13
-92.74999999999998
 23
-2.000006181011269
 33
0.0
 14
-92.75
 24
2.00000526498902
 34
0.0
 50
270.0000065225689
100
AcDbRotatedDimension
1001
ACAD
1000
DSTYLE
1002
{
1070
   271
1070
     0
1002
}
1001
GENIUS_GENDTOL_13
1000

1000
h7
1000

1040
0.0
  0
LINE
  5
2D2A
330
1F
100
AcDbEntity
  8
AM_0
 48
0.5
100
AcDbLine
 10
0.0000000000000187
 20
0.0000000000000028
 30
0.0
 11
-1.973720236878693
 21
0.5323588444561022
 31
0.0
  0
ELLIPSE
  5
2D4A
330
1F
100
AcDbEntity
  8
AM_0
 48
0.5
100
AcDbEllipse
 10
-0.4768785294660815
 20
-0.5620214587035002
 30
0.0
 11
-1.876075064938951
 21
0.6041766020235616
 31
0.0
210
0.0
220
0.0
230
1.0
 40
0.65659838138364
 41
0.5801324497757041
 42
1.502871076747882
  0
ELLIPSE
  5
2D4B
330
1F
100
AcDbEntity
  8
AM_0
 48
0.5
100
AcDbEllipse
 10
-0.9537949545683357
 20
-0.3525028035161912
 30
0.0
 11
-0.1948458793318958
 21
0.2461733141850419
 31
0.0
210
0.0
220
0.0
230
1.0
 40
0.7705910092763736
 41
1.346113611091114
 42
4.481455500803088
  0
ELLIPSE
  5
2D4C
330
1F
100
AcDbEntity
  8
AM_0
 48
0.5
100
AcDbEllipse
 10
-0.9537949545683357
 20
-0.3525028035161912
 30
0.0
 11
-0.4678935873046291
 21
0.1179946190092822
 31
0.0
210
0.0
220
0.0
230
1.0
 40
0.3262019338085742
 41
4.284880031841795
 42
7.428320373171306
  0
ELLIPSE
  5
2D4D
330
1F
100
AcDbEntity
  8
AM_0
 48
0.5
100
AcDbEllipse
 10
-5.409527020030169
 20
2.937135726472972
 30
0.0
 11
-6.853999866231928
 21
1.434920535731308
 31
0.0
210
0.0
220
0.0
230
1.0
 40
0.4676417335767412
 41
2.416497005983218
 42
2.571885057488811
  0
ELLIPSE
  5
2D4E
330
1F
100
AcDbEntity
  8
AM_0
 48
0.5
100
AcDbEllipse
 10
-1.592620483266117
 20
-1.978571185926263
 30
0.0
 11
2.699831691631965
 21
0.8831789088350896
 31
0.0
210
0.0
220
0.0
230
1.0
 40
0.4924568352206255
 41
1.260369111256358
 42
1.658913701457463
  0
LINE
  5
37ED
330
1F
100
AcDbEntity
  8
AM_0
 48
0.5
100
AcDbLine
 10
0.0000000000000187
 20
0.000000000000006
 30
0.0
 11
-0.2765455889895507
 21
-0.7598027611985905
 31
0.0
  0
ARC
  5
3A44
330
1F
100
AcDbEntity
  8
AM_11
 48
0.5
100
AcDbCircle
 10
-91.86968231175454
 20
6.625451430235242
 30
0.0
 40
7.325448036193749
100
AcDbArc
 50
244.7482808787518
 51
244.7483500411031
  0
SPLINE
  5
3FFE
330
1F
100
AcDbEntity
  8
AM_0
100
AcDbSpline
210
0.0
220
0.0
230
1.0
 70
     8
 71
     3
 72
    22
 73
    18
 74
     0
 42
0.0000000001
 43
0.0000000001
 40
17.17441611292
 40
17.17441611292
 40
17.17441611292
 40
17.17441611292
 40
17.38177636558528
 40
18.41823744757437
 40
19.46215659509824
 40
20.51397914882054
 40
21.57394542641293
 40
22.64209583141747
 40
23.71826625065247
 40
24.80210429862395
 40
25.8930771157021
 40
26.99048705697709
 40
28.09349309193389
 40
29.20112995599786
 40
30.31233024745139
 40
31.42594771747373
 40
32.5407895042663
 40
32.54078950426994
 40
32.54078950426994
 40
32.54078950426994
 10
-24.48667417728259
 20
-1.571511288074121
 30
0.0
 10
-24.51174101113716
 20
-1.567460209717218
 30
0.0
 10
-24.66200299030006
 20
-1.54278464865154
 30
0.0
 10
-24.93727446889767
 20
-1.493306937119077
 30
0.0
 10
-25.31144976109132
 20
-1.416841009881393
 30
0.0
 10
-25.68558692560813
 20
-1.331643159563431
 30
0.0
 10
-26.0596886038355
 20
-1.238245212271948
 30
0.0
 10
-26.43375430161116
 20
-1.137219835514437
 30
0.0
 10
-26.80778862325006
 20
-1.029195756893743
 30
0.0
 10
-27.18179330063627
 20
-0.9148368576402454
 30
0.0
 10
-27.5557717942024
 20
-0.7948483828194986
 30
0.0
 10
-27.92972826235221
 20
-0.6699705853191757
 30
0.0
 10
-28.30366595080221
 20
-0.5409713424925068
 30
0.0
 10
-28.67758862383979
 20
-0.4086442794796141
 30
0.0
 10
-29.05149959596401
 20
-0.2738030579324049
 30
0.0
 10
-29.42540440634073
 20
-0.1372797210705838
 30
0.0
 10
-29.67462535123415
 20
-0.0457164149876822
 30
0.0
 10
-29.7993042864687
 20
0.0000903874149973
 30
0.0
  0
SPLINE
  5
3FFF
330
1F
100
AcDbEntity
  8
AM_0
100
AcDbSpline
210
0.0
220
0.0
230
1.0
 70
     8
 71
     3
 72
    22
 73
    18
 74
     0
 42
0.0000000001
 43
0.0000000001
 40
17.17441611292
 40
17.17441611292
 40
17.17441611292
 40
17.17441611292
 40
17.38177636558528
 40
18.41823744757437
 40
19.46215659509824
 40
20.51397914882054
 40
21.57394542641293
 40
22.64209583141747
 40
23.71826625065247
 40
24.80210429862395
 40
25.8930771157021
 40
26.99048705697709
 40
28.09349309193389
 40
29.20112995599786
 40
30.31233024745139
 40
31.42594771747373
 40
32.5407895042663
 40
32.54078950426994
 40
32.54078950426994
 40
32.54078950426994
 10
-11.15998118990229
 20
-1.571511288074533
 30
0.0
 10
-11.18504802375686
 20
-1.567460209717628
 30
0.0
 10
-11.33531000291976
 20
-1.542784648651952
 30
0.0
 10
-11.61058148151737
 20
-1.493306937119488
 30
0.0
 10
-11.98475677371102
 20
-1.416841009881804
 30
0.0
 10
-12.35889393822785
 20
-1.331643159563844
 30
0.0
 10
-12.73299561645524
 20
-1.238245212272359
 30
0.0
 10
-13.1070613142309
 20
-1.137219835514849
 30
0.0
 10
-13.48109563586981
 20
-1.029195756894154
 30
0.0
 10
-13.85510031325604
 20
-0.9148368576406577
 30
0.0
 10
-14.22907880682217
 20
-0.7948483828199097
 30
0.0
 10
-14.60303527497198
 20
-0.6699705853195875
 30
0.0
 10
-14.97697296342194
 20
-0.5409713424929184
 30
0.0
 10
-15.35089563645952
 20
-0.4086442794800254
 30
0.0
 10
-15.72480660858373
 20
-0.2738030579328161
 30
0.0
 10
-16.09871141896046
 20
-0.1372797210709951
 30
0.0
 10
-16.34793236385388
 20
-0.0457164149880936
 30
0.0
 10
-16.47261129908844
 20
0.0000903874145859
 30
0.0
  0
LINE
  5
4000
330
1F
100
AcDbEntity
  8
AM_0
 48
0.5
100
AcDbLine
 10
-3.657842095309898
 20
-1.749998622188954
 30
0.0
 11
-0.9999999999999857
 21
-1.750001377810814
 31
0.0
  0
LINE
  5
4001
330
1F
100
AcDbEntity
  8
AM_0
100
AcDbLine
 10
-0.9999999999999857
 20
1.75000137781079
 30
0.0
 11
-2.758830239948316
 21
1.750001377811029
 31
0.0
  0
ELLIPSE
  5
4002
330
1F
100
AcDbEntity
  8
AM_0
 48
0.5
100
AcDbEllipse
 10
1.017191113293819
 20
2.100984043826542
 30
0.0
 11
5.522260223949698
 21
0.7133425906786851
 31
0.0
210
0.0
220
0.0
230
1.0
 40
0.5643315360705238
 41
3.334617183729518
 42
4.005455488607164
  0
SPLINE
  5
4003
330
1F
100
AcDbEntity
  8
AM_0
 48
0.5
100
AcDbSpline
210
0.0
220
0.0
230
1.0
 70
     8
 71
     3
 72
    10
 73
     6
 74
     0
 42
0.0000000001
 43
0.0000000001
 40
0.0
 40
0.0
 40
0.0
 40
0.0
 40
2.69986029516136
 40
4.147722969032201
 40
6.201687855798567
 40
6.201687855798567
 40
6.201687855798567
 40
6.201687855798567
 10
-4.32528998698078
 20
0.803078855230748
 30
0.0
 10
-3.458984140983921
 20
0.0349330214652537
 30
0.0
 10
-2.90056363144439
 20
-0.2148451694654637
 30
0.0
 10
-1.597634974910406
 20
-0.095540315512142
 30
0.0
 10
-1.817569699513145
 20
0.2944486622773482
 30
0.0
 10
-1.973720236878693
 20
0.5323588444561014
 30
0.0
  0
SPLINE
  5
4004
330
1F
100
AcDbEntity
  8
AM_0
 48
0.5
100
AcDbSpline
210
0.0
220
0.0
230
1.0
 70
     8
 71
     3
 72
    17
 73
    13
 74
     0
 42
0.0000000001
 43
0.0000000001
 40
0.0
 40
0.0
 40
0.0
 40
0.0
 40
1.010743614677189
 40
2.022833924044153
 40
3.037578959561199
 40
4.056212747067873
 40
5.079857613375832
 40
6.109500119648989
 40
7.14596120163808
 40
8.18989512056258
 40
9.241717674284874
 40
9.693948937866434
 40
9.693948937866434
 40
9.693948937866434
 40
9.693948937866434
 10
-2.679439441676418
 20
1.750001377811033
 30
0.0
 10
-2.80416914269586
 20
1.748960920552209
 30
0.0
 10
-3.053794732107682
 20
1.746878619750014
 30
0.0
 10
-3.428141799036419
 20
1.730076239799567
 30
0.0
 10
-3.802473454313706
 20
1.703374978688461
 30
0.0
 10
-4.176781829347703
 20
1.665948110927732
 30
0.0
 10
-4.55106246623411
 20
1.618303230752325
 30
0.0
 10
-4.925310793504939
 20
1.560661236878138
 30
0.0
 10
-5.299521788118649
 20
1.493393189882615
 30
0.0
 10
-5.673709970963958
 20
1.416951955582351
 30
0.0
 10
-5.975764429591559
 20
1.348089958452781
 30
0.0
 10
-6.153148517476729
 20
1.305041307458311
 30
0.0
 10
-6.206389703885894
 20
1.291864403569222
 30
0.0
  0
LINE
  5
4005
330
1F
100
AcDbEntity
  8
AM_0
 48
0.5
100
AcDbLine
 10
-16.0061324290568
 20
-1.749998622188554
 30
0.0
 11
-9.73118016030253
 21
-1.749998622188728
 31
0.0
  0
LINE
  5
4006
330
1F
100
AcDbEntity
  8
AM_11
 48
0.5
100
AcDbLine
 10
-23.05787314768191
 20
-1.749998622188315
 30
0.0
 11
-16.0061324290568
 21
-1.750247241447755
 31
0.0
  0
LINE
  5
4007
330
1F
100
AcDbEntity
  8
AM_11
 48
0.5
100
AcDbLine
 10
-36.59558916353922
 20
-1.750247241447224
 30
0.0
 11
-31.36965025771329
 21
-1.749908234773814
 31
0.0
  0
LINE
  5
4008
330
1F
100
AcDbEntity
  8
AM_0
100
AcDbLine
 10
-36.59558916353922
 20
-1.750247241447224
 30
0.0
 11
-44.56701617073754
 21
-1.750026401179157
 31
0.0
  0
LINE
  5
4009
330
1F
100
AcDbEntity
  8
AM_0
 48
0.5
100
AcDbLine
 10
-31.36965025771329
 20
-1.749908234773814
 30
0.0
 11
-23.05787314768332
 21
-1.749998622188281
 31
0.0
  0
LINE
  5
400A
330
1F
100
AcDbEntity
  8
AM_11
 48
0.5
100
AcDbLine
 10
-9.731179121348855
 20
-1.749998622188723
 30
0.0
 11
-3.657842095309837
 21
-1.749998622188965
 31
0.0
  0
SPLINE
  5
400B
330
1F
100
AcDbEntity
  8
AM_0
100
AcDbSpline
210
0.0
220
0.0
230
1.0
 70
     8
 71
     3
 72
    17
 73
    13
 74
     0
 42
0.0000000001
 43
0.0000000001
 40
1.580019955310467
 40
1.580019955310467
 40
1.580019955310467
 40
1.580019955310467
 40
2.030549285115227
 40
3.082371838836284
 40
4.126290986361125
 40
5.162752068350215
 40
6.192395305374981
 40
7.216039564037012
 40
8.234688489606833
 40
9.249433870634691
 40
10.26152376260694
 40
11.27226744710342
 40
11.27226744710342
 40
11.27226744710342
 40
11.27226744710352
 10
-6.205034714696865
 20
-1.291550153721978
 30
0.0
 10
-6.257998620866395
 20
-1.304852061555964
 30
0.0
 10
-6.434915861342836
 20
-1.348450841205619
 30
0.0
 10
-6.73695746447571
 20
-1.416837087077503
 30
0.0
 10
-7.111080672324805
 20
-1.493420610397937
 30
0.0
 10
-7.485306875942746
 20
-1.560650775752888
 30
0.0
 10
-7.859550226474705
 20
-1.618301809136899
 30
0.0
 10
-8.233834350148971
 20
-1.665954354149004
 30
0.0
 10
-8.608144332039325
 20
-1.703336478726681
 30
0.0
 10
-8.982477621465477
 20
-1.730205934194457
 30
0.0
 10
-9.356824995824567
 20
-1.746389758747087
 30
0.0
 10
-9.606450483627927
 20
-1.749998632202324
 30
0.0
 10
-9.731180160302498
 20
-1.749998622188729
 30
0.0
  0
SPLINE
  5
400C
330
1F
100
AcDbEntity
  8
AM_0
100
AcDbSpline
210
0.0
220
0.0
230
1.0
 70
     8
 71
     3
 72
    11
 73
     7
 74
     0
 42
0.0000000001
 43
0.0000000001
 40
11.27226913003534
 40
11.27226913003534
 40
11.27226913003534
 40
11.2722691300354
 40
12.28301561507924
 40
13.29510212255852
 40
14.30984805882082
 40
15.18258238371378
 40
15.18258238371378
 40
15.18258238371378
 40
15.18258238371378
 10
-9.731180160302519
 20
-1.749998622188729
 30
0.0
 10
-9.855435553340598
 20
-1.741433613642045
 30
0.0
 10
-10.10371197011748
 20
-1.720698100714919
 30
0.0
 10
-10.47484454215197
 20
-1.678869442223947
 30
0.0
 10
-10.82705589709897
 20
-1.628909695990018
 30
0.0
 10
-11.05484552708694
 20
-1.590504152162568
 30
0.0
 10
-11.15981747488916
 20
-1.571532874311152
 30
0.0
  0
SPLINE
  5
400D
330
1F
100
AcDbEntity
  8
AM_0
100
AcDbSpline
210
0.0
220
0.0
230
1.0
 70
     8
 71
     3
 72
    17
 73
    13
 74
     0
 42
0.0000000001
 43
0.0000000001
 40
1.580019955310467
 40
1.580019955310467
 40
1.580019955310467
 40
1.580019955310467
 40
2.030549285115227
 40
3.082371838836284
 40
4.126290986361125
 40
5.162752068350215
 40
6.192395305374981
 40
7.216039564037012
 40
8.234688489606833
 40
9.249433870634691
 40
10.26152376260694
 40
11.27226744710342
 40
11.27226744710342
 40
11.27226744710342
 40
11.27226744710352
 10
-19.53172770207715
 20
-1.291550153721565
 30
0.0
 10
-19.58469160824668
 20
-1.304852061555552
 30
0.0
 10
-19.76160884872311
 20
-1.348450841205207
 30
0.0
 10
-20.06365045185598
 20
-1.416837087077092
 30
0.0
 10
-20.43777365970508
 20
-1.493420610397525
 30
0.0
 10
-20.81199986332302
 20
-1.560650775752477
 30
0.0
 10
-21.18624321385498
 20
-1.618301809136488
 30
0.0
 10
-21.56052733752924
 20
-1.66595435414859
 30
0.0
 10
-21.93483731941959
 20
-1.703336478726269
 30
0.0
 10
-22.30917060884574
 20
-1.730205934194045
 30
0.0
 10
-22.68351798320483
 20
-1.746389758746675
 30
0.0
 10
-22.93314347100819
 20
-1.749998632201913
 30
0.0
 10
-23.05787314768277
 20
-1.749998622188316
 30
0.0
  0
SPLINE
  5
400E
330
1F
100
AcDbEntity
  8
AM_0
100
AcDbSpline
210
0.0
220
0.0
230
1.0
 70
     8
 71
     3
 72
    11
 73
     7
 74
     0
 42
0.0000000001
 43
0.0000000001
 40
11.27226913003534
 40
11.27226913003534
 40
11.27226913003534
 40
11.2722691300354
 40
12.28301561507924
 40
13.29510212255852
 40
14.30984805882082
 40
15.18258238371378
 40
15.18258238371378
 40
15.18258238371378
 40
15.18258238371378
 10
-23.05787314768279
 20
-1.749998622188316
 30
0.0
 10
-23.18212854072087
 20
-1.741433613641634
 30
0.0
 10
-23.43040495749775
 20
-1.720698100714507
 30
0.0
 10
-23.80153752953224
 20
-1.678869442223536
 30
0.0
 10
-24.15374888447925
 20
-1.628909695989607
 30
0.0
 10
-24.38153851446723
 20
-1.590504152162156
 30
0.0
 10
-24.48651046226946
 20
-1.57153287431074
 30
0.0
  0
LINE
  5
400F
330
1F
100
AcDbEntity
  8
AM_11
 48
0.5
100
AcDbLine
 10
-22.14382071543226
 20
1.750249997070894
 30
0.0
 11
-17.64367014152727
 21
1.750001377811537
 31
0.0
  0
LINE
  5
4010
330
1F
100
AcDbEntity
  8
AM_0
 48
0.5
100
AcDbLine
 10
-17.64367621515007
 20
1.750001377811537
 30
0.0
 11
-9.731180160302409
 21
1.750001377811271
 31
0.0
  0
LINE
  5
4011
330
1F
100
AcDbEntity
  8
AM_11
 48
0.5
100
AcDbLine
 10
-35.81545444632451
 20
1.75000137781198
 30
0.0
 11
-30.97042060489585
 21
1.750001377811948
 31
0.0
  0
LINE
  5
4012
330
1F
100
AcDbEntity
  8
AM_0
100
AcDbLine
 10
-35.81545444632451
 20
1.75000137781198
 30
0.0
 11
-44.56725860263762
 21
1.750166369301784
 31
0.0
  0
LINE
  5
4013
330
1F
100
AcDbEntity
  8
AM_0
100
AcDbLine
 10
-30.97042060489585
 20
1.750001377811948
 30
0.0
 11
-22.14382071543226
 21
1.750249997070894
 31
0.0
  0
LINE
  5
4014
330
1F
100
AcDbEntity
  8
AM_11
 48
0.5
100
AcDbLine
 10
-9.73118016029419
 20
1.750001377811214
 30
0.0
 11
-2.679439441678281
 21
1.750001377811018
 31
0.0
  0
SPLINE
  5
4015
330
1F
100
AcDbEntity
  8
AM_0
100
AcDbSpline
210
0.0
220
0.0
230
1.0
 70
     8
 71
     3
 72
    52
 73
    48
 74
     0
 42
0.0000000001
 43
0.0000000001
 40
3.537595802313026
 40
3.537595802313026
 40
3.537595802313026
 40
3.537595802313026
 40
4.056212745003489
 40
5.079857003664532
 40
6.109500240690281
 40
7.145961322679372
 40
8.189895241603872
 40
9.241717795325891
 40
10.30168407291828
 40
11.36983447792315
 40
12.44600489715814
 40
13.52984294512926
 40
14.62081576220742
 40
15.7182257034828
 40
16.82123173843959
 40
17.92886860250316
 40
19.0400688939571
 40
20.15368796660465
 40
21.26852814259644
 40
22.38336992938901
 40
23.49698739941135
 40
24.6081876908653
 40
25.71582455492886
 40
26.81883757994213
 40
27.91624752121713
 40
29.00722033829659
 40
30.09105838626677
 40
31.16722880550176
 40
32.23537921050758
 40
33.29534548809967
 40
34.347168041821
 40
35.39108718934584
 40
36.42754827133493
 40
37.45720575381954
 40
38.48085062012849
 40
39.49948440763516
 40
40.51422944315121
 40
41.52631975251916
 40
42.53706336719636
 40
43.54780698187354
 40
44.55989729124051
 40
45.57464232675757
 40
46.59327611426424
 40
47.6169209805722
 40
48.64656348684535
 40
49.68302456883444
 40
50.58557219878025
 40
50.58557219878025
 40
50.58557219878025
 40
50.58557219878025
 10
-3.657842095309837
 20
-1.749998622188965
 30
0.0
 10
-4.049093315767227
 20
-1.70390034932618
 30
0.0
 10
-4.237703423414542
 20
-1.658190207420324
 30
0.0
 10
-4.551062957282622
 20
-1.618302651091634
 30
0.0
 10
-4.925310004039472
 20
-1.560656710567752
 30
0.0
 10
-5.299524016456512
 20
-1.493395449387987
 30
0.0
 10
-5.673701676011726
 20
-1.41693074333376
 30
0.0
 10
-6.047840433873309
 20
-1.331732081061588
 30
0.0
 10
-6.421942154916135
 20
-1.238334245767462
 30
0.0
 10
-6.796007841059224
 20
-1.137308838606309
 30
0.0
 10
-7.170042165953682
 20
-1.029284768399917
 30
0.0
 10
-7.544046842067981
 20
-0.9149258662045413
 30
0.0
 10
-7.918025337449459
 20
-0.7949373946803368
 30
0.0
 10
-8.291981799570226
 20
-0.6700595868755875
 30
0.0
 10
-8.665919510471864
 20
-0.5410603822242614
 30
0.0
 10
-9.03984209926245
 20
-0.4087331760168924
 30
0.0
 10
-9.413753567072573
 20
-0.273892426486431
 30
0.0
 10
-9.787657193461768
 20
-0.1373670791462967
 30
0.0
 10
-10.16155825852838
 20
0.0000010207477157
 30
0.0
 10
-10.53545764509206
 20
0.1373715933531348
 30
0.0
 10
-10.90936252472471
 20
0.2738948146324935
 30
0.0
 10
-11.28327353093612
 20
0.4087359723182277
 30
0.0
 10
-11.65719678642654
 20
0.5410636826332707
 30
0.0
 10
-12.03113604860117
 20
0.6700617863827323
 30
0.0
 10
-12.40509310092404
 20
0.7949402274917191
 30
0.0
 10
-12.77907165029557
 20
0.9149286017176454
 30
0.0
 10
-13.15307631280103
 20
1.029287527962268
 30
0.0
 10
-13.52711063865325
 20
1.137311598326679
 30
0.0
 10
-13.90117633432409
 20
1.238336981331131
 30
0.0
 10
-14.27527801675553
 20
1.331734911993041
 30
0.0
 10
-14.64941516670617
 20
1.416932821962117
 30
0.0
 10
-15.02359051240475
 20
1.493398529513216
 30
0.0
 10
-15.39780438600781
 20
1.560661143232328
 30
0.0
 10
-15.772054105014
 20
1.61830049978959
 30
0.0
 10
-16.14633667447019
 20
1.665957542353301
 30
0.0
 10
-16.52064502081406
 20
1.703339972028113
 30
0.0
 10
-16.89497668373181
 20
1.730206223755611
 30
0.0
 10
-17.26932374862906
 20
1.74639512639817
 30
0.0
 10
-17.64367903957602
 20
1.751803303095626
 30
0.0
 10
-18.01803432997217
 20
1.746395126389714
 30
0.0
 10
-18.39238139652505
 20
1.730206223789673
 30
0.0
 10
-18.76671305334719
 20
1.703339971899981
 30
0.0
 10
-19.14102142254496
 20
1.66595754283513
 30
0.0
 10
-19.51530208138584
 20
1.61830073031399
 30
0.0
 10
-19.88955032599059
 20
1.560661732563733
 30
0.0
 10
-20.24674950686951
 20
1.496451826334014
 30
0.0
 10
-20.47850440332363
 20
1.449494514888729
 30
0.0
 10
-20.58602516762604
 20
1.42660992630584
 30
0.0
  0
SPLINE
  5
4016
330
1F
100
AcDbEntity
  8
AM_0
100
AcDbSpline
210
0.0
220
0.0
230
1.0
 70
     8
 71
     3
 72
    23
 73
    19
 74
     0
 42
0.0000000001
 43
0.0000000001
 40
16.03460024169435
 40
16.03460024169435
 40
16.03460024169435
 40
16.03460024169435
 40
16.35212704903564
 40
17.38177054169784
 40
18.41822485651776
 40
19.46214173629503
 40
20.51396345435107
 40
21.57393551351153
 40
22.64208202342361
 40
23.7182574881101
 40
24.80209208578934
 40
25.89306333925047
 40
26.99048218457928
 40
28.09348763352352
 40
29.20111863782268
 40
30.31232390128032
 40
31.42594612798585
 40
32.5407912310448
 40
32.5407912310486
 40
32.5407912310486
 40
32.5407912310486
 10
-22.14382071543226
 20
1.750249997070894
 30
0.0
 10
-22.10536112244938
 20
1.74434230524522
 30
0.0
 10
-21.94235246763438
 20
1.718615970100679
 30
0.0
 10
-21.65521096669484
 20
1.668209142718667
 30
0.0
 10
-21.28336197128547
 20
1.593254741645314
 30
0.0
 10
-20.91185836671363
 20
1.509093442873718
 30
0.0
 10
-20.54067820053503
 20
1.416212329074435
 30
0.0
 10
-20.16980829890782
 20
1.315129214536226
 30
0.0
 10
-19.79922722644051
 20
1.206421932969875
 30
0.0
 10
-19.42890917727574
 20
1.090723133486418
 30
0.0
 10
-19.05883310861191
 20
0.9686880116416663
 30
0.0
 10
-18.68896935010868
 20
0.8410266613748088
 30
0.0
 10
-18.31928792844445
 20
0.7084811056094744
 30
0.0
 10
-17.94976421280052
 20
0.5718134257246552
 30
0.0
 10
-17.58036728557635
 20
0.431818325563005
 30
0.0
 10
-17.21106293279322
 20
0.2893132738010688
 30
0.0
 10
-16.84182108265184
 20
0.1451240486247997
 30
0.0
 10
-16.59572596804569
 20
0.0484530573294571
 30
0.0
 10
-16.47261129908677
 20
0.0000903874139571
 30
0.0
  0
SPLINE
  5
4017
330
1F
100
AcDbEntity
  8
AM_0
100
AcDbSpline
210
0.0
220
0.0
230
1.0
 70
     8
 71
     3
 72
    46
 73
    42
 74
     0
 42
0.0000000001
 43
0.0000000001
 40
0.0
 40
0.0
 40
0.0
 40
0.0
 40
0.5056245176053715
 40
0.759310862862336
 40
1.013969309739036
 40
1.269880374404297
 40
1.527291183660732
 40
1.786406454158005
 40
2.047386241038974
 40
2.310345544571907
 40
2.575337113970003
 40
2.842374715221223
 40
3.111417320030211
 40
3.382376832022752
 40
3.655120036292296
 40
3.929472521611371
 40
4.205224030350333
 40
4.482133246366229
 40
4.759933319229942
 40
5.038338087391601
 40
5.317048131389549
 40
5.595758175387723
 40
5.874162943549382
 40
6.151963016412868
 40
6.428872232428759
 40
6.704623741167953
 40
6.978976226486702
 40
7.251719430756334
 40
7.522680721168324
 40
7.791723325977308
 40
8.058760927228528
 40
8.323752496626548
 40
8.586708135057122
 40
8.84768792193809
 40
9.106803192435362
 40
9.364213819003406
 40
9.620125035580642
 40
9.874787266973068
 40
10.12847352585207
 40
10.38149610319407
 40
10.63418200686337
 40
10.63418200686337
 40
10.63418200686337
 40
10.63418200686337
 10
-14.95821412535623
 20
-1.749998622188588
 30
0.0
 10
-15.20785180550679
 20
-1.74601198691198
 30
0.0
 10
-15.58273988098183
 20
-1.7400251421954
 30
0.0
 10
-16.08124490314901
 20
-1.703165239117361
 30
0.0
 10
-16.45555716008479
 20
-1.666000651645834
 30
0.0
 10
-16.82983742223328
 20
-1.618287634327874
 30
0.0
 10
-17.20408470361209
 20
-1.56066064443684
 30
0.0
 10
-17.57829708163956
 20
-1.493395188078038
 30
0.0
 10
-17.95247392956616
 20
-1.416929456999783
 30
0.0
 10
-18.32661358217278
 20
-1.331732962110252
 30
0.0
 10
-18.70071678727486
 20
-1.238334123665317
 30
0.0
 10
-19.07478253864848
 20
-1.137308871697891
 30
0.0
 10
-19.4488168458601
 20
-1.029284759426261
 30
0.0
 10
-19.82282152679125
 20
-0.9149258686703422
 30
0.0
 10
-20.19680002076374
 20
-0.7949373938718761
 30
0.0
 10
-20.57075648366256
 20
-0.6700595876247765
 30
0.0
 10
-20.9446941928611
 20
-0.5410603800249247
 30
0.0
 10
-21.31861678771673
 20
-0.4087331841042849
 30
0.0
 10
-21.69252823287494
 20
-0.2738923962153808
 30
0.0
 10
-22.06643194404117
 20
-0.1373671924189608
 30
0.0
 10
-22.4403325121068
 20
0.0000013777838668
 30
0.0
 10
-22.81423308009026
 20
0.1373699481536255
 30
0.0
 10
-23.18813679150289
 20
0.2738951514494974
 30
0.0
 10
-23.56204823576052
 20
0.4087359411676819
 30
0.0
 10
-23.93597083395552
 20
0.5410631303041916
 30
0.0
 10
-24.30990853077207
 20
0.6700623630589035
 30
0.0
 10
-24.68386503952558
 20
0.7949400761487109
 30
0.0
 10
-25.05784417689563
 20
0.9149291563866906
 30
0.0
 10
-25.43185031102854
 20
1.029287008134118
 30
0.0
 10
-25.80588528546002
 20
1.137311674316401
 30
0.0
 10
-26.17995102812436
 20
1.238336956344215
 30
0.0
 10
-26.55405269645291
 20
1.331734936533642
 30
0.0
 10
-26.92818985624397
 20
1.416932749340779
 30
0.0
 10
-27.30236517680578
 20
1.493398792789913
 30
0.0
 10
-27.67657733825877
 20
1.560659848289423
 30
0.0
 10
-28.0508248940128
 20
1.618303552278378
 30
0.0
 10
-28.42510754484679
 20
1.6659484347958
 30
0.0
 10
-28.79941787304641
 20
1.703374654039679
 30
0.0
 10
-29.17375135964388
 20
1.730076290750701
 30
0.0
 10
-29.54809843426847
 20
1.746878607046937
 30
0.0
 10
-29.79772402265624
 20
1.74896091632032
 30
0.0
 10
-29.92245372316396
 20
1.750001377811912
 30
0.0
  0
SPLINE
  5
4018
330
1F
100
AcDbEntity
  8
AM_0
100
AcDbSpline
210
0.0
220
0.0
230
1.0
 70
     8
 71
     3
 72
    42
 73
    38
 74
     0
 42
0.0000000001
 43
0.0000000001
 40
1.278384351700087
 40
1.278384351700087
 40
1.278384351700087
 40
1.278384351700087
 40
1.527291183660732
 40
1.786406454158005
 40
2.047386241038974
 40
2.310345544571907
 40
2.575337113970003
 40
2.842374715221223
 40
3.111417320030211
 40
3.382376832022752
 40
3.655120036292296
 40
3.929472521611371
 40
4.205224030350333
 40
4.482133246366229
 40
4.759933319229942
 40
5.038338087391601
 40
5.317048131389549
 40
5.595758175387723
 40
5.874162943549383
 40
6.151963016412869
 40
6.428872232428759
 40
6.704623741167955
 40
6.978976226486705
 40
7.251719430756336
 40
7.522680721168327
 40
7.791723325977311
 40
8.058760927228529
 40
8.32375249662655
 40
8.586708135057122
 40
8.84768792193809
 40
9.106803192435362
 40
9.364213819003406
 40
9.620125035580644
 40
9.87478726697307
 40
10.12847352585208
 40
10.38149610319407
 40
10.63418200686337
 40
10.63418200686337
 40
10.63418200686337
 40
10.63418200686337
 10
-2.528542184404898
 20
-1.749998622189003
 30
0.0
 10
-3.541885252785827
 20
-1.650040754827962
 30
0.0
 10
-3.78900202232278
 20
-1.611479866005555
 30
0.0
 10
-4.251604094259286
 20
-1.493395188078449
 30
0.0
 10
-4.625780942185891
 20
-1.416929457000194
 30
0.0
 10
-4.999920594792505
 20
-1.331732962110663
 30
0.0
 10
-5.37402379989457
 20
-1.238334123665729
 30
0.0
 10
-5.748089551268199
 20
-1.137308871698303
 30
0.0
 10
-6.122123858479831
 20
-1.029284759426673
 30
0.0
 10
-6.496128539410968
 20
-0.9149258686707534
 30
0.0
 10
-6.87010703338346
 20
-0.7949373938722885
 30
0.0
 10
-7.244063496282286
 20
-0.6700595876251878
 30
0.0
 10
-7.618001205480835
 20
-0.541060380025336
 30
0.0
 10
-7.991923800336482
 20
-0.4087331841046964
 30
0.0
 10
-8.365835245494675
 20
-0.2738923962157922
 30
0.0
 10
-8.739738956660907
 20
-0.1373671924193722
 30
0.0
 10
-9.113639524726526
 20
0.0000013777834557
 30
0.0
 10
-9.487540092709991
 20
0.1373699481532135
 30
0.0
 10
-9.861443804122609
 20
0.2738951514490864
 30
0.0
 10
-10.23535524838023
 20
0.4087359411672699
 30
0.0
 10
-10.60927784657522
 20
0.5410631303037809
 30
0.0
 10
-10.98321554339179
 20
0.6700623630584914
 30
0.0
 10
-11.35717205214529
 20
0.7949400761482988
 30
0.0
 10
-11.73115118951535
 20
0.9149291563862801
 30
0.0
 10
-12.10515732364824
 20
1.029287008133706
 30
0.0
 10
-12.47919229807975
 20
1.137311674315989
 30
0.0
 10
-12.85325804074407
 20
1.238336956343804
 30
0.0
 10
-13.22735970907267
 20
1.33173493653323
 30
0.0
 10
-13.60149686886372
 20
1.416932749340368
 30
0.0
 10
-13.97567218942553
 20
1.493398792789502
 30
0.0
 10
-14.34988435087853
 20
1.560659848289011
 30
0.0
 10
-14.72413190663254
 20
1.618303552277969
 30
0.0
 10
-15.09841455746654
 20
1.665948434795388
 30
0.0
 10
-15.47272488566616
 20
1.703374654039268
 30
0.0
 10
-15.84705837226364
 20
1.730076290750288
 30
0.0
 10
-16.22140544688822
 20
1.746878607046526
 30
0.0
 10
-16.471031035276
 20
1.748960916319909
 30
0.0
 10
-16.59576073578371
 20
1.750001377811502
 30
0.0
  0
SPLINE
  5
4019
330
1F
100
AcDbEntity
  8
AM_0
100
AcDbSpline
210
0.0
220
0.0
230
1.0
 70
     8
 71
     3
 72
    23
 73
    19
 74
     0
 42
0.0000000001
 43
0.0000000001
 40
16.03460024169435
 40
16.03460024169435
 40
16.03460024169435
 40
16.03460024169435
 40
16.35212704903564
 40
17.38177054169784
 40
18.41822485651776
 40
19.46214173629503
 40
20.51396345435107
 40
21.57393551351153
 40
22.64208202342361
 40
23.7182574881101
 40
24.80209208578934
 40
25.89306333925047
 40
26.99048218457928
 40
28.09348763352352
 40
29.20111863782268
 40
30.31232390128032
 40
31.42594612798585
 40
32.5407912310448
 40
32.5407912310486
 40
32.5407912310486
 40
32.5407912310486
 10
-35.81545444632451
 20
1.75000137781198
 30
0.0
 10
-35.43447709583125
 20
1.724986047804808
 30
0.0
 10
-35.25312979930147
 20
1.702149941457453
 30
0.0
 10
-34.98195535644063
 20
1.668209142719078
 30
0.0
 10
-34.61010636103126
 20
1.593254741645724
 30
0.0
 10
-34.23860275645941
 20
1.509093442874128
 30
0.0
 10
-33.86742259028084
 20
1.416212329074845
 30
0.0
 10
-33.49655268865362
 20
1.315129214536637
 30
0.0
 10
-33.12597161618635
 20
1.206421932970285
 30
0.0
 10
-32.75565356702157
 20
1.090723133486829
 30
0.0
 10
-32.38557749835775
 20
0.968688011642077
 30
0.0
 10
-32.01571373985451
 20
0.8410266613752195
 30
0.0
 10
-31.64603231819028
 20
0.7084811056098845
 30
0.0
 10
-31.27650860254632
 20
0.5718134257250659
 30
0.0
 10
-30.90711167532215
 20
0.4318183255634159
 30
0.0
 10
-30.53780732253902
 20
0.2893132738014792
 30
0.0
 10
-30.16856547239764
 20
0.1451240486252102
 30
0.0
 10
-29.92247035779148
 20
0.0484530573298675
 30
0.0
 10
-29.79935568883258
 20
0.0000903874143675
 30
0.0
  0
SPLINE
  5
401A
330
1F
100
AcDbEntity
  8
AM_0
100
AcDbSpline
210
0.0
220
0.0
230
1.0
 70
     8
 71
     3
 72
    55
 73
    51
 74
     0
 42
0.0000000001
 43
0.0000000001
 40
0.0
 40
0.0
 40
0.0
 40
0.0
 40
1.010743684496582
 40
2.022833576467832
 40
3.037578957496688
 40
4.056212745003489
 40
5.079857003664532
 40
6.109500240690281
 40
7.145961322679372
 40
8.189895241603872
 40
9.241717795325891
 40
10.30168407291828
 40
11.36983447792315
 40
12.44600489715814
 40
13.52984294512926
 40
14.62081576220742
 40
15.7182257034828
 40
16.82123173843959
 40
17.92886860250316
 40
19.0400688939571
 40
20.15368796660465
 40
21.26852814259644
 40
22.38336992938901
 40
23.49698739941135
 40
24.6081876908653
 40
25.71582455492886
 40
26.81883757994213
 40
27.91624752121713
 40
29.00722033829659
 40
30.09105838626677
 40
31.16722880550176
 40
32.23537921050758
 40
33.29534548809967
 40
34.347168041821
 40
35.39108718934584
 40
36.42754827133493
 40
37.45720575381954
 40
38.48085062012849
 40
39.49948440763516
 40
40.51422944315121
 40
41.52631975251916
 40
42.53706336719636
 40
43.54780698187354
 40
44.55989729124051
 40
45.57464232675757
 40
46.59327611426424
 40
47.6169209805722
 40
48.64656348684535
 40
49.68302456883444
 40
50.58557219878025
 40
50.58557219878025
 40
50.58557219878025
 40
50.58557219878025
 10
-16.0061324290568
 20
-1.749998622188554
 30
0.0
 10
-16.13086210737694
 20
-1.74895741458489
 30
0.0
 10
-16.38048759122417
 20
-1.746873612595265
 30
0.0
 10
-16.75483497352337
 20
-1.730075829197555
 30
0.0
 10
-17.12916637634429
 20
-1.703371741665788
 30
0.0
 10
-17.50347461172645
 20
-1.665944947357097
 30
0.0
 10
-17.8777559446629
 20
-1.618302651091223
 30
0.0
 10
-18.25200299141974
 20
-1.56065671056734
 30
0.0
 10
-18.62621700383678
 20
-1.493395449387575
 30
0.0
 10
-19.00039466339199
 20
-1.416930743333348
 30
0.0
 10
-19.37453342125358
 20
-1.331732081061177
 30
0.0
 10
-19.74863514229642
 20
-1.23833424576705
 30
0.0
 10
-20.1227008284395
 20
-1.137308838605898
 30
0.0
 10
-20.49673515333396
 20
-1.029284768399506
 30
0.0
 10
-20.87073982944827
 20
-0.9149258662041297
 30
0.0
 10
-21.24471832482974
 20
-0.7949373946799257
 30
0.0
 10
-21.61867478695049
 20
-0.6700595868751759
 30
0.0
 10
-21.99261249785211
 20
-0.54106038222385
 30
0.0
 10
-22.3665350866427
 20
-0.4087331760164814
 30
0.0
 10
-22.74044655445284
 20
-0.2738924264860195
 30
0.0
 10
-23.11435018084204
 20
-0.1373670791458853
 30
0.0
 10
-23.48825124590865
 20
0.0000010207481272
 30
0.0
 10
-23.86215063247234
 20
0.1373715933535462
 30
0.0
 10
-24.23605551210499
 20
0.273894814632905
 30
0.0
 10
-24.60996651831641
 20
0.4087359723186396
 30
0.0
 10
-24.98388977380683
 20
0.5410636826336818
 30
0.0
 10
-25.35782903598146
 20
0.6700617863831444
 30
0.0
 10
-25.73178608830433
 20
0.794940227492131
 30
0.0
 10
-26.10576463767587
 20
0.9149286017180571
 30
0.0
 10
-26.47976930018134
 20
1.029287527962679
 30
0.0
 10
-26.85380362603354
 20
1.13731159832709
 30
0.0
 10
-27.22786932170436
 20
1.238336981331544
 30
0.0
 10
-27.60197100413578
 20
1.331734911993454
 30
0.0
 10
-27.97610815408642
 20
1.416932821962528
 30
0.0
 10
-28.35028349978499
 20
1.493398529513628
 30
0.0
 10
-28.72449737338805
 20
1.56066114323274
 30
0.0
 10
-29.09874709239425
 20
1.618300499790002
 30
0.0
 10
-29.47302966185045
 20
1.665957542353712
 30
0.0
 10
-29.84733800819432
 20
1.703339972028525
 30
0.0
 10
-30.22166967111207
 20
1.730206223756024
 30
0.0
 10
-30.59601673600932
 20
1.74639512639858
 30
0.0
 10
-30.97037202695627
 20
1.751803303096037
 30
0.0
 10
-31.34472731735243
 20
1.746395126390125
 30
0.0
 10
-31.7190743839053
 20
1.730206223790087
 30
0.0
 10
-32.09340604072745
 20
1.703339971900393
 30
0.0
 10
-32.46771440992521
 20
1.665957542835542
 30
0.0
 10
-32.84199506876609
 20
1.618300730314402
 30
0.0
 10
-33.21624331337087
 20
1.560661732564144
 30
0.0
 10
-33.57344249424977
 20
1.496451826334426
 30
0.0
 10
-33.80519739070391
 20
1.449494514889142
 30
0.0
 10
-33.91271815500632
 20
1.426609926306251
 30
0.0
  0
SPLINE
  5
401B
330
1F
100
AcDbEntity
  8
AM_0
 48
0.5
100
AcDbSpline
210
0.0
220
0.0
230
1.0
 70
     8
 71
     3
 72
    20
 73
    16
 74
     0
 42
0.0000000001
 43
0.0000000001
 40
12.04260318190555
 40
12.04260318190555
 40
12.04260318190555
 40
12.04260318190555
 40
13.08720139956839
 40
14.16337181880432
 40
15.23152222380919
 40
16.29148850140128
 40
17.34331105512262
 40
18.38723020264746
 40
19.42369128463655
 40
20.45333379090873
 40
21.47697865721768
 40
22.49561244472435
 40
23.5103574802404
 40
24.52244778960836
 40
25.53320666051913
 40
25.53320666051913
 40
25.53320666051913
 40
25.53320666051913
 10
-4.325289986980784
 20
0.8030788552307592
 30
0.0
 10
-4.438450635841503
 20
0.8494882375947403
 30
0.0
 10
-4.791448867714868
 20
0.9447086526772158
 30
0.0
 10
-5.614611758521866
 20
1.137311601284007
 30
0.0
 10
-5.988677455757755
 20
1.238336975620671
 30
0.0
 10
-6.362779136068366
 20
1.331734931680929
 30
0.0
 10
-6.736916292875372
 20
1.416932749689125
 30
0.0
 10
-7.111091613527466
 20
1.493398796152929
 30
0.0
 10
-7.485303777542722
 20
1.560659834632735
 30
0.0
 10
-7.859551323059307
 20
1.618303603085686
 30
0.0
 10
-8.233832167565534
 20
1.665948011877144
 30
0.0
 10
-8.608140487401753
 20
1.703375005285557
 30
0.0
 10
-8.982472157310382
 20
1.730076231882218
 30
0.0
 10
-9.356821100760445
 20
1.746878709316892
 30
0.0
 10
-9.606448575353764
 20
1.748960945155392
 30
0.0
 10
-9.731180160302411
 20
1.75000137781127
 30
0.0
  0
LINE
  5
4109
330
1F
100
AcDbEntity
  8
AM_0
100
AcDbLine
 10
-39.50000000000001
 20
1.323064082954402
 30
0.0
 11
-35.81545444632451
 21
1.749752890278656
 31
0.0
  0
SPLINE
  5
410A
330
1F
100
AcDbEntity
  8
AM_0
100
AcDbSpline
210
0.0
220
0.0
230
1.0
 70
     8
 71
     3
 72
    37
 73
    33
 74
     0
 42
0.0000000001
 43
0.0000000001
 40
0.0
 40
0.0
 40
0.0
 40
0.0
 40
0.5056245176053715
 40
0.759310862862336
 40
1.013969309739036
 40
1.269880374404297
 40
1.527291183660732
 40
1.786406454158005
 40
2.047386241038974
 40
2.310345544571907
 40
2.575337113970003
 40
2.842374715221223
 40
3.111417320030211
 40
3.382376832022752
 40
3.655120036292296
 40
3.929472521611371
 40
4.205224030350333
 40
4.482133246366229
 40
4.759933319229942
 40
5.038338087391601
 40
5.317048131389549
 40
5.595758175387723
 40
5.874162943549382
 40
6.151963016412868
 40
6.428872232428759
 40
6.704623741167953
 40
6.978976226486702
 40
7.251719430756334
 40
7.522680721168324
 40
7.791723325977308
 40
8.058760927228528
 40
8.232349533780283
 40
8.232349533780283
 40
8.232349533780283
 40
8.232349533780283
 10
-29.68222146826071
 20
-1.750247241447223
 30
0.0
 10
-29.89529674324696
 20
-1.746260606170623
 30
0.0
 10
-30.21527800458033
 20
-1.740273761454055
 30
0.0
 10
-30.64077104159398
 20
-1.703413858376034
 30
0.0
 10
-30.96026081985669
 20
-1.666249270904518
 30
0.0
 10
-31.27972328934895
 20
-1.61853625358657
 30
0.0
 10
-31.59915760849722
 20
-1.56090926369555
 30
0.0
 10
-31.91856213630479
 20
-1.493643807336761
 30
0.0
 10
-32.23793633781703
 20
-1.417178076258517
 30
0.0
 10
-32.55727879170596
 20
-1.331981581369
 30
0.0
 10
-32.87659013626055
 20
-1.238582742924077
 30
0.0
 10
-33.19586951263036
 20
-1.137557490956665
 30
0.0
 10
-33.51512205020941
 20
-1.029533378685047
 30
0.0
 10
-33.83434930062885
 20
-0.9151744879291403
 30
0.0
 10
-34.15355419948096
 20
-0.7951860131306874
 30
0.0
 10
-34.47274029397199
 20
-0.6703082068835997
 30
0.0
 10
-34.79191038146502
 20
-0.5413089992837599
 30
0.0
 10
-35.11106756829031
 20
-0.4089818033631336
 30
0.0
 10
-35.43021523842385
 20
-0.2741410154742414
 30
0.0
 10
-35.74935630730045
 20
-0.1376158116778335
 30
0.0
 10
-36.0684946934209
 20
-0.0002472414750194
 30
0.0
 10
-36.38763307947121
 20
0.1371213288947268
 30
0.0
 10
-36.70677414855813
 20
0.273646532190586
 30
0.0
 10
-37.02592181792301
 20
0.4084873219087575
 30
0.0
 10
-37.34507900759855
 20
0.5408145110452555
 30
0.0
 10
-37.6642490845231
 20
0.669813743799954
 30
0.0
 10
-37.98343521815284
 20
0.7946914568897494
 30
0.0
 10
-38.30264066616929
 20
0.9146805371277169
 30
0.0
 10
-38.62186915695183
 20
1.029038388875131
 30
0.0
 10
-38.94112226402846
 20
1.137063055057402
 30
0.0
 10
-39.23551602278195
 20
1.219896085332177
 30
0.0
 10
-39.50000000000001
 20
1.323064082954402
 30
0.0
 10
-39.50000000000001
 20
1.323064082954403
 30
0.0
  0
SPLINE
  5
410B
330
1F
100
AcDbEntity
  8
AM_0
100
AcDbSpline
210
0.0
220
0.0
230
1.0
 70
     8
 71
     3
 72
    28
 73
    24
 74
     0
 42
0.0000000001
 43
0.0000000001
 40
0.0
 40
0.0
 40
0.0
 40
0.0
 40
1.010743684496582
 40
2.022833576467832
 40
3.037578957496688
 40
4.056212745003489
 40
5.079857003664532
 40
6.109500240690281
 40
7.145961322679372
 40
8.189895241603872
 40
9.241717795325891
 40
10.30168407291828
 40
11.36983447792315
 40
12.44600489715814
 40
13.52984294512926
 40
14.62081576220742
 40
15.7182257034828
 40
16.82123173843959
 40
17.92886860250316
 40
19.0400688939571
 40
20.15368796660465
 40
21.26852814259644
 40
21.87700996060819
 40
21.87700996060819
 40
21.87700996060819
 40
21.87700996060819
 10
-30.57665968203303
 20
-1.750247241447223
 30
0.0
 10
-30.68312121656973
 20
-1.749206033843564
 30
0.0
 10
-30.89618608154623
 20
-1.747122231853946
 30
0.0
 10
-31.21570584064543
 20
-1.73032444845625
 30
0.0
 10
-31.53521196065085
 20
-1.703620360924494
 30
0.0
 10
-31.85469830636426
 20
-1.666193566615817
 30
0.0
 10
-32.17416168981484
 20
-1.618551270349955
 30
0.0
 10
-32.49359580870434
 20
-1.560905329826085
 30
0.0
 10
-32.8130017315257
 20
-1.493644068646334
 30
0.0
 10
-33.13237662579389
 20
-1.417179362592118
 30
0.0
 10
-33.45171831598383
 20
-1.331980700319961
 30
0.0
 10
-33.77102839383729
 20
-1.238582865025845
 30
0.0
 10
-34.09030771453034
 20
-1.137557457864707
 30
0.0
 10
-34.40956026720236
 20
-1.029533387658327
 30
0.0
 10
-34.72878751351046
 20
-0.9151744854629638
 30
0.0
 10
-35.04799241356519
 20
-0.7951860139387712
 30
0.0
 10
-35.36717850739211
 20
-0.6703082061340347
 30
0.0
 10
-35.68634859633879
 20
-0.541309001482721
 30
0.0
 10
-36.00550577798731
 20
-0.4089817952753652
 30
0.0
 10
-36.32465346745515
 20
-0.2741410457449156
 30
0.0
 10
-36.64379446397133
 20
-0.1376156984047938
 30
0.0
 10
-36.91459807614728
 20
-0.021052696836264
 30
0.0
 10
-37.07909933423521
 20
0.0497554196224206
 30
0.0
 10
-37.21714621159952
 20
0.0956099992174971
 30
0.0
  0
SPLINE
  5
410C
330
1F
100
AcDbEntity
  8
AM_0
100
AcDbSpline
210
0.0
220
0.0
230
1.0
 70
     8
 71
     3
 72
    17
 73
    13
 74
     0
 42
0.0000000001
 43
0.0000000001
 40
1.580019955310467
 40
1.580019955310467
 40
1.580019955310467
 40
1.580019955310467
 40
2.030549285115227
 40
3.082371838836284
 40
4.126290986361125
 40
5.162752068350215
 40
6.192395305374981
 40
7.216039564037012
 40
8.234688489606833
 40
9.249433870634691
 40
10.26152376260694
 40
11.27226744710342
 40
11.27226744710342
 40
11.27226744710342
 40
11.27226744710352
 10
-33.58588962615041
 20
-1.291798772980354
 30
0.0
 10
-33.63109633879336
 20
-1.305100680814342
 30
0.0
 10
-33.78210194676725
 20
-1.348699460464002
 30
0.0
 10
-34.03990596740232
 20
-1.417085706335897
 30
0.0
 10
-34.35923438506391
 20
-1.493669229656345
 30
0.0
 10
-34.67865071353989
 20
-1.560899395011308
 30
0.0
 10
-34.99808167756056
 20
-1.618550428395332
 30
0.0
 10
-35.31754744301225
 20
-1.666202973407448
 30
0.0
 10
-35.63703527943697
 20
-1.703585097985139
 30
0.0
 10
-35.95654300973186
 20
-1.730454553452928
 30
0.0
 10
-36.27606276205387
 20
-1.746638378005569
 30
0.0
 10
-36.48912763040707
 20
-1.750247251460816
 30
0.0
 10
-36.59558916353923
 20
-1.750247241447224
 30
0.0
  0
POLYLINE
  5
410D
330
1F
100
AcDbEntity
  8
AM_0
100
AcDb2dPolyline
 66
     1
 10
0.0
 20
0.0
 30
0.0
 70
     2
  0
VERTEX
  5
410E
330
410D
100
AcDbEntity
  8
AM_0
100
AcDbVertex
100
AcDb2dVertex
 10
-37.21714621159952
 20
0.0956099992174971
 30
0.0
 42
0.0368957377849166
  0
VERTEX
  5
410F
330
410D
100
AcDbEntity
  8
AM_0
100
AcDbVertex
100
AcDb2dVertex
 10
-37.64260763173256
 20
0.2266142948795974
 30
0.0
 42
0.0406441426826111
 70
     1
  0
VERTEX
  5
4110
330
410D
100
AcDbEntity
  8
AM_0
100
AcDbVertex
100
AcDb2dVertex
 10
-38.04166666666665
 20
0.2918001479952011
 30
0.0
 42
0.0349480616290147
  0
VERTEX
  5
4111
330
410D
100
AcDbEntity
  8
AM_0
100
AcDbVertex
100
AcDb2dVertex
 10
-38.87079990789135
 20
0.3007614326165185
 30
0.0
 42
0.0841411130651936
 70
     1
  0
VERTEX
  5
4112
330
410D
100
AcDbEntity
  8
AM_0
100
AcDbVertex
100
AcDb2dVertex
 10
-39.20833333333332
 20
0.2228164797403958
 30
0.0
 42
0.0979526151427332
  0
VERTEX
  5
4113
330
410D
100
AcDbEntity
  8
AM_0
100
AcDbVertex
100
AcDb2dVertex
 10
-39.44266230601201
 20
0.0658808551884327
 30
0.0
 42
0.1938983539896396
 70
     1
  0
VERTEX
  5
4114
330
410D
100
AcDbEntity
  8
AM_0
100
AcDbVertex
100
AcDb2dVertex
 10
-39.49999999999998
 20
-0.0688501869262708
 30
0.0
 42
0.1455033175112951
  0
VERTEX
  5
4115
330
410D
100
AcDbEntity
  8
AM_0
100
AcDbVertex
100
AcDb2dVertex
 10
-39.45468886504801
 20
-0.232783206831114
 30
0.0
 42
0.0623373512118238
 70
     1
  0
VERTEX
  5
4116
330
410D
100
AcDbEntity
  8
AM_0
100
AcDbVertex
100
AcDb2dVertex
 10
-39.20833333333331
 20
-0.5354681068497543
 30
0.0
 42
0.038537546653951
  0
VERTEX
  5
4117
330
410D
100
AcDbEntity
  8
AM_0
100
AcDbVertex
100
AcDb2dVertex
 10
-38.80692337848934
 20
-0.8641333406731906
 30
0.0
 42
0.0220442519779929
 70
     1
  0
VERTEX
  5
4118
330
410D
100
AcDbEntity
  8
AM_0
100
AcDbVertex
100
AcDb2dVertex
 10
-38.04166666676698
 20
-1.349222975711262
 30
0.0
 42
0.0372086905244029
  0
VERTEX
  5
4119
330
410D
100
AcDbEntity
  8
AM_0
100
AcDbVertex
100
AcDb2dVertex
 10
-37.71268254198337
 20
-1.506723964884916
 30
0.0
 42
0.0212705364510546
 70
     1
  0
VERTEX
  5
411A
330
410D
100
AcDbEntity
  8
AM_0
100
AcDbVertex
100
AcDb2dVertex
 10
-37.09594910847342
 20
-1.668180382127113
 30
0.0
  0
SEQEND
  5
411B
330
410D
100
AcDbEntity
  8
AM_0
  0
SPLINE
  5
411C
330
1F
100
AcDbEntity
  8
AM_0
100
AcDbSpline
210
0.0
220
0.0
230
1.0
 70
     8
 71
     3
 72
     9
 73
     5
 74
     0
 42
0.0000000001
 43
0.0000000001
 40
11.27226913003534
 40
11.27226913003534
 40
11.27226913003534
 40
11.2722691300354
 40
12.28301561507924
 40
12.99863635197729
 40
12.99863635197729
 40
12.99863635197729
 40
12.99863635197729
 10
-36.59558916353924
 20
-1.750247241447224
 30
0.0
 10
-36.70164587751025
 20
-1.741682232900545
 30
0.0
 10
-36.84877881374903
 20
-1.723985710261334
 30
0.0
 10
-36.96479459572283
 20
-1.701103484489185
 30
0.0
 10
-37.09594910847342
 20
-1.668180382127113
 30
0.0
  0
LINE
  5
4347
330
1F
100
AcDbEntity
  8
AM_0
100
AcDbLine
 10
-44.99999999999999
 20
2.000009731558435
 30
0.0
 11
-44.99999999999999
 21
-2.000001913084137
 31
0.0
  0
ELLIPSE
  5
43E0
330
1F
100
AcDbEntity
  8
AM_0
 48
0.5
100
AcDbEllipse
 10
0.8844515937076383
 20
-3.582887610164776
 30
0.0
 11
0.652752432218607
 21
-3.064386647344858
 31
0.0
210
0.0
220
0.0
230
-1.0
 40
0.6125710561723813
 41
2.424920596804919
 42
2.852383539109754
  0
LINE
  5
43E1
330
1F
100
AcDbEntity
  8
AM_0
 48
0.5
100
AcDbLine
 10
-0.8407846240681847
 20
-1.5350103202826
 30
0.0
 11
-0.9999999999999802
 21
-1.750001377810816
 31
0.0
  0
DIMENSION
  5
43EF
330
1F
100
AcDbEntity
  8
AM_5
100
AcDbDimension
  2
*D9
 10
-0.2765455889895507
 20
-0.7598027611985905
 30
0.0
 11
13.3489753403518
 21
-0.0000000000000561
 31
0.0
 70
    34
  1
<>
 51
359.9999999999998
  3
AM_JIS$2
100
AcDb2LineAngularDimension
 13
0.0000000000000187
 23
-0.000000000000001
 33
0.0
 14
-0.2765455889895443
 24
0.7598027611985977
 34
0.0
 15
0.0000000000000187
 25
0.000000000000006
 35
0.0
 16
13.68047913352302
 26
-5.901182667029726
 36
0.0
1001
ACAD
1000
DSTYLE
1002
{
1070
   179
1070
     3
1002
}
1001
GENIUS_GENDTOL_13
1000

1000
h7
1000

1040
0.0
  0
LINE
  5
44BC
330
1F
100
AcDbEntity
  8
AM_0
100
AcDbLine
 10
-44.99999999999999
 20
2.000009731558435
 30
0.0
 11
-44.56725860263762
 21
1.750166369301784
 31
0.0
  0
LINE
  5
44BD
330
1F
100
AcDbEntity
  8
AM_0
100
AcDbLine
 10
-44.56725860263762
 20
1.750166369301784
 30
0.0
 11
-44.56701617073755
 21
-1.750026401179157
 31
0.0
  0
LINE
  5
44BE
330
1F
100
AcDbEntity
  8
AM_0
100
AcDbLine
 10
-44.56701617073755
 20
-1.750026401179157
 30
0.0
 11
-44.99999999999999
 21
-2.000009731558581
 31
0.0
  0
ELLIPSE
  5
467A
330
1F
100
AcDbEntity
  8
AM_11
 48
0.5
100
AcDbEllipse
 10
-21.53090911127344
 20
7.729692944922417
 30
0.0
 11
-8.790537643432497
 21
-0.0000000000000168
 31
0.0
210
0.0
220
0.0
230
1.0
 40
0.9722222222222224
 41
1.130070686340304
 42
2.011520147323597
  0
ELLIPSE
  5
467B
330
1F
100
AcDbEntity
  8
AM_11
 48
0.5
100
AcDbEllipse
 10
-21.53090911127344
 20
-7.729688476484582
 30
0.0
 11
-8.790537643432495
 21
-0.0000000000000129
 31
0.0
210
0.0
220
0.0
230
1.0
 40
0.9722222222222226
 41
4.271664206181685
 42
5.153113667164992
  0
ELLIPSE
  5
467C
330
1F
100
AcDbEntity
  8
AM_11
 48
0.5
100
AcDbEllipse
 10
-14.03090911127553
 20
7.729692944922417
 30
0.0
 11
8.790537643432497
 21
0.0000000000000843
 31
0.0
210
0.0
220
0.0
230
1.0
 40
0.9722222222222224
 41
4.271663339930089
 42
5.153112800913382
  0
ELLIPSE
  5
467D
330
1F
100
AcDbEntity
  8
AM_11
 48
0.5
100
AcDbEllipse
 10
-14.03090911127554
 20
-7.729688476484581
 30
0.0
 11
-8.7905376434325
 21
-0.0000000000000032
 31
0.0
210
0.0
220
0.0
230
1.0
 40
0.9722222222222219
 41
4.271664206181687
 42
5.153113667164993
  0
ELLIPSE
  5
467E
330
1F
100
AcDbEntity
  8
AM_11
 48
0.5
100
AcDbEllipse
 10
-6.530909111275543
 20
7.729692944922417
 30
0.0
 11
-8.7905376434325
 21
0.0000000000000046
 31
0.0
210
0.0
220
0.0
230
1.0
 40
0.9722222222222219
 41
1.130070686340307
 42
2.011520147323599
  0
ELLIPSE
  5
467F
330
1F
100
AcDbEntity
  8
AM_11
 48
0.5
100
AcDbEllipse
 10
-6.530909111275543
 20
-7.729688476484581
 30
0.0
 11
8.790537643432497
 21
0.0000000000000394
 31
0.0
210
0.0
220
0.0
230
1.0
 40
0.9722222222222226
 41
1.130071552591889
 42
2.011521013575197
  0
ELLIPSE
  5
4680
330
1F
100
AcDbEntity
  8
AM_11
 48
0.5
100
AcDbEllipse
 10
0.9690908887244669
 20
7.729692944922417
 30
0.0
 11
-8.790537643432751
 21
0.0000000000035551
 31
0.0
210
0.0
220
0.0
230
1.0
 40
0.9722222222221983
 41
1.130070686340713
 42
1.291800737381399
  0
ELLIPSE
  5
4681
330
1F
100
AcDbEntity
  8
AM_11
 48
0.5
100
AcDbEllipse
 10
-36.53090887734594
 20
-7.729681841338314
 30
0.0
 11
-8.790537643432495
 21
-0.0000000000000129
 31
0.0
210
0.0
220
0.0
230
1.0
 40
0.9722222222222226
 41
4.271664206181685
 42
5.153113667164992
  0
ELLIPSE
  5
4682
330
1F
100
AcDbEntity
  8
AM_11
 48
0.5
100
AcDbEllipse
 10
-36.53090887734594
 20
7.729699580068685
 30
0.0
 11
-8.790537643432497
 21
-0.0000000000000168
 31
0.0
210
0.0
220
0.0
230
1.0
 40
0.9722222222222224
 41
1.130070686340304
 42
2.011520147323597
  0
ELLIPSE
  5
4683
330
1F
100
AcDbEntity
  8
AM_11
 48
0.5
100
AcDbEllipse
 10
-29.03090887734803
 20
-7.729681841338313
 30
0.0
 11
-8.7905376434325
 21
-0.0000000000000032
 31
0.0
210
0.0
220
0.0
230
1.0
 40
0.9722222222222219
 41
4.271664206181687
 42
5.153113667164993
  0
ELLIPSE
  5
4684
330
1F
100
AcDbEntity
  8
AM_11
 48
0.5
100
AcDbEllipse
 10
-29.03090887734803
 20
7.729699580068685
 30
0.0
 11
8.790537643432497
 21
0.0000000000000843
 31
0.0
210
0.0
220
0.0
230
1.0
 40
0.9722222222222224
 41
4.271663339930089
 42
5.153112800913382
  0
ELLIPSE
  5
4685
330
1F
100
AcDbEntity
  8
AM_11
 48
0.5
100
AcDbEllipse
 10
-51.53090864341843
 20
-7.729675206192046
 30
0.0
 11
-8.790537643432495
 21
-0.0000000000000129
 31
0.0
210
0.0
220
0.0
230
1.0
 40
0.9722222222222226
 41
4.271664206181685
 42
5.153113667164992
  0
ELLIPSE
  5
4686
330
1F
100
AcDbEntity
  8
AM_11
 48
0.5
100
AcDbEllipse
 10
-51.53090864341843
 20
7.729706215214953
 30
0.0
 11
-8.790537643432497
 21
-0.0000000000000168
 31
0.0
210
0.0
220
0.0
230
1.0
 40
0.9722222222222224
 41
1.130070686340304
 42
2.011520147323597
  0
ELLIPSE
  5
4687
330
1F
100
AcDbEntity
  8
AM_11
 48
0.5
100
AcDbEllipse
 10
-44.03090864342053
 20
-7.729675206192045
 30
0.0
 11
-8.7905376434325
 21
-0.0000000000000032
 31
0.0
210
0.0
220
0.0
230
1.0
 40
0.9722222222222219
 41
4.271664206181687
 42
5.153113667164993
  0
ELLIPSE
  5
4688
330
1F
100
AcDbEntity
  8
AM_11
 48
0.5
100
AcDbEllipse
 10
-44.03090864342053
 20
7.729706215214953
 30
0.0
 11
8.790537643432497
 21
0.0000000000000843
 31
0.0
210
0.0
220
0.0
230
1.0
 40
0.9722222222222224
 41
4.271663339930089
 42
5.153112800913382
  0
ELLIPSE
  5
4689
330
1F
100
AcDbEntity
  8
AM_11
 48
0.5
100
AcDbEllipse
 10
-66.53090840949092
 20
-7.729668571045778
 30
0.0
 11
-8.790537643432495
 21
-0.0000000000000129
 31
0.0
210
0.0
220
0.0
230
1.0
 40
0.9722222222222226
 41
4.271664206181685
 42
5.153113667164992
  0
ELLIPSE
  5
468A
330
1F
100
AcDbEntity
  8
AM_11
 48
0.5
100
AcDbEllipse
 10
-66.53090840949092
 20
7.729712850361221
 30
0.0
 11
-8.790537643432497
 21
-0.0000000000000168
 31
0.0
210
0.0
220
0.0
230
1.0
 40
0.9722222222222224
 41
1.130070686340304
 42
2.011520147323597
  0
ELLIPSE
  5
468B
330
1F
100
AcDbEntity
  8
AM_11
 48
0.5
100
AcDbEllipse
 10
-59.03090840949302
 20
-7.729668571045777
 30
0.0
 11
-8.7905376434325
 21
-0.0000000000000032
 31
0.0
210
0.0
220
0.0
230
1.0
 40
0.9722222222222219
 41
4.271664206181687
 42
5.153113667164993
  0
ELLIPSE
  5
468C
330
1F
100
AcDbEntity
  8
AM_11
 48
0.5
100
AcDbEllipse
 10
-59.03090840949302
 20
7.729712850361221
 30
0.0
 11
8.790537643432497
 21
0.0000000000000843
 31
0.0
210
0.0
220
0.0
230
1.0
 40
0.9722222222222224
 41
4.271663339930089
 42
5.153112800913382
  0
ELLIPSE
  5
468D
330
1F
100
AcDbEntity
  8
AM_11
 48
0.5
100
AcDbEllipse
 10
-81.53085029759447
 20
-7.729688476484747
 30
0.0
 11
-8.790537643432495
 21
-0.0000000000000129
 31
0.0
210
0.0
220
0.0
230
1.0
 40
0.9722222222222226
 41
4.271664206181685
 42
5.153113667164992
  0
ELLIPSE
  5
468E
330
1F
100
AcDbEntity
  8
AM_11
 48
0.5
100
AcDbEllipse
 10
-81.53085029759447
 20
7.729692944922253
 30
0.0
 11
-8.790537643432497
 21
-0.0000000000000168
 31
0.0
210
0.0
220
0.0
230
1.0
 40
0.9722222222222224
 41
1.130070686340304
 42
2.011520147323597
  0
ELLIPSE
  5
468F
330
1F
100
AcDbEntity
  8
AM_11
 48
0.5
100
AcDbEllipse
 10
-74.03085029759655
 20
-7.729688476484746
 30
0.0
 11
-8.7905376434325
 21
-0.0000000000000032
 31
0.0
210
0.0
220
0.0
230
1.0
 40
0.9722222222222219
 41
4.271664206181687
 42
5.153113667164993
  0
ELLIPSE
  5
4690
330
1F
100
AcDbEntity
  8
AM_11
 48
0.5
100
AcDbEllipse
 10
-74.03085029759655
 20
7.729692944922253
 30
0.0
 11
8.790537643432497
 21
0.0000000000000843
 31
0.0
210
0.0
220
0.0
230
1.0
 40
0.9722222222222224
 41
4.271663339930089
 42
5.153112800913382
  0
ELLIPSE
  5
4691
330
1F
100
AcDbEntity
  8
AM_11
 48
0.5
100
AcDbEllipse
 10
-96.53083559427711
 20
-7.729688476484787
 30
0.0
 11
-8.790537643432495
 21
-0.0000000000000129
 31
0.0
210
0.0
220
0.0
230
1.0
 40
0.9722222222222226
 41
4.271664206181685
 42
4.299056699905878
  0
ELLIPSE
  5
4692
330
1F
100
AcDbEntity
  8
AM_11
 48
0.5
100
AcDbEllipse
 10
-96.53083559427711
 20
7.729692944922212
 30
0.0
 11
-8.790537643432497
 21
-0.0000000000000168
 31
0.0
210
0.0
220
0.0
230
1.0
 40
0.9722222222222224
 41
1.984128607273704
 42
2.011520147323597
  0
ELLIPSE
  5
4693
330
1F
100
AcDbEntity
  8
AM_11
 48
0.5
100
AcDbEllipse
 10
-89.03083559427919
 20
-7.729688476484787
 30
0.0
 11
-8.7905376434325
 21
-0.0000000000000032
 31
0.0
210
0.0
220
0.0
230
1.0
 40
0.9722222222222219
 41
4.271664206181687
 42
5.153113667164993
  0
ELLIPSE
  5
4694
330
1F
100
AcDbEntity
  8
AM_11
 48
0.5
100
AcDbEllipse
 10
-89.03083559427919
 20
7.729692944922212
 30
0.0
 11
8.790537643432497
 21
0.0000000000000843
 31
0.0
210
0.0
220
0.0
230
1.0
 40
0.9722222222222224
 41
4.271663339930089
 42
5.153112800913382
  0
VIEWPORT
  5
110
330
101
100
AcDbEntity
 67
     1
  8
0
100
AcDbViewport
 10
420.5
 20
297.0
 30
0.0
 40
948.9782706766916
 41
628.452
 68
     1
 69
     1
1001
ACAD
1000
MVIEW
1002
{
1070
    16
1010
0.0
1020
0.0
1030
0.0
1010
0.0
1020
0.0
1030
1.0
1040
0.0
1040
628.452
1040
420.5
1040
297.0
1040
50.0
1040
0.0
1040
0.0
1070
     0
1070
   100
1070
     1
1070
     1
1070
     0
1070
     0
1070
     0
1070
     0
1040
0.0
1040
0.0
1040
0.0
1040
10.0
1040
10.0
1040
10.0
1040
10.0
1070
     0
1002
{
1002
}
1002
}
  0
ENDSEC
  0
SECTION
  2
OBJECTS
  0
DICTIONARY
  5
C
330
0
100
AcDbDictionary
  3
ACAD_GROUP
350
D
  3
ACAD_LAYOUT
350
1A
  3
ACAD_MLINESTYLE
350
17
  3
ACAD_PLOTSETTINGS
350
19
  3
ACAD_PLOTSTYLENAME
350
E
  3
ACDBVARIABLEDICTIONARY
350
34
  3
ACMDICTIONARY
350
43
  3
AMG
350
2B
  3
AMGSNAPSETTINGS
350
6E
  3
DWGPROPS
350
4720
  3
ACDBHEADERROUNDTRIPXREC
350
472D
  0
DICTIONARY
  5
74
330
1F
100
AcDbDictionary
280
     1
  3
ACAD_INDEX
360
4722
  3
ACAD_LAYOUTSELFREF
360
4750
  0
DICTIONARY
  5
4755
330
101
100
AcDbDictionary
280
     1
  3
ACAD_LAYOUTSELFREF
360
4756
  0
DICTIONARY
  5
D
102
{ACAD_REACTORS
330
C
102
}
330
C
100
AcDbDictionary
  0
DICTIONARY
  5
1A
102
{ACAD_REACTORS
330
C
102
}
330
C
100
AcDbDictionary
  0
DICTIONARY
  5
17
102
{ACAD_REACTORS
330
C
102
}
330
C
100
AcDbDictionary
  3
STANDARD
350
18
  0
DICTIONARY
  5
19
102
{ACAD_REACTORS
330
C
102
}
330
C
100
AcDbDictionary
  0
ACDBDICTIONARYWDFLT
  5
E
102
{ACAD_REACTORS
330
C
102
}
330
C
100
AcDbDictionary
281
     1
  3
Normal
350
F
100
AcDbDictionaryWithDefault
340
F
  0
DICTIONARY
  5
34
102
{ACAD_REACTORS
330
C
102
}
330
C
100
AcDbDictionary
  3
INDEXCTL
350
35
  3
SORTENTS
350
B5E
  0
DICTIONARY
  5
43
102
{ACAD_REACTORS
330
C
102
}
330
C
100
AcDbDictionary
  3
ACMSTDDICTIONARY
350
260
  0
DICTIONARY
  5
2B
102
{ACAD_REACTORS
330
C
102
}
330
C
100
AcDbDictionary
  3
ACMGSETTINGS
350
2C
  0
DICTIONARY
  5
6E
102
{ACAD_REACTORS
330
C
102
}
330
C
100
AcDbDictionary
  0
XRECORD
  5
4720
102
{ACAD_REACTORS
330
C
102
}
330
C
100
AcDbXrecord
  1
DWGPROPS COOKIE
  2

  3

  4

  6

  7

  8

  9

300
AmdtFileType=82
301
=
302
=
303
=
304
=
305
=
306
=
307
=
308
=
309
=
 40
0.1106993055555556
 41
2452800.443498622
 42
2452946.58228081
  1

 90
        1
  0
DICTIONARY
  5
472D
102
{ACAD_REACTORS
330
C
102
}
330
C
100
AcDbDictionary
  3
TSTACKALIGN
350
472E
  3
TSTACKSIZE
350
472F
  3
HYPERLINKBASE
350
4730
  3
STYLESHEET
350
4731
  3
LAYOUTDICT
350
4732
  3
PLOTSETDICT
350
4733
  3
PLOTSTYLNAMDICT
350
4734
  3
LWETCUNION
350
4735
  3
INSUNITS
350
4736
  3
CEPSNTYPE
350
4737
  3
FINGERPRINTGUID
350
4738
  3
VERSIONGUID
350
4739
  3
PSVPSCALE
350
473A
  3
DIMSTYLEDATA
350
473B
  3
PUCSORTHOREF
350
473C
  3
PUCSORTHOVIEW
350
473D
  3
PUCSBASE
350
473E
  3
PUCSORGTOP
350
473F
  3
PUCSORGBOTTOM
350
4740
  3
PUCSORGLEFT
350
4741
  3
PUCSORGRIGHT
350
4742
  3
PUCSORGFRONT
350
4743
  3
PUCSORGBACK
350
4744
  3
UCSORTHOREF
350
4745
  3
UCSORTHOVIEW
350
4746
  3
UCSBASE
350
4747
  3
UCSORGTOP
350
4748
  3
UCSORGBOTTOM
350
4749
  3
UCSORGLEFT
350
474A
  3
UCSORGRIGHT
350
474B
  3
UCSORGFRONT
350
474C
  3
UCSORGBACK
350
474D
  0
DICTIONARY
  5
4722
102
{ACAD_REACTORS
330
74
102
}
330
74
100
AcDbDictionary
  3
*A1
350
4723
  0
XRECORD
  5
4750
102
{ACAD_REACTORS
330
74
102
}
330
74
100
AcDbXrecord
340
1F
  0
XRECORD
  5
4756
102
{ACAD_REACTORS
330
4755
102
}
330
4755
100
AcDbXrecord
340
101
  0
MLINESTYLE
  5
18
102
{ACAD_REACTORS
330
17
102
}
330
17
100
AcDbMlineStyle
  2
STANDARD
 70
     0
  3

 62
   256
 51
90.0
 52
90.0
 71
     2
 49
0.5
 62
   256
  6
BYLAYER
 49
-0.5
 62
   256
  6
BYLAYER
  0
ACDBPLACEHOLDER
  5
F
102
{ACAD_REACTORS
330
E
102
}
330
E
100
AcDbPlaceHolder
280
     0
  0
DICTIONARYVAR
  5
35
102
{ACAD_REACTORS
330
34
102
}
330
34
100
DictionaryVariables
280
     0
  1
1
  0
DICTIONARYVAR
  5
B5E
102
{ACAD_REACTORS
330
34
102
}
330
34
100
DictionaryVariables
280
     0
  1
96
  0
DICTIONARY
  5
260
102
{ACAD_REACTORS
330
43
102
}
330
43
100
AcDbDictionary
  0
DICTIONARY
  5
2C
102
{ACAD_REACTORS
330
2B
102
}
330
2B
100
AcDbDictionary
  3
DWGSETTINGS
350
2D
  0
XRECORD
  5
472E
102
{ACAD_REACTORS
330
472D
102
}
330
472D
100
AcDbXrecord
 90
        1
  0
XRECORD
  5
472F
102
{ACAD_REACTORS
330
472D
102
}
330
472D
100
AcDbXrecord
 90
       70
  0
XRECORD
  5
4730
102
{ACAD_REACTORS
330
472D
102
}
330
472D
100
AcDbXrecord
  1

  0
XRECORD
  5
4731
102
{ACAD_REACTORS
330
472D
102
}
330
472D
100
AcDbXrecord
  1
ASAMI.ctb
  0
XRECORD
  5
4732
102
{ACAD_REACTORS
330
472D
102
}
330
472D
100
AcDbXrecord
340
1A
  0
XRECORD
  5
4733
102
{ACAD_REACTORS
330
472D
102
}
330
472D
100
AcDbXrecord
340
19
  0
XRECORD
  5
4734
102
{ACAD_REACTORS
330
472D
102
}
330
472D
100
AcDbXrecord
340
E
  0
XRECORD
  5
4735
102
{ACAD_REACTORS
330
472D
102
}
330
472D
100
AcDbXrecord
 90
    10781
  0
XRECORD
  5
4736
102
{ACAD_REACTORS
330
472D
102
}
330
472D
100
AcDbXrecord
 90
        4
  0
XRECORD
  5
4737
102
{ACAD_REACTORS
330
472D
102
}
330
472D
100
AcDbXrecord
 90
        0
  0
XRECORD
  5
4738
102
{ACAD_REACTORS
330
472D
102
}
330
472D
100
AcDbXrecord
  1
{AFB28963-8C59-40AE-9337-C84526B81ACE}
  0
XRECORD
  5
4739
102
{ACAD_REACTORS
330
472D
102
}
330
472D
100
AcDbXrecord
  1
{D1082088-425C-4C3A-AFEF-16AD951A9BE1}
  0
XRECORD
  5
473A
102
{ACAD_REACTORS
330
472D
102
}
330
472D
100
AcDbXrecord
 40
0.0
  0
XRECORD
  5
473B
102
{ACAD_REACTORS
330
472D
102
}
330
472D
100
AcDbXrecord
1000
DSTYLE
1002
{
1070
    79
 70
     2
1070
   341
340
59
1070
   342
340
59
1070
   371
 70
    -1
1070
   372
 70
    -1
1002
}
  0
XRECORD
  5
473C
102
{ACAD_REACTORS
330
472D
102
}
330
472D
100
AcDbXrecord
340
0
  0
XRECORD
  5
473D
102
{ACAD_REACTORS
330
472D
102
}
330
472D
100
AcDbXrecord
 70
     0
  0
XRECORD
  5
473E
102
{ACAD_REACTORS
330
472D
102
}
330
472D
100
AcDbXrecord
340
0
  0
XRECORD
  5
473F
102
{ACAD_REACTORS
330
472D
102
}
330
472D
100
AcDbXrecord
 10
0.0
 20
0.0
 30
0.0
  0
XRECORD
  5
4740
102
{ACAD_REACTORS
330
472D
102
}
330
472D
100
AcDbXrecord
 10
0.0
 20
0.0
 30
0.0
  0
XRECORD
  5
4741
102
{ACAD_REACTORS
330
472D
102
}
330
472D
100
AcDbXrecord
 10
0.0
 20
0.0
 30
0.0
  0
XRECORD
  5
4742
102
{ACAD_REACTORS
330
472D
102
}
330
472D
100
AcDbXrecord
 10
0.0
 20
0.0
 30
0.0
  0
XRECORD
  5
4743
102
{ACAD_REACTORS
330
472D
102
}
330
472D
100
AcDbXrecord
 10
0.0
 20
0.0
 30
0.0
  0
XRECORD
  5
4744
102
{ACAD_REACTORS
330
472D
102
}
330
472D
100
AcDbXrecord
 10
0.0
 20
0.0
 30
0.0
  0
XRECORD
  5
4745
102
{ACAD_REACTORS
330
472D
102
}
330
472D
100
AcDbXrecord
340
0
  0
XRECORD
  5
4746
102
{ACAD_REACTORS
330
472D
102
}
330
472D
100
AcDbXrecord
 70
     0
  0
XRECORD
  5
4747
102
{ACAD_REACTORS
330
472D
102
}
330
472D
100
AcDbXrecord
340
0
  0
XRECORD
  5
4748
102
{ACAD_REACTORS
330
472D
102
}
330
472D
100
AcDbXrecord
 10
0.0
 20
0.0
 30
0.0
  0
XRECORD
  5
4749
102
{ACAD_REACTORS
330
472D
102
}
330
472D
100
AcDbXrecord
 10
0.0
 20
0.0
 30
0.0
  0
XRECORD
  5
474A
102
{ACAD_REACTORS
330
472D
102
}
330
472D
100
AcDbXrecord
 10
0.0
 20
0.0
 30
0.0
  0
XRECORD
  5
474B
102
{ACAD_REACTORS
330
472D
102
}
330
472D
100
AcDbXrecord
 10
0.0
 20
0.0
 30
0.0
  0
XRECORD
  5
474C
102
{ACAD_REACTORS
330
472D
102
}
330
472D
100
AcDbXrecord
 10
0.0
 20
0.0
 30
0.0
  0
XRECORD
  5
474D
102
{ACAD_REACTORS
330
472D
102
}
330
472D
100
AcDbXrecord
 10
0.0
 20
0.0
 30
0.0
  0
LAYER_INDEX
  5
4723
102
{ACAD_REACTORS
330
4722
102
}
330
4722
100
AcDbIndex
 40
2453151.721112905
100
AcDbLayerIndex
  8
0
360
4724
 90
        0
  8
AM_0
360
4725
 90
       52
  8
AM_7
360
4726
 90
        1
  8
AM_11
360
4727
 90
       34
  8
AM_5
360
4728
 90
        5
  8
Defpoints
360
4729
 90
        0
  8
AM_6
360
472A
 90
        1
  8
AM_CL
360
472B
 90
        0
  0
XRECORD
  5
2D
102
{ACAD_REACTORS
330
2C
102
}
330
2C
100
AcDbXrecord
  1
VERSION
140
15.0
  1
PRODUCT
  2
AutoCAD Mechanical 2000
  0
IDBUFFER
  5
4724
330
0
100
AcDbIdBuffer
  0
IDBUFFER
  5
4725
330
0
100
AcDbIdBuffer
330
43E1
330
44BC
330
44BD
330
44BE
330
C1D
330
C2E
330
C30
330
1B5C
330
1B60
330
1C1A
330
1C1E
330
1C85
330
1C86
330
2D2A
330
2D4A
330
2D4B
330
2D4C
330
2D4D
330
2D4E
330
37ED
330
3FFE
330
3FFF
330
4000
330
4001
330
4002
330
4003
330
4004
330
4005
330
4008
330
4009
330
400B
330
400C
330
400D
330
400E
330
4010
330
4012
330
4013
330
4015
330
4016
330
4017
330
4018
330
4019
330
401A
330
401B
330
4109
330
410A
330
410B
330
410C
330
410D
330
411C
330
4347
330
43E0
  0
IDBUFFER
  5
4726
330
0
100
AcDbIdBuffer
330
C9F
  0
IDBUFFER
  5
4727
330
0
100
AcDbIdBuffer
330
4683
330
4684
330
4685
330
4686
330
4687
330
4688
330
4689
330
468A
330
468B
330
468C
330
468D
330
468E
330
468F
330
4690
330
4691
330
4692
330
4693
330
4694
330
3A44
330
4006
330
4007
330
400A
330
400F
330
4011
330
4014
330
467A
330
467B
330
467C
330
467D
330
467E
330
467F
330
4680
330
4681
330
4682
  0
IDBUFFER
  5
4728
330
0
100
AcDbIdBuffer
330
CC6
330
DF5
330
1C71
330
1DEF
330
43EF
  0
IDBUFFER
  5
4729
330
0
100
AcDbIdBuffer
  0
IDBUFFER
  5
472A
330
0
100
AcDbIdBuffer
330
19BD
  0
IDBUFFER
  5
472B
330
0
100
AcDbIdBuffer
  0
ENDSEC
  0
EOF
