  0
SECTION
  2
HEADER
  9
$ACADVER
  1
AC1014
  9
$ACADMAINTVER
 70
     9
  9
$DWGCODEPAGE
  3
ANSI_932
  9
$INSBASE
 10
0.0
 20
0.0
 30
0.0
  9
$EXTMIN
 10
-84.34201976987484
 20
-25.25000099999997
 30
-0.00000001
  9
$EXTMAX
 10
14.07187634378723
 20
13.72251105824156
 30
0.00000001
  9
$LIMMIN
 10
-103.134137649193
 20
-34.60724519099901
  9
$LIMMAX
 10
18.55390181307279
 20
25.8241434171262
  9
$ORTHOMODE
 70
     0
  9
$REGENMODE
 70
     1
  9
$FILLMODE
 70
     1
  9
$QTEXTMODE
 70
     0
  9
$MIRRTEXT
 70
     0
  9
$DRAGMODE
 70
     2
  9
$LTSCALE
 40
1.0
  9
$OSMODE
 70
    55
  9
$ATTMODE
 70
     1
  9
$TEXTSIZE
 40
2.5
  9
$TRACEWID
 40
1.0
  9
$TEXTSTYLE
  7
STANDARD
  9
$CLAYER
  8
AM_0
  9
$CELTYPE
  6
BYLAYER
  9
$CECOLOR
 62
   256
  9
$CELTSCALE
 40
1.0
  9
$DELOBJ
 70
     1
  9
$DISPSILH
 70
     0
  9
$DIMSCALE
 40
0.5
  9
$DIMASZ
 40
2.5
  9
$DIMEXO
 40
1.0
  9
$DIMDLI
 40
12.0
  9
$DIMRND
 40
0.0
  9
$DIMDLE
 40
0.0
  9
$DIMEXE
 40
1.0
  9
$DIMTP
 40
0.1
  9
$DIMTM
 40
0.1
  9
$DIMTXT
 40
3.2
  9
$DIMCEN
 40
0.0
  9
$DIMTSZ
 40
0.0
  9
$DIMTOL
 70
     0
  9
$DIMLIM
 70
     0
  9
$DIMTIH
 70
     0
  9
$DIMTOH
 70
     0
  9
$DIMSE1
 70
     0
  9
$DIMSE2
 70
     0
  9
$DIMTAD
 70
     3
  9
$DIMZIN
 70
     8
  9
$DIMBLK
  1
OPEN30
  9
$DIMASO
 70
     1
  9
$DIMSHO
 70
     1
  9
$DIMPOST
  1

  9
$DIMAPOST
  1
"
  9
$DIMALT
 70
     0
  9
$DIMALTD
 70
     2
  9
$DIMALTF
 40
0.0393701
  9
$DIMLFAC
 40
1.0
  9
$DIMTOFL
 70
     1
  9
$DIMTVP
 40
0.0
  9
$DIMTIX
 70
     0
  9
$DIMSOXD
 70
     0
  9
$DIMSAH
 70
     0
  9
$DIMBLK1
  1

  9
$DIMBLK2
  1

  9
$DIMSTYLE
  2
AM_JIS
  9
$DIMCLRD
 70
   256
  9
$DIMCLRE
 70
   256
  9
$DIMCLRT
 70
     2
  9
$DIMTFAC
 40
0.71
  9
$DIMGAP
 40
1.5
  9
$DIMJUST
 70
     0
  9
$DIMSD1
 70
     0
  9
$DIMSD2
 70
     0
  9
$DIMTOLJ
 70
     0
  9
$DIMTZIN
 70
     0
  9
$DIMALTZ
 70
     0
  9
$DIMALTTZ
 70
     0
  9
$DIMFIT
 70
     3
  9
$DIMUPT
 70
     0
  9
$DIMUNIT
 70
     2
  9
$DIMDEC
 70
     3
  9
$DIMTDEC
 70
     3
  9
$DIMALTU
 70
     2
  9
$DIMALTTD
 70
     2
  9
$DIMTXSTY
  7
ASAMI
  9
$DIMAUNIT
 70
     0
  9
$LUNITS
 70
     2
  9
$LUPREC
 70
     2
  9
$SKETCHINC
 40
1.0
  9
$FILLETRAD
 40
2.5
  9
$AUNITS
 70
     0
  9
$AUPREC
 70
     0
  9
$MENU
  1
.
  9
$ELEVATION
 40
0.0
  9
$PELEVATION
 40
0.0
  9
$THICKNESS
 40
0.0
  9
$LIMCHECK
 70
     0
  9
$BLIPMODE
 70
     0
  9
$CHAMFERA
 40
0.25
  9
$CHAMFERB
 40
0.25
  9
$CHAMFERC
 40
20.0
  9
$CHAMFERD
 40
0.0
  9
$SKPOLY
 70
     0
  9
$TDCREATE
 40
2452800.443498622
  9
$TDUPDATE
 40
2453151.577049861
  9
$TDINDWG
 40
0.0881607870
  9
$TDUSRTIMER
 40
0.0881607870
  9
$USRTIMER
 70
     1
  9
$ANGBASE
 50
0.0
  9
$ANGDIR
 70
     0
  9
$PDMODE
 70
     3
  9
$PDSIZE
 40
0.0
  9
$PLINEWID
 40
0.0
  9
$COORDS
 70
     1
  9
$SPLFRAME
 70
     0
  9
$SPLINETYPE
 70
     6
  9
$SPLINESEGS
 70
     8
  9
$ATTDIA
 70
     1
  9
$ATTREQ
 70
     1
  9
$HANDLING
 70
 12289
  9
$HANDSEED
  5
355B
  9
$SURFTAB1
 70
     6
  9
$SURFTAB2
 70
     6
  9
$SURFTYPE
 70
     6
  9
$SURFU
 70
     6
  9
$SURFV
 70
     6
  9
$UCSNAME
  2

  9
$UCSORG
 10
0.0
 20
0.0
 30
0.0
  9
$UCSXDIR
 10
1.0
 20
0.0
 30
0.0
  9
$UCSYDIR
 10
0.0
 20
1.0
 30
0.0
  9
$PUCSNAME
  2

  9
$PUCSORG
 10
0.0
 20
0.0
 30
0.0
  9
$PUCSXDIR
 10
1.0
 20
0.0
 30
0.0
  9
$PUCSYDIR
 10
0.0
 20
1.0
 30
0.0
  9
$USERI1
 70
     0
  9
$USERI2
 70
     0
  9
$USERI3
 70
     0
  9
$USERI4
 70
     0
  9
$USERI5
 70
     0
  9
$USERR1
 40
0.0
  9
$USERR2
 40
0.0
  9
$USERR3
 40
0.0
  9
$USERR4
 40
0.0
  9
$USERR5
 40
0.0
  9
$WORLDVIEW
 70
     1
  9
$SHADEDGE
 70
     3
  9
$SHADEDIF
 70
    70
  9
$TILEMODE
 70
     1
  9
$MAXACTVP
 70
    64
  9
$PINSBASE
 10
0.0
 20
0.0
 30
0.0
  9
$PLIMCHECK
 70
     0
  9
$PEXTMIN
 10
1.000000000000000E+20
 20
1.000000000000000E+20
 30
1.000000000000000E+20
  9
$PEXTMAX
 10
-1.000000000000000E+20
 20
-1.000000000000000E+20
 30
-1.000000000000000E+20
  9
$PLIMMIN
 10
0.0
 20
0.0
  9
$PLIMMAX
 10
841.0
 20
594.0
  9
$UNITMODE
 70
     0
  9
$VISRETAIN
 70
     1
  9
$PLINEGEN
 70
     0
  9
$PSLTSCALE
 70
     0
  9
$TREEDEPTH
 70
  3020
  9
$PICKSTYLE
 70
     0
  9
$CMLSTYLE
  2
STANDARD
  9
$CMLJUST
 70
     0
  9
$CMLSCALE
 40
20.0
  9
$PROXYGRAPHICS
 70
     1
  9
$MEASUREMENT
 70
     1
  0
ENDSEC
  0
SECTION
  2
CLASSES
  0
CLASS
  1
ACDBDICTIONARYWDFLT
  2
AcDbDictionaryWithDefault
  3
AutoCAD 2000
 90
        0
280
     0
281
     0
  0
CLASS
  1
ACDBPLACEHOLDER
  2
AcDbPlaceHolder
  3
AutoCAD 2000
 90
        0
280
     0
281
     0
  0
CLASS
  1
LAYOUT
  2
AcDbLayout
  3
AutoCAD 2000
 90
        0
280
     0
281
     0
  0
CLASS
  1
AMGSETTINGSOBJ
  2
AmgSettingsObj
  3
"AcadM|Product Description: AutoCAD Mechanical 2000|Company: Autodesk"
 90
        0
280
     0
281
     0
  0
CLASS
  1
ACME_DOCUMENT
  2
AcMeDbDoc
  3
AcMeServices
 90
        0
280
     0
281
     0
  0
CLASS
  1
ACMESCOPE
  2
AcMeScope
  3
AcMeServices
 90
        0
280
     0
281
     0
  0
CLASS
  1
ACMECOMMANDHISTORY
  2
AcMeCommandHistory
  3
AcMeServices
 90
        0
280
     0
281
     0
  0
CLASS
  1
DICTIONARYVAR
  2
AcDbDictionaryVar
  3
AutoCAD 2000
 90
        0
280
     0
281
     0
  0
CLASS
  1
ACIMSYSVARMAN
  2
AcImSysVarManager
  3
AcMeServices
 90
        0
280
     0
281
     0
  0
CLASS
  1
ACIMREALSYSVAR
  2
AcImRealSysVar
  3
AcMeServices
 90
        0
280
     0
281
     0
  0
CLASS
  1
ACIMINTSYSVAR
  2
AcImIntSysVar
  3
AcMeServices
 90
        0
280
     0
281
     0
  0
CLASS
  1
ACMEDRAWINGMAN
  2
AcMeDrawingMan
  3
AcMeServices
 90
        0
280
     0
281
     0
  0
CLASS
  1
ACMEVIEW
  2
AcMeView
  3
AcMeServices
 90
        0
280
     0
281
     0
  0
CLASS
  1
ACDBENTITYCACHE
  2
AcMeEntityCache
  3
AcMeServices
 90
        0
280
     0
281
     0
  0
CLASS
  1
GSMANAGER
  2
AcMeGSManager
  3
AcMeServices
 90
        0
280
     0
281
     0
  0
CLASS
  1
AmdtInternalReactor
  2
AmdtInternalReactor
  3
AcMeServices
 90
        0
280
     0
281
     0
  0
CLASS
  1
ACMESTATEMGR
  2
AcMeStateMgr
  3
AcMeServices
 90
        0
280
     0
281
     0
  0
CLASS
  1
ACME_DATABASE
  2
AcMeDbDatabase
  3
AcMeServices
 90
        0
280
     0
281
     0
  0
CLASS
  1
ACRFINSADJUSTERMGR
  2
AcRfInsAdjusterMgr
  3
AcMeServices
 90
        0
280
     0
281
     0
  0
CLASS
  1
ACMDATADICTIONARY
  2
AcmDataDictionary
  3
"AcmSymBB|Product Description: AutoCAD Mechanical 2000|Company: Autodesk"
 90
        0
280
     0
281
     0
  0
CLASS
  1
ACMDATAENTRYBLOCK
  2
AcmDataEntryBlock
  3
"AcmSymBB|Product Description: AutoCAD Mechanical 2000|Company: Autodesk"
 90
        0
280
     0
281
     0
  0
CLASS
  1
AMGOBJPROPCFG
  2
AmgObjPropCfg
  3
"AmgLay|Product Description: AutoCAD Mechanical 2000|Company: Autodesk"
 90
        1
280
     0
281
     0
  0
CLASS
  1
ACAMGFILTERDAT
  2
AcAmgFilterDat
  3
"AcadM|Product Description: AutoCAD Mechanical 2000|Company: Autodesk"
 90
        0
280
     0
281
     0
  0
CLASS
  1
LAYER_INDEX
  2
AcDbLayerIndex
  3
AutoCAD 2000
 90
        0
280
     0
281
     0
  0
CLASS
  1
IDBUFFER
  2
AcDbIdBuffer
  3
AutoCAD 2000
 90
        0
280
     0
281
     0
  0
CLASS
  1
ACIMSTRSYSVAR
  2
AcImStrSysVar
  3
AcMeServices
 90
        0
280
     0
281
     0
  0
CLASS
  1
ACMSTANDARDJIS
  2
AcmStandardJIS
  3
"AcmSymBB|Product Description: AutoCAD Mechanical 2000|Company: Autodesk"
 90
        0
280
     0
281
     0
  0
CLASS
  1
ACMSURFSTANDARDJIS
  2
AcmSurfTextStdJIS
  3
"AcmSymBB|Product Description: AutoCAD Mechanical 2000|Company: Autodesk"
 90
        0
280
     0
281
     0
  0
CLASS
  1
ACMFCFSTANDARDJIS
  2
AcmFCFStdJIS
  3
"AcmSymBB|Product Description: AutoCAD Mechanical 2000|Company: Autodesk"
 90
        0
280
     0
281
     0
  0
CLASS
  1
ACMWELDSTANDARDJIS
  2
AcmWeldingStdJIS
  3
"AcmSymBB|Product Description: AutoCAD Mechanical 2000|Company: Autodesk"
 90
        0
280
     0
281
     0
  0
CLASS
  1
ACMIDSTANDARDJIS
  2
AcmIdStdJIS
  3
"AcmSymBB|Product Description: AutoCAD Mechanical 2000|Company: Autodesk"
 90
        0
280
     0
281
     0
  0
CLASS
  1
ACMDATUMSTANDARDJIS
  2
AcmDatumStdJIS
  3
"AcmSymBB|Product Description: AutoCAD Mechanical 2000|Company: Autodesk"
 90
        0
280
     0
281
     0
  0
CLASS
  1
ACMBOMSTANDARDJIS
  2
AcmBOMStdJIS
  3
"AcmSymBB|Product Description: AutoCAD Mechanical 2000|Company: Autodesk"
 90
        0
280
     0
281
     0
  0
CLASS
  1
ACMSTANDARDANSI
  2
AcmStandardANSI
  3
"AcmSymBB|Product Description: AutoCAD Mechanical 2000|Company: Autodesk"
 90
        0
280
     0
281
     0
  0
CLASS
  1
ACMSURFSTANDARDANSI
  2
AcmSurfTextStdANSI
  3
"AcmSymBB|Product Description: AutoCAD Mechanical 2000|Company: Autodesk"
 90
        0
280
     0
281
     0
  0
CLASS
  1
ACMFCFSTANDARDANSI
  2
AcmFCFStdANSI
  3
"AcmSymBB|Product Description: AutoCAD Mechanical 2000|Company: Autodesk"
 90
        0
280
     0
281
     0
  0
CLASS
  1
ACMWELDSTANDARDANSI
  2
AcmWeldingStdANSI
  3
"AcmSymBB|Product Description: AutoCAD Mechanical 2000|Company: Autodesk"
 90
        0
280
     0
281
     0
  0
CLASS
  1
ACMIDSTANDARDANSI
  2
AcmIdStdANSI
  3
"AcmSymBB|Product Description: AutoCAD Mechanical 2000|Company: Autodesk"
 90
        0
280
     0
281
     0
  0
CLASS
  1
ACMDATUMSTANDARDANSI
  2
AcmDatumStdANSI
  3
"AcmSymBB|Product Description: AutoCAD Mechanical 2000|Company: Autodesk"
 90
        0
280
     0
281
     0
  0
CLASS
  1
ACMBOMSTANDARDANSI
  2
AcmBOMStdANSI
  3
"AcmSymBB|Product Description: AutoCAD Mechanical 2000|Company: Autodesk"
 90
        0
280
     0
281
     0
  0
CLASS
  1
ACMSTANDARDBSI
  2
AcmStandardBSI
  3
"AcmSymBB|Product Description: AutoCAD Mechanical 2000|Company: Autodesk"
 90
        0
280
     0
281
     0
  0
CLASS
  1
ACMSURFSTANDARDBSI
  2
AcmSurfTextStdBSI
  3
"AcmSymBB|Product Description: AutoCAD Mechanical 2000|Company: Autodesk"
 90
        0
280
     0
281
     0
  0
CLASS
  1
ACMFCFSTANDARDBSI
  2
AcmFCFStdBSI
  3
"AcmSymBB|Product Description: AutoCAD Mechanical 2000|Company: Autodesk"
 90
        0
280
     0
281
     0
  0
CLASS
  1
ACMWELDSTANDARDBSI
  2
AcmWeldingStdBSI
  3
"AcmSymBB|Product Description: AutoCAD Mechanical 2000|Company: Autodesk"
 90
        0
280
     0
281
     0
  0
CLASS
  1
ACMIDSTANDARDBSI
  2
AcmIdStdBSI
  3
"AcmSymBB|Product Description: AutoCAD Mechanical 2000|Company: Autodesk"
 90
        0
280
     0
281
     0
  0
CLASS
  1
ACMDATUMSTANDARDBSI
  2
AcmDatumStdBSI
  3
"AcmSymBB|Product Description: AutoCAD Mechanical 2000|Company: Autodesk"
 90
        0
280
     0
281
     0
  0
CLASS
  1
ACMBOMSTANDARDBSI
  2
AcmBOMStdBSI
  3
"AcmSymBB|Product Description: AutoCAD Mechanical 2000|Company: Autodesk"
 90
        0
280
     0
281
     0
  0
CLASS
  1
LONG_TRANSACTION
  2
AcDbLongTransaction
  3
AutoCAD 2000
 90
        0
280
     0
281
     0
  0
CLASS
  1
LWPOLYLINE
  2
AcDbPolyline
  3
AutoCAD 2000
 90
        0
280
     0
281
     1
  0
CLASS
  1
HATCH
  2
AcDbHatch
  3
AutoCAD 2000
 90
        0
280
     0
281
     1
  0
CLASS
  1
XRECORD
  2
AcDbXrecord
  3
AutoCAD 2000
 90
        0
280
     0
281
     0
  0
ENDSEC
  0
SECTION
  2
TABLES
  0
TABLE
  2
VPORT
  5
8
330
0
100
AcDbSymbolTable
 70
     3
  0
VPORT
  5
3525
330
8
100
AcDbSymbolTableRecord
100
AcDbViewportTableRecord
  2
*ACTIVE
 70
     0
 10
0.0
 20
0.0
 11
1.0
 21
1.0
 12
-33.29380501797239
 22
-5.763669236903183
 13
0.0
 23
0.0
 14
2.5
 24
2.5
 15
10.0
 25
10.0
 16
0.0
 26
0.0
 36
1.0
 17
0.0
 27
0.0
 37
0.0
 40
65.52678921362804
 41
1.56570841889117
 42
50.0
 43
0.0
 44
0.0
 50
0.0
 51
0.0
 71
     0
 72
   100
 73
     1
 74
     1
 75
     0
 76
     0
 77
     0
 78
     0
  0
ENDTAB
  0
TABLE
  2
LTYPE
  5
5
330
0
100
AcDbSymbolTable
 70
    10
  0
LTYPE
  5
14
330
5
100
AcDbSymbolTableRecord
100
AcDbLinetypeTableRecord
  2
BYBLOCK
 70
     0
  3

 72
    65
 73
     0
 40
0.0
  0
LTYPE
  5
15
330
5
100
AcDbSymbolTableRecord
100
AcDbLinetypeTableRecord
  2
BYLAYER
 70
     0
  3

 72
    65
 73
     0
 40
0.0
  0
LTYPE
  5
16
330
5
100
AcDbSymbolTableRecord
100
AcDbLinetypeTableRecord
  2
CONTINUOUS
 70
     0
  3
Solid line
 72
    65
 73
     0
 40
0.0
  0
LTYPE
  5
4B
330
5
100
AcDbSymbolTableRecord
100
AcDbLinetypeTableRecord
  2
AM_ISO02W050
 70
     0
  3
__ __ __ __ __ __ __ __ __ __ __ __ __ __ __
 72
    65
 73
     2
 40
7.5
 49
6.0
 74
     0
 49
-1.5
 74
     0
  0
LTYPE
  5
4C
330
5
100
AcDbSymbolTableRecord
100
AcDbLinetypeTableRecord
  2
AM_ISO08W050
 70
     0
  3
____ . ____ . ____ . ____ . ____ . ____ . ____
 72
    65
 73
     4
 40
18.0
 49
12.0
 74
     0
 49
-1.5
 74
     0
 49
3.0
 74
     0
 49
-1.5
 74
     0
  0
LTYPE
  5
4D
330
5
100
AcDbSymbolTableRecord
100
AcDbLinetypeTableRecord
  2
AM_ISO09W050
 70
     0
  3
_____ . . _____ . . _____ . . ____ .. ____
 72
    65
 73
     6
 40
22.5
 49
12.0
 74
     0
 49
-1.5
 74
     0
 49
3.0
 74
     0
 49
-1.5
 74
     0
 49
3.0
 74
     0
 49
-1.5
 74
     0
  0
LTYPE
  5
4E
330
5
100
AcDbSymbolTableRecord
100
AcDbLinetypeTableRecord
  2
AMCONSTR
 70
     0
  3
_______________________
 72
    65
 73
     2
 40
9999.0
 49
9999.0
 74
     0
 49
0.0
 74
     0
  0
LTYPE
  5
4F
330
5
100
AcDbSymbolTableRecord
100
AcDbLinetypeTableRecord
  2
AM_ISO02W050X2
 70
     0
  3
 _ _ _ _ _ _ _ _ _ _ _ _
 72
    65
 73
     2
 40
3.75
 49
3.0
 74
     0
 49
-0.75
 74
     0
  0
LTYPE
  5
50
330
5
100
AcDbSymbolTableRecord
100
AcDbLinetypeTableRecord
  2
AM_ISO08W050X2
 70
     0
  3
__ . __ . __ . __ . __ . __
 72
    65
 73
     4
 40
9.0
 49
6.0
 74
     0
 49
-0.75
 74
     0
 49
1.5
 74
     0
 49
-0.75
 74
     0
  0
LTYPE
  5
53
330
5
100
AcDbSymbolTableRecord
100
AcDbLinetypeTableRecord
  2
AMZIGZAG
 70
     0
  3
/\/-/\/-/\/-/\/-/\/-/\/
 72
    65
 73
     2
 40
11.00009999999999
 49
0.0001
 74
     4
 75
   135
340
52
 46
0.04
 50
0.0
 44
0.0
 45
0.0
 49
-11.0
 74
     0
  0
LTYPE
  5
166
330
5
100
AcDbSymbolTableRecord
100
AcDbLinetypeTableRecord
  2
ACJISTGL
 70
     0
  3
_ _ _ _ _
 72
    65
 73
     2
 40
3.0
 49
2.0
 74
     0
 49
-1.0
 74
     0
  0
LTYPE
  5
26A
330
5
100
AcDbSymbolTableRecord
100
AcDbLinetypeTableRecord
  2
ACJISTGB
 70
     0
  3
__ . . __ . .
 72
    65
 73
     6
 40
9.0
 49
4.0
 74
     0
 49
-1.0
 74
     0
 49
1.0
 74
     0
 49
-1.0
 74
     0
 49
1.0
 74
     0
 49
-1.0
 74
     0
  0
ENDTAB
  0
TABLE
  2
LAYER
  5
2
330
0
100
AcDbSymbolTable
 70
     7
  0
LAYER
  5
10
330
2
100
AcDbSymbolTableRecord
100
AcDbLayerTableRecord
  2
0
 70
     0
 62
     7
  6
CONTINUOUS
  0
LAYER
  5
3F9
330
2
100
AcDbSymbolTableRecord
100
AcDbLayerTableRecord
  2
AM_0
 70
     0
 62
     7
  6
CONTINUOUS
  0
LAYER
  5
C7C
330
2
100
AcDbSymbolTableRecord
100
AcDbLayerTableRecord
  2
AM_7
 70
     0
 62
     4
  6
AM_ISO08W050
  0
LAYER
  5
C97
330
2
100
AcDbSymbolTableRecord
100
AcDbLayerTableRecord
  2
AM_11
 70
     0
 62
     3
  6
AM_ISO09W050
  0
LAYER
  5
CC5
330
2
100
AcDbSymbolTableRecord
100
AcDbLayerTableRecord
  2
AM_5
 70
     0
 62
     3
  6
CONTINUOUS
  0
LAYER
  5
CC7
330
2
100
AcDbSymbolTableRecord
100
AcDbLayerTableRecord
  2
DEFPOINTS
 70
     0
 62
     7
  6
CONTINUOUS
  0
LAYER
  5
19BC
330
2
100
AcDbSymbolTableRecord
100
AcDbLayerTableRecord
  2
AM_6
 70
     0
 62
     2
  6
CONTINUOUS
  0
ENDTAB
  0
TABLE
  2
STYLE
  5
3
330
0
100
AcDbSymbolTable
 70
     5
  0
STYLE
  5
11
330
3
100
AcDbSymbolTableRecord
100
AcDbTextStyleTableRecord
  2
STANDARD
 70
     0
 40
0.0
 41
1.0
 50
0.0
 71
     0
 42
2.5
  3
simplex.shx
  4
EXTFONT.SHX
  0
STYLE
  5
52
330
3
100
AcDbSymbolTableRecord
100
AcDbTextStyleTableRecord
  2

 70
     1
 40
0.0
 41
1.0
 50
0.0
 71
     0
 42
2.5
  3
ltypeshp.shx
  4

  0
STYLE
  5
6B
330
3
100
AcDbSymbolTableRecord
100
AcDbTextStyleTableRecord
  2
ASAMI
 70
     0
 40
0.0
 41
1.0
 50
0.0
 71
     0
 42
2.5
  3
simplex.shx
  4
EXTFONT.SHX
  0
STYLE
  5
262
330
3
100
AcDbSymbolTableRecord
100
AcDbTextStyleTableRecord
  2
ACJISTS
 70
     0
 40
1.0
 41
1.0
 50
0.0
 71
     0
 42
2.5
  3
simplex.shx
  4
bigfont.shx
  0
STYLE
  5
269
330
3
100
AcDbSymbolTableRecord
100
AcDbTextStyleTableRecord
  2
ACJISGDT
 70
     0
 40
0.0
 41
1.0
 50
0.0
 71
     0
 42
2.5
  3
amgdtans.shx
  4

  0
ENDTAB
  0
TABLE
  2
VIEW
  5
6
330
0
100
AcDbSymbolTable
 70
     0
  0
ENDTAB
  0
TABLE
  2
UCS
  5
7
330
0
100
AcDbSymbolTable
 70
     0
  0
ENDTAB
  0
TABLE
  2
APPID
  5
9
330
0
100
AcDbSymbolTable
 70
    16
  0
APPID
  5
12
330
9
100
AcDbSymbolTableRecord
100
AcDbRegAppTableRecord
  2
ACAD
 70
     0
  0
APPID
  5
30
330
9
100
AcDbSymbolTableRecord
100
AcDbRegAppTableRecord
  2
MCAD_NO_VIS
 70
     0
  0
APPID
  5
31
330
9
100
AcDbSymbolTableRecord
100
AcDbRegAppTableRecord
  2
ACAD_TEMP_GRAPHIC
 70
     0
  0
APPID
  5
2C2
330
9
100
AcDbSymbolTableRecord
100
AcDbRegAppTableRecord
  2
GENIUS_GENDTOL_13
 70
     0
  0
APPID
  5
339
330
9
100
AcDbSymbolTableRecord
100
AcDbRegAppTableRecord
  2
GENIUS_GENODEF_13
 70
     0
  0
APPID
  5
33A
330
9
100
AcDbSymbolTableRecord
100
AcDbRegAppTableRecord
  2
GENIUS_GENOBJ-N-RSBK_13
 70
     0
  0
APPID
  5
33B
330
9
100
AcDbSymbolTableRecord
100
AcDbRegAppTableRecord
  2
GENIUS_GENOBJ-N-LIB_13
 70
     0
  0
APPID
  5
33C
330
9
100
AcDbSymbolTableRecord
100
AcDbRegAppTableRecord
  2
GENIUS_GENSCALE_13
 70
     0
  0
APPID
  5
378
330
9
100
AcDbSymbolTableRecord
100
AcDbRegAppTableRecord
  2
GENIUS_GENDIMSH_14
 70
     0
  0
APPID
  5
C82
330
9
100
AcDbSymbolTableRecord
100
AcDbRegAppTableRecord
  2
GENIUS_GENOBJ-N-CRS_13
 70
     0
  0
APPID
  5
C83
330
9
100
AcDbSymbolTableRecord
100
AcDbRegAppTableRecord
  2
GENIUS_GENOENT_13
 70
     0
  0
APPID
  5
C84
330
9
100
AcDbSymbolTableRecord
100
AcDbRegAppTableRecord
  2
GENIUS_GENOREF_13
 70
     0
  0
APPID
  5
C85
330
9
100
AcDbSymbolTableRecord
100
AcDbRegAppTableRecord
  2
GENIUS_GENOLIS_13
 70
     0
  0
APPID
  5
CA0
330
9
100
AcDbSymbolTableRecord
100
AcDbRegAppTableRecord
  2
GENIUS_GENOBJ-N-CEN_13
 70
     0
  0
APPID
  5
1CFA
330
9
100
AcDbSymbolTableRecord
100
AcDbRegAppTableRecord
  2
GENIUS_GENFIL_13
 70
     0
  0
APPID
  5
1CFB
330
9
100
AcDbSymbolTableRecord
100
AcDbRegAppTableRecord
  2
GENIUS_GENOBJ-N-CHA_13
 70
     0
  0
ENDTAB
  0
TABLE
  2
DIMSTYLE
  5
A
330
0
100
AcDbSymbolTable
 70
     9
  0
DIMSTYLE
105
58
330
A
100
AcDbSymbolTableRecord
100
AcDbDimStyleTableRecord
  2
AM_JIS
 70
     0
  3

  4
"
  5
OPEN30
  6

  7

 40
0.5
 41
2.5
 42
1.0
 43
12.0
 44
1.0
 45
0.0
 46
0.0
 47
0.1
 48
0.1
140
3.2
141
0.0
142
0.0
143
0.0393701
144
1.0
145
0.0
146
0.71
147
1.5
 71
     0
 72
     0
 73
     0
 74
     0
 75
     0
 76
     0
 77
     3
 78
     8
170
     0
171
     2
172
     1
173
     0
174
     0
175
     0
176
   256
177
   256
178
     2
270
     2
271
     3
272
     3
273
     2
274
     2
340
6B
275
     0
280
     0
281
     0
282
     0
283
     0
284
     0
285
     0
286
     0
287
     3
288
     0
  0
DIMSTYLE
105
5F
330
A
100
AcDbSymbolTableRecord
100
AcDbDimStyleTableRecord
  2
AM_JIS$3
 70
     0
  3

  4
"
  5
OPEN30
  6

  7

 40
0.5
 41
2.5
 42
1.0
 43
10.0
 44
1.0
 45
0.0
 46
0.0
 47
0.1
 48
0.1
140
3.2
141
0.0
142
0.0
143
0.0393701
144
1.0
145
0.0
146
0.71
147
1.5
 71
     0
 72
     0
 73
     0
 74
     1
 75
     0
 76
     0
 77
     3
 78
     8
170
     0
171
     2
172
     0
173
     0
174
     0
175
     0
176
   256
177
   256
178
     2
270
     2
271
     2
272
     3
273
     2
274
     2
340
6B
275
     0
280
     0
281
     0
282
     0
283
     0
284
     0
285
     0
286
     0
287
     0
288
     1
  0
DIMSTYLE
105
60
330
A
100
AcDbSymbolTableRecord
100
AcDbDimStyleTableRecord
  2
AM_JIS$4
 70
     0
  3

  4
"
  5
OPEN30
  6

  7

 40
0.5
 41
2.5
 42
1.0
 43
10.0
 44
1.0
 45
0.0
 46
0.0
 47
0.1
 48
0.1
140
3.2
141
0.0
142
0.0
143
0.0393701
144
1.0
145
0.0
146
0.71
147
1.5
 71
     0
 72
     0
 73
     0
 74
     1
 75
     0
 76
     0
 77
     3
 78
     8
170
     0
171
     2
172
     0
173
     0
174
     0
175
     0
176
   256
177
   256
178
     2
270
     2
271
     2
272
     3
273
     2
274
     2
340
6B
275
     0
280
     0
281
     0
282
     0
283
     0
284
     0
285
     0
286
     0
287
     0
288
     1
  0
DIMSTYLE
105
61
330
A
100
AcDbSymbolTableRecord
100
AcDbDimStyleTableRecord
  2
AM_JIS$6
 70
     0
  3

  4
"
  5
OPEN30
  6

  7

 40
0.5
 41
2.5
 42
1.0
 43
10.0
 44
1.0
 45
0.0
 46
0.0
 47
0.1
 48
0.1
140
3.2
141
0.0
142
0.0
143
0.0393701
144
1.0
145
0.0
146
0.71
147
1.5
 71
     0
 72
     0
 73
     0
 74
     0
 75
     0
 76
     0
 77
     0
 78
     8
170
     0
171
     2
172
     1
173
     0
174
     0
175
     0
176
   256
177
   256
178
     2
270
     2
271
     2
272
     2
273
     2
274
     2
340
6B
275
     0
280
     0
281
     0
282
     0
283
     0
284
     0
285
     0
286
     0
287
     3
288
     0
  0
DIMSTYLE
105
62
330
A
100
AcDbSymbolTableRecord
100
AcDbDimStyleTableRecord
  2
AM_JIS$7
 70
     0
  3

  4
"
  5
OPEN30
  6

  7

 40
0.5
 41
2.5
 42
1.0
 43
10.0
 44
1.0
 45
0.0
 46
0.0
 47
0.1
 48
0.1
140
3.2
141
0.0
142
0.0
143
0.0393701
144
1.0
145
0.0
146
0.71
147
1.5
 71
     0
 72
     0
 73
     0
 74
     0
 75
     0
 76
     0
 77
     3
 78
     8
170
     0
171
     2
172
     1
173
     0
174
     0
175
     0
176
   256
177
   256
178
     2
270
     2
271
     2
272
     3
273
     2
274
     2
340
6B
275
     0
280
     0
281
     0
282
     0
283
     0
284
     0
285
     0
286
     0
287
     3
288
     0
  0
DIMSTYLE
105
63
330
A
100
AcDbSymbolTableRecord
100
AcDbDimStyleTableRecord
  2
AM_JIS$SF
 70
     0
  3

  4
"
  5
OPEN30
  6

  7

 40
0.5
 41
2.5
 42
1.0
 43
10.0
 44
1.0
 45
0.0
 46
0.0
 47
0.1
 48
0.1
140
3.2
141
0.0
142
0.0
143
0.0393701
144
1.0
145
0.0
146
0.71
147
1.5
 71
     0
 72
     0
 73
     0
 74
     0
 75
     1
 76
     1
 77
     3
 78
     8
170
     0
171
     2
172
     1
173
     0
174
     0
175
     0
176
   256
177
   256
178
     2
270
     2
271
     2
272
     2
273
     2
274
     2
340
6B
275
     0
280
     0
281
     0
282
     0
283
     0
284
     0
285
     0
286
     0
287
     3
288
     0
  0
DIMSTYLE
105
68
330
A
100
AcDbSymbolTableRecord
100
AcDbDimStyleTableRecord
  2
AM_JIS$SH
 70
     0
  3

  4
"
  5

  6
GENAXEH
  7
OPEN30
 40
0.5
 41
2.5
 42
1.0
 43
10.0
 44
1.0
 45
0.0
 46
0.0
 47
0.1
 48
0.1
140
3.2
141
0.0
142
0.0
143
0.0393701
144
2.0
145
0.0
146
0.71
147
1.5
 71
     0
 72
     0
 73
     0
 74
     0
 75
     1
 76
     1
 77
     3
 78
     8
170
     0
171
     2
172
     1
173
     1
174
     0
175
     0
176
   256
177
   256
178
     2
270
     2
271
     2
272
     2
273
     2
274
     2
340
6B
275
     0
280
     0
281
     0
282
     0
283
     0
284
     0
285
     0
286
     0
287
     3
288
     0
  0
DIMSTYLE
105
B34
102
{ACAD_REACTORS
330
2FE5
102
}
330
A
100
AcDbSymbolTableRecord
100
AcDbDimStyleTableRecord
  2
AM_JIS$2
 70
     0
  3

  4
"
  5
OPEN30
  6

  7

 40
0.5
 41
2.5
 42
1.0
 43
12.0
 44
1.0
 45
0.0
 46
0.0
 47
0.1
 48
0.1
140
3.2
141
0.0
142
0.0
143
0.0393701
144
1.0
145
0.0
146
0.71
147
1.5
 71
     0
 72
     0
 73
     0
 74
     0
 75
     0
 76
     0
 77
     3
 78
     8
170
     0
171
     2
172
     1
173
     0
174
     0
175
     0
176
   256
177
   256
178
     2
270
     2
271
     3
272
     3
273
     2
274
     2
340
6B
275
     0
280
     0
281
     0
282
     0
283
     0
284
     0
285
     0
286
     0
287
     3
288
     0
  0
DIMSTYLE
105
BA5
102
{ACAD_REACTORS
330
223E
330
2259
330
282D
330
2ABE
102
}
330
A
100
AcDbSymbolTableRecord
100
AcDbDimStyleTableRecord
  2
AM_JIS$0
 70
     0
  3

  4
"
  5
OPEN30
  6

  7

 40
0.5
 41
2.5
 42
0.0
 43
10.0
 44
1.0
 45
0.0
 46
0.0
 47
0.1
 48
0.1000000001
140
3.799999999999999
141
0.0
142
0.0
143
0.0393701
144
1.0
145
0.0
146
0.71
147
1.5
 71
     0
 72
     0
 73
     0
 74
     0
 75
     0
 76
     0
 77
     3
 78
     1
170
     0
171
     2
172
     1
173
     0
174
     0
175
     0
176
     3
177
     3
178
     2
270
     2
271
     2
272
     2
273
     2
274
     2
340
11
275
     1
280
     0
281
     0
282
     0
283
     0
284
     8
285
     0
286
     0
287
     0
288
     0
  0
ENDTAB
  0
TABLE
  2
BLOCK_RECORD
  5
1
330
0
100
AcDbSymbolTable
 70
    10
  0
BLOCK_RECORD
  5
1F
102
{ACAD_XDICTIONARY
360
74
102
}
330
1
100
AcDbSymbolTableRecord
100
AcDbBlockTableRecord
  2
*MODEL_SPACE
  0
BLOCK_RECORD
  5
101
102
{ACAD_XDICTIONARY
360
354E
102
}
330
1
100
AcDbSymbolTableRecord
100
AcDbBlockTableRecord
  2
*PAPER_SPACE
  0
BLOCK_RECORD
  5
59
330
1
100
AcDbSymbolTableRecord
100
AcDbBlockTableRecord
  2
_OPEN30
  0
BLOCK_RECORD
  5
64
330
1
100
AcDbSymbolTableRecord
100
AcDbBlockTableRecord
  2
GENAXEH
  0
BLOCK_RECORD
  5
223F
330
1
100
AcDbSymbolTableRecord
100
AcDbBlockTableRecord
  2
*D5
  0
BLOCK_RECORD
  5
225A
330
1
100
AcDbSymbolTableRecord
100
AcDbBlockTableRecord
  2
*D6
  0
BLOCK_RECORD
  5
2833
330
1
100
AcDbSymbolTableRecord
100
AcDbBlockTableRecord
  2
*D7
  0
BLOCK_RECORD
  5
2ABF
330
1
100
AcDbSymbolTableRecord
100
AcDbBlockTableRecord
  2
*D8
  0
BLOCK_RECORD
  5
2FE6
330
1
100
AcDbSymbolTableRecord
100
AcDbBlockTableRecord
  2
*D9
  0
ENDTAB
  0
ENDSEC
  0
SECTION
  2
BLOCKS
  0
BLOCK
  5
20
330
1F
100
AcDbEntity
  8
0
100
AcDbBlockBegin
  2
*MODEL_SPACE
 70
     0
 10
0.0
 20
0.0
 30
0.0
  3
*MODEL_SPACE
  1

  0
ENDBLK
  5
21
330
1F
100
AcDbEntity
  8
0
100
AcDbBlockEnd
  0
BLOCK
  5
103
330
101
100
AcDbEntity
 67
     1
  8
0
100
AcDbBlockBegin
  2
*PAPER_SPACE
 70
     0
 10
0.0
 20
0.0
 30
0.0
  3
*PAPER_SPACE
  1

  0
ENDBLK
  5
104
330
101
100
AcDbEntity
 67
     1
  8
0
100
AcDbBlockEnd
  0
BLOCK
  5
5D
330
59
100
AcDbEntity
  8
0
100
AcDbBlockBegin
  2
_OPEN30
 70
     0
 10
0.0
 20
0.0
 30
0.0
  3
_OPEN30
  1

  0
LINE
  5
5A
330
59
100
AcDbEntity
  8
0
 62
     0
100
AcDbLine
 10
-1.0
 20
0.26794919
 30
0.0
 11
0.0
 21
0.0
 31
0.0
  0
LINE
  5
5B
330
59
100
AcDbEntity
  8
0
 62
     0
100
AcDbLine
 10
0.0
 20
0.0
 30
0.0
 11
-1.0
 21
-0.26794919
 31
0.0
  0
LINE
  5
5C
330
59
100
AcDbEntity
  8
0
 62
     0
100
AcDbLine
 10
0.0
 20
0.0
 30
0.0
 11
-1.0
 21
0.0
 31
0.0
  0
ENDBLK
  5
5E
330
59
100
AcDbEntity
  8
0
100
AcDbBlockEnd
  0
BLOCK
  5
66
330
64
100
AcDbEntity
  8
0
100
AcDbBlockBegin
  2
GENAXEH
 70
     0
 10
0.0
 20
0.0
 30
0.0
  3
GENAXEH
  1

  0
LINE
  5
65
330
64
100
AcDbEntity
  8
0
100
AcDbLine
 10
-1.0
 20
0.0
 30
0.0
 11
1.0
 21
0.0
 31
0.0
  0
ENDBLK
  5
67
330
64
100
AcDbEntity
  8
0
100
AcDbBlockEnd
  0
BLOCK
  5
2249
330
223F
100
AcDbEntity
  8
0
100
AcDbBlockBegin
  2
*D5
 70
     1
 10
0.0
 20
0.0
 30
0.0
  3
*D5
  1

  0
LINE
  5
34EE
330
223F
100
AcDbEntity
  8
AM_5
 62
     3
100
AcDbLine
 10
-25.00000000000022
 20
-1.999999999999971
 30
0.0
 11
-25.00000000000022
 21
-9.500000999999926
 31
0.0
  0
LINE
  5
34EF
330
223F
100
AcDbEntity
  8
AM_5
 62
     3
100
AcDbLine
 10
-1.000000000000146
 20
-1.749998606510897
 30
0.0
 11
-1.000000000000146
 21
-9.500000999999926
 31
0.0
  0
LINE
  5
34F0
330
223F
100
AcDbEntity
  8
AM_5
 62
     3
100
AcDbLine
 10
-23.75000000000022
 20
-9.000000999999926
 30
0.0
 11
-2.250000000000146
 21
-9.000000999999926
 31
0.0
  0
INSERT
  5
34F1
330
223F
100
AcDbEntity
  8
AM_5
 62
     3
100
AcDbBlockReference
  2
_OPEN30
 10
-25.00000000000022
 20
-9.000000999999926
 30
0.0
 41
1.25
 42
1.25
 43
1.25
 50
180.0
  0
INSERT
  5
34F2
330
223F
100
AcDbEntity
  8
AM_5
 62
     3
100
AcDbBlockReference
  2
_OPEN30
 10
-1.000000000000146
 20
-9.000000999999926
 30
0.0
 41
1.25
 42
1.25
 43
1.25
  0
MTEXT
  5
34F3
330
223F
100
AcDbEntity
  8
AM_5
 62
     2
100
AcDbMText
 10
-13.00000000000018
 20
-7.300000999999926
 30
0.0
 40
1.9
 41
0.0
 71
     5
 72
     1
  1
24
1001
ACAD
1000
MTEXTBEGIN
1070
    73
1070
     1
1070
    44
1040
1.0
1070
    74
1070
     0
1000
MTEXTEND
  0
POINT
  5
34F4
330
223F
100
AcDbEntity
  8
DEFPOINTS
 62
     0
100
AcDbPoint
 10
-25.00000000000022
 20
-1.999999999999971
 30
0.0
  0
POINT
  5
34F5
330
223F
100
AcDbEntity
  8
DEFPOINTS
 62
     0
100
AcDbPoint
 10
-1.000000000000146
 20
-1.749998606510897
 30
0.0
  0
POINT
  5
34F6
330
223F
100
AcDbEntity
  8
DEFPOINTS
 62
     0
100
AcDbPoint
 10
-1.000000000000146
 20
-9.000000999999926
 30
0.0
  0
ENDBLK
  5
224A
330
223F
100
AcDbEntity
  8
0
100
AcDbBlockEnd
  0
BLOCK
  5
2264
330
225A
100
AcDbEntity
  8
0
100
AcDbBlockBegin
  2
*D6
 70
     1
 10
0.0
 20
0.0
 30
0.0
  3
*D6
  1

  0
LINE
  5
34D1
330
225A
100
AcDbEntity
  8
AM_5
 62
     3
100
AcDbLine
 10
-73.00000000000014
 20
-1.531249841054135
 30
0.0
 11
-73.00000000000014
 21
-14.50000099999995
 31
0.0
  0
LINE
  5
34D2
330
225A
100
AcDbEntity
  8
AM_5
 62
     3
100
AcDbLine
 10
-1.000000000000146
 20
-1.749998606510897
 30
0.0
 11
-1.000000000000146
 21
-14.50000099999995
 31
0.0
  0
LINE
  5
34D3
330
225A
100
AcDbEntity
  8
AM_5
 62
     3
100
AcDbLine
 10
-71.75000000000014
 20
-14.00000099999995
 30
0.0
 11
-2.250000000000146
 21
-14.00000099999995
 31
0.0
  0
INSERT
  5
34D4
330
225A
100
AcDbEntity
  8
AM_5
 62
     3
100
AcDbBlockReference
  2
_OPEN30
 10
-73.00000000000014
 20
-14.00000099999995
 30
0.0
 41
1.25
 42
1.25
 43
1.25
 50
180.0
  0
INSERT
  5
34D5
330
225A
100
AcDbEntity
  8
AM_5
 62
     3
100
AcDbBlockReference
  2
_OPEN30
 10
-1.000000000000146
 20
-14.00000099999995
 30
0.0
 41
1.25
 42
1.25
 43
1.25
  0
MTEXT
  5
34D6
330
225A
100
AcDbEntity
  8
AM_5
 62
     2
100
AcDbMText
 10
-37.00000000000014
 20
-12.30000099999995
 30
0.0
 40
1.9
 41
0.0
 71
     5
 72
     1
  1
72
1001
ACAD
1000
MTEXTBEGIN
1070
    73
1070
     1
1070
    44
1040
1.0
1070
    74
1070
     0
1000
MTEXTEND
  0
POINT
  5
34D7
330
225A
100
AcDbEntity
  8
DEFPOINTS
 62
     0
100
AcDbPoint
 10
-73.00000000000014
 20
-1.531249841054135
 30
0.0
  0
POINT
  5
34D8
330
225A
100
AcDbEntity
  8
DEFPOINTS
 62
     0
100
AcDbPoint
 10
-1.000000000000146
 20
-1.749998606510897
 30
0.0
  0
POINT
  5
34D9
330
225A
100
AcDbEntity
  8
DEFPOINTS
 62
     0
100
AcDbPoint
 10
-1.000000000000146
 20
-14.00000099999995
 30
0.0
  0
ENDBLK
  5
2265
330
225A
100
AcDbEntity
  8
0
100
AcDbBlockEnd
  0
BLOCK
  5
283F
330
2833
100
AcDbEntity
  8
0
100
AcDbBlockBegin
  2
*D7
 70
     1
 10
0.0
 20
0.0
 30
0.0
  3
*D7
  1

  0
LINE
  5
34DA
330
2833
100
AcDbEntity
  8
AM_5
 62
     3
100
AcDbLine
 10
-72.7428571428573
 20
-1.999999999999901
 30
0.0
 11
-82.19201976987482
 21
-1.999999999999898
 31
0.0
  0
LINE
  5
34DB
330
2833
100
AcDbEntity
  8
AM_5
 62
     3
100
AcDbLine
 10
-72.74285714285729
 20
2.000000000000099
 30
0.0
 11
-82.19201976987482
 21
2.000000000000101
 31
0.0
  0
LINE
  5
34DC
330
2833
100
AcDbEntity
  8
AM_5
 62
     3
100
AcDbLine
 10
-81.69201976987483
 20
-0.7499999999998993
 30
0.0
 11
-81.69201976987483
 21
0.7500000000001016
 31
0.0
  0
INSERT
  5
34DD
330
2833
100
AcDbEntity
  8
AM_5
 62
     3
100
AcDbBlockReference
  2
_OPEN30
 10
-81.69201976987483
 20
-1.999999999999899
 30
0.0
 41
1.25
 42
1.25
 43
1.25
 50
270.0
  0
INSERT
  5
34DE
330
2833
100
AcDbEntity
  8
AM_5
 62
     3
100
AcDbBlockReference
  2
_OPEN30
 10
-81.69201976987483
 20
2.000000000000101
 30
0.0
 41
1.25
 42
1.25
 43
1.25
 50
90.0
  0
MTEXT
  5
34DF
330
2833
100
AcDbEntity
  8
AM_5
 62
     2
100
AcDbMText
 10
-83.39201976987483
 20
0.0000000000000883
 30
0.0
 40
1.9
 41
0.0
 71
     5
 72
     1
  1
%%c4
 11
0.0000000000000001
 21
1.0
 31
0.0
1001
ACAD
1000
MTEXTBEGIN
1070
    73
1070
     1
1070
    44
1040
1.0
1070
    74
1070
     0
1000
MTEXTEND
  0
POINT
  5
34E0
330
2833
100
AcDbEntity
  8
DEFPOINTS
 62
     0
100
AcDbPoint
 10
-72.7428571428573
 20
-1.999999999999901
 30
0.0
  0
POINT
  5
34E1
330
2833
100
AcDbEntity
  8
DEFPOINTS
 62
     0
100
AcDbPoint
 10
-72.74285714285729
 20
2.000000000000099
 30
0.0
  0
POINT
  5
34E2
330
2833
100
AcDbEntity
  8
DEFPOINTS
 62
     0
100
AcDbPoint
 10
-81.69201976987483
 20
2.000000000000101
 30
0.0
  0
ENDBLK
  5
2840
330
2833
100
AcDbEntity
  8
0
100
AcDbBlockEnd
  0
BLOCK
  5
2ACB
330
2ABF
100
AcDbEntity
  8
0
100
AcDbBlockBegin
  2
*D8
 70
     1
 10
0.0
 20
0.0
 30
0.0
  3
*D8
  1

  0
LINE
  5
34F7
330
2ABF
100
AcDbEntity
  8
AM_5
 62
     3
100
AcDbLine
 10
-1.000000000000145
 20
-1.749998606510897
 30
0.0
 11
8.215865571920808
 21
-1.749998606510899
 31
0.0
  0
LINE
  5
34F8
330
2ABF
100
AcDbEntity
  8
AM_5
 62
     3
100
AcDbLine
 10
-1.000000000000141
 20
1.750001393490332
 30
0.0
 11
8.215865571920808
 21
1.750001393490329
 31
0.0
  0
LINE
  5
34F9
330
2ABF
100
AcDbEntity
  8
AM_5
 62
     3
100
AcDbLine
 10
7.715865571920808
 20
-2.999998606510899
 30
0.0
 11
7.715865571920808
 21
-4.249998606510899
 31
0.0
  0
LINE
  5
34FA
330
2ABF
100
AcDbEntity
  8
AM_5
 62
     3
100
AcDbLine
 10
7.71586557192081
 20
3.000001393490329
 30
0.0
 11
7.715865571920812
 21
11.45000139349032
 31
0.0
  0
LINE
  5
34FB
330
2ABF
100
AcDbEntity
  8
AM_5
 62
     3
100
AcDbLine
 10
7.715865571920809
 20
-1.749998606510899
 30
0.0
 11
7.715865571920809
 21
1.750001393490329
 31
0.0
  0
INSERT
  5
34FC
330
2ABF
100
AcDbEntity
  8
AM_5
 62
     3
100
AcDbBlockReference
  2
_OPEN30
 10
7.715865571920809
 20
-1.749998606510899
 30
0.0
 41
1.25
 42
1.25
 43
1.25
 50
90.0
  0
INSERT
  5
34FD
330
2ABF
100
AcDbEntity
  8
AM_5
 62
     3
100
AcDbBlockReference
  2
_OPEN30
 10
7.715865571920809
 20
1.750001393490329
 30
0.0
 41
1.25
 42
1.25
 43
1.25
 50
270.0
  0
MTEXT
  5
34FE
330
2ABF
100
AcDbEntity
  8
AM_5
 62
     2
100
AcDbMText
 10
6.01586557192081
 20
7.85000139349033
 30
0.0
 40
1.9
 41
0.0
 71
     5
 72
     1
  1
%%c3.5
 11
0.0000000000000001
 21
1.0
 31
0.0
1001
ACAD
1000
MTEXTBEGIN
1070
    73
1070
     1
1070
    44
1040
1.0
1070
    74
1070
     0
1000
MTEXTEND
  0
POINT
  5
34FF
330
2ABF
100
AcDbEntity
  8
DEFPOINTS
 62
     0
100
AcDbPoint
 10
-1.000000000000145
 20
-1.749998606510897
 30
0.0
  0
POINT
  5
3500
330
2ABF
100
AcDbEntity
  8
DEFPOINTS
 62
     0
100
AcDbPoint
 10
-1.000000000000141
 20
1.750001393490332
 30
0.0
  0
POINT
  5
3501
330
2ABF
100
AcDbEntity
  8
DEFPOINTS
 62
     0
100
AcDbPoint
 10
7.715865571920809
 20
1.750001393490329
 30
0.0
  0
ENDBLK
  5
2ACC
330
2ABF
100
AcDbEntity
  8
0
100
AcDbBlockEnd
  0
BLOCK
  5
2FF6
330
2FE6
100
AcDbEntity
  8
0
100
AcDbBlockBegin
  2
*D9
 70
     1
 10
0.0
 20
0.0
 30
0.0
  3
*D9
  1

  0
LINE
  5
3550
330
2FE6
100
AcDbEntity
  8
AM_5
100
AcDbLine
 10
0.1710075272762634
 20
-0.4698463108495913
 30
0.0
 11
4.994583140029825
 21
-13.72251149804375
 31
0.0
  0
LINE
  5
3551
330
2FE6
100
AcDbEntity
  8
AM_5
100
AcDbLine
 10
0.1710073032921892
 20
0.4698477016271175
 30
0.0
 11
4.994592641252701
 21
13.72251105824156
 31
0.0
  0
ARC
  5
3552
330
2FE6
100
AcDbEntity
  8
AM_5
100
AcDbCircle
 10
-0.0000030924290704
 20
0.0000015091819108
 30
0.0
 40
14.1031933106066
100
AcDbArc
 50
295.079926512901
 51
64.92003381651979
  0
INSERT
  5
3553
330
2FE6
100
AcDbEntity
  8
AM_5
100
AcDbBlockReference
  2
_OPEN30
 10
4.823573069621758
 20
-13.2526651871941
 30
0.0
 41
1.25
 42
1.25
 43
1.25
 50
202.5399631799436
  0
INSERT
  5
3554
330
2FE6
100
AcDbEntity
  8
AM_5
100
AcDbBlockReference
  2
_OPEN30
 10
4.823582245531442
 20
13.25266486579635
 30
0.0
 41
1.25
 42
1.25
 43
1.25
 50
157.459997149477
  0
MTEXT
  5
3555
330
2FE6
100
AcDbEntity
  8
AM_5
 62
     2
100
AcDbMText
 10
12.55319021817668
 20
-0.000003373218258
 30
0.0
 40
1.6
 41
0.0
 71
     5
 72
     1
  1
140°
  7
ASAMI
 11
0.0000000000000001
 21
1.0
 31
0.0
  0
POINT
  5
3556
330
2FE6
100
AcDbEntity
  8
DEFPOINTS
 62
     0
100
AcDbPoint
 10
12.9497787372686
 20
5.585985050114596
 30
0.0
  0
POINT
  5
3557
330
2FE6
100
AcDbEntity
  8
DEFPOINTS
 62
     0
100
AcDbPoint
 10
-0.0000031789144727
 20
0.0000012715657309
 30
0.0
  0
POINT
  5
3558
330
2FE6
100
AcDbEntity
  8
DEFPOINTS
 62
     0
100
AcDbPoint
 10
-0.0000025431318035
 20
0.0000000000000609
 30
0.0
  0
POINT
  5
3559
330
2FE6
100
AcDbEntity
  8
DEFPOINTS
 62
     0
100
AcDbPoint
 10
-0.1953284988369163
 20
0.5366536571925239
 30
0.0
  0
POINT
  5
355A
330
2FE6
100
AcDbEntity
  8
DEFPOINTS
 62
     0
100
AcDbPoint
 10
-0.1953317107826697
 20
-0.5366583074447364
 30
0.0
  0
ENDBLK
  5
2FF7
330
2FE6
100
AcDbEntity
  8
0
100
AcDbBlockEnd
  0
ENDSEC
  0
SECTION
  2
ENTITIES
  0
LINE
  5
C1D
330
1F
100
AcDbEntity
  8
AM_0
 48
0.5
100
AcDbLine
 10
-0.0000000000000265
 20
0.0000000000000729
 30
0.0
 11
-0.1953284988369163
 21
0.5366536571925239
 31
0.0
  0
LINE
  5
C20
330
1F
100
AcDbEntity
  8
AM_0
 48
0.5
100
AcDbLine
 10
-0.0000000000000279
 20
0.0000000000000693
 30
0.0
 11
-0.1953317107826697
 21
-0.5366583074447364
 31
0.0
  0
TEXT
  5
19BD
330
1F
100
AcDbEntity
  8
AM_6
100
AcDbText
 10
-48.25000000000014
 20
-25.25000099999997
 30
0.0
 40
2.5
  1
MDW035MHK
 50
0.0000000000001527
 72
     4
 11
-37.00000000000014
 21
-24.00000099999995
 31
0.0
100
AcDbText
  0
ELLIPSE
  5
21FC
330
1F
100
AcDbEntity
  8
AM_11
 48
0.5
100
AcDbEllipse
 10
-6.843618774414179
 20
7.729693494220474
 30
0.0
 11
-8.7905376434325
 21
0.000000000000022
 31
0.0
210
0.0
220
0.0
230
1.0
 40
0.9722222222222219
 41
1.130070686340307
 42
2.011520147323599
  0
ELLIPSE
  5
21FD
330
1F
100
AcDbEntity
  8
AM_11
 48
0.5
100
AcDbEllipse
 10
-6.843618774414212
 20
-7.729687927186525
 30
0.0
 11
8.790537643432497
 21
0.000000000000022
 31
0.0
210
0.0
220
0.0
230
1.0
 40
0.9722222222222226
 41
1.130071552591889
 42
2.011521013575197
  0
ELLIPSE
  5
2200
330
1F
100
AcDbEntity
  8
AM_11
 48
0.5
100
AcDbEllipse
 10
-14.34361877441421
 20
-7.72968792718651
 30
0.0
 11
-8.7905376434325
 21
0.0000000000000142
 31
0.0
210
0.0
220
0.0
230
1.0
 40
0.9722222222222219
 41
4.271664206181687
 42
5.153113667164993
  0
ELLIPSE
  5
2201
330
1F
100
AcDbEntity
  8
AM_11
 48
0.5
100
AcDbEllipse
 10
-14.34361877441418
 20
7.72969349422049
 30
0.0
 11
8.790537643432497
 21
0.0000000000000669
 31
0.0
210
0.0
220
0.0
230
1.0
 40
0.9722222222222224
 41
4.271663339930089
 42
5.153112800913382
  0
ELLIPSE
  5
2206
330
1F
100
AcDbEntity
  8
AM_11
 48
0.5
100
AcDbEllipse
 10
-29.34361877441206
 20
7.729693494220517
 30
0.0
 11
8.790537643432497
 21
0.0000000000000142
 31
0.0
210
0.0
220
0.0
230
1.0
 40
0.9722222222222224
 41
4.271663339930095
 42
5.153112800913389
  0
ELLIPSE
  5
2207
330
1F
100
AcDbEntity
  8
AM_11
 48
0.5
100
AcDbEllipse
 10
-29.3436187744121
 20
-7.729687927186483
 30
0.0
 11
-8.79053764343249
 21
0.0000000000000083
 31
0.0
210
0.0
220
0.0
230
1.0
 40
0.9722222222222233
 41
4.271664206181686
 42
5.153113667164993
  0
ELLIPSE
  5
220B
330
1F
100
AcDbEntity
  8
AM_11
 48
0.5
100
AcDbEllipse
 10
-21.84361877441208
 20
7.729693494220504
 30
0.0
 11
-8.790537643432497
 21
0.0000000000000005
 31
0.0
210
0.0
220
0.0
230
1.0
 40
0.9722222222222224
 41
1.130070686340304
 42
2.011520147323597
  0
ELLIPSE
  5
220C
330
1F
100
AcDbEntity
  8
AM_11
 48
0.5
100
AcDbEllipse
 10
-21.84361877441211
 20
-7.729687927186496
 30
0.0
 11
-8.790537643432495
 21
0.0000000000000044
 31
0.0
210
0.0
220
0.0
230
1.0
 40
0.9722222222222226
 41
4.271664206181685
 42
5.153113667164992
  0
ELLIPSE
  5
220D
330
1F
100
AcDbEntity
  8
AM_11
 48
0.5
100
AcDbEllipse
 10
-44.34358596277858
 20
7.729693494220507
 30
0.0
 11
8.79053764343249
 21
0.0000000000000669
 31
0.0
210
0.0
220
0.0
230
1.0
 40
0.9722222222222233
 41
4.271663339930089
 42
5.153112800913382
  0
ELLIPSE
  5
220E
330
1F
100
AcDbEntity
  8
AM_11
 48
0.5
100
AcDbEllipse
 10
-44.34358596277861
 20
-7.729687927186494
 30
0.0
 11
-8.79053764343249
 21
0.0000000000000083
 31
0.0
210
0.0
220
0.0
230
1.0
 40
0.9722222222222233
 41
4.271664206181686
 42
5.153113667164993
  0
ELLIPSE
  5
220F
330
1F
100
AcDbEntity
  8
AM_11
 48
0.5
100
AcDbEllipse
 10
-51.84356955696192
 20
-7.7296879271865
 30
0.0
 11
8.790537643432477
 21
0.0000000000000552
 31
0.0
210
0.0
220
0.0
230
1.0
 40
0.9722222222222244
 41
1.130071552591885
 42
2.011521013575192
  0
ELLIPSE
  5
2210
330
1F
100
AcDbEntity
  8
AM_11
 48
0.5
100
AcDbEllipse
 10
-51.8435695569619
 20
7.729693494220502
 30
0.0
 11
-8.790537643432493
 21
0.0000000000000669
 31
0.0
210
0.0
220
0.0
230
1.0
 40
0.972222222222223
 41
1.130070686340312
 42
2.011520147323604
  0
ELLIPSE
  5
2219
330
1F
100
AcDbEntity
  8
AM_11
 48
0.5
100
AcDbEllipse
 10
-59.34355315114514
 20
7.729693494220494
 30
0.0
 11
-8.790537643432497
 21
0.0000000000000005
 31
0.0
210
0.0
220
0.0
230
1.0
 40
0.9722222222222224
 41
1.130070686340304
 42
2.011520147323597
  0
ELLIPSE
  5
221A
330
1F
100
AcDbEntity
  8
AM_11
 48
0.5
100
AcDbEllipse
 10
-59.34355315114518
 20
-7.729687927186504
 30
0.0
 11
-8.79053764343249
 21
0.0000000000000083
 31
0.0
210
0.0
220
0.0
230
1.0
 40
0.9722222222222233
 41
4.271664206181686
 42
5.153113667164993
  0
ELLIPSE
  5
2228
330
1F
100
AcDbEntity
  8
AM_11
 48
0.5
100
AcDbEllipse
 10
-36.84360236859532
 20
7.729693494220511
 30
0.0
 11
8.790537643432491
 21
0.0000000000000747
 31
0.0
210
0.0
220
0.0
230
1.0
 40
0.972222222222223
 41
4.271663339930089
 42
5.153112800913382
  0
ELLIPSE
  5
2229
330
1F
100
AcDbEntity
  8
AM_11
 48
0.5
100
AcDbEllipse
 10
-36.84360236859536
 20
-7.729687927186488
 30
0.0
 11
-8.79053764343249
 21
0.0000000000000083
 31
0.0
210
0.0
220
0.0
230
1.0
 40
0.9722222222222233
 41
4.271664206181686
 42
5.153113667164993
  0
DIMENSION
  5
223E
330
1F
100
AcDbEntity
  8
AM_5
100
AcDbDimension
  2
*D5
 10
-1.000000000000146
 20
-9.000000999999926
 30
0.0
 11
-13.00000000000018
 21
-7.300000999999926
 31
0.0
 70
    32
  1
<>
  3
AM_JIS$0
100
AcDbAlignedDimension
 13
-25.00000000000022
 23
-1.999999999999971
 33
0.0
 14
-1.000000000000146
 24
-1.749998606510897
 34
0.0
 50
0.0000000000000384
100
AcDbRotatedDimension
1001
GENIUS_GENDTOL_13
1000

1000
h7
1000

1040
0.0
1001
ACAD
1000
DSTYLE
1002
{
1070
   271
1070
     0
1002
}
  0
LINE
  5
224B
330
1F
100
AcDbEntity
  8
AM_7
100
AcDbLine
 10
-74.69201876987483
 20
0.0000000000001589
 30
0.0
 11
0.7158645719208092
 21
0.0000000000000684
 31
0.0
1001
GENIUS_GENODEF_13
1002
{
1000
HIER
1070
     0
1002
}
1002
{
1000
MANEDIT
1070
     0
1002
}
1002
{
1000
NOSEL
1070
     0
1002
}
1002
{
1000
BEHIND
1070
     0
1002
}
1002
{
1000
REACTOR
1002
}
1001
GENIUS_GENOBJ-N-CEN_13
1002
{
1000
OWNER
1000
GEN
1002
}
  0
DIMENSION
  5
2259
330
1F
100
AcDbEntity
  8
AM_5
100
AcDbDimension
  2
*D6
 10
-1.000000000000146
 20
-14.00000099999995
 30
0.0
 11
-37.00000000000014
 21
-12.30000099999995
 31
0.0
 70
    32
  1
<>
  3
AM_JIS$0
100
AcDbAlignedDimension
 13
-73.00000000000014
 23
-1.531249841054135
 33
0.0
 14
-1.000000000000146
 24
-1.749998606510897
 34
0.0
100
AcDbRotatedDimension
1001
GENIUS_GENDTOL_13
1000

1000
h7
1000

1040
0.0
1001
ACAD
1000
DSTYLE
1002
{
1070
   271
1070
     0
1002
}
  0
ELLIPSE
  5
27F0
330
1F
100
AcDbEntity
  8
AM_11
 48
0.5
100
AcDbEllipse
 10
-66.84356049944497
 20
7.729699137863175
 30
0.0
 11
8.79053764343249
 21
0.0000000000000669
 31
0.0
210
0.0
220
0.0
230
1.0
 40
0.9722222222222233
 41
4.271663339930089
 42
5.153112800913382
  0
ELLIPSE
  5
27F1
330
1F
100
AcDbEntity
  8
AM_11
 48
0.5
100
AcDbEllipse
 10
-66.84356049944501
 20
-7.729682283543826
 30
0.0
 11
-8.79053764343249
 21
0.0000000000000083
 31
0.0
210
0.0
220
0.0
230
1.0
 40
0.9722222222222233
 41
4.271664206181686
 42
5.153113667164993
  0
ELLIPSE
  5
27F2
330
1F
100
AcDbEntity
  8
AM_11
 48
0.5
100
AcDbEllipse
 10
-74.34354409362831
 20
-7.729682283543832
 30
0.0
 11
8.790537643432477
 21
0.0000000000000552
 31
0.0
210
0.0
220
0.0
230
1.0
 40
0.9722222222222244
 41
1.130071552591885
 42
1.417355117759801
  0
ELLIPSE
  5
27F3
330
1F
100
AcDbEntity
  8
AM_11
 48
0.5
100
AcDbEllipse
 10
-74.34354409362828
 20
7.72969913786317
 30
0.0
 11
-8.790537643432493
 21
0.0000000000000669
 31
0.0
210
0.0
220
0.0
230
1.0
 40
0.972222222222223
 41
1.724237535829987
 42
2.011520147323604
  0
LINE
  5
27F8
330
1F
100
AcDbEntity
  8
AM_0
 48
0.5
100
AcDbLine
 10
-25.00000000000019
 20
-1.99999999999995
 30
0.0
 11
-25.00000000000014
 21
2.000000000000048
 31
0.0
  0
LINE
  5
2827
330
1F
100
AcDbEntity
  8
AM_0
100
AcDbLine
 10
-72.74285714285729
 20
2.000000000000095
 30
0.0
 11
-72.7428571428573
 21
-1.999999999999905
 31
0.0
  0
LINE
  5
2828
330
1F
100
AcDbEntity
  8
AM_0
 48
0.5
100
AcDbLine
 10
-73.00000000000015
 20
-1.749999999999901
 30
0.0
 11
-73.00000000000014
 21
1.750000000000099
 31
0.0
  0
LINE
  5
2829
330
1F
100
AcDbEntity
  8
AM_0
100
AcDbLine
 10
-73.00000000000015
 20
-1.749999999999901
 30
0.0
 11
-72.75000000000016
 21
-1.999999999999901
 31
0.0
1001
GENIUS_GENFIL_13
1070
     0
1040
0.25
1040
0.25
1040
20.0
1040
0.0
1002
{
1002
}
1001
GENIUS_GENODEF_13
1002
{
1000
HIER
1070
     0
1002
}
1002
{
1000
MANEDIT
1070
     0
1002
}
1002
{
1000
NOSEL
1070
     0
1002
}
1002
{
1000
BEHIND
1070
     0
1002
}
1002
{
1000
REACTOR
1002
}
1001
GENIUS_GENOBJ-N-CHA_13
1002
{
1000
OWNER
1000
GEN
1002
}
  0
LINE
  5
282B
330
1F
100
AcDbEntity
  8
AM_0
100
AcDbLine
 10
-72.75000000000016
 20
-1.999999999999901
 30
0.0
 11
-25.00000000000014
 21
-1.999999999999971
 31
0.0
1001
GENIUS_GENODEF_13
1002
{
1000
HIER
1070
     0
1002
}
1002
{
1000
MANEDIT
1070
     0
1002
}
1002
{
1000
NOSEL
1070
     0
1002
}
1002
{
1000
BEHIND
1070
     0
1002
}
1002
{
1000
REACTOR
1002
}
1001
GENIUS_GENOBJ-N-CEN_13
1002
{
1000
OWNER
1000
GEN
1002
}
  0
LINE
  5
282C
330
1F
100
AcDbEntity
  8
AM_0
100
AcDbLine
 10
-72.75000000000014
 20
2.000000000000099
 30
0.0
 11
-25.00000000000014
 21
2.000000000000027
 31
0.0
1001
GENIUS_GENODEF_13
1002
{
1000
HIER
1070
     0
1002
}
1002
{
1000
MANEDIT
1070
     0
1002
}
1002
{
1000
NOSEL
1070
     0
1002
}
1002
{
1000
BEHIND
1070
     0
1002
}
1002
{
1000
REACTOR
1002
}
1001
GENIUS_GENOBJ-N-CEN_13
1002
{
1000
OWNER
1000
GEN
1002
}
  0
DIMENSION
  5
282D
330
1F
100
AcDbEntity
  8
AM_5
100
AcDbDimension
  2
*D7
 10
-81.69201976987483
 20
2.000000000000101
 30
0.0
 11
-81.69201976987483
 21
0.000000000000088
 31
0.0
 70
   160
  1
%%c<>
  3
AM_JIS$0
100
AcDbAlignedDimension
 13
-72.7428571428573
 23
-1.999999999999901
 33
0.0
 14
-72.74285714285729
 24
2.000000000000099
 34
0.0
 50
270.0
100
AcDbRotatedDimension
1001
ACAD
1000
DSTYLE
1002
{
1070
   271
1070
     0
1002
}
1001
GENIUS_GENDTOL_13
1000

1000
h7
1000

1040
0.0
  0
LINE
  5
2830
330
1F
100
AcDbEntity
  8
AM_0
100
AcDbLine
 10
-25.00000000000018
 20
-1.99999999999995
 30
0.0
 11
-24.56736246099053
 21
-1.750216600391208
 31
0.0
  0
LINE
  5
2831
330
1F
100
AcDbEntity
  8
AM_0
100
AcDbLine
 10
-25.00000000000016
 20
2.000000000000048
 30
0.0
 11
-24.56736246099053
 21
1.750216600391319
 31
0.0
  0
LINE
  5
2964
330
1F
100
AcDbEntity
  8
AM_0
100
AcDbLine
 10
-73.00000000000014
 20
1.750000000000099
 30
0.0
 11
-72.75000000000014
 21
2.000000000000099
 31
0.0
1001
GENIUS_GENFIL_13
1070
     0
1040
0.25
1040
0.25
1040
20.0
1040
0.0
1002
{
1002
}
1001
GENIUS_GENODEF_13
1002
{
1000
HIER
1070
     0
1002
}
1002
{
1000
MANEDIT
1070
     0
1002
}
1002
{
1000
NOSEL
1070
     0
1002
}
1002
{
1000
BEHIND
1070
     0
1002
}
1002
{
1000
REACTOR
1002
}
1001
GENIUS_GENOBJ-N-CHA_13
1002
{
1000
OWNER
1000
GEN
1002
}
  0
DIMENSION
  5
2ABE
330
1F
100
AcDbEntity
  8
AM_5
100
AcDbDimension
  2
*D8
 10
7.715865571920809
 20
1.750001393490329
 30
0.0
 11
7.71586557192081
 21
7.850001393490329
 31
0.0
 70
   160
  1
%%c<>
  3
AM_JIS$0
100
AcDbAlignedDimension
 13
-1.000000000000145
 23
-1.749998606510897
 33
0.0
 14
-1.000000000000141
 24
1.750001393490332
 34
0.0
 50
89.99999999999991
100
AcDbRotatedDimension
1001
ACAD
1000
DSTYLE
1002
{
1070
   271
1070
     1
1002
}
1001
GENIUS_GENDTOL_13
1000

1000
h7
1000

1040
0.0
  0
LINE
  5
2B4E
330
1F
100
AcDbEntity
  8
AM_0
 48
0.5
100
AcDbLine
 10
-0.6763614388632213
 20
1.275256221049722
 30
0.0
 11
-1.000000000000141
 21
1.750001393490332
 31
0.0
  0
ELLIPSE
  5
2B77
330
1F
100
AcDbEntity
  8
AM_0
 48
0.5
100
AcDbEllipse
 10
2.790269366572851
 20
2.009522195823161
 30
0.0
 11
3.463179528777598
 21
0.7508059886992438
 31
0.0
210
0.0
220
0.0
230
0.9999999999999998
 40
0.553472745456442
 41
3.132977998936413
 42
3.565569191650999
  0
LINE
  5
2B9A
330
1F
100
AcDbEntity
  8
AM_0
100
AcDbLine
 10
-24.56736246099053
 20
1.750216600391314
 30
0.0
 11
-24.56736246099053
 21
-1.750216600391204
 31
0.0
  0
ELLIPSE
  5
2D3A
330
1F
100
AcDbEntity
  8
AM_0
 48
0.5
100
AcDbEllipse
 10
2.790280582996898
 20
-2.009510617183182
 30
0.0
 11
3.463183719462436
 21
-0.750786658419818
 31
0.0
210
0.0
220
0.0
230
-1.0
 40
0.553472745456442
 41
3.132977998936413
 42
3.565569191650999
  0
LINE
  5
2D3B
330
1F
100
AcDbEntity
  8
AM_0
 48
0.5
100
AcDbLine
 10
-0.6763543208033348
 20
-1.275263991952742
 30
0.0
 11
-1.000000000000145
 21
-1.749998606510897
 31
0.0
  0
DIMENSION
  5
2FE5
330
1F
100
AcDbEntity
  8
AM_5
100
AcDbDimension
  2
*D9
 10
-0.1953317107826697
 20
-0.5366583074447364
 30
0.0
 11
12.55319021817668
 21
-0.00000337321826
 31
0.0
 70
    34
  1
<>
  3
AM_JIS$2
100
AcDb2LineAngularDimension
 13
-0.0000025431318035
 23
0.0000000000000609
 33
0.0
 14
-0.1953284988369163
 24
0.5366536571925239
 34
0.0
 15
-0.0000031789144727
 25
0.0000012715657309
 35
0.0
 16
12.9497787372686
 26
5.585985050114596
 36
0.0
1001
GENIUS_GENDTOL_13
1000

1000
h7
1000

1040
0.0
1001
ACAD
1000
DSTYLE
1002
{
1070
   271
1070
     0
1002
}
  0
ARC
  5
32F9
330
1F
100
AcDbEntity
  8
AM_11
 48
0.5
100
AcDbCircle
 10
0.0313795118175576
 20
6.625451430235513
 30
0.0
 40
7.325448036193749
100
AcDbArc
 50
244.7482808787518
 51
254.0147302238187
  0
LINE
  5
3476
330
1F
100
AcDbEntity
  8
AM_0
100
AcDbLine
 10
-24.56698681161972
 20
-1.749999719125852
 30
0.0
 11
-20.35103113409322
 21
-1.749999719125854
 31
0.0
1001
GENIUS_GENODEF_13
1002
{
1000
HIER
1070
     0
1002
}
1002
{
1000
MANEDIT
1070
     0
1002
}
1002
{
1000
NOSEL
1070
     0
1002
}
1002
{
1000
BEHIND
1070
     0
1002
}
1002
{
1000
REACTOR
1002
}
1001
GENIUS_GENOBJ-N-CEN_13
1002
{
1000
OWNER
1000
GEN
1002
}
  0
LINE
  5
3477
330
1F
100
AcDbEntity
  8
AM_0
100
AcDbLine
 10
-24.56736246099053
 20
1.750216600391317
 30
0.0
 11
-19.50459478714622
 21
1.750239315329161
 31
0.0
1001
GENIUS_GENODEF_13
1002
{
1000
HIER
1070
     0
1002
}
1002
{
1000
MANEDIT
1070
     0
1002
}
1002
{
1000
NOSEL
1070
     0
1002
}
1002
{
1000
BEHIND
1070
     0
1002
}
1002
{
1000
REACTOR
1002
}
1001
GENIUS_GENOBJ-N-CEN_13
1002
{
1000
OWNER
1000
GEN
1002
}
  0
LINE
  5
3478
330
1F
100
AcDbEntity
  8
AM_0
 48
0.5
100
AcDbLine
 10
-2.137266447884897
 20
1.750000280874071
 30
0.0
 11
-1.000000000000141
 21
1.750001393490332
 31
0.0
  0
LINE
  5
3479
330
1F
100
AcDbEntity
  8
AM_0
 48
0.5
100
AcDbLine
 10
-2.137266447884911
 20
-1.749999719125928
 30
0.0
 11
-1.000000000000141
 21
-1.749998606510899
 31
0.0
  0
LINE
  5
347A
330
1F
100
AcDbEntity
  8
AM_0
 48
0.5
100
AcDbLine
 10
-0.0000000000001415
 20
0.000000000000072
 30
0.0
 11
-1.321150153023892
 21
0.6719471243391139
 31
0.0
  0
LINE
  5
347B
330
1F
100
AcDbEntity
  8
AM_11
 48
0.5
100
AcDbLine
 10
-19.50465046179464
 20
1.750248900133782
 30
0.0
 11
-15.48932410550285
 21
1.750000280874457
 31
0.0
  0
LINE
  5
347C
330
1F
100
AcDbEntity
  8
AM_11
 48
0.5
100
AcDbLine
 10
-20.35103113409322
 20
-1.749999719125854
 30
0.0
 11
-15.61448853330114
 21
-1.749981945018218
 31
0.0
  0
LINE
  5
347D
330
1F
100
AcDbEntity
  8
AM_0
 48
0.5
100
AcDbLine
 10
-16.41878187915561
 20
0.8389282816816539
 30
0.0
 11
-21.00000000000014
 21
-0.1416205869147938
 31
0.0
  0
LINE
  5
347E
330
1F
100
AcDbEntity
  8
AM_0
 48
0.5
100
AcDbLine
 10
-15.48932952478323
 20
1.750000280874457
 30
0.0
 11
-8.429287103688139
 21
1.750000280874252
 31
0.0
  0
LINE
  5
347F
330
1F
100
AcDbEntity
  8
AM_0
 48
0.5
100
AcDbLine
 10
-15.61170597615199
 20
-1.750008022568712
 30
0.0
 11
-8.429287103688224
 21
-1.749999719125746
 31
0.0
  0
LINE
  5
3480
330
1F
100
AcDbEntity
  8
AM_11
 48
0.5
100
AcDbLine
 10
-8.429287103688224
 20
-1.749999719125746
 30
0.0
 11
-2.137266447884975
 21
-1.749999719125928
 31
0.0
  0
LINE
  5
3481
330
1F
100
AcDbEntity
  8
AM_11
 48
0.5
100
AcDbLine
 10
-8.429287103688139
 20
1.750000280874252
 30
0.0
 11
-2.137266447884897
 21
1.750000280874072
 31
0.0
  0
ELLIPSE
  5
3482
330
1F
100
AcDbEntity
  8
AM_0
 48
0.5
100
AcDbEllipse
 10
-20.50469994796423
 20
-1.184529414378527
 30
0.0
 11
-0.4954627949183347
 21
0.0000000000000532
 31
0.0
210
0.0
220
0.0
230
1.0
 40
0.8830128205128117
 41
4.317028824483174
 42
6.257553905069454
  0
ELLIPSE
  5
3483
330
1F
100
AcDbEntity
  8
AM_0
 48
0.5
100
AcDbEllipse
 10
-20.3394247203952
 20
-1.166756421926572
 30
0.0
 11
-0.6606170598911083
 21
0.0000000000000944
 31
0.0
210
0.0
220
0.0
230
1.0
 40
0.8830128205128152
 41
0.0112467747892886
 42
1.570796012878497
  0
ELLIPSE
  5
3484
330
1F
100
AcDbEntity
  8
AM_0
 48
0.5
100
AcDbEllipse
 10
-0.9379901722499907
 20
-0.4560749106238515
 30
0.0
 11
-0.2904800034288077
 21
0.137458409101088
 31
0.0
210
0.0
220
0.0
230
1.0
 40
0.465997873638454
 41
4.419844289702625
 42
7.56328463103213
  0
ELLIPSE
  5
3485
330
1F
100
AcDbEntity
  8
AM_0
 48
0.5
100
AcDbEllipse
 10
-0.9379901722499907
 20
-0.4560749106238515
 30
0.0
 11
-0.0628946641069988
 21
0.2861860851922336
 31
0.0
210
0.0
220
0.0
230
1.0
 40
0.5605125555767352
 41
1.771231155025222
 42
4.906573044737198
  0
ELLIPSE
  5
3486
330
1F
100
AcDbEntity
  8
AM_0
 48
0.5
100
AcDbEllipse
 10
0.9159032603672972
 20
2.100982946889677
 30
0.0
 11
3.990580615997235
 21
0.0000000000001199
 31
0.0
210
0.0
220
0.0
230
1.0
 40
0.883838383838383
 41
3.671960206823849
 42
4.080081137018748
  0
ELLIPSE
  5
3487
330
1F
100
AcDbEntity
  8
AM_0
 48
0.5
100
AcDbEllipse
 10
-3.775544035775344
 20
2.937134705719322
 30
0.0
 11
-4.77398978233279
 21
0.0000000000019073
 31
0.0
210
0.0
220
0.0
230
1.0
 40
0.8838383838384331
 41
2.081379652023693
 42
2.1698744297032
  0
ELLIPSE
  5
3488
330
1F
100
AcDbEntity
  8
AM_0
 48
0.5
100
AcDbEllipse
 10
1.680206737216995
 20
-0.2289332622356305
 30
0.0
 11
-3.177309875964086
 21
0.0813782776264518
 31
0.0
210
0.0
220
0.0
230
1.0
 40
0.8982206806096403
 41
0.2099574663646251
 42
0.5903612700736068
  0
ELLIPSE
  5
3489
330
1F
100
AcDbEntity
  8
AM_0
 48
0.5
100
AcDbEllipse
 10
-3.77414819604323
 20
9.318156537957472
 30
0.0
 11
0.0000000000017216
 21
10.24623410165206
 31
0.0
210
0.0
220
0.0
230
1.0
 40
0.8857142857142999
 41
3.475567835903676
 42
3.570495511853792
  0
SPLINE
  5
348A
330
1F
100
AcDbEntity
  8
AM_0
100
AcDbSpline
210
0.0
220
0.0
230
1.0
 70
     8
 71
     3
 72
    13
 73
     9
 74
     0
 42
0.0000000001
 43
0.0000000001
 40
16.03460056234195
 40
16.03460056234195
 40
16.03460056234195
 40
16.03460056234195
 40
16.35212717791071
 40
17.38177067057215
 40
18.41822498539278
 40
19.46214186516937
 40
20.5139635832251
 40
21.34083983469381
 40
21.34083983469381
 40
21.34083983469381
 40
21.34083983469381
 10
-20.33942492777383
 20
-1.75008975525988
 30
0.0
 10
-20.24486050945278
 20
-1.744341392208476
 30
0.0
 10
-20.09941348965961
 20
-1.718615762911631
 30
0.0
 10
-19.84320734960435
 20
-1.668208347018091
 30
0.0
 10
-19.51141950490752
 20
-1.593254153775356
 30
0.0
 10
-19.17993989339011
 20
-1.509092798719732
 30
0.0
 10
-18.87321220612754
 20
-1.423072340148026
 30
0.0
 10
-18.67752534309932
 20
-1.363841132663101
 30
0.0
 10
-18.59167868912249
 20
-1.33706808716505
 30
0.0
  0
SPLINE
  5
348B
330
1F
100
AcDbEntity
  8
AM_0
 48
0.5
100
AcDbSpline
210
0.0
220
0.0
230
1.0
 70
     8
 71
     3
 72
    22
 73
    18
 74
     0
 42
0.0000000001
 43
0.0000000001
 40
0.0
 40
0.0
 40
0.0
 40
0.0
 40
1.010743684496582
 40
2.022833993863546
 40
3.037578683882831
 40
4.056212471389632
 40
5.079857945358201
 40
6.109499720892564
 40
7.145961650132166
 40
8.189873411961459
 40
9.241710626092514
 40
10.30166235592959
 40
11.36982472628033
 40
12.44598212828784
 40
13.52983440361964
 40
14.62080578343036
 40
14.90544694398022
 40
14.90544694398022
 40
14.90544694398022
 40
14.90544694398022
 10
-15.60297151776532
 20
-1.750089755260036
 30
0.0
 10
-15.71426345172302
 20
-1.749048858719256
 30
0.0
 10
-15.93699559509978
 20
-1.746965678839859
 30
0.0
 10
-16.27101227095866
 20
-1.730163216226241
 30
0.0
 10
-16.60501540030353
 20
-1.703463624422685
 30
0.0
 10
-16.93899767431985
 20
-1.666036795611906
 30
0.0
 10
-17.2729548570477
 20
-1.618390054527071
 30
0.0
 10
-17.60688346454581
 20
-1.560748959636824
 30
0.0
 10
-17.94077860357485
 20
-1.493486096036224
 30
0.0
 10
-18.27464257011434
 20
-1.417018735106551
 30
0.0
 10
-18.60847235722789
 20
-1.331824326265835
 30
0.0
 10
-18.94226970947715
 20
-1.238421372282874
 30
0.0
 10
-19.27603677862862
 20
-1.137404238858211
 30
0.0
 10
-19.60977331398402
 20
-1.029373468573677
 30
0.0
 10
-19.94348556770424
 20
-0.9150172663472766
 30
0.0
 10
-20.1942936476647
 20
-0.8248350280083039
 30
0.0
 10
-20.33405266211045
 20
-0.7732897594038133
 30
0.0
 10
-20.31387711653861
 20
-0.780779077194315
 30
0.0
  0
SPLINE
  5
348C
330
1F
100
AcDbEntity
  8
AM_0
 48
0.5
100
AcDbSpline
210
0.0
220
0.0
230
1.0
 70
     8
 71
     3
 72
    26
 73
    22
 74
     0
 42
0.0000000001
 43
0.0000000001
 40
0.0
 40
0.0
 40
0.0
 40
0.0
 40
0.2526859211241313
 40
0.5057083941171959
 40
0.7593947393741639
 40
1.01405318625086
 40
1.26996425091637
 40
1.527375060172565
 40
1.786490330669834
 40
2.047470117551047
 40
2.310425755981314
 40
2.575417325379407
 40
2.842456731169063
 40
3.111495753801943
 40
3.382458822635121
 40
3.655202026904655
 40
3.929554512223505
 40
4.205306020962704
 40
4.482215236978595
 40
4.76001530984208
 40
5.029821427366006
 40
5.029821427366006
 40
5.029821427366006
 40
5.029821427366006
 10
-14.66795080790532
 20
-1.750089755260064
 30
0.0
 10
-14.77924272061043
 20
-1.749048547701775
 30
0.0
 10
-15.0019747754948
 20
-1.746964745802948
 30
0.0
 10
-15.33599180113943
 20
-1.730166961722952
 30
0.0
 10
-15.66999456982625
 20
-1.703462876794622
 30
0.0
 10
-16.0039766633648
 20
-1.66603607269977
 30
0.0
 10
-16.33793476654269
 20
-1.618393813233836
 30
0.0
 10
-16.67186222561907
 20
-1.560747734149265
 30
0.0
 10
-17.00575881844677
 20
-1.49348731472317
 30
0.0
 10
-17.33962226785846
 20
-1.417021060868086
 30
0.0
 10
-17.67345178456857
 20
-1.331823432913098
 30
0.0
 10
-18.00725011600652
 20
-1.238424707981077
 30
0.0
 10
-18.34101587902107
 20
-1.137401593092872
 30
0.0
 10
-18.67475285527222
 20
-1.029373789086289
 30
0.0
 10
-19.00846550705345
 20
-0.9150181857341141
 30
0.0
 10
-19.34215455539235
 20
-0.7950284935961025
 30
0.0
 10
-19.67582248776545
 20
-0.6701501811634004
 30
0.0
 10
-20.00947543159175
 20
-0.5411537206623072
 30
0.0
 10
-20.34310787288598
 20
-0.4088159818600562
 30
0.0
 10
-20.67331318415142
 20
-0.2754060816508574
 30
0.0
 10
-20.89208662648073
 20
-0.1857803748748856
 30
0.0
 10
-21.00000000000015
 20
-0.1416205869147938
 30
0.0
  0
SPLINE
  5
348D
330
1F
100
AcDbEntity
  8
AM_0
100
AcDbSpline
210
0.0
220
0.0
230
1.0
 70
     8
 71
     3
 72
    11
 73
     7
 74
     0
 42
0.0000000001
 43
0.0000000001
 40
11.27226913003534
 40
11.27226913003534
 40
11.27226913003534
 40
11.2722691300354
 40
12.28301561507924
 40
13.29510212255852
 40
14.30984805882082
 40
15.18258238371378
 40
15.18258238371378
 40
15.18258238371378
 40
15.18258238371378
 10
-8.429287103688217
 20
-1.749999719125746
 30
0.0
 10
-8.540155828274968
 20
-1.741434710579062
 30
0.0
 10
-8.761684157951464
 20
-1.720699197651938
 30
0.0
 10
-9.0928327214706
 20
-1.67887053916097
 30
0.0
 10
-9.40709854730867
 20
-1.628910792927044
 30
0.0
 10
-9.610347236426846
 20
-1.590505249099593
 30
0.0
 10
-9.704010019873642
 20
-1.571533971248177
 30
0.0
  0
SPLINE
  5
348E
330
1F
100
AcDbEntity
  8
AM_0
100
AcDbSpline
210
0.0
220
0.0
230
1.0
 70
     8
 71
     3
 72
    22
 73
    18
 74
     0
 42
0.0000000001
 43
0.0000000001
 40
17.17441611292
 40
17.17441611292
 40
17.17441611292
 40
17.17441611292
 40
17.38177636558528
 40
18.41823744757437
 40
19.46215659509824
 40
20.51397914882054
 40
21.57394542641293
 40
22.64209583141747
 40
23.71826625065247
 40
24.80210429862395
 40
25.8930771157021
 40
26.99048705697709
 40
28.09349309193389
 40
29.20112995599786
 40
30.31233024745139
 40
31.42594771747373
 40
32.5407895042663
 40
32.54078950426994
 40
32.54078950426994
 40
32.54078950426994
 10
-9.704156097031805
 20
-1.57151238501156
 30
0.0
 10
-9.726522352780825
 20
-1.567461306654657
 30
0.0
 10
-9.860595841072523
 20
-1.54278574558898
 30
0.0
 10
-10.10621091661192
 20
-1.493308034056517
 30
0.0
 10
-10.44007439249883
 20
-1.416842106818838
 30
0.0
 10
-10.77390384839837
 20
-1.331644256500881
 30
0.0
 10
-11.10770164112777
 20
-1.238246309209397
 30
0.0
 10
-11.44146732976338
 20
-1.137220932451894
 30
0.0
 10
-11.77520502257378
 20
-1.029196853831203
 30
0.0
 10
-12.1089162648583
 20
-0.9148379545777082
 30
0.0
 10
-12.4426041442395
 20
-0.7948494797569629
 30
0.0
 10
-12.77627237111502
 20
-0.669971682256641
 30
0.0
 10
-13.10992384152372
 20
-0.5409724394299761
 30
0.0
 10
-13.44356191420715
 20
-0.4086453764170878
 30
0.0
 10
-13.7771895465764
 20
-0.2738041548698809
 30
0.0
 10
-14.1108116810347
 20
-0.1372808180080623
 30
0.0
 10
-14.3331827799871
 20
-0.0457175119251644
 30
0.0
 10
-14.44442941640515
 20
0.0000892904775152
 30
0.0
  0
SPLINE
  5
348F
330
1F
100
AcDbEntity
  8
AM_0
100
AcDbSpline
210
0.0
220
0.0
230
1.0
 70
     8
 71
     3
 72
    23
 73
    19
 74
     0
 42
0.0000000001
 43
0.0000000001
 40
16.03460024169435
 40
16.03460024169435
 40
16.03460024169435
 40
16.03460024169435
 40
16.35212704903564
 40
17.38177054169784
 40
18.41822485651776
 40
19.46214173629503
 40
20.51396345435107
 40
21.57393551351153
 40
22.64208202342361
 40
23.7182574881101
 40
24.80209208578934
 40
25.89306333925047
 40
26.99048218457928
 40
28.09348763352352
 40
29.20111863782268
 40
30.31232390128032
 40
31.42594612798585
 40
32.5407912310448
 40
32.5407912310486
 40
32.5407912310486
 40
32.5407912310486
 10
-19.50465046179464
 20
1.750248900133778
 30
0.0
 10
-19.47033431729676
 20
1.744341208308105
 30
0.0
 10
-19.32488741785792
 20
1.718614873163568
 30
0.0
 10
-19.06868113814066
 20
1.668208045781559
 30
0.0
 10
-18.73689333519782
 20
1.593253644708205
 30
0.0
 10
-18.4054137123726
 20
1.50909234593661
 30
0.0
 10
-18.07422268226972
 20
1.416211232137337
 30
0.0
 10
-17.74330849033261
 20
1.315128117599131
 30
0.0
 10
-17.41265201051406
 20
1.20642083603278
 30
0.0
 10
-17.08223021715357
 20
1.090722036549322
 30
0.0
 10
-16.75202433449812
 20
0.9686869147045783
 30
0.0
 10
-16.42200788874473
 20
0.8410255644377199
 30
0.0
 10
-16.09215413575092
 20
0.7084800086723899
 30
0.0
 10
-15.76244109830195
 20
0.5718123287875747
 30
0.0
 10
-15.43284118970839
 20
0.431817228625924
 30
0.0
 10
-15.10332388203823
 20
0.2893121768639948
 30
0.0
 10
-14.77386234328087
 20
0.1451229516877273
 30
0.0
 10
-14.55428031294555
 20
0.0484519603923842
 30
0.0
 10
-14.44442941640367
 20
0.0000892904768895
 30
0.0
  0
SPLINE
  5
3490
330
1F
100
AcDbEntity
  8
AM_0
100
AcDbSpline
210
0.0
220
0.0
230
1.0
 70
     8
 71
     3
 72
    17
 73
    13
 74
     0
 42
0.0000000001
 43
0.0000000001
 40
1.580019955310467
 40
1.580019955310467
 40
1.580019955310467
 40
1.580019955310467
 40
2.030549285115227
 40
3.082371838836284
 40
4.126290986361125
 40
5.162752068350215
 40
6.192395305374981
 40
7.216039564037012
 40
8.234688489606833
 40
9.249433870634691
 40
10.26152376260694
 40
11.27226744710342
 40
11.27226744710342
 40
11.27226744710342
 40
11.27226744710352
 10
-5.283031325945976
 20
-1.291551250658968
 30
0.0
 10
-5.330289159852212
 20
-1.304853158492952
 30
0.0
 10
-5.488146201944707
 20
-1.348451938142609
 30
0.0
 10
-5.757647319704786
 20
-1.416838184014494
 30
0.0
 10
-6.091464322559722
 20
-1.493421707334933
 30
0.0
 10
-6.425373224923005
 20
-1.560651872689886
 30
0.0
 10
-6.759297426875646
 20
-1.618302906073899
 30
0.0
 10
-7.093258009271607
 20
-1.665955451086006
 30
0.0
 10
-7.427241664045907
 20
-1.703337575663689
 30
0.0
 10
-7.761246115316068
 20
-1.730207031131469
 30
0.0
 10
-8.095263134077361
 20
-1.746390855684101
 30
0.0
 10
-8.317995192464749
 20
-1.74999972913934
 30
0.0
 10
-8.429287103688189
 20
-1.749999719125746
 30
0.0
  0
SPLINE
  5
3491
330
1F
100
AcDbEntity
  8
AM_0
100
AcDbSpline
210
0.0
220
0.0
230
1.0
 70
     8
 71
     3
 72
    46
 73
    42
 74
     0
 42
0.0000000001
 43
0.0000000001
 40
0.0
 40
0.0
 40
0.0
 40
0.0
 40
0.5056245176053715
 40
0.759310862862336
 40
1.013969309739036
 40
1.269880374404297
 40
1.527291183660732
 40
1.786406454158005
 40
2.047386241038974
 40
2.310345544571907
 40
2.575337113970003
 40
2.842374715221223
 40
3.111417320030211
 40
3.382376832022752
 40
3.655120036292296
 40
3.929472521611371
 40
4.205224030350333
 40
4.482133246366229
 40
4.759933319229942
 40
5.038338087391601
 40
5.317048131389549
 40
5.595758175387723
 40
5.874162943549383
 40
6.151963016412869
 40
6.428872232428759
 40
6.704623741167955
 40
6.978976226486705
 40
7.251719430756336
 40
7.522680721168327
 40
7.791723325977311
 40
8.058760927228529
 40
8.32375249662655
 40
8.586708135057122
 40
8.84768792193809
 40
9.106803192435362
 40
9.364213819003406
 40
9.620125035580644
 40
9.87478726697307
 40
10.12847352585208
 40
10.38149610319407
 40
10.63418200686337
 40
10.63418200686337
 40
10.63418200686337
 40
10.63418200686337
 10
-1.202245738024984
 20
-1.749999719125955
 30
0.0
 10
-1.424988675215693
 20
-1.74601308384935
 30
0.0
 10
-1.759488142598683
 20
-1.740026239132771
 30
0.0
 10
-2.204286671309858
 20
-1.703166336054735
 30
0.0
 10
-2.538272356027313
 20
-1.666001748583207
 30
0.0
 10
-2.872229492919408
 20
-1.618288731265252
 30
0.0
 10
-3.20615720222868
 20
-1.560661741374226
 30
0.0
 10
-3.540053768503014
 20
-1.493396285015421
 30
0.0
 10
-3.873918632515809
 20
-1.416930553937169
 30
0.0
 10
-4.207750308450498
 20
-1.331734059047645
 30
0.0
 10
-4.541549463556562
 20
-1.238335220602709
 30
0.0
 10
-4.875315200015754
 20
-1.137309968635292
 30
0.0
 10
-5.209052879953204
 20
-1.029285856363665
 30
0.0
 10
-5.542764125400743
 20
-0.9149269656077457
 30
0.0
 10
-5.876452005144506
 20
-0.794938490809286
 30
0.0
 10
-6.210120227334761
 20
-0.6700606845621855
 30
0.0
 10
-6.543771716256698
 20
-0.5410614769623407
 30
0.0
 10
-6.877409719181136
 20
-0.4087342810416974
 30
0.0
 10
-7.211037773621995
 20
-0.2738934931527984
 30
0.0
 10
-7.544658927293375
 20
-0.1373682893563797
 30
0.0
 10
-7.878277276486421
 20
0.000000280846443
 30
0.0
 10
-8.211895625606175
 20
0.1373688512161969
 30
0.0
 10
-8.545516779497397
 20
0.2738940545120709
 30
0.0
 10
-8.879144833134709
 20
0.4087348442302491
 30
0.0
 10
-9.212782839038723
 20
0.5410620333667547
 30
0.0
 10
-9.546434316912659
 20
0.6700612661214642
 30
0.0
 10
-9.880102580017428
 20
0.7949389792112682
 30
0.0
 10
-10.21379103384224
 20
0.9149280594492438
 30
0.0
 10
-10.54750357593069
 20
1.029285911196671
 30
0.0
 10
-10.881241851205
 20
1.13731057737895
 30
0.0
 10
-11.21500757989319
 20
1.23833585940676
 30
0.0
 10
-11.54880536379024
 20
1.331733839596183
 30
0.0
 10
-11.88263481547312
 20
1.416931652403319
 30
0.0
 10
-12.21649831667195
 20
1.493397695852452
 30
0.0
 10
-12.55039468970448
 20
1.560658751351957
 30
0.0
 10
-12.8843226438291
 20
1.618302455340909
 30
0.0
 10
-13.21828191206142
 20
1.665947337858326
 30
0.0
 10
-13.55226587583531
 20
1.703373557102206
 30
0.0
 10
-13.88627050303453
 20
1.730075193813224
 30
0.0
 10
-14.22028725435325
 20
1.746877510109456
 30
0.0
 10
-14.44301940248858
 20
1.748959819382839
 30
0.0
 10
-14.55431133497749
 20
1.750000280874433
 30
0.0
  0
SPLINE
  5
3492
330
1F
100
AcDbEntity
  8
AM_0
100
AcDbSpline
210
0.0
220
0.0
230
1.0
 70
     8
 71
     3
 72
    55
 73
    51
 74
     0
 42
0.0000000001
 43
0.0000000001
 40
0.0
 40
0.0
 40
0.0
 40
0.0
 40
1.010743684496582
 40
2.022833576467832
 40
3.037578957496688
 40
4.056212745003489
 40
5.079857003664532
 40
6.109500240690281
 40
7.145961322679372
 40
8.189895241603872
 40
9.241717795325891
 40
10.30168407291828
 40
11.36983447792315
 40
12.44600489715814
 40
13.52984294512926
 40
14.62081576220742
 40
15.7182257034828
 40
16.82123173843959
 40
17.92886860250316
 40
19.0400688939571
 40
20.15368796660465
 40
21.26852814259644
 40
22.38336992938901
 40
23.49698739941135
 40
24.6081876908653
 40
25.71582455492886
 40
26.81883757994213
 40
27.91624752121713
 40
29.00722033829659
 40
30.09105838626677
 40
31.16722880550176
 40
32.23537921050758
 40
33.29534548809967
 40
34.347168041821
 40
35.39108718934584
 40
36.42754827133493
 40
37.45720575381954
 40
38.48085062012849
 40
39.49948440763516
 40
40.51422944315121
 40
41.52631975251916
 40
42.53706336719636
 40
43.54780698187354
 40
44.55989729124051
 40
45.57464232675757
 40
46.59327611426424
 40
47.6169209805722
 40
48.64656348684535
 40
49.68302456883444
 40
50.58557219878025
 40
50.58557219878025
 40
50.58557219878025
 40
50.58557219878025
 10
-2.137266447884975
 20
-1.749999719125926
 30
0.0
 10
-2.248558360576694
 20
-1.748958511522263
 30
0.0
 10
-2.471290415434168
 20
-1.746874709532639
 30
0.0
 10
-2.805307441280156
 20
-1.730076926134933
 30
0.0
 10
-3.139310209198704
 20
-1.703372838603168
 30
0.0
 10
-3.473292305625065
 20
-1.665946044294483
 30
0.0
 10
-3.807250397943647
 20
-1.618303748028612
 30
0.0
 10
-4.141177897907993
 20
-1.560657807504728
 30
0.0
 10
-4.475075922490751
 20
-1.493396546324966
 30
0.0
 10
-4.80894151069124
 20
-1.416931840270744
 30
0.0
 10
-5.142772388276376
 20
-1.331733177998575
 30
0.0
 10
-5.476570219208482
 20
-1.238335342704449
 30
0.0
 10
-5.810335897464738
 20
-1.137309935543303
 30
0.0
 10
-6.144073593179952
 20
-1.029285865336916
 30
0.0
 10
-6.477784834329603
 20
-0.9149269631415435
 30
0.0
 10
-6.811472715330558
 20
-0.79493849161734
 30
0.0
 10
-7.145140936826577
 20
-0.6700606838125978
 30
0.0
 10
-7.478792427268117
 20
-0.5410614791612735
 30
0.0
 10
-7.812430424780919
 20
-0.4087342729539069
 30
0.0
 10
-8.146058499433294
 20
-0.2738935234234443
 30
0.0
 10
-8.479679577461098
 20
-0.1373681760833145
 30
0.0
 10
-8.813298370110693
 20
-0.0000000761893056
 30
0.0
 10
-9.14691566509105
 20
0.1373704964161073
 30
0.0
 10
-9.480537861343982
 20
0.2738937176954696
 30
0.0
 10
-9.814165524128043
 20
0.4087348753812012
 30
0.0
 10
-10.14780411651369
 20
0.5410625856962401
 30
0.0
 10
-10.48145699110166
 20
0.6700606894456972
 30
0.0
 10
-10.81512573921429
 20
0.7949391305546826
 30
0.0
 10
-11.14881366838867
 20
0.9149275047806007
 30
0.0
 10
-11.48252489739563
 20
1.029286431025222
 30
0.0
 10
-11.81626259396541
 20
1.137310501389632
 30
0.0
 10
-12.15002828072296
 20
1.23833588439408
 30
0.0
 10
-12.48382607720349
 20
1.331733815055991
 30
0.0
 10
-12.81765552010613
 20
1.416931725025059
 30
0.0
 10
-13.1515190437336
 20
1.493397432576159
 30
0.0
 10
-13.48541694445752
 20
1.560660046295267
 30
0.0
 10
-13.81934682877612
 20
1.618299402852526
 30
0.0
 10
-14.15330602439787
 20
1.665956445416233
 30
0.0
 10
-14.48728821983147
 20
1.70333887509104
 30
0.0
 10
-14.82129121982528
 20
1.730205126818537
 30
0.0
 10
-15.15530796246463
 20
1.746394029461092
 30
0.0
 10
-15.48933204491934
 20
1.751802206158545
 30
0.0
 10
-15.82335612688257
 20
1.746394029452632
 30
0.0
 10
-16.15737287099919
 20
1.730205126852587
 30
0.0
 10
-16.49137586555413
 20
1.703338874962893
 30
0.0
 10
-16.82535808137945
 20
1.665956445898038
 30
0.0
 10
-17.15931557222623
 20
1.618299633376898
 30
0.0
 10
-17.4932441409882
 20
1.560660635626637
 30
0.0
 10
-17.81196042878217
 20
1.496450729396916
 30
0.0
 10
-18.01874718594715
 20
1.44949341795163
 30
0.0
 10
-18.1146841888678
 20
1.426608829368737
 30
0.0
  0
SPLINE
  5
3493
330
1F
100
AcDbEntity
  8
AM_0
 48
0.5
100
AcDbSpline
210
0.0
220
0.0
230
1.0
 70
     8
 71
     3
 72
    25
 73
    21
 74
     0
 42
0.0000000001
 43
0.0000000001
 40
6.846175049578289
 40
6.846175049578289
 40
6.846175049578289
 40
6.846175049578289
 40
7.604337694224321
 40
8.711974558287883
 40
9.814980593243754
 40
10.91239053451967
 40
12.0033633515982
 40
13.08720139956839
 40
14.16337181880432
 40
15.23152222380919
 40
16.29148850140128
 40
17.34331105512262
 40
18.38723020264746
 40
19.42369128463655
 40
20.45333379090873
 40
21.47697865721768
 40
22.49561244472435
 40
23.5103574802404
 40
24.52244778960836
 40
25.53320666051913
 40
25.53320666051913
 40
25.53320666051913
 40
25.53320666051913
 10
-2.526814370203808
 20
0.3167617378630476
 30
0.0
 10
-2.602691604701945
 20
0.3474886254995106
 30
0.0
 10
-2.78958128682759
 20
0.4227984489448837
 30
0.0
 10
-3.087761154522858
 20
0.5410619819911238
 30
0.0
 10
-3.421412606697245
 20
0.6700612612693706
 30
0.0
 10
-3.755080838419849
 20
0.7949390490632313
 30
0.0
 10
-4.088768716522621
 20
0.9149275265065083
 30
0.0
 10
-4.42247995911203
 20
1.029286424902263
 30
0.0
 10
-4.756217651968859
 20
1.137310504347025
 30
0.0
 10
-5.089983340122834
 20
1.238335878683686
 30
0.0
 10
-5.423781134711027
 20
1.331733834743937
 30
0.0
 10
-5.757610583731348
 20
1.416931652752131
 30
0.0
 10
-6.091474085010729
 20
1.493397699215931
 30
0.0
 10
-6.425370460329474
 20
1.560658737695733
 30
0.0
 10
-6.759298405319611
 20
1.61830250614868
 30
0.0
 10
-7.093256061829065
 20
1.66594691494014
 30
0.0
 10
-7.427238233610814
 20
1.703373908348549
 30
0.0
 10
-7.761241239842347
 20
1.730075134945206
 30
0.0
 10
-8.095259658648428
 20
1.746877612379876
 30
0.0
 10
-8.317993489778743
 20
1.748959848218375
 30
0.0
 10
-8.429287103688139
 20
1.750000280874252
 30
0.0
  0
SPLINE
  5
3494
330
1F
100
AcDbEntity
  8
AM_0
 48
0.5
100
AcDbSpline
210
0.0
220
0.0
230
1.0
 70
     8
 71
     3
 72
    17
 73
    13
 74
     0
 42
0.0000000001
 43
0.0000000001
 40
0.0
 40
0.0
 40
0.0
 40
0.0
 40
1.010743614677189
 40
2.022833924044153
 40
3.037578959561199
 40
4.056212747067873
 40
5.079857613375832
 40
6.109500119648989
 40
7.14596120163808
 40
8.18989512056258
 40
9.241717674284874
 40
9.693948937866434
 40
9.693948937866434
 40
9.693948937866434
 40
9.693948937866434
 10
-2.137266447884904
 20
1.750000280874072
 30
0.0
 10
-2.248558380830423
 20
1.748959823615245
 30
0.0
 10
-2.471290529879453
 20
1.746877522813049
 30
0.0
 10
-2.805307274331461
 20
1.7300751428626
 30
0.0
 10
-3.139310267507951
 20
1.703373881751487
 30
0.0
 10
-3.473292488540749
 20
1.665947013990758
 30
0.0
 10
-3.807249959798326
 20
1.618302133815347
 30
0.0
 10
-4.141178602320329
 20
1.560660139941154
 30
0.0
 10
-4.475073934223131
 20
1.493392092945633
 30
0.0
 10
-4.808948911985907
 20
1.416950858645363
 30
0.0
 10
-5.078461500252571
 20
1.348088861515793
 30
0.0
 10
-5.23673509389681
 20
1.305040210521321
 30
0.0
 10
-5.284240335225532
 20
1.29186330663223
 30
0.0
  0
SPLINE
  5
3495
330
1F
100
AcDbEntity
  8
AM_0
 48
0.5
100
AcDbSpline
210
0.0
220
0.0
230
1.0
 70
     8
 71
     3
 72
    10
 73
     6
 74
     0
 42
0.0000000001
 43
0.0000000001
 40
0.0
 40
0.0
 40
0.0
 40
0.0
 40
2.69986029516136
 40
4.147722969032201
 40
6.285750005020438
 40
6.285750005020438
 40
6.285750005020438
 40
6.285750005020438
 10
-2.52639715467203
 20
0.3167409526676598
 30
0.0
 10
-2.288892546120289
 20
0.154153859622628
 30
0.0
 10
-1.924020585187156
 20
-0.095624331308082
 30
0.0
 10
-1.061147411712987
 20
0.0252976666662264
 30
0.0
 10
-1.22365152849183
 20
0.4325789562056049
 30
0.0
 10
-1.331023866045785
 20
0.6808294461059475
 30
0.0
  0
VIEWPORT
  5
110
330
101
100
AcDbEntity
 67
     1
  8
0
100
AcDbViewport
 10
420.5
 20
297.0
 30
0.0
 40
948.9782706766916
 41
628.452
 68
     1
 69
     1
1001
ACAD
1000
MVIEW
1002
{
1070
    16
1010
0.0
1020
0.0
1030
0.0
1010
0.0
1020
0.0
1030
1.0
1040
0.0
1040
628.452
1040
420.5
1040
297.0
1040
50.0
1040
0.0
1040
0.0
1070
     0
1070
   100
1070
     1
1070
     1
1070
     0
1070
     0
1070
     0
1070
     0
1040
0.0
1040
0.0
1040
0.0
1040
10.0
1040
10.0
1040
10.0
1040
10.0
1070
     0
1002
{
1002
}
1002
}
  0
ENDSEC
  0
SECTION
  2
OBJECTS
  0
DICTIONARY
  5
C
330
0
100
AcDbDictionary
  3
ACAD_GROUP
350
D
  3
ACAD_LAYOUT
350
1A
  3
ACAD_MLINESTYLE
350
17
  3
ACAD_PLOTSETTINGS
350
19
  3
ACAD_PLOTSTYLENAME
350
E
  3
ACDBVARIABLEDICTIONARY
350
34
  3
ACMDICTIONARY
350
43
  3
AMG
350
2B
  3
AMGSNAPSETTINGS
350
6E
  3
DWGPROPS
350
351A
  3
ACDBHEADERROUNDTRIPXREC
350
3526
  0
DICTIONARY
  5
74
330
1F
100
AcDbDictionary
280
     1
  3
ACAD_INDEX
360
351C
  3
ACAD_LAYOUTSELFREF
360
3549
  0
DICTIONARY
  5
354E
330
101
100
AcDbDictionary
280
     1
  3
ACAD_LAYOUTSELFREF
360
354F
  0
DICTIONARY
  5
D
102
{ACAD_REACTORS
330
C
102
}
330
C
100
AcDbDictionary
  0
DICTIONARY
  5
1A
102
{ACAD_REACTORS
330
C
102
}
330
C
100
AcDbDictionary
  0
DICTIONARY
  5
17
102
{ACAD_REACTORS
330
C
102
}
330
C
100
AcDbDictionary
  3
STANDARD
350
18
  0
DICTIONARY
  5
19
102
{ACAD_REACTORS
330
C
102
}
330
C
100
AcDbDictionary
  0
ACDBDICTIONARYWDFLT
  5
E
102
{ACAD_REACTORS
330
C
102
}
330
C
100
AcDbDictionary
281
     1
  3
Normal
350
F
100
AcDbDictionaryWithDefault
340
F
  0
DICTIONARY
  5
34
102
{ACAD_REACTORS
330
C
102
}
330
C
100
AcDbDictionary
  3
INDEXCTL
350
35
  3
SORTENTS
350
B5E
  0
DICTIONARY
  5
43
102
{ACAD_REACTORS
330
C
102
}
330
C
100
AcDbDictionary
  3
ACMSTDDICTIONARY
350
260
  0
DICTIONARY
  5
2B
102
{ACAD_REACTORS
330
C
102
}
330
C
100
AcDbDictionary
  3
ACMGSETTINGS
350
2C
  0
DICTIONARY
  5
6E
102
{ACAD_REACTORS
330
C
102
}
330
C
100
AcDbDictionary
  0
XRECORD
  5
351A
102
{ACAD_REACTORS
330
C
102
}
330
C
100
AcDbXrecord
  1
DWGPROPS COOKIE
  2

  3

  4

  6

  7

  8

  9

300
AmdtFileType=82
301
=
302
=
303
=
304
=
305
=
306
=
307
=
308
=
309
=
 40
0.0880600578703704
 41
2452800.443498622
 42
2452946.60047309
  1

 90
        1
  0
DICTIONARY
  5
3526
102
{ACAD_REACTORS
330
C
102
}
330
C
100
AcDbDictionary
  3
TSTACKALIGN
350
3527
  3
TSTACKSIZE
350
3528
  3
HYPERLINKBASE
350
3529
  3
STYLESHEET
350
352A
  3
LAYOUTDICT
350
352B
  3
PLOTSETDICT
350
352C
  3
PLOTSTYLNAMDICT
350
352D
  3
LWETCUNION
350
352E
  3
INSUNITS
350
352F
  3
CEPSNTYPE
350
3530
  3
FINGERPRINTGUID
350
3531
  3
VERSIONGUID
350
3532
  3
PSVPSCALE
350
3533
  3
DIMSTYLEDATA
350
3534
  3
PUCSORTHOREF
350
3535
  3
PUCSORTHOVIEW
350
3536
  3
PUCSBASE
350
3537
  3
PUCSORGTOP
350
3538
  3
PUCSORGBOTTOM
350
3539
  3
PUCSORGLEFT
350
353A
  3
PUCSORGRIGHT
350
353B
  3
PUCSORGFRONT
350
353C
  3
PUCSORGBACK
350
353D
  3
UCSORTHOREF
350
353E
  3
UCSORTHOVIEW
350
353F
  3
UCSBASE
350
3540
  3
UCSORGTOP
350
3541
  3
UCSORGBOTTOM
350
3542
  3
UCSORGLEFT
350
3543
  3
UCSORGRIGHT
350
3544
  3
UCSORGFRONT
350
3545
  3
UCSORGBACK
350
3546
  0
DICTIONARY
  5
351C
102
{ACAD_REACTORS
330
74
102
}
330
74
100
AcDbDictionary
  3
*A1
350
351D
  0
XRECORD
  5
3549
102
{ACAD_REACTORS
330
74
102
}
330
74
100
AcDbXrecord
340
1F
  0
XRECORD
  5
354F
102
{ACAD_REACTORS
330
354E
102
}
330
354E
100
AcDbXrecord
340
101
  0
MLINESTYLE
  5
18
102
{ACAD_REACTORS
330
17
102
}
330
17
100
AcDbMlineStyle
  2
STANDARD
 70
     0
  3

 62
   256
 51
90.0
 52
90.0
 71
     2
 49
0.5
 62
   256
  6
BYLAYER
 49
-0.5
 62
   256
  6
BYLAYER
  0
ACDBPLACEHOLDER
  5
F
102
{ACAD_REACTORS
330
E
102
}
330
E
100
AcDbPlaceHolder
280
     0
  0
DICTIONARYVAR
  5
35
102
{ACAD_REACTORS
330
34
102
}
330
34
100
DictionaryVariables
280
     0
  1
1
  0
DICTIONARYVAR
  5
B5E
102
{ACAD_REACTORS
330
34
102
}
330
34
100
DictionaryVariables
280
     0
  1
96
  0
DICTIONARY
  5
260
102
{ACAD_REACTORS
330
43
102
}
330
43
100
AcDbDictionary
  0
DICTIONARY
  5
2C
102
{ACAD_REACTORS
330
2B
102
}
330
2B
100
AcDbDictionary
  3
DWGSETTINGS
350
2D
  0
XRECORD
  5
3527
102
{ACAD_REACTORS
330
3526
102
}
330
3526
100
AcDbXrecord
 90
        1
  0
XRECORD
  5
3528
102
{ACAD_REACTORS
330
3526
102
}
330
3526
100
AcDbXrecord
 90
       70
  0
XRECORD
  5
3529
102
{ACAD_REACTORS
330
3526
102
}
330
3526
100
AcDbXrecord
  1

  0
XRECORD
  5
352A
102
{ACAD_REACTORS
330
3526
102
}
330
3526
100
AcDbXrecord
  1
ASAMI.ctb
  0
XRECORD
  5
352B
102
{ACAD_REACTORS
330
3526
102
}
330
3526
100
AcDbXrecord
340
1A
  0
XRECORD
  5
352C
102
{ACAD_REACTORS
330
3526
102
}
330
3526
100
AcDbXrecord
340
19
  0
XRECORD
  5
352D
102
{ACAD_REACTORS
330
3526
102
}
330
3526
100
AcDbXrecord
340
E
  0
XRECORD
  5
352E
102
{ACAD_REACTORS
330
3526
102
}
330
3526
100
AcDbXrecord
 90
    10781
  0
XRECORD
  5
352F
102
{ACAD_REACTORS
330
3526
102
}
330
3526
100
AcDbXrecord
 90
        4
  0
XRECORD
  5
3530
102
{ACAD_REACTORS
330
3526
102
}
330
3526
100
AcDbXrecord
 90
        0
  0
XRECORD
  5
3531
102
{ACAD_REACTORS
330
3526
102
}
330
3526
100
AcDbXrecord
  1
{AFB28963-8C59-40AE-9337-C84526B81ACE}
  0
XRECORD
  5
3532
102
{ACAD_REACTORS
330
3526
102
}
330
3526
100
AcDbXrecord
  1
{CF964B93-A462-4C5F-AA38-3289C9EA0C6A}
  0
XRECORD
  5
3533
102
{ACAD_REACTORS
330
3526
102
}
330
3526
100
AcDbXrecord
 40
0.0
  0
XRECORD
  5
3534
102
{ACAD_REACTORS
330
3526
102
}
330
3526
100
AcDbXrecord
1000
DSTYLE
1002
{
1070
    79
 70
     2
1070
   341
340
59
1070
   342
340
59
1070
   371
 70
    -1
1070
   372
 70
    -1
1002
}
  0
XRECORD
  5
3535
102
{ACAD_REACTORS
330
3526
102
}
330
3526
100
AcDbXrecord
340
0
  0
XRECORD
  5
3536
102
{ACAD_REACTORS
330
3526
102
}
330
3526
100
AcDbXrecord
 70
     0
  0
XRECORD
  5
3537
102
{ACAD_REACTORS
330
3526
102
}
330
3526
100
AcDbXrecord
340
0
  0
XRECORD
  5
3538
102
{ACAD_REACTORS
330
3526
102
}
330
3526
100
AcDbXrecord
 10
0.0
 20
0.0
 30
0.0
  0
XRECORD
  5
3539
102
{ACAD_REACTORS
330
3526
102
}
330
3526
100
AcDbXrecord
 10
0.0
 20
0.0
 30
0.0
  0
XRECORD
  5
353A
102
{ACAD_REACTORS
330
3526
102
}
330
3526
100
AcDbXrecord
 10
0.0
 20
0.0
 30
0.0
  0
XRECORD
  5
353B
102
{ACAD_REACTORS
330
3526
102
}
330
3526
100
AcDbXrecord
 10
0.0
 20
0.0
 30
0.0
  0
XRECORD
  5
353C
102
{ACAD_REACTORS
330
3526
102
}
330
3526
100
AcDbXrecord
 10
0.0
 20
0.0
 30
0.0
  0
XRECORD
  5
353D
102
{ACAD_REACTORS
330
3526
102
}
330
3526
100
AcDbXrecord
 10
0.0
 20
0.0
 30
0.0
  0
XRECORD
  5
353E
102
{ACAD_REACTORS
330
3526
102
}
330
3526
100
AcDbXrecord
340
0
  0
XRECORD
  5
353F
102
{ACAD_REACTORS
330
3526
102
}
330
3526
100
AcDbXrecord
 70
     0
  0
XRECORD
  5
3540
102
{ACAD_REACTORS
330
3526
102
}
330
3526
100
AcDbXrecord
340
0
  0
XRECORD
  5
3541
102
{ACAD_REACTORS
330
3526
102
}
330
3526
100
AcDbXrecord
 10
0.0
 20
0.0
 30
0.0
  0
XRECORD
  5
3542
102
{ACAD_REACTORS
330
3526
102
}
330
3526
100
AcDbXrecord
 10
0.0
 20
0.0
 30
0.0
  0
XRECORD
  5
3543
102
{ACAD_REACTORS
330
3526
102
}
330
3526
100
AcDbXrecord
 10
0.0
 20
0.0
 30
0.0
  0
XRECORD
  5
3544
102
{ACAD_REACTORS
330
3526
102
}
330
3526
100
AcDbXrecord
 10
0.0
 20
0.0
 30
0.0
  0
XRECORD
  5
3545
102
{ACAD_REACTORS
330
3526
102
}
330
3526
100
AcDbXrecord
 10
0.0
 20
0.0
 30
0.0
  0
XRECORD
  5
3546
102
{ACAD_REACTORS
330
3526
102
}
330
3526
100
AcDbXrecord
 10
0.0
 20
0.0
 30
0.0
  0
LAYER_INDEX
  5
351D
102
{ACAD_REACTORS
330
351C
102
}
330
351C
100
AcDbIndex
 40
2453151.577049861
100
AcDbLayerIndex
  8
0
360
351E
 90
        0
  8
AM_0
360
351F
 90
       44
  8
AM_7
360
3520
 90
        1
  8
AM_11
360
3521
 90
       25
  8
AM_5
360
3522
 90
        5
  8
Defpoints
360
3523
 90
        0
  8
AM_6
360
3524
 90
        1
  0
XRECORD
  5
2D
102
{ACAD_REACTORS
330
2C
102
}
330
2C
100
AcDbXrecord
  1
VERSION
140
15.0
  1
PRODUCT
  2
AutoCAD Mechanical 2000
  0
IDBUFFER
  5
351E
330
0
100
AcDbIdBuffer
  0
IDBUFFER
  5
351F
330
0
100
AcDbIdBuffer
330
3476
330
3477
330
3478
330
3479
330
347A
330
347D
330
347E
330
347F
330
3482
330
3483
330
3484
330
3485
330
3486
330
3487
330
3488
330
3489
330
348A
330
348B
330
348C
330
348D
330
348E
330
348F
330
3490
330
3491
330
3492
330
3493
330
3494
330
3495
330
C1D
330
C20
330
27F8
330
2827
330
2828
330
2829
330
282B
330
282C
330
2830
330
2831
330
2964
330
2B4E
330
2B77
330
2B9A
330
2D3A
330
2D3B
  0
IDBUFFER
  5
3520
330
0
100
AcDbIdBuffer
330
224B
  0
IDBUFFER
  5
3521
330
0
100
AcDbIdBuffer
330
27F0
330
27F1
330
27F2
330
27F3
330
32F9
330
347B
330
347C
330
3480
330
3481
330
21FC
330
21FD
330
2200
330
2201
330
2206
330
2207
330
220B
330
220C
330
220D
330
220E
330
220F
330
2210
330
2219
330
221A
330
2228
330
2229
  0
IDBUFFER
  5
3522
330
0
100
AcDbIdBuffer
330
223E
330
2259
330
282D
330
2ABE
330
2FE5
  0
IDBUFFER
  5
3523
330
0
100
AcDbIdBuffer
  0
IDBUFFER
  5
3524
330
0
100
AcDbIdBuffer
330
19BD
  0
ENDSEC
  0
EOF
