  0
SECTION
  2
HEADER
  9
$ACADVER
  1
AC1014
  9
$ACADMAINTVER
 70
     9
  9
$DWGCODEPAGE
  3
ANSI_932
  9
$INSBASE
 10
0.0
 20
0.0
 30
0.0
  9
$EXTMIN
 10
-99.67857242857151
 20
-25.25000099999998
 30
-0.00000001
  9
$EXTMAX
 10
14.73118743198632
 20
14.31263443564482
 30
0.00000001
  9
$LIMMIN
 10
-105.6975265420637
 20
-39.42707605263618
  9
$LIMMAX
 10
21.9439508866011
 20
31.31578562585821
  9
$ORTHOMODE
 70
     0
  9
$REGENMODE
 70
     1
  9
$FILLMODE
 70
     1
  9
$QTEXTMODE
 70
     0
  9
$MIRRTEXT
 70
     0
  9
$DRAGMODE
 70
     2
  9
$LTSCALE
 40
1.0
  9
$OSMODE
 70
    55
  9
$ATTMODE
 70
     1
  9
$TEXTSIZE
 40
2.5
  9
$TRACEWID
 40
1.0
  9
$TEXTSTYLE
  7
STANDARD
  9
$CLAYER
  8
AM_0
  9
$CELTYPE
  6
BYLAYER
  9
$CECOLOR
 62
   256
  9
$CELTSCALE
 40
1.0
  9
$DELOBJ
 70
     1
  9
$DISPSILH
 70
     0
  9
$DIMSCALE
 40
0.5
  9
$DIMASZ
 40
2.5
  9
$DIMEXO
 40
1.0
  9
$DIMDLI
 40
12.0
  9
$DIMRND
 40
0.0
  9
$DIMDLE
 40
0.0
  9
$DIMEXE
 40
1.0
  9
$DIMTP
 40
0.1
  9
$DIMTM
 40
0.1
  9
$DIMTXT
 40
3.2
  9
$DIMCEN
 40
0.0
  9
$DIMTSZ
 40
0.0
  9
$DIMTOL
 70
     0
  9
$DIMLIM
 70
     0
  9
$DIMTIH
 70
     0
  9
$DIMTOH
 70
     0
  9
$DIMSE1
 70
     0
  9
$DIMSE2
 70
     0
  9
$DIMTAD
 70
     3
  9
$DIMZIN
 70
     8
  9
$DIMBLK
  1
OPEN30
  9
$DIMASO
 70
     1
  9
$DIMSHO
 70
     1
  9
$DIMPOST
  1

  9
$DIMAPOST
  1
"
  9
$DIMALT
 70
     0
  9
$DIMALTD
 70
     2
  9
$DIMALTF
 40
0.0393701
  9
$DIMLFAC
 40
1.0
  9
$DIMTOFL
 70
     1
  9
$DIMTVP
 40
0.0
  9
$DIMTIX
 70
     0
  9
$DIMSOXD
 70
     0
  9
$DIMSAH
 70
     0
  9
$DIMBLK1
  1

  9
$DIMBLK2
  1

  9
$DIMSTYLE
  2
AM_JIS
  9
$DIMCLRD
 70
   256
  9
$DIMCLRE
 70
   256
  9
$DIMCLRT
 70
     2
  9
$DIMTFAC
 40
0.71
  9
$DIMGAP
 40
1.5
  9
$DIMJUST
 70
     0
  9
$DIMSD1
 70
     0
  9
$DIMSD2
 70
     0
  9
$DIMTOLJ
 70
     0
  9
$DIMTZIN
 70
     0
  9
$DIMALTZ
 70
     0
  9
$DIMALTTZ
 70
     0
  9
$DIMFIT
 70
     3
  9
$DIMUPT
 70
     0
  9
$DIMUNIT
 70
     2
  9
$DIMDEC
 70
     3
  9
$DIMTDEC
 70
     3
  9
$DIMALTU
 70
     2
  9
$DIMALTTD
 70
     2
  9
$DIMTXSTY
  7
ASAMI
  9
$DIMAUNIT
 70
     0
  9
$LUNITS
 70
     2
  9
$LUPREC
 70
     2
  9
$SKETCHINC
 40
1.0
  9
$FILLETRAD
 40
2.5
  9
$AUNITS
 70
     0
  9
$AUPREC
 70
     0
  9
$MENU
  1
.
  9
$ELEVATION
 40
0.0
  9
$PELEVATION
 40
0.0
  9
$THICKNESS
 40
0.0
  9
$LIMCHECK
 70
     0
  9
$BLIPMODE
 70
     0
  9
$CHAMFERA
 40
0.25
  9
$CHAMFERB
 40
0.25
  9
$CHAMFERC
 40
20.0
  9
$CHAMFERD
 40
0.0
  9
$SKPOLY
 70
     0
  9
$TDCREATE
 40
2452800.443498622
  9
$TDUPDATE
 40
2453151.689841203
  9
$TDINDWG
 40
0.0632862847
  9
$TDUSRTIMER
 40
0.0632862847
  9
$USRTIMER
 70
     1
  9
$ANGBASE
 50
0.0
  9
$ANGDIR
 70
     0
  9
$PDMODE
 70
     3
  9
$PDSIZE
 40
0.0
  9
$PLINEWID
 40
0.0
  9
$COORDS
 70
     1
  9
$SPLFRAME
 70
     0
  9
$SPLINETYPE
 70
     6
  9
$SPLINESEGS
 70
     8
  9
$ATTDIA
 70
     1
  9
$ATTREQ
 70
     1
  9
$HANDLING
 70
 12289
  9
$HANDSEED
  5
2EE9
  9
$SURFTAB1
 70
     6
  9
$SURFTAB2
 70
     6
  9
$SURFTYPE
 70
     6
  9
$SURFU
 70
     6
  9
$SURFV
 70
     6
  9
$UCSNAME
  2

  9
$UCSORG
 10
-0.0000000000000426
 20
0.0
 30
0.0
  9
$UCSXDIR
 10
1.0
 20
0.0000000000000007
 30
0.0
  9
$UCSYDIR
 10
-0.0000000000000007
 20
1.0
 30
0.0
  9
$PUCSNAME
  2

  9
$PUCSORG
 10
0.0
 20
0.0
 30
0.0
  9
$PUCSXDIR
 10
1.0
 20
0.0
 30
0.0
  9
$PUCSYDIR
 10
0.0
 20
1.0
 30
0.0
  9
$USERI1
 70
     0
  9
$USERI2
 70
     0
  9
$USERI3
 70
     0
  9
$USERI4
 70
     0
  9
$USERI5
 70
     0
  9
$USERR1
 40
0.0
  9
$USERR2
 40
0.0
  9
$USERR3
 40
0.0
  9
$USERR4
 40
0.0
  9
$USERR5
 40
0.0
  9
$WORLDVIEW
 70
     1
  9
$SHADEDGE
 70
     3
  9
$SHADEDIF
 70
    70
  9
$TILEMODE
 70
     1
  9
$MAXACTVP
 70
    64
  9
$PINSBASE
 10
0.0
 20
0.0
 30
0.0
  9
$PLIMCHECK
 70
     0
  9
$PEXTMIN
 10
1.000000000000000E+20
 20
1.000000000000000E+20
 30
1.000000000000000E+20
  9
$PEXTMAX
 10
-1.000000000000000E+20
 20
-1.000000000000000E+20
 30
-1.000000000000000E+20
  9
$PLIMMIN
 10
0.0
 20
0.0
  9
$PLIMMAX
 10
841.0
 20
594.0
  9
$UNITMODE
 70
     0
  9
$VISRETAIN
 70
     1
  9
$PLINEGEN
 70
     0
  9
$PSLTSCALE
 70
     0
  9
$TREEDEPTH
 70
  3020
  9
$PICKSTYLE
 70
     0
  9
$CMLSTYLE
  2
STANDARD
  9
$CMLJUST
 70
     0
  9
$CMLSCALE
 40
20.0
  9
$PROXYGRAPHICS
 70
     1
  9
$MEASUREMENT
 70
     1
  0
ENDSEC
  0
SECTION
  2
CLASSES
  0
CLASS
  1
ACDBDICTIONARYWDFLT
  2
AcDbDictionaryWithDefault
  3
AutoCAD 2000
 90
        0
280
     0
281
     0
  0
CLASS
  1
ACDBPLACEHOLDER
  2
AcDbPlaceHolder
  3
AutoCAD 2000
 90
        0
280
     0
281
     0
  0
CLASS
  1
LAYOUT
  2
AcDbLayout
  3
AutoCAD 2000
 90
        0
280
     0
281
     0
  0
CLASS
  1
AMGSETTINGSOBJ
  2
AmgSettingsObj
  3
"AcadM|Product Description: AutoCAD Mechanical 2000|Company: Autodesk"
 90
        0
280
     0
281
     0
  0
CLASS
  1
ACME_DOCUMENT
  2
AcMeDbDoc
  3
AcMeServices
 90
        0
280
     0
281
     0
  0
CLASS
  1
ACMESCOPE
  2
AcMeScope
  3
AcMeServices
 90
        0
280
     0
281
     0
  0
CLASS
  1
ACMECOMMANDHISTORY
  2
AcMeCommandHistory
  3
AcMeServices
 90
        0
280
     0
281
     0
  0
CLASS
  1
DICTIONARYVAR
  2
AcDbDictionaryVar
  3
AutoCAD 2000
 90
        0
280
     0
281
     0
  0
CLASS
  1
ACIMSYSVARMAN
  2
AcImSysVarManager
  3
AcMeServices
 90
        0
280
     0
281
     0
  0
CLASS
  1
ACIMREALSYSVAR
  2
AcImRealSysVar
  3
AcMeServices
 90
        0
280
     0
281
     0
  0
CLASS
  1
ACIMINTSYSVAR
  2
AcImIntSysVar
  3
AcMeServices
 90
        0
280
     0
281
     0
  0
CLASS
  1
ACMEDRAWINGMAN
  2
AcMeDrawingMan
  3
AcMeServices
 90
        0
280
     0
281
     0
  0
CLASS
  1
ACMEVIEW
  2
AcMeView
  3
AcMeServices
 90
        0
280
     0
281
     0
  0
CLASS
  1
ACDBENTITYCACHE
  2
AcMeEntityCache
  3
AcMeServices
 90
        0
280
     0
281
     0
  0
CLASS
  1
GSMANAGER
  2
AcMeGSManager
  3
AcMeServices
 90
        0
280
     0
281
     0
  0
CLASS
  1
AmdtInternalReactor
  2
AmdtInternalReactor
  3
AcMeServices
 90
        0
280
     0
281
     0
  0
CLASS
  1
ACMESTATEMGR
  2
AcMeStateMgr
  3
AcMeServices
 90
        0
280
     0
281
     0
  0
CLASS
  1
ACME_DATABASE
  2
AcMeDbDatabase
  3
AcMeServices
 90
        0
280
     0
281
     0
  0
CLASS
  1
ACRFINSADJUSTERMGR
  2
AcRfInsAdjusterMgr
  3
AcMeServices
 90
        0
280
     0
281
     0
  0
CLASS
  1
ACMDATADICTIONARY
  2
AcmDataDictionary
  3
"AcmSymBB|Product Description: AutoCAD Mechanical 2000|Company: Autodesk"
 90
        0
280
     0
281
     0
  0
CLASS
  1
ACMDATAENTRYBLOCK
  2
AcmDataEntryBlock
  3
"AcmSymBB|Product Description: AutoCAD Mechanical 2000|Company: Autodesk"
 90
        0
280
     0
281
     0
  0
CLASS
  1
AMGOBJPROPCFG
  2
AmgObjPropCfg
  3
"AmgLay|Product Description: AutoCAD Mechanical 2000|Company: Autodesk"
 90
        1
280
     0
281
     0
  0
CLASS
  1
ACAMGFILTERDAT
  2
AcAmgFilterDat
  3
"AcadM|Product Description: AutoCAD Mechanical 2000|Company: Autodesk"
 90
        0
280
     0
281
     0
  0
CLASS
  1
LAYER_INDEX
  2
AcDbLayerIndex
  3
AutoCAD 2000
 90
        0
280
     0
281
     0
  0
CLASS
  1
IDBUFFER
  2
AcDbIdBuffer
  3
AutoCAD 2000
 90
        0
280
     0
281
     0
  0
CLASS
  1
ACIMSTRSYSVAR
  2
AcImStrSysVar
  3
AcMeServices
 90
        0
280
     0
281
     0
  0
CLASS
  1
ACMSTANDARDJIS
  2
AcmStandardJIS
  3
"AcmSymBB|Product Description: AutoCAD Mechanical 2000|Company: Autodesk"
 90
        0
280
     0
281
     0
  0
CLASS
  1
ACMSURFSTANDARDJIS
  2
AcmSurfTextStdJIS
  3
"AcmSymBB|Product Description: AutoCAD Mechanical 2000|Company: Autodesk"
 90
        0
280
     0
281
     0
  0
CLASS
  1
ACMFCFSTANDARDJIS
  2
AcmFCFStdJIS
  3
"AcmSymBB|Product Description: AutoCAD Mechanical 2000|Company: Autodesk"
 90
        0
280
     0
281
     0
  0
CLASS
  1
ACMWELDSTANDARDJIS
  2
AcmWeldingStdJIS
  3
"AcmSymBB|Product Description: AutoCAD Mechanical 2000|Company: Autodesk"
 90
        0
280
     0
281
     0
  0
CLASS
  1
ACMIDSTANDARDJIS
  2
AcmIdStdJIS
  3
"AcmSymBB|Product Description: AutoCAD Mechanical 2000|Company: Autodesk"
 90
        0
280
     0
281
     0
  0
CLASS
  1
ACMDATUMSTANDARDJIS
  2
AcmDatumStdJIS
  3
"AcmSymBB|Product Description: AutoCAD Mechanical 2000|Company: Autodesk"
 90
        0
280
     0
281
     0
  0
CLASS
  1
ACMBOMSTANDARDJIS
  2
AcmBOMStdJIS
  3
"AcmSymBB|Product Description: AutoCAD Mechanical 2000|Company: Autodesk"
 90
        0
280
     0
281
     0
  0
CLASS
  1
ACMSTANDARDANSI
  2
AcmStandardANSI
  3
"AcmSymBB|Product Description: AutoCAD Mechanical 2000|Company: Autodesk"
 90
        0
280
     0
281
     0
  0
CLASS
  1
ACMSURFSTANDARDANSI
  2
AcmSurfTextStdANSI
  3
"AcmSymBB|Product Description: AutoCAD Mechanical 2000|Company: Autodesk"
 90
        0
280
     0
281
     0
  0
CLASS
  1
ACMFCFSTANDARDANSI
  2
AcmFCFStdANSI
  3
"AcmSymBB|Product Description: AutoCAD Mechanical 2000|Company: Autodesk"
 90
        0
280
     0
281
     0
  0
CLASS
  1
ACMWELDSTANDARDANSI
  2
AcmWeldingStdANSI
  3
"AcmSymBB|Product Description: AutoCAD Mechanical 2000|Company: Autodesk"
 90
        0
280
     0
281
     0
  0
CLASS
  1
ACMIDSTANDARDANSI
  2
AcmIdStdANSI
  3
"AcmSymBB|Product Description: AutoCAD Mechanical 2000|Company: Autodesk"
 90
        0
280
     0
281
     0
  0
CLASS
  1
ACMDATUMSTANDARDANSI
  2
AcmDatumStdANSI
  3
"AcmSymBB|Product Description: AutoCAD Mechanical 2000|Company: Autodesk"
 90
        0
280
     0
281
     0
  0
CLASS
  1
ACMBOMSTANDARDANSI
  2
AcmBOMStdANSI
  3
"AcmSymBB|Product Description: AutoCAD Mechanical 2000|Company: Autodesk"
 90
        0
280
     0
281
     0
  0
CLASS
  1
ACMSTANDARDBSI
  2
AcmStandardBSI
  3
"AcmSymBB|Product Description: AutoCAD Mechanical 2000|Company: Autodesk"
 90
        0
280
     0
281
     0
  0
CLASS
  1
ACMSURFSTANDARDBSI
  2
AcmSurfTextStdBSI
  3
"AcmSymBB|Product Description: AutoCAD Mechanical 2000|Company: Autodesk"
 90
        0
280
     0
281
     0
  0
CLASS
  1
ACMFCFSTANDARDBSI
  2
AcmFCFStdBSI
  3
"AcmSymBB|Product Description: AutoCAD Mechanical 2000|Company: Autodesk"
 90
        0
280
     0
281
     0
  0
CLASS
  1
ACMWELDSTANDARDBSI
  2
AcmWeldingStdBSI
  3
"AcmSymBB|Product Description: AutoCAD Mechanical 2000|Company: Autodesk"
 90
        0
280
     0
281
     0
  0
CLASS
  1
ACMIDSTANDARDBSI
  2
AcmIdStdBSI
  3
"AcmSymBB|Product Description: AutoCAD Mechanical 2000|Company: Autodesk"
 90
        0
280
     0
281
     0
  0
CLASS
  1
ACMDATUMSTANDARDBSI
  2
AcmDatumStdBSI
  3
"AcmSymBB|Product Description: AutoCAD Mechanical 2000|Company: Autodesk"
 90
        0
280
     0
281
     0
  0
CLASS
  1
ACMBOMSTANDARDBSI
  2
AcmBOMStdBSI
  3
"AcmSymBB|Product Description: AutoCAD Mechanical 2000|Company: Autodesk"
 90
        0
280
     0
281
     0
  0
CLASS
  1
LONG_TRANSACTION
  2
AcDbLongTransaction
  3
AutoCAD 2000
 90
        0
280
     0
281
     0
  0
CLASS
  1
LWPOLYLINE
  2
AcDbPolyline
  3
AutoCAD 2000
 90
        0
280
     0
281
     1
  0
CLASS
  1
HATCH
  2
AcDbHatch
  3
AutoCAD 2000
 90
        0
280
     0
281
     1
  0
CLASS
  1
XRECORD
  2
AcDbXrecord
  3
AutoCAD 2000
 90
        0
280
     0
281
     0
  0
ENDSEC
  0
SECTION
  2
TABLES
  0
TABLE
  2
VPORT
  5
8
330
0
100
AcDbSymbolTable
 70
     3
  0
VPORT
  5
2EBE
330
8
100
AcDbSymbolTableRecord
100
AcDbViewportTableRecord
  2
*ACTIVE
 70
     0
 10
0.0
 20
0.0
 11
1.0
 21
1.0
 12
-40.3523350500201
 22
-5.467026453589909
 13
0.0
 23
0.0
 14
2.5
 24
2.5
 15
10.0
 25
10.0
 16
0.0
 26
0.0
 36
1.0
 17
0.0
 27
0.0
 37
0.0
 40
76.1507330390876
 41
1.56570841889117
 42
50.0
 43
0.0
 44
0.0
 50
0.0
 51
0.0
 71
     0
 72
   100
 73
     1
 74
     1
 75
     0
 76
     0
 77
     0
 78
     0
  0
ENDTAB
  0
TABLE
  2
LTYPE
  5
5
330
0
100
AcDbSymbolTable
 70
    10
  0
LTYPE
  5
14
330
5
100
AcDbSymbolTableRecord
100
AcDbLinetypeTableRecord
  2
BYBLOCK
 70
     0
  3

 72
    65
 73
     0
 40
0.0
  0
LTYPE
  5
15
330
5
100
AcDbSymbolTableRecord
100
AcDbLinetypeTableRecord
  2
BYLAYER
 70
     0
  3

 72
    65
 73
     0
 40
0.0
  0
LTYPE
  5
16
330
5
100
AcDbSymbolTableRecord
100
AcDbLinetypeTableRecord
  2
CONTINUOUS
 70
     0
  3
Solid line
 72
    65
 73
     0
 40
0.0
  0
LTYPE
  5
4B
330
5
100
AcDbSymbolTableRecord
100
AcDbLinetypeTableRecord
  2
AM_ISO02W050
 70
     0
  3
__ __ __ __ __ __ __ __ __ __ __ __ __ __ __
 72
    65
 73
     2
 40
7.5
 49
6.0
 74
     0
 49
-1.5
 74
     0
  0
LTYPE
  5
4C
330
5
100
AcDbSymbolTableRecord
100
AcDbLinetypeTableRecord
  2
AM_ISO08W050
 70
     0
  3
____ . ____ . ____ . ____ . ____ . ____ . ____
 72
    65
 73
     4
 40
18.0
 49
12.0
 74
     0
 49
-1.5
 74
     0
 49
3.0
 74
     0
 49
-1.5
 74
     0
  0
LTYPE
  5
4D
330
5
100
AcDbSymbolTableRecord
100
AcDbLinetypeTableRecord
  2
AM_ISO09W050
 70
     0
  3
_____ . . _____ . . _____ . . ____ .. ____
 72
    65
 73
     6
 40
22.5
 49
12.0
 74
     0
 49
-1.5
 74
     0
 49
3.0
 74
     0
 49
-1.5
 74
     0
 49
3.0
 74
     0
 49
-1.5
 74
     0
  0
LTYPE
  5
4E
330
5
100
AcDbSymbolTableRecord
100
AcDbLinetypeTableRecord
  2
AMCONSTR
 70
     0
  3
_______________________
 72
    65
 73
     2
 40
9999.0
 49
9999.0
 74
     0
 49
0.0
 74
     0
  0
LTYPE
  5
4F
330
5
100
AcDbSymbolTableRecord
100
AcDbLinetypeTableRecord
  2
AM_ISO02W050X2
 70
     0
  3
 _ _ _ _ _ _ _ _ _ _ _ _
 72
    65
 73
     2
 40
3.75
 49
3.0
 74
     0
 49
-0.75
 74
     0
  0
LTYPE
  5
50
330
5
100
AcDbSymbolTableRecord
100
AcDbLinetypeTableRecord
  2
AM_ISO08W050X2
 70
     0
  3
__ . __ . __ . __ . __ . __
 72
    65
 73
     4
 40
9.0
 49
6.0
 74
     0
 49
-0.75
 74
     0
 49
1.5
 74
     0
 49
-0.75
 74
     0
  0
LTYPE
  5
53
330
5
100
AcDbSymbolTableRecord
100
AcDbLinetypeTableRecord
  2
AMZIGZAG
 70
     0
  3
/\/-/\/-/\/-/\/-/\/-/\/
 72
    65
 73
     2
 40
11.00009999999999
 49
0.0001
 74
     4
 75
   135
340
52
 46
0.04
 50
0.0
 44
0.0
 45
0.0
 49
-11.0
 74
     0
  0
LTYPE
  5
166
330
5
100
AcDbSymbolTableRecord
100
AcDbLinetypeTableRecord
  2
ACJISTGL
 70
     0
  3
_ _ _ _ _
 72
    65
 73
     2
 40
3.0
 49
2.0
 74
     0
 49
-1.0
 74
     0
  0
LTYPE
  5
26A
330
5
100
AcDbSymbolTableRecord
100
AcDbLinetypeTableRecord
  2
ACJISTGB
 70
     0
  3
__ . . __ . .
 72
    65
 73
     6
 40
9.0
 49
4.0
 74
     0
 49
-1.0
 74
     0
 49
1.0
 74
     0
 49
-1.0
 74
     0
 49
1.0
 74
     0
 49
-1.0
 74
     0
  0
ENDTAB
  0
TABLE
  2
LAYER
  5
2
330
0
100
AcDbSymbolTable
 70
     7
  0
LAYER
  5
10
330
2
100
AcDbSymbolTableRecord
100
AcDbLayerTableRecord
  2
0
 70
     0
 62
     7
  6
CONTINUOUS
  0
LAYER
  5
3F9
330
2
100
AcDbSymbolTableRecord
100
AcDbLayerTableRecord
  2
AM_0
 70
     0
 62
     7
  6
CONTINUOUS
  0
LAYER
  5
C7C
330
2
100
AcDbSymbolTableRecord
100
AcDbLayerTableRecord
  2
AM_7
 70
     0
 62
     4
  6
AM_ISO08W050
  0
LAYER
  5
C97
330
2
100
AcDbSymbolTableRecord
100
AcDbLayerTableRecord
  2
AM_11
 70
     0
 62
     3
  6
AM_ISO09W050
  0
LAYER
  5
CC5
330
2
100
AcDbSymbolTableRecord
100
AcDbLayerTableRecord
  2
AM_5
 70
     0
 62
     3
  6
CONTINUOUS
  0
LAYER
  5
CC7
330
2
100
AcDbSymbolTableRecord
100
AcDbLayerTableRecord
  2
DEFPOINTS
 70
     0
 62
     7
  6
CONTINUOUS
  0
LAYER
  5
19BC
330
2
100
AcDbSymbolTableRecord
100
AcDbLayerTableRecord
  2
AM_6
 70
     0
 62
     2
  6
CONTINUOUS
  0
ENDTAB
  0
TABLE
  2
STYLE
  5
3
330
0
100
AcDbSymbolTable
 70
     5
  0
STYLE
  5
11
330
3
100
AcDbSymbolTableRecord
100
AcDbTextStyleTableRecord
  2
STANDARD
 70
     0
 40
0.0
 41
1.0
 50
0.0
 71
     0
 42
2.5
  3
simplex.shx
  4
EXTFONT.SHX
  0
STYLE
  5
52
330
3
100
AcDbSymbolTableRecord
100
AcDbTextStyleTableRecord
  2

 70
     1
 40
0.0
 41
1.0
 50
0.0
 71
     0
 42
2.5
  3
ltypeshp.shx
  4

  0
STYLE
  5
6B
330
3
100
AcDbSymbolTableRecord
100
AcDbTextStyleTableRecord
  2
ASAMI
 70
     0
 40
0.0
 41
1.0
 50
0.0
 71
     0
 42
2.5
  3
simplex.shx
  4
EXTFONT.SHX
  0
STYLE
  5
262
330
3
100
AcDbSymbolTableRecord
100
AcDbTextStyleTableRecord
  2
ACJISTS
 70
     0
 40
1.0
 41
1.0
 50
0.0
 71
     0
 42
2.5
  3
simplex.shx
  4
bigfont.shx
  0
STYLE
  5
269
330
3
100
AcDbSymbolTableRecord
100
AcDbTextStyleTableRecord
  2
ACJISGDT
 70
     0
 40
0.0
 41
1.0
 50
0.0
 71
     0
 42
2.5
  3
amgdtans.shx
  4

  0
ENDTAB
  0
TABLE
  2
VIEW
  5
6
330
0
100
AcDbSymbolTable
 70
     0
  0
ENDTAB
  0
TABLE
  2
UCS
  5
7
330
0
100
AcDbSymbolTable
 70
     0
  0
ENDTAB
  0
TABLE
  2
APPID
  5
9
330
0
100
AcDbSymbolTable
 70
    16
  0
APPID
  5
12
330
9
100
AcDbSymbolTableRecord
100
AcDbRegAppTableRecord
  2
ACAD
 70
     0
  0
APPID
  5
30
330
9
100
AcDbSymbolTableRecord
100
AcDbRegAppTableRecord
  2
MCAD_NO_VIS
 70
     0
  0
APPID
  5
31
330
9
100
AcDbSymbolTableRecord
100
AcDbRegAppTableRecord
  2
ACAD_TEMP_GRAPHIC
 70
     0
  0
APPID
  5
2C2
330
9
100
AcDbSymbolTableRecord
100
AcDbRegAppTableRecord
  2
GENIUS_GENDTOL_13
 70
     0
  0
APPID
  5
339
330
9
100
AcDbSymbolTableRecord
100
AcDbRegAppTableRecord
  2
GENIUS_GENODEF_13
 70
     0
  0
APPID
  5
33A
330
9
100
AcDbSymbolTableRecord
100
AcDbRegAppTableRecord
  2
GENIUS_GENOBJ-N-RSBK_13
 70
     0
  0
APPID
  5
33B
330
9
100
AcDbSymbolTableRecord
100
AcDbRegAppTableRecord
  2
GENIUS_GENOBJ-N-LIB_13
 70
     0
  0
APPID
  5
33C
330
9
100
AcDbSymbolTableRecord
100
AcDbRegAppTableRecord
  2
GENIUS_GENSCALE_13
 70
     0
  0
APPID
  5
378
330
9
100
AcDbSymbolTableRecord
100
AcDbRegAppTableRecord
  2
GENIUS_GENDIMSH_14
 70
     0
  0
APPID
  5
C82
330
9
100
AcDbSymbolTableRecord
100
AcDbRegAppTableRecord
  2
GENIUS_GENOBJ-N-CRS_13
 70
     0
  0
APPID
  5
C83
330
9
100
AcDbSymbolTableRecord
100
AcDbRegAppTableRecord
  2
GENIUS_GENOENT_13
 70
     0
  0
APPID
  5
C84
330
9
100
AcDbSymbolTableRecord
100
AcDbRegAppTableRecord
  2
GENIUS_GENOREF_13
 70
     0
  0
APPID
  5
C85
330
9
100
AcDbSymbolTableRecord
100
AcDbRegAppTableRecord
  2
GENIUS_GENOLIS_13
 70
     0
  0
APPID
  5
CA0
330
9
100
AcDbSymbolTableRecord
100
AcDbRegAppTableRecord
  2
GENIUS_GENOBJ-N-CEN_13
 70
     0
  0
APPID
  5
1CFA
330
9
100
AcDbSymbolTableRecord
100
AcDbRegAppTableRecord
  2
GENIUS_GENFIL_13
 70
     0
  0
APPID
  5
1CFB
330
9
100
AcDbSymbolTableRecord
100
AcDbRegAppTableRecord
  2
GENIUS_GENOBJ-N-CHA_13
 70
     0
  0
ENDTAB
  0
TABLE
  2
DIMSTYLE
  5
A
330
0
100
AcDbSymbolTable
 70
     9
  0
DIMSTYLE
105
58
330
A
100
AcDbSymbolTableRecord
100
AcDbDimStyleTableRecord
  2
AM_JIS
 70
     0
  3

  4
"
  5
OPEN30
  6

  7

 40
0.5
 41
2.5
 42
1.0
 43
12.0
 44
1.0
 45
0.0
 46
0.0
 47
0.1
 48
0.1
140
3.2
141
0.0
142
0.0
143
0.0393701
144
1.0
145
0.0
146
0.71
147
1.5
 71
     0
 72
     0
 73
     0
 74
     0
 75
     0
 76
     0
 77
     3
 78
     8
170
     0
171
     2
172
     1
173
     0
174
     0
175
     0
176
   256
177
   256
178
     2
270
     2
271
     3
272
     3
273
     2
274
     2
340
6B
275
     0
280
     0
281
     0
282
     0
283
     0
284
     0
285
     0
286
     0
287
     3
288
     0
  0
DIMSTYLE
105
5F
330
A
100
AcDbSymbolTableRecord
100
AcDbDimStyleTableRecord
  2
AM_JIS$3
 70
     0
  3

  4
"
  5
OPEN30
  6

  7

 40
0.5
 41
2.5
 42
1.0
 43
10.0
 44
1.0
 45
0.0
 46
0.0
 47
0.1
 48
0.1
140
3.2
141
0.0
142
0.0
143
0.0393701
144
1.0
145
0.0
146
0.71
147
1.5
 71
     0
 72
     0
 73
     0
 74
     1
 75
     0
 76
     0
 77
     3
 78
     8
170
     0
171
     2
172
     0
173
     0
174
     0
175
     0
176
   256
177
   256
178
     2
270
     2
271
     2
272
     3
273
     2
274
     2
340
6B
275
     0
280
     0
281
     0
282
     0
283
     0
284
     0
285
     0
286
     0
287
     0
288
     1
  0
DIMSTYLE
105
60
330
A
100
AcDbSymbolTableRecord
100
AcDbDimStyleTableRecord
  2
AM_JIS$4
 70
     0
  3

  4
"
  5
OPEN30
  6

  7

 40
0.5
 41
2.5
 42
1.0
 43
10.0
 44
1.0
 45
0.0
 46
0.0
 47
0.1
 48
0.1
140
3.2
141
0.0
142
0.0
143
0.0393701
144
1.0
145
0.0
146
0.71
147
1.5
 71
     0
 72
     0
 73
     0
 74
     1
 75
     0
 76
     0
 77
     3
 78
     8
170
     0
171
     2
172
     0
173
     0
174
     0
175
     0
176
   256
177
   256
178
     2
270
     2
271
     2
272
     3
273
     2
274
     2
340
6B
275
     0
280
     0
281
     0
282
     0
283
     0
284
     0
285
     0
286
     0
287
     0
288
     1
  0
DIMSTYLE
105
61
330
A
100
AcDbSymbolTableRecord
100
AcDbDimStyleTableRecord
  2
AM_JIS$6
 70
     0
  3

  4
"
  5
OPEN30
  6

  7

 40
0.5
 41
2.5
 42
1.0
 43
10.0
 44
1.0
 45
0.0
 46
0.0
 47
0.1
 48
0.1
140
3.2
141
0.0
142
0.0
143
0.0393701
144
1.0
145
0.0
146
0.71
147
1.5
 71
     0
 72
     0
 73
     0
 74
     0
 75
     0
 76
     0
 77
     0
 78
     8
170
     0
171
     2
172
     1
173
     0
174
     0
175
     0
176
   256
177
   256
178
     2
270
     2
271
     2
272
     2
273
     2
274
     2
340
6B
275
     0
280
     0
281
     0
282
     0
283
     0
284
     0
285
     0
286
     0
287
     3
288
     0
  0
DIMSTYLE
105
62
330
A
100
AcDbSymbolTableRecord
100
AcDbDimStyleTableRecord
  2
AM_JIS$7
 70
     0
  3

  4
"
  5
OPEN30
  6

  7

 40
0.5
 41
2.5
 42
1.0
 43
10.0
 44
1.0
 45
0.0
 46
0.0
 47
0.1
 48
0.1
140
3.2
141
0.0
142
0.0
143
0.0393701
144
1.0
145
0.0
146
0.71
147
1.5
 71
     0
 72
     0
 73
     0
 74
     0
 75
     0
 76
     0
 77
     3
 78
     8
170
     0
171
     2
172
     1
173
     0
174
     0
175
     0
176
   256
177
   256
178
     2
270
     2
271
     2
272
     3
273
     2
274
     2
340
6B
275
     0
280
     0
281
     0
282
     0
283
     0
284
     0
285
     0
286
     0
287
     3
288
     0
  0
DIMSTYLE
105
63
330
A
100
AcDbSymbolTableRecord
100
AcDbDimStyleTableRecord
  2
AM_JIS$SF
 70
     0
  3

  4
"
  5
OPEN30
  6

  7

 40
0.5
 41
2.5
 42
1.0
 43
10.0
 44
1.0
 45
0.0
 46
0.0
 47
0.1
 48
0.1
140
3.2
141
0.0
142
0.0
143
0.0393701
144
1.0
145
0.0
146
0.71
147
1.5
 71
     0
 72
     0
 73
     0
 74
     0
 75
     1
 76
     1
 77
     3
 78
     8
170
     0
171
     2
172
     1
173
     0
174
     0
175
     0
176
   256
177
   256
178
     2
270
     2
271
     2
272
     2
273
     2
274
     2
340
6B
275
     0
280
     0
281
     0
282
     0
283
     0
284
     0
285
     0
286
     0
287
     3
288
     0
  0
DIMSTYLE
105
68
330
A
100
AcDbSymbolTableRecord
100
AcDbDimStyleTableRecord
  2
AM_JIS$SH
 70
     0
  3

  4
"
  5

  6
GENAXEH
  7
OPEN30
 40
0.5
 41
2.5
 42
1.0
 43
10.0
 44
1.0
 45
0.0
 46
0.0
 47
0.1
 48
0.1
140
3.2
141
0.0
142
0.0
143
0.0393701
144
2.0
145
0.0
146
0.71
147
1.5
 71
     0
 72
     0
 73
     0
 74
     0
 75
     1
 76
     1
 77
     3
 78
     8
170
     0
171
     2
172
     1
173
     1
174
     0
175
     0
176
   256
177
   256
178
     2
270
     2
271
     2
272
     2
273
     2
274
     2
340
6B
275
     0
280
     0
281
     0
282
     0
283
     0
284
     0
285
     0
286
     0
287
     3
288
     0
  0
DIMSTYLE
105
B34
102
{ACAD_REACTORS
330
2D23
102
}
330
A
100
AcDbSymbolTableRecord
100
AcDbDimStyleTableRecord
  2
AM_JIS$2
 70
     0
  3

  4
"
  5
OPEN30
  6

  7

 40
0.5
 41
2.5
 42
1.0
 43
12.0
 44
1.0
 45
0.0
 46
0.0
 47
0.1
 48
0.1
140
3.2
141
0.0
142
0.0
143
0.0393701
144
1.0
145
0.0
146
0.71
147
1.5
 71
     0
 72
     0
 73
     0
 74
     0
 75
     0
 76
     0
 77
     3
 78
     8
170
     0
171
     2
172
     1
173
     0
174
     0
175
     0
176
   256
177
   256
178
     2
270
     2
271
     3
272
     3
273
     2
274
     2
340
6B
275
     0
280
     0
281
     0
282
     0
283
     0
284
     0
285
     0
286
     0
287
     3
288
     0
  0
DIMSTYLE
105
BA5
102
{ACAD_REACTORS
330
223E
330
2259
330
2643
330
2865
102
}
330
A
100
AcDbSymbolTableRecord
100
AcDbDimStyleTableRecord
  2
AM_JIS$0
 70
     0
  3

  4
"
  5
OPEN30
  6

  7

 40
0.5
 41
2.5
 42
0.0
 43
10.0
 44
1.0
 45
0.0
 46
0.0
 47
0.1
 48
0.1000000001
140
3.799999999999999
141
0.0
142
0.0
143
0.0393701
144
1.0
145
0.0
146
0.71
147
1.5
 71
     0
 72
     0
 73
     0
 74
     0
 75
     0
 76
     0
 77
     3
 78
     1
170
     0
171
     2
172
     1
173
     0
174
     0
175
     0
176
     3
177
     3
178
     2
270
     2
271
     2
272
     2
273
     2
274
     2
340
11
275
     1
280
     0
281
     0
282
     0
283
     0
284
     8
285
     0
286
     0
287
     0
288
     0
  0
ENDTAB
  0
TABLE
  2
BLOCK_RECORD
  5
1
330
0
100
AcDbSymbolTable
 70
    10
  0
BLOCK_RECORD
  5
1F
102
{ACAD_XDICTIONARY
360
74
102
}
330
1
100
AcDbSymbolTableRecord
100
AcDbBlockTableRecord
  2
*MODEL_SPACE
  0
BLOCK_RECORD
  5
101
102
{ACAD_XDICTIONARY
360
2EE7
102
}
330
1
100
AcDbSymbolTableRecord
100
AcDbBlockTableRecord
  2
*PAPER_SPACE
  0
BLOCK_RECORD
  5
59
330
1
100
AcDbSymbolTableRecord
100
AcDbBlockTableRecord
  2
_OPEN30
  0
BLOCK_RECORD
  5
64
330
1
100
AcDbSymbolTableRecord
100
AcDbBlockTableRecord
  2
GENAXEH
  0
BLOCK_RECORD
  5
223F
330
1
100
AcDbSymbolTableRecord
100
AcDbBlockTableRecord
  2
*D5
  0
BLOCK_RECORD
  5
225A
330
1
100
AcDbSymbolTableRecord
100
AcDbBlockTableRecord
  2
*D6
  0
BLOCK_RECORD
  5
2644
330
1
100
AcDbSymbolTableRecord
100
AcDbBlockTableRecord
  2
*D7
  0
BLOCK_RECORD
  5
2866
330
1
100
AcDbSymbolTableRecord
100
AcDbBlockTableRecord
  2
*D8
  0
BLOCK_RECORD
  5
2D24
330
1
100
AcDbSymbolTableRecord
100
AcDbBlockTableRecord
  2
*D9
  0
ENDTAB
  0
ENDSEC
  0
SECTION
  2
BLOCKS
  0
BLOCK
  5
20
330
1F
100
AcDbEntity
  8
0
100
AcDbBlockBegin
  2
*MODEL_SPACE
 70
     0
 10
0.0
 20
0.0
 30
0.0
  3
*MODEL_SPACE
  1

  0
ENDBLK
  5
21
330
1F
100
AcDbEntity
  8
0
100
AcDbBlockEnd
  0
BLOCK
  5
103
330
101
100
AcDbEntity
 67
     1
  8
0
100
AcDbBlockBegin
  2
*PAPER_SPACE
 70
     0
 10
0.0
 20
0.0
 30
0.0
  3
*PAPER_SPACE
  1

  0
ENDBLK
  5
104
330
101
100
AcDbEntity
 67
     1
  8
0
100
AcDbBlockEnd
  0
BLOCK
  5
5D
330
59
100
AcDbEntity
  8
0
100
AcDbBlockBegin
  2
_OPEN30
 70
     0
 10
0.0
 20
0.0
 30
0.0
  3
_OPEN30
  1

  0
LINE
  5
5A
330
59
100
AcDbEntity
  8
0
 62
     0
100
AcDbLine
 10
-1.0
 20
0.26794919
 30
0.0
 11
0.0
 21
0.0
 31
0.0
  0
LINE
  5
5B
330
59
100
AcDbEntity
  8
0
 62
     0
100
AcDbLine
 10
0.0
 20
0.0
 30
0.0
 11
-1.0
 21
-0.26794919
 31
0.0
  0
LINE
  5
5C
330
59
100
AcDbEntity
  8
0
 62
     0
100
AcDbLine
 10
0.0
 20
0.0
 30
0.0
 11
-1.0
 21
0.0
 31
0.0
  0
ENDBLK
  5
5E
330
59
100
AcDbEntity
  8
0
100
AcDbBlockEnd
  0
BLOCK
  5
66
330
64
100
AcDbEntity
  8
0
100
AcDbBlockBegin
  2
GENAXEH
 70
     0
 10
0.0
 20
0.0
 30
0.0
  3
GENAXEH
  1

  0
LINE
  5
65
330
64
100
AcDbEntity
  8
0
100
AcDbLine
 10
-1.0
 20
0.0
 30
0.0
 11
1.0
 21
0.0
 31
0.0
  0
ENDBLK
  5
67
330
64
100
AcDbEntity
  8
0
100
AcDbBlockEnd
  0
BLOCK
  5
2249
330
223F
100
AcDbEntity
  8
0
100
AcDbBlockBegin
  2
*D5
 70
     1
 10
0.0
 20
0.0
 30
0.0
  3
*D5
  1

  0
LINE
  5
2E6C
330
223F
100
AcDbEntity
  8
AM_5
 62
     3
100
AcDbLine
 10
-39.00000000000007
 20
-1.999999999999952
 30
0.0
 11
-39.00000000000007
 21
-9.500000999999928
 31
0.0
  0
LINE
  5
2E6D
330
223F
100
AcDbEntity
  8
AM_5
 62
     3
100
AcDbLine
 10
-1.000001154748131
 20
-1.849995156618071
 30
0.0
 11
-1.000001154748131
 21
-9.500000999999928
 31
0.0
  0
LINE
  5
2E6E
330
223F
100
AcDbEntity
  8
AM_5
 62
     3
100
AcDbLine
 10
-37.75000000000007
 20
-9.000000999999928
 30
0.0
 11
-2.250001154748131
 21
-9.000000999999928
 31
0.0
  0
INSERT
  5
2E6F
330
223F
100
AcDbEntity
  8
AM_5
 62
     3
100
AcDbBlockReference
  2
_OPEN30
 10
-39.00000000000007
 20
-9.000000999999928
 30
0.0
 41
1.25
 42
1.25
 43
1.25
 50
180.0
  0
INSERT
  5
2E70
330
223F
100
AcDbEntity
  8
AM_5
 62
     3
100
AcDbBlockReference
  2
_OPEN30
 10
-1.000001154748131
 20
-9.000000999999928
 30
0.0
 41
1.25
 42
1.25
 43
1.25
  0
MTEXT
  5
2E71
330
223F
100
AcDbEntity
  8
AM_5
 62
     2
100
AcDbMText
 10
-20.0000005773741
 20
-7.300000999999928
 30
0.0
 40
1.9
 41
0.0
 71
     5
 72
     1
  1
38
1001
ACAD
1000
MTEXTBEGIN
1070
    73
1070
     1
1070
    44
1040
1.0
1070
    74
1070
     0
1000
MTEXTEND
  0
POINT
  5
2E72
330
223F
100
AcDbEntity
  8
DEFPOINTS
 62
     0
100
AcDbPoint
 10
-39.00000000000007
 20
-1.999999999999952
 30
0.0
  0
POINT
  5
2E73
330
223F
100
AcDbEntity
  8
DEFPOINTS
 62
     0
100
AcDbPoint
 10
-1.000001154748131
 20
-1.849995156618071
 30
0.0
  0
POINT
  5
2E74
330
223F
100
AcDbEntity
  8
DEFPOINTS
 62
     0
100
AcDbPoint
 10
-1.000001154748131
 20
-9.000000999999928
 30
0.0
  0
ENDBLK
  5
224A
330
223F
100
AcDbEntity
  8
0
100
AcDbBlockEnd
  0
BLOCK
  5
2264
330
225A
100
AcDbEntity
  8
0
100
AcDbBlockBegin
  2
*D6
 70
     1
 10
0.0
 20
0.0
 30
0.0
  3
*D6
  1

  0
LINE
  5
2E75
330
225A
100
AcDbEntity
  8
AM_5
 62
     3
100
AcDbLine
 10
-87.00000000000008
 20
-1.749999999999906
 30
0.0
 11
-87.00000000000008
 21
-14.50000099999995
 31
0.0
  0
LINE
  5
2E76
330
225A
100
AcDbEntity
  8
AM_5
 62
     3
100
AcDbLine
 10
-1.000001154748131
 20
-1.849995156618071
 30
0.0
 11
-1.000001154748131
 21
-14.50000099999995
 31
0.0
  0
LINE
  5
2E77
330
225A
100
AcDbEntity
  8
AM_5
 62
     3
100
AcDbLine
 10
-85.75000000000008
 20
-14.00000099999995
 30
0.0
 11
-2.250001154748131
 21
-14.00000099999995
 31
0.0
  0
INSERT
  5
2E78
330
225A
100
AcDbEntity
  8
AM_5
 62
     3
100
AcDbBlockReference
  2
_OPEN30
 10
-87.00000000000008
 20
-14.00000099999995
 30
0.0
 41
1.25
 42
1.25
 43
1.25
 50
180.0
  0
INSERT
  5
2E79
330
225A
100
AcDbEntity
  8
AM_5
 62
     3
100
AcDbBlockReference
  2
_OPEN30
 10
-1.000001154748131
 20
-14.00000099999995
 30
0.0
 41
1.25
 42
1.25
 43
1.25
  0
MTEXT
  5
2E7A
330
225A
100
AcDbEntity
  8
AM_5
 62
     2
100
AcDbMText
 10
-44.0000005773741
 20
-12.30000099999995
 30
0.0
 40
1.9
 41
0.0
 71
     5
 72
     1
  1
86
1001
ACAD
1000
MTEXTBEGIN
1070
    73
1070
     1
1070
    44
1040
1.0
1070
    74
1070
     0
1000
MTEXTEND
  0
POINT
  5
2E7B
330
225A
100
AcDbEntity
  8
DEFPOINTS
 62
     0
100
AcDbPoint
 10
-87.00000000000008
 20
-1.749999999999906
 30
0.0
  0
POINT
  5
2E7C
330
225A
100
AcDbEntity
  8
DEFPOINTS
 62
     0
100
AcDbPoint
 10
-1.000001154748131
 20
-1.849995156618071
 30
0.0
  0
POINT
  5
2E7D
330
225A
100
AcDbEntity
  8
DEFPOINTS
 62
     0
100
AcDbPoint
 10
-1.000001154748131
 20
-14.00000099999995
 30
0.0
  0
ENDBLK
  5
2265
330
225A
100
AcDbEntity
  8
0
100
AcDbBlockEnd
  0
BLOCK
  5
2650
330
2644
100
AcDbEntity
  8
0
100
AcDbBlockBegin
  2
*D7
 70
     1
 10
0.0
 20
0.0
 30
0.0
  3
*D7
  1

  0
LINE
  5
2CFA
330
2644
100
AcDbEntity
  8
AM_5
 62
     3
100
AcDbLine
 10
-86.74285714285721
 20
-2.000000000000019
 30
0.0
 11
-97.52857242857151
 21
-2.00000000000003
 31
0.0
  0
LINE
  5
2CFB
330
2644
100
AcDbEntity
  8
AM_5
 62
     3
100
AcDbLine
 10
-86.74285714285721
 20
1.999999999999981
 30
0.0
 11
-97.52857242857151
 21
1.99999999999997
 31
0.0
  0
LINE
  5
2CFC
330
2644
100
AcDbEntity
  8
AM_5
 62
     3
100
AcDbLine
 10
-97.02857242857151
 20
-0.7500000000000298
 30
0.0
 11
-97.02857242857151
 21
0.7499999999999709
 31
0.0
  0
INSERT
  5
2CFD
330
2644
100
AcDbEntity
  8
AM_5
 62
     3
100
AcDbBlockReference
  2
_OPEN30
 10
-97.02857242857151
 20
-2.000000000000029
 30
0.0
 41
1.25
 42
1.25
 43
1.25
 50
270.0
  0
INSERT
  5
2CFE
330
2644
100
AcDbEntity
  8
AM_5
 62
     3
100
AcDbBlockReference
  2
_OPEN30
 10
-97.02857242857151
 20
1.99999999999997
 30
0.0
 41
1.25
 42
1.25
 43
1.25
 50
90.00000000000005
  0
MTEXT
  5
2CFF
330
2644
100
AcDbEntity
  8
AM_5
 62
     2
100
AcDbMText
 10
-98.72857242857151
 20
-0.0000000000000274
 30
0.0
 40
1.9
 41
0.0
 71
     5
 72
     1
  1
%%c4
 11
-0.0000000000000011
 21
1.0
 31
0.0
1001
ACAD
1000
MTEXTBEGIN
1070
    73
1070
     1
1070
    44
1040
1.0
1070
    74
1070
     0
1000
MTEXTEND
  0
POINT
  5
2D00
330
2644
100
AcDbEntity
  8
DEFPOINTS
 62
     0
100
AcDbPoint
 10
-86.74285714285721
 20
-1.999999999999903
 30
0.0
  0
POINT
  5
2D01
330
2644
100
AcDbEntity
  8
DEFPOINTS
 62
     0
100
AcDbPoint
 10
-86.74285714285721
 20
2.000000000000097
 30
0.0
  0
POINT
  5
2D02
330
2644
100
AcDbEntity
  8
DEFPOINTS
 62
     0
100
AcDbPoint
 10
-97.02857242857151
 20
2.0000000000001
 30
0.0
  0
ENDBLK
  5
2651
330
2644
100
AcDbEntity
  8
0
100
AcDbBlockEnd
  0
BLOCK
  5
2872
330
2866
100
AcDbEntity
  8
0
100
AcDbBlockBegin
  2
*D8
 70
     1
 10
0.0
 20
0.0
 30
0.0
  3
*D8
  1

  0
LINE
  5
2E7E
330
2866
100
AcDbEntity
  8
AM_5
 62
     3
100
AcDbLine
 10
-0.9999956839425394
 20
-1.849998660016465
 30
0.0
 11
8.314050297623914
 21
-1.849998660016467
 31
0.0
  0
LINE
  5
2E7F
330
2866
100
AcDbEntity
  8
AM_5
 62
     3
100
AcDbLine
 10
-0.9999956839425127
 20
1.85000016378529
 30
0.0
 11
8.314050297623914
 21
1.850000163785288
 31
0.0
  0
LINE
  5
2E80
330
2866
100
AcDbEntity
  8
AM_5
 62
     3
100
AcDbLine
 10
7.814050297623913
 20
-3.099998660016467
 30
0.0
 11
7.814050297623913
 21
-4.349998660016467
 31
0.0
  0
LINE
  5
2E81
330
2866
100
AcDbEntity
  8
AM_5
 62
     3
100
AcDbLine
 10
7.814050297623915
 20
3.100000163785288
 30
0.0
 11
7.814050297623917
 21
11.55000016378528
 31
0.0
  0
LINE
  5
2E82
330
2866
100
AcDbEntity
  8
AM_5
 62
     3
100
AcDbLine
 10
7.814050297623914
 20
-1.849998660016467
 30
0.0
 11
7.814050297623914
 21
1.850000163785288
 31
0.0
  0
INSERT
  5
2E83
330
2866
100
AcDbEntity
  8
AM_5
 62
     3
100
AcDbBlockReference
  2
_OPEN30
 10
7.814050297623914
 20
-1.849998660016467
 30
0.0
 41
1.25
 42
1.25
 43
1.25
 50
90.0
  0
INSERT
  5
2E84
330
2866
100
AcDbEntity
  8
AM_5
 62
     3
100
AcDbBlockReference
  2
_OPEN30
 10
7.814050297623914
 20
1.850000163785288
 30
0.0
 41
1.25
 42
1.25
 43
1.25
 50
270.0
  0
MTEXT
  5
2E85
330
2866
100
AcDbEntity
  8
AM_5
 62
     2
100
AcDbMText
 10
6.114050297623915
 20
7.95000016378529
 30
0.0
 40
1.9
 41
0.0
 71
     5
 72
     1
  1
%%c3.7
 11
0.0000000000000001
 21
1.0
 31
0.0
1001
ACAD
1000
MTEXTBEGIN
1070
    73
1070
     1
1070
    44
1040
1.0
1070
    74
1070
     0
1000
MTEXTEND
  0
POINT
  5
2E86
330
2866
100
AcDbEntity
  8
DEFPOINTS
 62
     0
100
AcDbPoint
 10
-0.9999956839425394
 20
-1.849998660016465
 30
0.0
  0
POINT
  5
2E87
330
2866
100
AcDbEntity
  8
DEFPOINTS
 62
     0
100
AcDbPoint
 10
-0.9999956839425127
 20
1.85000016378529
 30
0.0
  0
POINT
  5
2E88
330
2866
100
AcDbEntity
  8
DEFPOINTS
 62
     0
100
AcDbPoint
 10
7.814050297623914
 20
1.850000163785288
 30
0.0
  0
ENDBLK
  5
2873
330
2866
100
AcDbEntity
  8
0
100
AcDbBlockEnd
  0
BLOCK
  5
2D34
330
2D24
100
AcDbEntity
  8
0
100
AcDbBlockBegin
  2
*D9
 70
     1
 10
0.0
 20
0.0
 30
0.0
  3
*D9
  1

  0
LINE
  5
2DEB
330
2D24
100
AcDbEntity
  8
AM_5
100
AcDbLine
 10
0.171010071662802
 20
-0.4698463103929706
 30
0.0
 11
5.209372908508083
 21
-14.31263443564465
 31
0.0
  0
LINE
  5
2DEC
330
2D24
100
AcDbEntity
  8
AM_5
100
AcDbLine
 10
0.1710100716627831
 20
0.4698463103929443
 30
0.0
 11
5.209372908507511
 21
14.31263443564482
 31
0.0
  0
ARC
  5
2DED
330
2D24
100
AcDbEntity
  8
AM_5
100
AcDbCircle
 10
-0.0000000000000331
 20
-0.0000000000000165
 30
0.0
 40
14.73118743198635
100
AcDbArc
 50
294.8632351368341
 51
65.13676486316814
  0
INSERT
  5
2DEE
330
2D24
100
AcDbEntity
  8
AM_5
100
AcDbBlockReference
  2
_OPEN30
 10
5.038362836845248
 20
-13.84278812525169
 30
0.0
 41
1.25
 42
1.25
 43
1.25
 50
202.4316175684171
  0
INSERT
  5
2DEF
330
2D24
100
AcDbEntity
  8
AM_5
100
AcDbBlockReference
  2
_OPEN30
 10
5.038362836844695
 20
13.84278812525186
 30
0.0
 41
1.25
 42
1.25
 43
1.25
 50
157.5683824315851
  0
MTEXT
  5
2DF0
330
2D24
100
AcDbEntity
  8
AM_5
 62
     2
100
AcDbMText
 10
13.18118743198631
 20
0.0000000000002828
 30
0.0
 40
1.6
 41
0.0
 71
     5
 72
     1
  1
140°
  7
ASAMI
 11
-0.0000000000000011
 21
1.0
 31
0.0
1001
ACAD
1000
MTEXTBEGIN
1070
    73
1070
     1
1070
    44
1040
1.0
1070
    74
1070
     0
1000
MTEXTEND
  0
POINT
  5
2DF1
330
2D24
100
AcDbEntity
  8
DEFPOINTS
 62
     0
100
AcDbPoint
 10
13.52641357352216
 20
-5.834725271539972
 30
0.0
  0
POINT
  5
2DF2
330
2D24
100
AcDbEntity
  8
DEFPOINTS
 62
     0
100
AcDbPoint
 10
-0.226830143832053
 20
-0.6232106982302086
 30
0.0
  0
POINT
  5
2DF3
330
2D24
100
AcDbEntity
  8
DEFPOINTS
 62
     0
100
AcDbPoint
 10
-0.2268301438320769
 20
0.6232106982301671
 30
0.0
  0
POINT
  5
2DF4
330
2D24
100
AcDbEntity
  8
DEFPOINTS
 62
     0
100
AcDbPoint
 10
-0.000000000000039
 20
0.0
 30
0.0
  0
POINT
  5
2DF5
330
2D24
100
AcDbEntity
  8
DEFPOINTS
 62
     0
100
AcDbPoint
 10
-0.000000000000039
 20
-0.0000000000000329
 30
0.0
  0
ENDBLK
  5
2D35
330
2D24
100
AcDbEntity
  8
0
100
AcDbBlockEnd
  0
ENDSEC
  0
SECTION
  2
ENTITIES
  0
TEXT
  5
19BD
330
1F
100
AcDbEntity
  8
AM_6
100
AcDbText
 10
-54.83333333333338
 20
-25.25000099999998
 30
0.0
 40
2.5
  1
MDW037LHK
 50
0.0000000000001527
 72
     4
 11
-44.00000000000005
 21
-24.00000099999996
 31
0.0
100
AcDbText
  0
ELLIPSE
  5
21FC
330
1F
100
AcDbEntity
  8
AM_11
 48
0.5
100
AcDbEllipse
 10
-7.678421456473259
 20
8.833935240313939
 30
0.0
 11
-10.04632873535143
 21
0.0000000000000252
 31
0.0
210
0.0
220
0.0
230
1.0
 40
0.9722222222222221
 41
1.130070686340307
 42
2.011520147323599
  0
ELLIPSE
  5
21FD
330
1F
100
AcDbEntity
  8
AM_11
 48
0.5
100
AcDbEllipse
 10
-7.678421456473296
 20
-8.833929241294061
 30
0.0
 11
10.04632873535142
 21
0.0000000000000252
 31
0.0
210
0.0
220
0.0
230
1.0
 40
0.9722222222222228
 41
1.130071552591889
 42
2.011521013575197
  0
ELLIPSE
  5
2200
330
1F
100
AcDbEntity
  8
AM_11
 48
0.5
100
AcDbEllipse
 10
-16.24985002790186
 20
-8.833929241294043
 30
0.0
 11
-10.04632873535142
 21
0.0000000000000162
 31
0.0
210
0.0
220
0.0
230
1.0
 40
0.9722222222222219
 41
4.271664206181687
 42
5.153113667164993
  0
ELLIPSE
  5
2201
330
1F
100
AcDbEntity
  8
AM_11
 48
0.5
100
AcDbEllipse
 10
-16.24985002790182
 20
8.833935240313957
 30
0.0
 11
10.04632873535142
 21
0.0000000000000765
 31
0.0
210
0.0
220
0.0
230
1.0
 40
0.9722222222222224
 41
4.271663339930089
 42
5.153112800913382
  0
ELLIPSE
  5
2206
330
1F
100
AcDbEntity
  8
AM_11
 48
0.5
100
AcDbEllipse
 10
-33.39270717075656
 20
8.833935240313989
 30
0.0
 11
10.04632873535142
 21
0.0000000000000162
 31
0.0
210
0.0
220
0.0
230
1.0
 40
0.9722222222222224
 41
4.271663339930095
 42
5.153112800913389
  0
ELLIPSE
  5
2207
330
1F
100
AcDbEntity
  8
AM_11
 48
0.5
100
AcDbEllipse
 10
-33.3927071707566
 20
-8.833929241294011
 30
0.0
 11
-10.04632873535141
 21
0.0000000000000095
 31
0.0
210
0.0
220
0.0
230
1.0
 40
0.9722222222222235
 41
4.271664206181686
 42
5.153113667164993
  0
ELLIPSE
  5
220B
330
1F
100
AcDbEntity
  8
AM_11
 48
0.5
100
AcDbEllipse
 10
-24.821278599328
 20
8.833935240313973
 30
0.0
 11
-10.04632873535142
 21
0.0000000000000006
 31
0.0
210
0.0
220
0.0
230
1.0
 40
0.9722222222222224
 41
1.130070686340304
 42
2.011520147323597
  0
ELLIPSE
  5
220C
330
1F
100
AcDbEntity
  8
AM_11
 48
0.5
100
AcDbEllipse
 10
-24.82127859932803
 20
-8.833929241294027
 30
0.0
 11
-10.04632873535142
 21
0.0000000000000051
 31
0.0
210
0.0
220
0.0
230
1.0
 40
0.9722222222222228
 41
4.271664206181685
 42
5.153113667164992
  0
ELLIPSE
  5
220D
330
1F
100
AcDbEntity
  8
AM_11
 48
0.5
100
AcDbEllipse
 10
-41.96413450198384
 20
8.833943269455168
 30
0.0
 11
10.04632873535142
 21
0.0000000000000921
 31
0.0
210
0.0
220
0.0
230
1.0
 40
0.9722222222222228
 41
4.271663339930087
 42
5.153112800913381
  0
ELLIPSE
  5
220E
330
1F
100
AcDbEntity
  8
AM_11
 48
0.5
100
AcDbEllipse
 10
-41.96413450198387
 20
-8.83392121215283
 30
0.0
 11
10.0463287353514
 21
0.0000000000000385
 31
0.0
210
0.0
220
0.0
230
1.0
 40
0.9722222222222249
 41
1.130071552591887
 42
2.011521013575196
  0
ELLIPSE
  5
220F
330
1F
100
AcDbEntity
  8
AM_11
 48
0.5
100
AcDbEllipse
 10
-50.53554432390765
 20
-8.833921212152837
 30
0.0
 11
10.04632873535139
 21
0.000000000000101
 31
0.0
210
0.0
220
0.0
230
1.0
 40
0.9722222222222253
 41
1.130071552591881
 42
2.011521013575189
  0
ELLIPSE
  5
2210
330
1F
100
AcDbEntity
  8
AM_11
 48
0.5
100
AcDbEllipse
 10
-50.53554432390763
 20
8.833943269455165
 30
0.0
 11
-10.04632873535141
 21
0.0000000000002192
 31
0.0
210
0.0
220
0.0
230
1.0
 40
0.972222222222224
 41
1.130070686340326
 42
2.011520147323619
  0
LINE
  5
2215
330
1F
100
AcDbEntity
  8
AM_0
 48
0.5
100
AcDbLine
 10
-87.00000000000008
 20
-1.749999999999903
 30
0.0
 11
-87.00000000000006
 21
1.750000000000097
 31
0.0
  0
LINE
  5
2216
330
1F
100
AcDbEntity
  8
AM_0
100
AcDbLine
 10
-86.74285714285721
 20
2.000000000000093
 30
0.0
 11
-86.74285714285721
 21
-1.999999999999906
 31
0.0
  0
ELLIPSE
  5
2219
330
1F
100
AcDbEntity
  8
AM_11
 48
0.5
100
AcDbEllipse
 10
-59.10695414583134
 20
8.833943269455154
 30
0.0
 11
10.04632873535139
 21
0.0000000000000497
 31
0.0
210
0.0
220
0.0
230
1.0
 40
0.9722222222222256
 41
4.271663339930092
 42
5.153112800913387
  0
ELLIPSE
  5
221A
330
1F
100
AcDbEntity
  8
AM_11
 48
0.5
100
AcDbEllipse
 10
-59.10695414583138
 20
-8.833921212152844
 30
0.0
 11
10.0463287353514
 21
0.0000000000001902
 31
0.0
210
0.0
220
0.0
230
1.0
 40
0.9722222222222248
 41
1.130071552591873
 42
2.01152101357518
  0
LINE
  5
222A
330
1F
100
AcDbEntity
  8
AM_0
100
AcDbLine
 10
-86.75000000000006
 20
2.000000000000097
 30
0.0
 11
-39.00000000000005
 21
2.000000000000047
 31
0.0
1001
GENIUS_GENODEF_13
1002
{
1000
HIER
1070
     0
1002
}
1002
{
1000
MANEDIT
1070
     0
1002
}
1002
{
1000
NOSEL
1070
     0
1002
}
1002
{
1000
BEHIND
1070
     0
1002
}
1002
{
1000
REACTOR
1002
}
1001
GENIUS_GENOBJ-N-CEN_13
1002
{
1000
OWNER
1000
GEN
1002
}
  0
LINE
  5
222B
330
1F
100
AcDbEntity
  8
AM_0
100
AcDbLine
 10
-86.75000000000007
 20
-1.999999999999903
 30
0.0
 11
-39.00000000000007
 21
-1.999999999999952
 31
0.0
1001
GENIUS_GENODEF_13
1002
{
1000
HIER
1070
     0
1002
}
1002
{
1000
MANEDIT
1070
     0
1002
}
1002
{
1000
NOSEL
1070
     0
1002
}
1002
{
1000
BEHIND
1070
     0
1002
}
1002
{
1000
REACTOR
1002
}
1001
GENIUS_GENOBJ-N-CEN_13
1002
{
1000
OWNER
1000
GEN
1002
}
  0
DIMENSION
  5
223E
330
1F
100
AcDbEntity
  8
AM_5
100
AcDbDimension
  2
*D5
 10
-1.000001154748131
 20
-9.000000999999928
 30
0.0
 11
-20.0000005773741
 21
-7.300000999999928
 31
0.0
 70
    32
  1
<>
  3
AM_JIS$0
100
AcDbAlignedDimension
 13
-39.00000000000007
 23
-1.999999999999952
 33
0.0
 14
-1.000001154748131
 24
-1.849995156618071
 34
0.0
 50
0.0000000000000384
100
AcDbRotatedDimension
1001
GENIUS_GENDTOL_13
1000

1000
h7
1000

1040
0.0
1001
ACAD
1000
DSTYLE
1002
{
1070
   271
1070
     0
1002
}
  0
LINE
  5
224B
330
1F
100
AcDbEntity
  8
AM_7
100
AcDbLine
 10
-90.0285714285715
 20
0.0000000000000907
 30
0.0
 11
0.8140492976239148
 21
-0.0000000000000008
 31
0.0
1001
GENIUS_GENODEF_13
1002
{
1000
HIER
1070
     0
1002
}
1002
{
1000
MANEDIT
1070
     0
1002
}
1002
{
1000
NOSEL
1070
     0
1002
}
1002
{
1000
BEHIND
1070
     0
1002
}
1002
{
1000
REACTOR
1002
}
1001
GENIUS_GENOBJ-N-CEN_13
1002
{
1000
OWNER
1000
GEN
1002
}
  0
DIMENSION
  5
2259
330
1F
100
AcDbEntity
  8
AM_5
100
AcDbDimension
  2
*D6
 10
-1.000001154748131
 20
-14.00000099999995
 30
0.0
 11
-44.0000005773741
 21
-12.30000099999995
 31
0.0
 70
    32
  1
<>
  3
AM_JIS$0
100
AcDbAlignedDimension
 13
-87.00000000000008
 23
-1.749999999999906
 33
0.0
 14
-1.000001154748131
 24
-1.849995156618071
 34
0.0
100
AcDbRotatedDimension
1001
GENIUS_GENDTOL_13
1000

1000
h7
1000

1040
0.0
1001
ACAD
1000
DSTYLE
1002
{
1070
   271
1070
     0
1002
}
  0
LINE
  5
237B
330
1F
100
AcDbEntity
  8
AM_0
100
AcDbLine
 10
-87.00000000000006
 20
1.750000000000097
 30
0.0
 11
-86.75000000000006
 21
2.000000000000097
 31
0.0
1001
GENIUS_GENFIL_13
1070
     0
1040
0.25
1040
0.25
1040
20.0
1040
0.0
1002
{
1002
}
1001
GENIUS_GENODEF_13
1002
{
1000
HIER
1070
     0
1002
}
1002
{
1000
MANEDIT
1070
     0
1002
}
1002
{
1000
NOSEL
1070
     0
1002
}
1002
{
1000
BEHIND
1070
     0
1002
}
1002
{
1000
REACTOR
1002
}
1001
GENIUS_GENOBJ-N-CHA_13
1002
{
1000
OWNER
1000
GEN
1002
}
  0
LINE
  5
237E
330
1F
100
AcDbEntity
  8
AM_0
100
AcDbLine
 10
-87.00000000000008
 20
-1.749999999999903
 30
0.0
 11
-86.75000000000007
 21
-1.999999999999903
 31
0.0
1001
GENIUS_GENFIL_13
1070
     0
1040
0.25
1040
0.25
1040
20.0
1040
0.0
1002
{
1002
}
1001
GENIUS_GENODEF_13
1002
{
1000
HIER
1070
     0
1002
}
1002
{
1000
MANEDIT
1070
     0
1002
}
1002
{
1000
NOSEL
1070
     0
1002
}
1002
{
1000
BEHIND
1070
     0
1002
}
1002
{
1000
REACTOR
1002
}
1001
GENIUS_GENOBJ-N-CHA_13
1002
{
1000
OWNER
1000
GEN
1002
}
  0
LINE
  5
2382
330
1F
100
AcDbEntity
  8
AM_0
 48
0.5
100
AcDbLine
 10
-39.00000000000007
 20
-1.999999999999952
 30
0.0
 11
-39.00000000000005
 21
2.000000000000047
 31
0.0
  0
ELLIPSE
  5
2385
330
1F
100
AcDbEntity
  8
AM_11
 48
0.5
100
AcDbEllipse
 10
-84.82121075907718
 20
8.83393366105019
 30
0.0
 11
-10.0463287353514
 21
0.0000000000000988
 31
0.0
210
0.0
220
0.0
230
1.0
 40
0.9722222222222246
 41
1.352185037887401
 42
2.011520147323607
  0
ELLIPSE
  5
2386
330
1F
100
AcDbEntity
  8
AM_11
 48
0.5
100
AcDbEllipse
 10
-84.8212107590772
 20
-8.833930820557812
 30
0.0
 11
10.04632873535139
 21
0.0000000000000698
 31
0.0
210
0.0
220
0.0
230
1.0
 40
0.9722222222222249
 41
1.130071552591885
 42
1.78940761570239
  0
ELLIPSE
  5
2387
330
1F
100
AcDbEntity
  8
AM_11
 48
0.5
100
AcDbEllipse
 10
-67.67838147705863
 20
-8.833921212152851
 30
0.0
 11
10.04632873535141
 21
0.0000000000002571
 31
0.0
210
0.0
220
0.0
230
1.0
 40
0.9722222222222242
 41
1.130071552591866
 42
2.011521013575173
  0
ELLIPSE
  5
2388
330
1F
100
AcDbEntity
  8
AM_11
 48
0.5
100
AcDbEllipse
 10
-67.67838147705861
 20
8.833943269455151
 30
0.0
 11
10.0463287353514
 21
0.0000000000000252
 31
0.0
210
0.0
220
0.0
230
1.0
 40
0.9722222222222255
 41
4.271663339930094
 42
5.153112800913388
  0
LINE
  5
24FB
330
1F
100
AcDbEntity
  8
AM_0
100
AcDbLine
 10
-39.00000000000007
 20
-1.999999999999952
 30
0.0
 11
-38.74019209518008
 21
-1.849999836214555
 31
0.0
  0
LINE
  5
24FC
330
1F
100
AcDbEntity
  8
AM_0
100
AcDbLine
 10
-39.00000000000005
 20
2.000000000000047
 30
0.0
 11
-38.74022767013581
 21
1.850020375424918
 31
0.0
  0
ELLIPSE
  5
262B
330
1F
100
AcDbEntity
  8
AM_11
 48
0.5
100
AcDbEllipse
 10
-76.24980880828589
 20
-8.833921212152864
 30
0.0
 11
10.04632873535141
 21
0.0000000000002571
 31
0.0
210
0.0
220
0.0
230
1.0
 40
0.9722222222222242
 41
1.130071552591866
 42
2.011521013575173
  0
ELLIPSE
  5
262C
330
1F
100
AcDbEntity
  8
AM_11
 48
0.5
100
AcDbEllipse
 10
-76.24980880828586
 20
8.833943269455138
 30
0.0
 11
10.0463287353514
 21
0.0000000000000252
 31
0.0
210
0.0
220
0.0
230
1.0
 40
0.9722222222222255
 41
4.271663339930094
 42
5.153112800913388
  0
DIMENSION
  5
2643
330
1F
100
AcDbEntity
  8
AM_5
100
AcDbDimension
  2
*D7
 10
-97.02857242857151
 20
2.0000000000001
 30
0.0
 11
-97.02857242857151
 21
0.0000000000000842
 31
0.0
 70
   160
  1
%%c<>
 51
359.9999999999999
  3
AM_JIS$0
100
AcDbAlignedDimension
 13
-86.74285714285721
 23
-1.999999999999903
 33
0.0
 14
-86.74285714285721
 24
2.000000000000097
 34
0.0
 50
269.9999999999999
100
AcDbRotatedDimension
1001
ACAD
1000
DSTYLE
1002
{
1070
   271
1070
     0
1002
}
1001
GENIUS_GENDTOL_13
1000

1000
h7
1000

1040
0.0
  0
DIMENSION
  5
2865
330
1F
100
AcDbEntity
  8
AM_5
100
AcDbDimension
  2
*D8
 10
7.814050297623914
 20
1.850000163785288
 30
0.0
 11
7.814050297623915
 21
7.950000163785289
 31
0.0
 70
   160
  1
%%c<>
  3
AM_JIS$0
100
AcDbAlignedDimension
 13
-0.9999956839425394
 23
-1.849998660016465
 33
0.0
 14
-0.9999956839425127
 24
1.85000016378529
 34
0.0
 50
89.9999999999998
100
AcDbRotatedDimension
1001
ACAD
1000
DSTYLE
1002
{
1070
   271
1070
     1
1002
}
1001
GENIUS_GENDTOL_13
1000

1000
h7
1000

1040
0.0
  0
LINE
  5
28B3
330
1F
100
AcDbEntity
  8
AM_0
100
AcDbLine
 10
-38.74022767013581
 20
-1.850020375424821
 30
0.0
 11
-38.74022767013581
 21
1.850020375424917
 31
0.0
  0
ELLIPSE
  5
2A98
330
1F
100
AcDbEntity
  8
AM_0
 48
0.5
100
AcDbEllipse
 10
3.240315766108596
 20
-2.33363867902037
 30
0.0
 11
-4.097341418460304
 21
0.597636127200755
 31
0.0
210
0.0
220
0.0
230
-1.0
 40
0.626569248795472
 41
0.0862669406231196
 42
0.4774127955839865
  0
LINE
  5
2A9F
330
1F
100
AcDbEntity
  8
AM_0
 48
0.5
100
AcDbLine
 10
-0.8095254258127903
 20
-1.517029199196404
 30
0.0
 11
-0.9999956839425395
 21
-1.849998660016465
 31
0.0
  0
ELLIPSE
  5
2B19
330
1F
100
AcDbEntity
  8
AM_0
 48
0.5
100
AcDbEllipse
 10
3.240315766108601
 20
2.333638679020364
 30
0.0
 11
-4.097341418460305
 21
-0.5976361272007467
 31
0.0
210
0.0
220
0.0
230
1.0
 40
0.626569248795472
 41
0.0862669406231196
 42
0.4774127955839865
  0
LINE
  5
2B1A
330
1F
100
AcDbEntity
  8
AM_0
 48
0.5
100
AcDbLine
 10
-0.8095254258127871
 20
1.517029199196405
 30
0.0
 11
-0.9999956839425127
 21
1.85000016378529
 31
0.0
  0
LINE
  5
2D0A
330
1F
100
AcDbEntity
  8
AM_0
100
AcDbLine
 10
-0.2268301438320769
 20
0.6232106982301671
 30
0.0
 11
-0.000000000000039
 21
0.0
 31
0.0
  0
LINE
  5
2D11
330
1F
100
AcDbEntity
  8
AM_0
100
AcDbLine
 10
-0.226830143832053
 20
-0.6232106982302086
 30
0.0
 11
-0.000000000000039
 21
-0.0000000000000329
 31
0.0
  0
DIMENSION
  5
2D23
330
1F
100
AcDbEntity
  8
AM_5
100
AcDbDimension
  2
*D9
 10
-0.000000000000039
 20
-0.0000000000000329
 30
0.0
 11
13.18118743198631
 21
0.0000000000002658
 31
0.0
 70
    34
  1
<>
 51
359.9999999999999
  3
AM_JIS$2
100
AcDb2LineAngularDimension
 13
-0.2268301438320769
 23
0.6232106982301671
 33
0.0
 14
-0.000000000000039
 24
0.0
 34
0.0
 15
-0.226830143832053
 25
-0.6232106982302086
 35
0.0
 16
13.52641357352216
 26
-5.834725271539972
 36
0.0
1001
ACAD
1000
DSTYLE
1002
{
1070
   179
1070
     3
1002
}
1001
GENIUS_GENDTOL_13
1000

1000
h7
1000

1040
0.0
  0
LINE
  5
2E36
330
1F
100
AcDbEntity
  8
AM_0
 48
0.5
100
AcDbLine
 10
-2.29973308329693
 20
1.8500001637853
 30
0.0
 11
-0.9999956839425127
 21
1.85000016378529
 31
0.0
  0
LINE
  5
2E37
330
1F
100
AcDbEntity
  8
AM_0
 48
0.5
100
AcDbLine
 10
-0.000000000000032
 20
-0.0000000000000129
 30
0.0
 11
-1.171092413976825
 21
0.7103441028727011
 31
0.0
  0
LINE
  5
2E38
330
1F
100
AcDbEntity
  8
AM_0
 48
0.5
100
AcDbLine
 10
-2.299733083296958
 20
-1.8499998362147
 30
0.0
 11
-0.9999956839425395
 21
-1.849998660016465
 31
0.0
  0
ELLIPSE
  5
2E39
330
1F
100
AcDbEntity
  8
AM_11
 48
0.5
100
AcDbEllipse
 10
0.8930071149553274
 20
9.079322330322643
 30
0.0
 11
-10.04632873535177
 21
0.0000000001781202
 31
0.0
210
0.0
220
0.0
230
1.0
 40
0.9992283950616986
 41
1.130070686358036
 42
1.291800737398721
  0
ELLIPSE
  5
2E3A
330
1F
100
AcDbEntity
  8
AM_0
 48
0.5
100
AcDbEllipse
 10
-0.7261324363039061
 20
-0.4821363340881513
 30
0.0
 11
-0.3399996274060254
 21
0.139564467215324
 31
0.0
210
0.0
220
0.0
230
1.0
 40
0.4373836178406795
 41
4.380448814291712
 42
7.523889155621219
  0
ELLIPSE
  5
2E3B
330
1F
100
AcDbEntity
  8
AM_0
 48
0.5
100
AcDbEllipse
 10
-0.7261324363039061
 20
-0.4821363340881513
 30
0.0
 11
-0.0801146575892703
 21
0.300891677134085
 31
0.0
210
0.0
220
0.0
230
0.9999999999999998
 40
0.6093618147393502
 41
1.732951128176362
 42
4.868293017888338
  0
ELLIPSE
  5
2E3C
330
1F
100
AcDbEntity
  8
AM_0
 48
0.5
100
AcDbEllipse
 10
-4.02135627781722
 20
3.104970974617493
 30
0.0
 11
-4.492306457472451
 21
2.284845216144645
 31
0.0
210
0.0
220
0.0
230
1.0
 40
0.7928035540793827
 41
2.474030794805667
 42
2.655626280827306
  0
ELLIPSE
  5
2E3D
330
1F
100
AcDbEntity
  8
AM_0
 48
0.5
100
AcDbEllipse
 10
1.063635151729096
 20
2.221035611884903
 30
0.0
 11
3.532327894125942
 21
2.356161455497184
 31
0.0
210
0.0
220
0.0
230
0.9999999999999998
 40
0.7177439285547234
 41
2.969120864054402
 42
3.512751002693588
  0
SPLINE
  5
2E3E
330
1F
100
AcDbEntity
  8
AM_0
 48
0.5
100
AcDbSpline
210
0.0
220
0.0
230
1.0
 70
     8
 71
     3
 72
    10
 73
     6
 74
     0
 42
0.0000000001
 43
0.0000000001
 40
0.0
 40
0.0
 40
0.0
 40
0.0
 40
2.69986029516136
 40
4.147722969032201
 40
6.285750005020438
 40
6.285750005020438
 40
6.285750005020438
 40
6.285750005020438
 10
-2.706477631449505
 20
0.3348404356771661
 30
0.0
 10
-2.294922289830704
 20
0.1629626516009865
 30
0.0
 10
-1.871200012618035
 20
-0.1010885788114786
 30
0.0
 10
-0.8691537466480321
 20
0.0267432476185028
 30
0.0
 10
-1.057868204842817
 20
0.4572977537029903
 30
0.0
 10
-1.182558661357087
 20
0.7197339858833532
 30
0.0
  0
ELLIPSE
  5
2E3F
330
1F
100
AcDbEntity
  8
AM_0
 48
0.5
100
AcDbEllipse
 10
1.95121338290939
 20
-0.2420186663332784
 30
0.0
 11
-3.709310101123195
 21
0.5145783910291316
 31
0.0
210
0.0
220
0.0
230
0.9999999999999998
 40
0.770754631630981
 41
0.4045328912602486
 42
0.7646871411378307
  0
ELLIPSE
  5
2E40
330
1F
100
AcDbEntity
  8
AM_0
 48
0.5
100
AcDbEllipse
 10
-4.16362866640173
 20
3.518903908958812
 30
0.0
 11
6.038613190001203
 21
0.000132718448443
 31
0.0
210
0.0
220
0.0
230
1.0
 40
0.8045716753638703
 41
-0.9323920830463526
 42
-0.810014405778039
  0
LINE
  5
2E41
330
1F
100
AcDbEntity
  8
AM_0
100
AcDbLine
 10
-38.74022767013581
 20
1.850020375424918
 30
0.0
 11
-35.70663694904469
 21
1.850262989859481
 31
0.0
1001
GENIUS_GENODEF_13
1002
{
1000
HIER
1070
     0
1002
}
1002
{
1000
MANEDIT
1070
     0
1002
}
1002
{
1000
NOSEL
1070
     0
1002
}
1002
{
1000
BEHIND
1070
     0
1002
}
1002
{
1000
REACTOR
1002
}
1001
GENIUS_GENOBJ-N-CEN_13
1002
{
1000
OWNER
1000
GEN
1002
}
  0
LINE
  5
2E42
330
1F
100
AcDbEntity
  8
AM_0
 48
0.5
100
AcDbLine
 10
-32.21523985160187
 20
0.8985411721442993
 30
0.0
 11
-37.00000115474813
 21
-0.1496181439640101
 31
0.0
  0
LINE
  5
2E43
330
1F
100
AcDbEntity
  8
AM_0
 48
0.5
100
AcDbLine
 10
-15.87668545896012
 20
-1.849999836214656
 30
0.0
 11
-9.483897076042348
 21
-1.849999836214656
 31
0.0
  0
LINE
  5
2E44
330
1F
100
AcDbEntity
  8
AM_0
 48
0.5
100
AcDbLine
 10
-31.1219879835614
 20
-1.849999836214538
 30
0.0
 11
-23.06084945285862
 21
-1.84999983621457
 31
0.0
  0
LINE
  5
2E45
330
1F
100
AcDbEntity
  8
AM_0
100
AcDbLine
 10
-38.74019209518008
 20
-1.849999836214555
 30
0.0
 11
-36.24571855461697
 21
-1.84999983621451
 31
0.0
1001
GENIUS_GENODEF_13
1002
{
1000
HIER
1070
     0
1002
}
1002
{
1000
MANEDIT
1070
     0
1002
}
1002
{
1000
NOSEL
1070
     0
1002
}
1002
{
1000
BEHIND
1070
     0
1002
}
1002
{
1000
REACTOR
1002
}
1001
GENIUS_GENOBJ-N-CEN_13
1002
{
1000
OWNER
1000
GEN
1002
}
  0
LINE
  5
2E46
330
1F
100
AcDbEntity
  8
AM_11
 48
0.5
100
AcDbLine
 10
-36.24571855461697
 20
-1.84999983621451
 30
0.0
 11
-31.12198510617637
 21
-1.849999836214563
 31
0.0
  0
LINE
  5
2E47
330
1F
100
AcDbEntity
  8
AM_11
 48
0.5
100
AcDbLine
 10
-23.06084945170459
 20
-1.849999836214612
 30
0.0
 11
-15.87668545896012
 21
-1.850262662288669
 31
0.0
  0
LINE
  5
2E48
330
1F
100
AcDbEntity
  8
AM_11
 48
0.5
100
AcDbLine
 10
-9.483897076042348
 20
-1.849999836214656
 30
0.0
 11
-2.299733083296958
 21
-1.8499998362147
 31
0.0
  0
ELLIPSE
  5
2E49
330
1F
100
AcDbEntity
  8
AM_0
 48
0.5
100
AcDbEllipse
 10
-36.43442786024478
 20
-1.252121761568516
 30
0.0
 11
-0.5657142857142788
 21
0.0000000000000356
 31
0.0
210
0.0
220
0.0
230
1.0
 40
0.8175505050505234
 41
4.317028824483134
 42
6.283185307179655
  0
ELLIPSE
  5
2E4A
330
1F
100
AcDbEntity
  8
AM_0
 48
0.5
100
AcDbEllipse
 10
-36.24571831783423
 20
-1.233333169547874
 30
0.0
 11
-0.7542857142857145
 21
0.0000000000000144
 31
0.0
210
0.0
220
0.0
230
1.0
 40
0.8175505050505048
 41
0.0000000000000147
 42
1.570796012878411
  0
SPLINE
  5
2E4B
330
1F
100
AcDbEntity
  8
AM_0
 48
0.5
100
AcDbSpline
210
0.0
220
0.0
230
1.0
 70
     8
 71
     3
 72
    26
 73
    22
 74
     0
 42
0.0000000001
 43
0.0000000001
 40
0.0
 40
0.0
 40
0.0
 40
0.0
 40
0.4211432018735474
 40
0.8428473235286537
 40
1.265657898956934
 40
1.690088643751428
 40
2.116607084860617
 40
2.545625100287603
 40
2.977483884449724
 40
3.412450195918404
 40
3.850709593302191
 40
4.292362208965671
 40
4.737427885281768
 40
5.185826256336565
 40
5.637431371058531
 40
6.092003378174421
 40
6.549257520372505
 40
7.008843368271169
 40
7.470358728297647
 40
7.933358849736796
 40
8.383035712276667
 40
8.383035712276667
 40
8.383035712276667
 40
8.383035712276667
 10
-29.77027685926832
 20
-1.849999836214571
 30
0.0
 10
-29.89734881209199
 20
-1.848899131081525
 30
0.0
 10
-30.15166196461711
 20
-1.846696254788485
 30
0.0
 10
-30.53303914372521
 20
-1.828938597332496
 30
0.0
 10
-30.91440004438657
 20
-1.800708564693987
 30
0.0
 10
-31.29573733837788
 20
-1.761143086079434
 30
0.0
 10
-31.67704724042396
 20
-1.710778411786891
 30
0.0
 10
-32.0583221533524
 20
-1.649838271040347
 30
0.0
 10
-32.43956182351795
 20
-1.578734399075627
 30
0.0
 10
-32.82076365087446
 20
-1.497898645000258
 30
0.0
 10
-33.20192673422393
 20
-1.407832581162144
 30
0.0
 10
-33.58305421055274
 20
-1.309096786234004
 30
0.0
 10
-33.96414450059314
 20
-1.202300921923629
 30
0.0
 10
-34.34520192220537
 20
-1.088100100545246
 30
0.0
 10
-34.72623157038988
 20
-0.9672098912872403
 30
0.0
 10
-35.10723426840847
 20
-0.8403636453127797
 30
0.0
 10
-35.48821285643613
 20
-0.7083494293125007
 30
0.0
 10
-35.86917433069633
 20
-0.5719817424970715
 30
0.0
 10
-36.25011239537782
 20
-0.4320818471918365
 30
0.0
 10
-36.62713739850119
 20
-0.2910485241135525
 30
0.0
 10
-36.8769306482264
 20
-0.1963013483789594
 30
0.0
 10
-37.00000403211995
 20
-0.1496193201622548
 30
0.0
  0
SPLINE
  5
2E4C
330
1F
100
AcDbEntity
  8
AM_0
 48
0.5
100
AcDbSpline
210
0.0
220
0.0
230
1.0
 70
     8
 71
     3
 72
    22
 73
    18
 74
     0
 42
0.0000000001
 43
0.0000000001
 40
0.0
 40
0.0
 40
0.0
 40
0.0
 40
1.010743684496582
 40
2.022833993863546
 40
3.037578683882831
 40
4.056212471389632
 40
5.079857945358201
 40
6.109499720892564
 40
7.145961650132166
 40
8.189873411961459
 40
9.241710626092514
 40
10.30166235592959
 40
11.36982472628033
 40
12.44598212828784
 40
13.52983440361964
 40
14.62080578343036
 40
14.90544694398022
 40
14.90544694398022
 40
14.90544694398022
 40
14.90544694398022
 10
-30.83787381797376
 20
-1.849999836214564
 30
0.0
 10
-30.96494579506343
 20
-1.848899459871459
 30
0.0
 10
-31.21925904862825
 20
-1.846697241141817
 30
0.0
 10
-31.60063582835459
 20
-1.828934637807426
 30
0.0
 10
-31.98199714081158
 20
-1.800709355043678
 30
0.0
 10
-32.36333464087055
 20
-1.761143850300861
 30
0.0
 10
-32.74464349195629
 20
-1.710774438296898
 30
0.0
 10
-33.12591971614077
 20
-1.649839566555788
 30
0.0
 10
-33.50715772637407
 20
-1.57873311074945
 30
0.0
 10
-33.88836014418176
 20
-1.497896186338089
 30
0.0
 10
-34.26952353627505
 20
-1.407833525563625
 30
0.0
 10
-34.65064989457637
 20
-1.309093259924501
 30
0.0
 10
-35.03174167595038
 20
-1.202303718875579
 30
0.0
 10
-35.41279859415244
 20
-1.088099761717649
 30
0.0
 10
-35.79382778783498
 20
-0.9672089193640365
 30
0.0
 10
-36.08019785489438
 20
-0.8718734102628404
 30
0.0
 10
-36.23977324953596
 20
-0.8173826977380992
 30
0.0
 10
-36.27276813486201
 20
-0.8060600126996602
 30
0.0
  0
SPLINE
  5
2E4D
330
1F
100
AcDbEntity
  8
AM_0
100
AcDbSpline
210
0.0
220
0.0
230
1.0
 70
     8
 71
     3
 72
    13
 73
     9
 74
     0
 42
0.0000000001
 43
0.0000000001
 40
16.03460056234195
 40
16.03460056234195
 40
16.03460056234195
 40
16.03460056234195
 40
16.35212717791071
 40
17.38177067057215
 40
18.41822498539278
 40
19.46214186516937
 40
20.5139635832251
 40
21.34083983469381
 40
21.34083983469381
 40
21.34083983469381
 40
21.34083983469381
 10
-36.17711640787126
 20
-1.850168085561146
 30
0.0
 10
-36.13793457375733
 20
-1.843922995274454
 30
0.0
 10
-35.97186467354389
 20
-1.816727330017787
 30
0.0
 10
-35.67933115739788
 20
-1.763439490358896
 30
0.0
 10
-35.3004992339993
 20
-1.684202200359424
 30
0.0
 10
-34.92201924805135
 20
-1.595231625014899
 30
0.0
 10
-34.57180075276123
 20
-1.504295711667662
 30
0.0
 10
-34.3483675200804
 20
-1.44167986375502
 30
0.0
 10
-34.25034870003264
 20
-1.413376929942795
 30
0.0
  0
SPLINE
  5
2E4E
330
1F
100
AcDbEntity
  8
AM_0
100
AcDbSpline
210
0.0
220
0.0
230
1.0
 70
     8
 71
     3
 72
    17
 73
    13
 74
     0
 42
0.0000000001
 43
0.0000000001
 40
1.580019955310467
 40
1.580019955310467
 40
1.580019955310467
 40
1.580019955310467
 40
2.030549285115227
 40
3.082371838836284
 40
4.126290986361125
 40
5.162752068350215
 40
6.192395305374981
 40
7.216039564037012
 40
8.234688489606833
 40
9.249433870634691
 40
10.26152376260694
 40
11.27226744710342
 40
11.27226744710342
 40
11.27226744710342
 40
11.27226744710352
 10
-5.891534827584752
 20
-1.365354312406844
 30
0.0
 10
-5.945493332697292
 20
-1.379416329259918
 30
0.0
 10
-6.125732867791026
 20
-1.4255064677467
 30
0.0
 10
-6.433446451730205
 20
-1.497800499096989
 30
0.0
 10
-6.814595246889474
 20
-1.578760223750029
 30
0.0
 10
-7.195848971955198
 20
-1.649832112839559
 30
0.0
 10
-7.577120165933515
 20
-1.710777490988382
 30
0.0
 10
-7.95843289872509
 20
-1.761153038572618
 30
0.0
 10
-8.339771975319195
 20
-1.800671284554745
 30
0.0
 10
-8.721134797136796
 20
-1.829076137477835
 30
0.0
 10
-9.102511968385568
 20
-1.84618475200491
 30
0.0
 10
-9.356825124910388
 20
-1.849999846800455
 30
0.0
 10
-9.483897076042316
 20
-1.849999836214657
 30
0.0
  0
SPLINE
  5
2E4F
330
1F
100
AcDbEntity
  8
AM_0
100
AcDbSpline
210
0.0
220
0.0
230
1.0
 70
     8
 71
     3
 72
    22
 73
    18
 74
     0
 42
0.0000000001
 43
0.0000000001
 40
17.17441611292
 40
17.17441611292
 40
17.17441611292
 40
17.17441611292
 40
17.38177636558528
 40
18.41823744757437
 40
19.46215659509824
 40
20.51397914882054
 40
21.57394542641293
 40
22.64209583141747
 40
23.71826625065247
 40
24.80210429862395
 40
25.8930771157021
 40
26.99048705697709
 40
28.09349309193389
 40
29.20112995599786
 40
30.31233024745139
 40
31.42594771747373
 40
32.5407895042663
 40
32.54078950426994
 40
32.54078950426994
 40
32.54078950426994
 10
-10.93952928363835
 20
-1.661313225865406
 30
0.0
 10
-10.9650668427143
 20
-1.65703065731668
 30
0.0
 10
-11.1181505625013
 20
-1.630945064190111
 30
0.0
 10
-11.39859131091782
 20
-1.578640054855802
 30
0.0
 10
-11.77979316850348
 20
-1.497804646061689
 30
0.0
 10
-12.16095618242004
 20
-1.407738347154141
 30
0.0
 10
-12.54208304365701
 20
-1.309003374303155
 30
0.0
 10
-12.92317324877231
 20
-1.202205118873797
 30
0.0
 10
-13.30423148854446
 20
-1.088008235760503
 30
0.0
 10
-13.68525952738022
 20
-0.9671145422639602
 30
0.0
 10
-14.06626089069503
 20
-0.840269583167751
 30
0.0
 10
-14.44723981498248
 20
-0.7082559115245644
 30
0.0
 10
-14.82819960690975
 20
-0.5718852833935256
 30
0.0
 10
-15.2091441014531
 20
-0.4319966739227643
 30
0.0
 10
-15.59007667535388
 20
-0.2894502397157251
 30
0.0
 10
-15.97100297179692
 20
-0.1451255693189534
 30
0.0
 10
-16.2249039885788
 20
-0.0483300743170363
 30
0.0
 10
-16.35192424540702
 20
0.000094259651507
 30
0.0
  0
SPLINE
  5
2E50
330
1F
100
AcDbEntity
  8
AM_0
100
AcDbSpline
210
0.0
220
0.0
230
1.0
 70
     8
 71
     3
 72
    11
 73
     7
 74
     0
 42
0.0000000001
 43
0.0000000001
 40
11.27226913003534
 40
11.27226913003534
 40
11.27226913003534
 40
11.2722691300354
 40
12.28301561507924
 40
13.29510212255852
 40
14.30984805882082
 40
15.18258238371378
 40
15.18258238371378
 40
15.18258238371378
 40
15.18258238371378
 10
-9.483897076042334
 20
-1.849999836214657
 30
0.0
 10
-9.610485837057149
 20
-1.840945398608167
 30
0.0
 10
-9.863424588611801
 20
-1.819024999228069
 30
0.0
 10
-10.24152658738532
 20
-1.774806131680481
 30
0.0
 10
-10.60035205119781
 20
-1.721991542804623
 30
0.0
 10
-10.83241929855956
 20
-1.681391396472753
 30
0.0
 10
-10.93936249425268
 20
-1.66133604560126
 30
0.0
  0
SPLINE
  5
2E51
330
1F
100
AcDbEntity
  8
AM_0
100
AcDbSpline
210
0.0
220
0.0
230
1.0
 70
     8
 71
     3
 72
    22
 73
    18
 74
     0
 42
0.0000000001
 43
0.0000000001
 40
17.17441611292
 40
17.17441611292
 40
17.17441611292
 40
17.17441611292
 40
17.38177636558528
 40
18.41823744757437
 40
19.46215659509824
 40
20.51397914882054
 40
21.57394542641293
 40
22.64209583141747
 40
23.71826625065247
 40
24.80210429862395
 40
25.8930771157021
 40
26.99048705697709
 40
28.09349309193389
 40
29.20112995599786
 40
30.31233024745139
 40
31.42594771747373
 40
32.5407895042663
 40
32.54078950426994
 40
32.54078950426994
 40
32.54078950426994
 10
-24.51648165930151
 20
-1.661313225865363
 30
0.0
 10
-24.54201921837746
 20
-1.657030657316637
 30
0.0
 10
-24.69510293816446
 20
-1.630945064190067
 30
0.0
 10
-24.97554368658097
 20
-1.578640054855758
 30
0.0
 10
-25.35674554416664
 20
-1.497804646061646
 30
0.0
 10
-25.7379085580832
 20
-1.407738347154097
 30
0.0
 10
-26.11903541932017
 20
-1.309003374303111
 30
0.0
 10
-26.50012562443547
 20
-1.202205118873753
 30
0.0
 10
-26.88118386420763
 20
-1.088008235760459
 30
0.0
 10
-27.2622119030434
 20
-0.9671145422639161
 30
0.0
 10
-27.6432132663582
 20
-0.8402695831677075
 30
0.0
 10
-28.02419219064564
 20
-0.7082559115245206
 30
0.0
 10
-28.40515198257291
 20
-0.5718852833934817
 30
0.0
 10
-28.78609647711627
 20
-0.4319966739227205
 30
0.0
 10
-29.16702905101705
 20
-0.2894502397156812
 30
0.0
 10
-29.54795534746009
 20
-0.1451255693189095
 30
0.0
 10
-29.80185636424197
 20
-0.0483300743169925
 30
0.0
 10
-29.92887662107019
 20
0.0000942596515508
 30
0.0
  0
SPLINE
  5
2E52
330
1F
100
AcDbEntity
  8
AM_0
100
AcDbSpline
210
0.0
220
0.0
230
1.0
 70
     8
 71
     3
 72
    17
 73
    13
 74
     0
 42
0.0000000001
 43
0.0000000001
 40
1.580019955310467
 40
1.580019955310467
 40
1.580019955310467
 40
1.580019955310467
 40
2.030549285115227
 40
3.082371838836284
 40
4.126290986361125
 40
5.162752068350215
 40
6.192395305374981
 40
7.216039564037012
 40
8.234688489606833
 40
9.249433870634691
 40
10.26152376260694
 40
11.27226744710342
 40
11.27226744710342
 40
11.27226744710342
 40
11.27226744710352
 10
-19.46848720324791
 20
-1.365354312406801
 30
0.0
 10
-19.52244570836045
 20
-1.379416329259874
 30
0.0
 10
-19.70268524345418
 20
-1.425506467746657
 30
0.0
 10
-20.01039882739336
 20
-1.497800499096945
 30
0.0
 10
-20.39154762255262
 20
-1.578760223749986
 30
0.0
 10
-20.77280134761835
 20
-1.649832112839515
 30
0.0
 10
-21.15407254159667
 20
-1.710777490988338
 30
0.0
 10
-21.53538527438825
 20
-1.761153038572574
 30
0.0
 10
-21.91672435098234
 20
-1.800671284554701
 30
0.0
 10
-22.29808717279995
 20
-1.829076137477791
 30
0.0
 10
-22.67946434404872
 20
-1.846184752004866
 30
0.0
 10
-22.93377750057354
 20
-1.849999846800411
 30
0.0
 10
-23.06084945170546
 20
-1.849999836214612
 30
0.0
  0
SPLINE
  5
2E53
330
1F
100
AcDbEntity
  8
AM_0
100
AcDbSpline
210
0.0
220
0.0
230
1.0
 70
     8
 71
     3
 72
    11
 73
     7
 74
     0
 42
0.0000000001
 43
0.0000000001
 40
11.27226913003534
 40
11.27226913003534
 40
11.27226913003534
 40
11.2722691300354
 40
12.28301561507924
 40
13.29510212255852
 40
14.30984805882082
 40
15.18258238371378
 40
15.18258238371378
 40
15.18258238371378
 40
15.18258238371378
 10
-23.06084945170549
 20
-1.849999836214612
 30
0.0
 10
-23.1874382127203
 20
-1.840945398608123
 30
0.0
 10
-23.44037696427495
 20
-1.819024999228025
 30
0.0
 10
-23.81847896304847
 20
-1.774806131680438
 30
0.0
 10
-24.17730442686096
 20
-1.72199154280458
 30
0.0
 10
-24.40937167422271
 20
-1.681391396472709
 30
0.0
 10
-24.51631486991583
 20
-1.661336045601216
 30
0.0
  0
LINE
  5
2E54
330
1F
100
AcDbEntity
  8
AM_11
 48
0.5
100
AcDbLine
 10
-22.12963220574095
 20
1.850262989859438
 30
0.0
 11
-17.5449741751944
 21
1.850000163785392
 31
0.0
  0
LINE
  5
2E55
330
1F
100
AcDbEntity
  8
AM_0
 48
0.5
100
AcDbLine
 10
-17.54498036287259
 20
1.850000163785392
 30
0.0
 11
-9.483897076042318
 21
1.850000163785344
 31
0.0
  0
LINE
  5
2E56
330
1F
100
AcDbEntity
  8
AM_11
 48
0.5
100
AcDbLine
 10
-35.70663694904468
 20
1.850262989859481
 30
0.0
 11
-31.12198510617635
 21
1.850000163785437
 31
0.0
  0
LINE
  5
2E57
330
1F
100
AcDbEntity
  8
AM_0
100
AcDbLine
 10
-31.12198510617635
 20
1.850000163785437
 30
0.0
 11
-22.12963220574095
 21
1.850262989859438
 31
0.0
  0
LINE
  5
2E58
330
1F
100
AcDbEntity
  8
AM_11
 48
0.5
100
AcDbLine
 10
-9.483897076042318
 20
1.850000163785344
 30
0.0
 11
-2.29973308329693
 21
1.8500001637853
 31
0.0
  0
SPLINE
  5
2E59
330
1F
100
AcDbEntity
  8
AM_0
100
AcDbSpline
210
0.0
220
0.0
230
1.0
 70
     8
 71
     3
 72
    55
 73
    51
 74
     0
 42
0.0000000001
 43
0.0000000001
 40
0.0
 40
0.0
 40
0.0
 40
0.0
 40
1.010743684496582
 40
2.022833576467832
 40
3.037578957496688
 40
4.056212745003489
 40
5.079857003664532
 40
6.109500240690281
 40
7.145961322679372
 40
8.189895241603872
 40
9.241717795325891
 40
10.30168407291828
 40
11.36983447792315
 40
12.44600489715814
 40
13.52984294512926
 40
14.62081576220742
 40
15.7182257034828
 40
16.82123173843959
 40
17.92886860250316
 40
19.0400688939571
 40
20.15368796660465
 40
21.26852814259644
 40
22.38336992938901
 40
23.49698739941135
 40
24.6081876908653
 40
25.71582455492886
 40
26.81883757994213
 40
27.91624752121713
 40
29.00722033829659
 40
30.09105838626677
 40
31.16722880550176
 40
32.23537921050758
 40
33.29534548809967
 40
34.347168041821
 40
35.39108718934584
 40
36.42754827133493
 40
37.45720575381954
 40
38.48085062012849
 40
39.49948440763516
 40
40.51422944315121
 40
41.52631975251916
 40
42.53706336719636
 40
43.54780698187354
 40
44.55989729124051
 40
45.57464232675757
 40
46.59327611426424
 40
47.6169209805722
 40
48.64656348684535
 40
49.68302456883444
 40
50.58557219878025
 40
50.58557219878025
 40
50.58557219878025
 40
50.58557219878025
 10
-2.299733083296958
 20
-1.8499998362147
 30
0.0
 10
-2.426805036105341
 20
-1.848899131033689
 30
0.0
 10
-2.681118188599749
 20
-1.846696254644662
 30
0.0
 10
-3.062495367937744
 20
-1.828938597909953
 30
0.0
 10
-3.443856267721918
 20
-1.800708562519237
 30
0.0
 10
-3.825193565010486
 20
-1.761143094250061
 30
0.0
 10
-4.206503454657509
 20
-1.710778381054718
 30
0.0
 10
-4.587778414271414
 20
-1.649838386786627
 30
0.0
 10
-4.969019719200039
 20
-1.578733624968029
 30
0.0
 10
-5.350223988603481
 20
-1.497899507139285
 30
0.0
 10
-5.731388625785918
 20
-1.407832349880144
 30
0.0
 10
-6.112515530642347
 20
-1.309097495426363
 30
0.0
 10
-6.493605723906624
 20
-1.202299207856014
 30
0.0
 10
-6.874663966995458
 20
-1.088102333637837
 30
0.0
 10
-7.255692004535435
 20
-0.967208637031309
 30
0.0
 10
-7.636693369699671
 20
-0.8403636814200172
 30
0.0
 10
-8.017672287844856
 20
-0.7083499988835795
 30
0.0
 10
-8.398632102645393
 20
-0.5719794111093309
 30
0.0
 10
-8.779576511359691
 20
-0.4320906502615527
 30
0.0
 10
-9.16050959025479
 20
-0.2895447150436468
 30
0.0
 10
-9.541434680476426
 20
-0.145217919284087
 30
0.0
 10
-9.922357161276899
 20
-0.0000002136818562
 30
0.0
 10
-10.30327793205416
 20
0.145220105929576
 30
0.0
 10
-10.68420429905366
 20
0.2895446541391727
 30
0.0
 10
-11.06513690768178
 20
0.4320910208355092
 30
0.0
 10
-11.44608199561573
 20
0.5719803145971156
 30
0.0
 10
-11.82704339082032
 20
0.7083497385608212
 30
0.0
 10
-12.2080229102509
 20
0.8403640905903115
 30
0.0
 10
-12.58902433041906
 20
0.9672089433434212
 30
0.0
 10
-12.97005235409464
 20
1.088102665373439
 30
0.0
 10
-13.35111059815922
 20
1.202299539758663
 30
0.0
 10
-13.73220080113016
 20
1.309097801791931
 30
0.0
 10
-14.11332766665013
 20
1.407832757063082
 30
0.0
 10
-14.49449066572697
 20
1.497899119030379
 30
0.0
 10
-14.87569257782231
 20
1.578734295584389
 30
0.0
 10
-15.25693374133019
 20
1.649840487230295
 30
0.0
 10
-15.6382114233751
 20
1.710773521305104
 30
0.0
 10
-16.01952257276225
 20
1.761153823443873
 30
0.0
 10
-16.40085998309626
 20
1.800672391957235
 30
0.0
 10
-16.78222114786157
 20
1.829073858069151
 30
0.0
 10
-17.16359800383717
 20
1.846187840862701
 30
0.0
 10
-17.54498324033789
 20
1.851905056228573
 30
0.0
 10
-17.92636847627744
 20
1.84618784085374
 30
0.0
 10
-18.30774533393977
 20
1.829073858105116
 30
0.0
 10
-18.68910649249502
 20
1.800672391821715
 30
0.0
 10
-19.07044392611209
 20
1.761153823953148
 30
0.0
 10
-19.45175312900484
 20
1.710773765002218
 30
0.0
 10
-19.8330293089608
 20
1.649841110237647
 30
0.0
 10
-20.19693626412298
 20
1.581962066509078
 30
0.0
 10
-20.43304324092241
 20
1.532321480124057
 30
0.0
 10
-20.54258311684745
 20
1.508129200764999
 30
0.0
  0
SPLINE
  5
2E5A
330
1F
100
AcDbEntity
  8
AM_0
100
AcDbSpline
210
0.0
220
0.0
230
1.0
 70
     8
 71
     3
 72
    46
 73
    42
 74
     0
 42
0.0000000001
 43
0.0000000001
 40
0.0
 40
0.0
 40
0.0
 40
0.0
 40
0.8427075293422856
 40
1.265518104770559
 40
1.68994884956506
 40
2.116467290673827
 40
2.54548530610122
 40
2.977344090263341
 40
3.412310401731622
 40
3.850575907619845
 40
4.292228523283339
 40
4.737291192035371
 40
5.185695533383685
 40
5.63729472003792
 40
6.091866727153825
 40
6.549120869352286
 40
7.008706717250554
 40
7.470222077277051
 40
7.933222198716569
 40
8.397230145652669
 40
8.861746885649248
 40
9.326263625646204
 40
9.790271572582303
 40
10.25327169402144
 40
10.71478705404793
 40
11.17437290194659
 40
11.6316270441445
 40
12.08619905126056
 40
12.53780120194721
 40
12.98620554329551
 40
13.43126821204755
 40
13.87292082771091
 40
14.3111802250952
 40
14.74614653656348
 40
15.17800532072561
 40
15.60702303167234
 40
16.03354172596774
 40
16.45797877828845
 40
16.88078920975347
 40
17.30249350532345
 40
17.72363667810562
 40
17.72363667810562
 40
17.72363667810562
 40
17.72363667810562
 10
-1.232136124591505
 20
-1.849999836214706
 30
0.0
 10
-1.486461702421254
 20
-1.845785393208014
 30
0.0
 10
-1.868389728507577
 20
-1.839456443079069
 30
0.0
 10
-2.376256080002421
 20
-1.800490259825157
 30
0.0
 10
-2.757597474364594
 20
-1.761201981640982
 30
0.0
 10
-3.138906273115545
 20
-1.710762506190577
 30
0.0
 10
-3.520181471757336
 20
-1.649842545448638
 30
0.0
 10
-3.9014211116045
 20
-1.578733348726486
 30
0.0
 10
-4.282624554137922
 20
-1.497898147300913
 30
0.0
 10
-4.663790102867635
 20
-1.40783328127485
 30
0.0
 10
-5.044918519652159
 20
-1.309097366347357
 30
0.0
 10
-5.426008779371938
 20
-1.202299242838948
 30
0.0
 10
-5.80706700444588
 20
-1.088102324151807
 30
0.0
 10
-6.188095046893142
 20
-0.9672086396384177
 30
0.0
 10
-6.569096410621935
 20
-0.8403636805657626
 30
0.0
 10
-6.950075329559792
 20
-0.7083499996759841
 30
0.0
 10
-7.33103514262526
 20
-0.5719794087847207
 30
0.0
 10
-7.711979557518514
 20
-0.4320906588114874
 30
0.0
 10
-8.092912613336297
 20
-0.2895446830432255
 30
0.0
 10
-8.473837789926989
 20
-0.1452180390298792
 30
0.0
 10
-8.854759764393374
 20
0.0000001637559567
 30
0.0
 10
-9.235681738776076
 20
0.1452183667182619
 30
0.0
 10
-9.616606915617774
 20
0.2895450102024586
 30
0.0
 10
-9.997539970518088
 20
0.4320909879045273
 30
0.0
 10
-10.37848438881339
 20
0.5719797307059715
 30
0.0
 10
-10.75944418926436
 20
0.7083503481895109
 30
0.0
 10
-11.14042315491799
 20
0.8403639305987262
 30
0.0
 10
-11.52142517412658
 20
0.9672095297074363
 30
0.0
 10
-11.902454697065
 20
1.088102115840419
 30
0.0
 10
-12.28351360188842
 20
1.202299620090251
 30
0.0
 10
-12.66460385273532
 20
1.309097775376786
 30
0.0
 10
-13.04573070388761
 20
1.407832783005597
 30
0.0
 10
-13.42689371298965
 20
1.497899042258846
 30
0.0
 10
-13.80809559947619
 20
1.578734573905063
 30
0.0
 10
-14.18933501868187
 20
1.649839118290248
 30
0.0
 10
-14.5706104968513
 20
1.71077674822142
 30
0.0
 10
-14.95192172914444
 20
1.76114419545411
 30
0.0
 10
-15.33326115855107
 20
1.800709055797628
 30
0.0
 10
-15.71462418124265
 20
1.828936500320696
 30
0.0
 10
-16.09600104712826
 20
1.84669894897671
 30
0.0
 10
-16.35031430612636
 20
1.84890024735142
 30
0.0
 10
-16.47738628153898
 20
1.850000163785385
 30
0.0
  0
SPLINE
  5
2E5B
330
1F
100
AcDbEntity
  8
AM_0
 48
0.5
100
AcDbSpline
210
0.0
220
0.0
230
1.0
 70
     8
 71
     3
 72
    17
 73
    13
 74
     0
 42
0.0000000001
 43
0.0000000001
 40
0.0
 40
0.0
 40
0.0
 40
0.0
 40
1.010743614677189
 40
2.022833924044153
 40
3.037578959561199
 40
4.056212747067873
 40
5.079857613375832
 40
6.109500119648989
 40
7.14596120163808
 40
8.18989512056258
 40
9.241717674284874
 40
9.693948937866434
 40
9.693948937866434
 40
9.693948937866434
 40
9.693948937866434
 10
-2.29973308329693
 20
1.850000163785299
 30
0.0
 10
-2.426805059230892
 20
1.848900251825965
 30
0.0
 10
-2.681118319272262
 20
1.846698962406496
 30
0.0
 10
-3.062495177317504
 20
1.828936446458868
 30
0.0
 10
-3.443856334298874
 20
1.800709398998546
 30
0.0
 10
-3.825193773861773
 20
1.761143853080052
 30
0.0
 10
-4.206502954387782
 20
1.710776408323183
 30
0.0
 10
-4.587779218562189
 20
1.6498405862276
 30
0.0
 10
-4.969017449016734
 20
1.578728650832323
 30
0.0
 10
-5.350232439325092
 20
1.497919346000605
 30
0.0
 10
-5.65795912016985
 20
1.425122377606479
 30
0.0
 10
-5.83867426950945
 20
1.379613803698034
 30
0.0
 10
-5.892915261853576
 20
1.365683933872424
 30
0.0
  0
SPLINE
  5
2E5C
330
1F
100
AcDbEntity
  8
AM_0
100
AcDbSpline
210
0.0
220
0.0
230
1.0
 70
     8
 71
     3
 72
    23
 73
    19
 74
     0
 42
0.0000000001
 43
0.0000000001
 40
16.03460024169435
 40
16.03460024169435
 40
16.03460024169435
 40
16.03460024169435
 40
16.35212704903564
 40
17.38177054169784
 40
18.41822485651776
 40
19.46214173629503
 40
20.51396345435107
 40
21.57393551351153
 40
22.64208202342361
 40
23.7182574881101
 40
24.80209208578934
 40
25.89306333925047
 40
26.99048218457928
 40
28.09348763352352
 40
29.20111863782268
 40
30.31232390128032
 40
31.42594612798585
 40
32.5407912310448
 40
32.5407912310486
 40
32.5407912310486
 40
32.5407912310486
 10
-35.70663694904469
 20
1.850262989859481
 30
0.0
 10
-35.6674551308089
 20
1.844017715643769
 30
0.0
 10
-35.50138536801478
 20
1.816821304205259
 30
0.0
 10
-35.20885169240417
 20
1.763534086687141
 30
0.0
 10
-34.83001981667986
 20
1.684296576981035
 30
0.0
 10
-34.45153981782078
 20
1.595326061136787
 30
0.0
 10
-34.07338933114192
 20
1.497137455120414
 30
0.0
 10
-33.69555493541241
 20
1.390278162608605
 30
0.0
 10
-33.31801479270971
 20
1.275359036381329
 30
0.0
 10
-32.94074261257321
 20
1.1530488769274
 30
0.0
 10
-32.56371695704265
 20
1.024040319548672
 30
0.0
 10
-32.18690759860411
 20
0.8890840349808637
 30
0.0
 10
-31.81028400107278
 20
0.7489644474575212
 30
0.0
 10
-31.43382107109256
 20
0.6044871858650091
 30
0.0
 10
-31.05748731046731
 20
0.4564923656941319
 30
0.0
 10
-30.68124786272061
 20
0.3058441681172385
 30
0.0
 10
-30.30507209134068
 20
0.1534155586451937
 30
0.0
 10
-30.05435560420805
 20
0.0512205107044099
 30
0.0
 10
-29.92892898870911
 20
0.000094259650885
 30
0.0
  0
SPLINE
  5
2E5D
330
1F
100
AcDbEntity
  8
AM_0
100
AcDbSpline
210
0.0
220
0.0
230
1.0
 70
     8
 71
     3
 72
    55
 73
    51
 74
     0
 42
0.0000000001
 43
0.0000000001
 40
0.0
 40
0.0
 40
0.0
 40
0.0
 40
1.010743684496582
 40
2.022833576467832
 40
3.037578957496688
 40
4.056212745003489
 40
5.079857003664532
 40
6.109500240690281
 40
7.145961322679372
 40
8.189895241603872
 40
9.241717795325891
 40
10.30168407291828
 40
11.36983447792315
 40
12.44600489715814
 40
13.52984294512926
 40
14.62081576220742
 40
15.7182257034828
 40
16.82123173843959
 40
17.92886860250316
 40
19.0400688939571
 40
20.15368796660465
 40
21.26852814259644
 40
22.38336992938901
 40
23.49698739941135
 40
24.6081876908653
 40
25.71582455492886
 40
26.81883757994213
 40
27.91624752121713
 40
29.00722033829659
 40
30.09105838626677
 40
31.16722880550176
 40
32.23537921050758
 40
33.29534548809967
 40
34.347168041821
 40
35.39108718934584
 40
36.42754827133493
 40
37.45720575381954
 40
38.48085062012849
 40
39.49948440763516
 40
40.51422944315121
 40
41.52631975251916
 40
42.53706336719636
 40
43.54780698187354
 40
44.55989729124051
 40
45.57464232675757
 40
46.59327611426424
 40
47.6169209805722
 40
48.64656348684535
 40
49.68302456883444
 40
50.58557219878025
 40
50.58557219878025
 40
50.58557219878025
 40
50.58557219878025
 10
-15.87668545896012
 20
-1.849999836214656
 30
0.0
 10
-16.0037574117685
 20
-1.848899131033646
 30
0.0
 10
-16.2580705642629
 20
-1.846696254644618
 30
0.0
 10
-16.63944774360089
 20
-1.828938597909909
 30
0.0
 10
-17.02080864338507
 20
-1.800708562519193
 30
0.0
 10
-17.40214594067364
 20
-1.761143094250017
 30
0.0
 10
-17.78345583032066
 20
-1.710778381054674
 30
0.0
 10
-18.16473078993457
 20
-1.649838386786583
 30
0.0
 10
-18.54597209486319
 20
-1.578733624967985
 30
0.0
 10
-18.92717636426663
 20
-1.497899507139241
 30
0.0
 10
-19.30834100144908
 20
-1.407832349880101
 30
0.0
 10
-19.6894679063055
 20
-1.309097495426319
 30
0.0
 10
-20.07055809956979
 20
-1.202299207855969
 30
0.0
 10
-20.45161634265862
 20
-1.088102333637793
 30
0.0
 10
-20.8326443801986
 20
-0.9672086370312651
 30
0.0
 10
-21.21364574536283
 20
-0.8403636814199733
 30
0.0
 10
-21.59462466350801
 20
-0.7083499988835353
 30
0.0
 10
-21.97558447830855
 20
-0.5719794111092871
 30
0.0
 10
-22.35652888702285
 20
-0.4320906502615088
 30
0.0
 10
-22.73746196591795
 20
-0.2895447150436029
 30
0.0
 10
-23.11838705613959
 20
-0.145217919284043
 30
0.0
 10
-23.49930953694006
 20
-0.0000002136818124
 30
0.0
 10
-23.88023030771732
 20
0.1452201059296199
 30
0.0
 10
-24.26115667471683
 20
0.2895446541392166
 30
0.0
 10
-24.64208928334494
 20
0.432091020835553
 30
0.0
 10
-25.0230343712789
 20
0.5719803145971594
 30
0.0
 10
-25.40399576648349
 20
0.7083497385608652
 30
0.0
 10
-25.78497528591407
 20
0.8403640905903547
 30
0.0
 10
-26.16597670608222
 20
0.9672089433434647
 30
0.0
 10
-26.54700472975781
 20
1.088102665373484
 30
0.0
 10
-26.92806297382238
 20
1.202299539758707
 30
0.0
 10
-27.30915317679333
 20
1.309097801791974
 30
0.0
 10
-27.6902800423133
 20
1.407832757063125
 30
0.0
 10
-28.07144304139015
 20
1.497899119030423
 30
0.0
 10
-28.45264495348548
 20
1.578734295584433
 30
0.0
 10
-28.83388611699336
 20
1.649840487230339
 30
0.0
 10
-29.21516379903827
 20
1.710773521305148
 30
0.0
 10
-29.59647494842542
 20
1.761153823443917
 30
0.0
 10
-29.97781235875942
 20
1.800672391957279
 30
0.0
 10
-30.35917352352473
 20
1.829073858069196
 30
0.0
 10
-30.74055037950033
 20
1.846187840862745
 30
0.0
 10
-31.12193561600106
 20
1.851905056228618
 30
0.0
 10
-31.50332085194061
 20
1.846187840853784
 30
0.0
 10
-31.88469770960294
 20
1.82907385810516
 30
0.0
 10
-32.26605886815818
 20
1.800672391821759
 30
0.0
 10
-32.64739630177525
 20
1.761153823953192
 30
0.0
 10
-33.028705504668
 20
1.710773765002262
 30
0.0
 10
-33.40998168462396
 20
1.649841110237692
 30
0.0
 10
-33.77388863978615
 20
1.581962066509122
 30
0.0
 10
-34.00999561658558
 20
1.5323214801241
 30
0.0
 10
-34.11953549251061
 20
1.508129200765043
 30
0.0
  0
SPLINE
  5
2E5E
330
1F
100
AcDbEntity
  8
AM_0
100
AcDbSpline
210
0.0
220
0.0
230
1.0
 70
     8
 71
     3
 72
    46
 73
    42
 74
     0
 42
0.0000000001
 43
0.0000000001
 40
0.0
 40
0.0
 40
0.0
 40
0.0
 40
0.8427075293422831
 40
1.265518104770557
 40
1.689948849565058
 40
2.116467290673825
 40
2.545485306101222
 40
2.97734409026334
 40
3.412310401731621
 40
3.850575907619841
 40
4.292228523283341
 40
4.737291192035375
 40
5.185695533383689
 40
5.637294720037917
 40
6.09186672715383
 40
6.549120869352283
 40
7.008706717250553
 40
7.470222077277046
 40
7.933222198716568
 40
8.397230145652669
 40
8.861746885649248
 40
9.326263625646204
 40
9.790271572582303
 40
10.25327169402144
 40
10.71478705404793
 40
11.17437290194658
 40
11.6316270441445
 40
12.08619905126055
 40
12.5378012019472
 40
12.98620554329551
 40
13.43126821204755
 40
13.87292082771092
 40
14.31118022509521
 40
14.74614653656349
 40
15.17800532072561
 40
15.60702303167235
 40
16.03354172596773
 40
16.45797877828844
 40
16.88078920975347
 40
17.30249350532346
 40
17.72363667810562
 40
17.72363667810562
 40
17.72363667810562
 40
17.72363667810562
 10
-14.80908850025467
 20
-1.849999836214662
 30
0.0
 10
-15.06341407808442
 20
-1.84578539320797
 30
0.0
 10
-15.44534210417074
 20
-1.839456443079024
 30
0.0
 10
-15.95320845566558
 20
-1.800490259825114
 30
0.0
 10
-16.33454985002774
 20
-1.761201981640937
 30
0.0
 10
-16.7158586487787
 20
-1.710762506190533
 30
0.0
 10
-17.09713384742049
 20
-1.649842545448595
 30
0.0
 10
-17.47837348726766
 20
-1.578733348726442
 30
0.0
 10
-17.85957692980107
 20
-1.49789814730087
 30
0.0
 10
-18.24074247853079
 20
-1.407833281274804
 30
0.0
 10
-18.62187089531532
 20
-1.309097366347315
 30
0.0
 10
-19.0029611550351
 20
-1.202299242838904
 30
0.0
 10
-19.38401938010905
 20
-1.088102324151764
 30
0.0
 10
-19.7650474225563
 20
-0.9672086396383704
 30
0.0
 10
-20.1460487862851
 20
-0.8403636805657221
 30
0.0
 10
-20.52702770522296
 20
-0.7083499996759378
 30
0.0
 10
-20.90798751828841
 20
-0.5719794087846788
 30
0.0
 10
-21.28893193318167
 20
-0.4320906588114415
 30
0.0
 10
-21.66986498899947
 20
-0.2895446830431827
 30
0.0
 10
-22.05079016559014
 20
-0.1452180390298353
 30
0.0
 10
-22.43171214005653
 20
0.0000001637560005
 30
0.0
 10
-22.81263411443923
 20
0.1452183667183057
 30
0.0
 10
-23.19355929128094
 20
0.2895450102025025
 30
0.0
 10
-23.57449234618126
 20
0.4320909879045712
 30
0.0
 10
-23.95543676447654
 20
0.5719797307060142
 30
0.0
 10
-24.33639656492753
 20
0.7083503481895561
 30
0.0
 10
-24.71737553058115
 20
0.8403639305987699
 30
0.0
 10
-25.09837754978974
 20
0.9672095297074799
 30
0.0
 10
-25.47940707272816
 20
1.088102115840464
 30
0.0
 10
-25.86046597755157
 20
1.202299620090294
 30
0.0
 10
-26.2415562283985
 20
1.30909777537683
 30
0.0
 10
-26.62268307955079
 20
1.407832783005641
 30
0.0
 10
-27.00384608865282
 20
1.49789904225889
 30
0.0
 10
-27.38504797513937
 20
1.578734573905108
 30
0.0
 10
-27.76628739434505
 20
1.649839118290293
 30
0.0
 10
-28.14756287251448
 20
1.710776748221464
 30
0.0
 10
-28.5288741048076
 20
1.761144195454154
 30
0.0
 10
-28.91021353421425
 20
1.800709055797673
 30
0.0
 10
-29.29157655690582
 20
1.828936500320741
 30
0.0
 10
-29.67295342279142
 20
1.846698948976752
 30
0.0
 10
-29.92726668178952
 20
1.848900247351464
 30
0.0
 10
-30.05433865720213
 20
1.85000016378543
 30
0.0
  0
SPLINE
  5
2E5F
330
1F
100
AcDbEntity
  8
AM_0
100
AcDbSpline
210
0.0
220
0.0
230
1.0
 70
     8
 71
     3
 72
    23
 73
    19
 74
     0
 42
0.0000000001
 43
0.0000000001
 40
16.03460024169435
 40
16.03460024169435
 40
16.03460024169435
 40
16.03460024169435
 40
16.35212704903564
 40
17.38177054169784
 40
18.41822485651776
 40
19.46214173629503
 40
20.51396345435107
 40
21.57393551351153
 40
22.64208202342361
 40
23.7182574881101
 40
24.80209208578934
 40
25.89306333925047
 40
26.99048218457928
 40
28.09348763352352
 40
29.20111863782268
 40
30.31232390128032
 40
31.42594612798585
 40
32.5407912310448
 40
32.5407912310486
 40
32.5407912310486
 40
32.5407912310486
 10
-22.12963220574095
 20
1.850262989859439
 30
0.0
 10
-22.09045038750514
 20
1.844017715643726
 30
0.0
 10
-21.92438062471103
 20
1.816821304205217
 30
0.0
 10
-21.63184694910041
 20
1.763534086687099
 30
0.0
 10
-21.2530150733761
 20
1.684296576980992
 30
0.0
 10
-20.87453507451701
 20
1.595326061136745
 30
0.0
 10
-20.49638458783817
 20
1.497137455120371
 30
0.0
 10
-20.11855019210865
 20
1.390278162608563
 30
0.0
 10
-19.74101004940593
 20
1.275359036381287
 30
0.0
 10
-19.36373786926944
 20
1.153048876927357
 30
0.0
 10
-18.98671221373889
 20
1.024040319548629
 30
0.0
 10
-18.60990285530033
 20
0.8890840349808209
 30
0.0
 10
-18.23327925776901
 20
0.7489644474574782
 30
0.0
 10
-17.85681632778879
 20
0.6044871858649661
 30
0.0
 10
-17.48048256716354
 20
0.4564923656940892
 30
0.0
 10
-17.10424311941685
 20
0.3058441681171957
 30
0.0
 10
-16.72806734803692
 20
0.1534155586451511
 30
0.0
 10
-16.47735086090429
 20
0.0512205107043672
 30
0.0
 10
-16.35192424540534
 20
0.0000942596508423
 30
0.0
  0
SPLINE
  5
2E60
330
1F
100
AcDbEntity
  8
AM_0
 48
0.5
100
AcDbSpline
210
0.0
220
0.0
230
1.0
 70
     8
 71
     3
 72
    25
 73
    21
 74
     0
 42
0.0000000001
 43
0.0000000001
 40
6.846175049578289
 40
6.846175049578289
 40
6.846175049578289
 40
6.846175049578289
 40
7.604337694224321
 40
8.711974558287883
 40
9.814980593243754
 40
10.91239053451967
 40
12.0033633515982
 40
13.08720139956839
 40
14.16337181880432
 40
15.23152222380919
 40
16.29148850140128
 40
17.34331105512262
 40
18.38723020264746
 40
19.42369128463655
 40
20.45333379090873
 40
21.47697865721768
 40
22.49561244472435
 40
23.5103574802404
 40
24.52244778960836
 40
25.53320666051913
 40
25.53320666051913
 40
25.53320666051913
 40
25.53320666051913
 10
-2.706512329740251
 20
0.3349354417699061
 30
0.0
 10
-2.95167914589712
 20
0.3748678877123861
 30
0.0
 10
-3.238806172364286
 20
0.4469583603130643
 30
0.0
 10
-3.584756124925279
 20
0.5719798095333722
 30
0.0
 10
-3.97186040846998
 20
0.7083504761989378
 30
0.0
 10
-4.358984159740512
 20
0.8403641375810103
 30
0.0
 10
-4.74613070485137
 20
0.9672090994496109
 30
0.0
 10
-5.133304357570472
 20
1.088102792039401
 30
0.0
 10
-5.52050869803797
 20
1.202299676023849
 30
0.0
 10
-5.907745518806033
 20
1.309097928894024
 30
0.0
 10
-6.29501958963888
 20
1.407832911014855
 30
0.0
 10
-6.6823303861212
 20
1.497899175766366
 30
0.0
 10
-7.06968069022517
 20
1.578734710599517
 30
0.0
 10
-7.457069134973747
 20
1.649839236992443
 30
0.0
 10
-7.844494207031886
 20
1.710776935071264
 30
0.0
 10
-8.23195375056116
 20
1.761143881507939
 30
0.0
 10
-8.61944173684664
 20
1.800709560253963
 30
0.0
 10
-9.006953895377469
 20
1.828936571227565
 30
0.0
 10
-9.394483935663597
 20
1.846699190229919
 30
0.0
 10
-9.652900974039933
 20
1.84890041097347
 30
0.0
 10
-9.782024448236541
 20
1.850000296923963
 30
0.0
  0
VIEWPORT
  5
110
330
101
100
AcDbEntity
 67
     1
  8
0
100
AcDbViewport
 10
420.5
 20
297.0
 30
0.0
 40
948.9782706766916
 41
628.452
 68
     1
 69
     1
1001
ACAD
1000
MVIEW
1002
{
1070
    16
1010
0.0
1020
0.0
1030
0.0
1010
0.0
1020
0.0
1030
1.0
1040
0.0
1040
628.452
1040
420.5
1040
297.0
1040
50.0
1040
0.0
1040
0.0
1070
     0
1070
   100
1070
     1
1070
     1
1070
     0
1070
     0
1070
     0
1070
     0
1040
0.0
1040
0.0
1040
0.0
1040
10.0
1040
10.0
1040
10.0
1040
10.0
1070
     0
1002
{
1002
}
1002
}
  0
ENDSEC
  0
SECTION
  2
OBJECTS
  0
DICTIONARY
  5
C
330
0
100
AcDbDictionary
  3
ACAD_GROUP
350
D
  3
ACAD_LAYOUT
350
1A
  3
ACAD_MLINESTYLE
350
17
  3
ACAD_PLOTSETTINGS
350
19
  3
ACAD_PLOTSTYLENAME
350
E
  3
ACDBVARIABLEDICTIONARY
350
34
  3
ACMDICTIONARY
350
43
  3
AMG
350
2B
  3
AMGSNAPSETTINGS
350
6E
  3
DWGPROPS
350
2EB3
  3
ACDBHEADERROUNDTRIPXREC
350
2EBF
  0
DICTIONARY
  5
74
330
1F
100
AcDbDictionary
280
     1
  3
ACAD_INDEX
360
2EB5
  3
ACAD_LAYOUTSELFREF
360
2EE2
  0
DICTIONARY
  5
2EE7
330
101
100
AcDbDictionary
280
     1
  3
ACAD_LAYOUTSELFREF
360
2EE8
  0
DICTIONARY
  5
D
102
{ACAD_REACTORS
330
C
102
}
330
C
100
AcDbDictionary
  0
DICTIONARY
  5
1A
102
{ACAD_REACTORS
330
C
102
}
330
C
100
AcDbDictionary
  0
DICTIONARY
  5
17
102
{ACAD_REACTORS
330
C
102
}
330
C
100
AcDbDictionary
  3
STANDARD
350
18
  0
DICTIONARY
  5
19
102
{ACAD_REACTORS
330
C
102
}
330
C
100
AcDbDictionary
  0
ACDBDICTIONARYWDFLT
  5
E
102
{ACAD_REACTORS
330
C
102
}
330
C
100
AcDbDictionary
281
     1
  3
Normal
350
F
100
AcDbDictionaryWithDefault
340
F
  0
DICTIONARY
  5
34
102
{ACAD_REACTORS
330
C
102
}
330
C
100
AcDbDictionary
  3
INDEXCTL
350
35
  3
SORTENTS
350
B5E
  0
DICTIONARY
  5
43
102
{ACAD_REACTORS
330
C
102
}
330
C
100
AcDbDictionary
  3
ACMSTDDICTIONARY
350
260
  0
DICTIONARY
  5
2B
102
{ACAD_REACTORS
330
C
102
}
330
C
100
AcDbDictionary
  3
ACMGSETTINGS
350
2C
  0
DICTIONARY
  5
6E
102
{ACAD_REACTORS
330
C
102
}
330
C
100
AcDbDictionary
  0
XRECORD
  5
2EB3
102
{ACAD_REACTORS
330
C
102
}
330
C
100
AcDbXrecord
  1
DWGPROPS COOKIE
  2

  3

  4

  6

  7

  8

  9

300
AmdtFileType=82
301
=
302
=
303
=
304
=
305
=
306
=
307
=
308
=
309
=
 40
0.0631273148148148
 41
2452800.443498622
 42
2452948.695891562
  1

 90
        1
  0
DICTIONARY
  5
2EBF
102
{ACAD_REACTORS
330
C
102
}
330
C
100
AcDbDictionary
  3
TSTACKALIGN
350
2EC0
  3
TSTACKSIZE
350
2EC1
  3
HYPERLINKBASE
350
2EC2
  3
STYLESHEET
350
2EC3
  3
LAYOUTDICT
350
2EC4
  3
PLOTSETDICT
350
2EC5
  3
PLOTSTYLNAMDICT
350
2EC6
  3
LWETCUNION
350
2EC7
  3
INSUNITS
350
2EC8
  3
CEPSNTYPE
350
2EC9
  3
FINGERPRINTGUID
350
2ECA
  3
VERSIONGUID
350
2ECB
  3
PSVPSCALE
350
2ECC
  3
DIMSTYLEDATA
350
2ECD
  3
PUCSORTHOREF
350
2ECE
  3
PUCSORTHOVIEW
350
2ECF
  3
PUCSBASE
350
2ED0
  3
PUCSORGTOP
350
2ED1
  3
PUCSORGBOTTOM
350
2ED2
  3
PUCSORGLEFT
350
2ED3
  3
PUCSORGRIGHT
350
2ED4
  3
PUCSORGFRONT
350
2ED5
  3
PUCSORGBACK
350
2ED6
  3
UCSORTHOREF
350
2ED7
  3
UCSORTHOVIEW
350
2ED8
  3
UCSBASE
350
2ED9
  3
UCSORGTOP
350
2EDA
  3
UCSORGBOTTOM
350
2EDB
  3
UCSORGLEFT
350
2EDC
  3
UCSORGRIGHT
350
2EDD
  3
UCSORGFRONT
350
2EDE
  3
UCSORGBACK
350
2EDF
  0
DICTIONARY
  5
2EB5
102
{ACAD_REACTORS
330
74
102
}
330
74
100
AcDbDictionary
  3
*A1
350
2EB6
  0
XRECORD
  5
2EE2
102
{ACAD_REACTORS
330
74
102
}
330
74
100
AcDbXrecord
340
1F
  0
XRECORD
  5
2EE8
102
{ACAD_REACTORS
330
2EE7
102
}
330
2EE7
100
AcDbXrecord
340
101
  0
MLINESTYLE
  5
18
102
{ACAD_REACTORS
330
17
102
}
330
17
100
AcDbMlineStyle
  2
STANDARD
 70
     0
  3

 62
   256
 51
90.0
 52
90.0
 71
     2
 49
0.5
 62
   256
  6
BYLAYER
 49
-0.5
 62
   256
  6
BYLAYER
  0
ACDBPLACEHOLDER
  5
F
102
{ACAD_REACTORS
330
E
102
}
330
E
100
AcDbPlaceHolder
280
     0
  0
DICTIONARYVAR
  5
35
102
{ACAD_REACTORS
330
34
102
}
330
34
100
DictionaryVariables
280
     0
  1
1
  0
DICTIONARYVAR
  5
B5E
102
{ACAD_REACTORS
330
34
102
}
330
34
100
DictionaryVariables
280
     0
  1
96
  0
DICTIONARY
  5
260
102
{ACAD_REACTORS
330
43
102
}
330
43
100
AcDbDictionary
  0
DICTIONARY
  5
2C
102
{ACAD_REACTORS
330
2B
102
}
330
2B
100
AcDbDictionary
  3
DWGSETTINGS
350
2D
  0
XRECORD
  5
2EC0
102
{ACAD_REACTORS
330
2EBF
102
}
330
2EBF
100
AcDbXrecord
 90
        1
  0
XRECORD
  5
2EC1
102
{ACAD_REACTORS
330
2EBF
102
}
330
2EBF
100
AcDbXrecord
 90
       70
  0
XRECORD
  5
2EC2
102
{ACAD_REACTORS
330
2EBF
102
}
330
2EBF
100
AcDbXrecord
  1

  0
XRECORD
  5
2EC3
102
{ACAD_REACTORS
330
2EBF
102
}
330
2EBF
100
AcDbXrecord
  1
ASAMI.ctb
  0
XRECORD
  5
2EC4
102
{ACAD_REACTORS
330
2EBF
102
}
330
2EBF
100
AcDbXrecord
340
1A
  0
XRECORD
  5
2EC5
102
{ACAD_REACTORS
330
2EBF
102
}
330
2EBF
100
AcDbXrecord
340
19
  0
XRECORD
  5
2EC6
102
{ACAD_REACTORS
330
2EBF
102
}
330
2EBF
100
AcDbXrecord
340
E
  0
XRECORD
  5
2EC7
102
{ACAD_REACTORS
330
2EBF
102
}
330
2EBF
100
AcDbXrecord
 90
    10781
  0
XRECORD
  5
2EC8
102
{ACAD_REACTORS
330
2EBF
102
}
330
2EBF
100
AcDbXrecord
 90
        4
  0
XRECORD
  5
2EC9
102
{ACAD_REACTORS
330
2EBF
102
}
330
2EBF
100
AcDbXrecord
 90
        0
  0
XRECORD
  5
2ECA
102
{ACAD_REACTORS
330
2EBF
102
}
330
2EBF
100
AcDbXrecord
  1
{AFB28963-8C59-40AE-9337-C84526B81ACE}
  0
XRECORD
  5
2ECB
102
{ACAD_REACTORS
330
2EBF
102
}
330
2EBF
100
AcDbXrecord
  1
{1BE13C2B-77E7-4146-9680-92A7440CCD85}
  0
XRECORD
  5
2ECC
102
{ACAD_REACTORS
330
2EBF
102
}
330
2EBF
100
AcDbXrecord
 40
0.0
  0
XRECORD
  5
2ECD
102
{ACAD_REACTORS
330
2EBF
102
}
330
2EBF
100
AcDbXrecord
1000
DSTYLE
1002
{
1070
    79
 70
     2
1070
   341
340
59
1070
   342
340
59
1070
   371
 70
    -1
1070
   372
 70
    -1
1002
}
  0
XRECORD
  5
2ECE
102
{ACAD_REACTORS
330
2EBF
102
}
330
2EBF
100
AcDbXrecord
340
0
  0
XRECORD
  5
2ECF
102
{ACAD_REACTORS
330
2EBF
102
}
330
2EBF
100
AcDbXrecord
 70
     0
  0
XRECORD
  5
2ED0
102
{ACAD_REACTORS
330
2EBF
102
}
330
2EBF
100
AcDbXrecord
340
0
  0
XRECORD
  5
2ED1
102
{ACAD_REACTORS
330
2EBF
102
}
330
2EBF
100
AcDbXrecord
 10
0.0
 20
0.0
 30
0.0
  0
XRECORD
  5
2ED2
102
{ACAD_REACTORS
330
2EBF
102
}
330
2EBF
100
AcDbXrecord
 10
0.0
 20
0.0
 30
0.0
  0
XRECORD
  5
2ED3
102
{ACAD_REACTORS
330
2EBF
102
}
330
2EBF
100
AcDbXrecord
 10
0.0
 20
0.0
 30
0.0
  0
XRECORD
  5
2ED4
102
{ACAD_REACTORS
330
2EBF
102
}
330
2EBF
100
AcDbXrecord
 10
0.0
 20
0.0
 30
0.0
  0
XRECORD
  5
2ED5
102
{ACAD_REACTORS
330
2EBF
102
}
330
2EBF
100
AcDbXrecord
 10
0.0
 20
0.0
 30
0.0
  0
XRECORD
  5
2ED6
102
{ACAD_REACTORS
330
2EBF
102
}
330
2EBF
100
AcDbXrecord
 10
0.0
 20
0.0
 30
0.0
  0
XRECORD
  5
2ED7
102
{ACAD_REACTORS
330
2EBF
102
}
330
2EBF
100
AcDbXrecord
340
0
  0
XRECORD
  5
2ED8
102
{ACAD_REACTORS
330
2EBF
102
}
330
2EBF
100
AcDbXrecord
 70
     0
  0
XRECORD
  5
2ED9
102
{ACAD_REACTORS
330
2EBF
102
}
330
2EBF
100
AcDbXrecord
340
0
  0
XRECORD
  5
2EDA
102
{ACAD_REACTORS
330
2EBF
102
}
330
2EBF
100
AcDbXrecord
 10
0.0
 20
0.0
 30
0.0
  0
XRECORD
  5
2EDB
102
{ACAD_REACTORS
330
2EBF
102
}
330
2EBF
100
AcDbXrecord
 10
0.0
 20
0.0
 30
0.0
  0
XRECORD
  5
2EDC
102
{ACAD_REACTORS
330
2EBF
102
}
330
2EBF
100
AcDbXrecord
 10
0.0
 20
0.0
 30
0.0
  0
XRECORD
  5
2EDD
102
{ACAD_REACTORS
330
2EBF
102
}
330
2EBF
100
AcDbXrecord
 10
0.0
 20
0.0
 30
0.0
  0
XRECORD
  5
2EDE
102
{ACAD_REACTORS
330
2EBF
102
}
330
2EBF
100
AcDbXrecord
 10
0.0
 20
0.0
 30
0.0
  0
XRECORD
  5
2EDF
102
{ACAD_REACTORS
330
2EBF
102
}
330
2EBF
100
AcDbXrecord
 10
0.0
 20
0.0
 30
0.0
  0
LAYER_INDEX
  5
2EB6
102
{ACAD_REACTORS
330
2EB5
102
}
330
2EB5
100
AcDbIndex
 40
2453151.689841203
100
AcDbLayerIndex
  8
0
360
2EB7
 90
        0
  8
AM_0
360
2EB8
 90
       52
  8
AM_7
360
2EB9
 90
        1
  8
AM_11
360
2EBA
 90
       27
  8
AM_5
360
2EBB
 90
        5
  8
Defpoints
360
2EBC
 90
        0
  8
AM_6
360
2EBD
 90
        1
  0
XRECORD
  5
2D
102
{ACAD_REACTORS
330
2C
102
}
330
2C
100
AcDbXrecord
  1
VERSION
140
15.0
  1
PRODUCT
  2
AutoCAD Mechanical 2000
  0
IDBUFFER
  5
2EB7
330
0
100
AcDbIdBuffer
  0
IDBUFFER
  5
2EB8
330
0
100
AcDbIdBuffer
330
2E5D
330
2E5E
330
2E5F
330
2E60
330
2215
330
2216
330
222A
330
222B
330
237B
330
237E
330
2382
330
24FB
330
24FC
330
28B3
330
2A98
330
2A9F
330
2B19
330
2B1A
330
2D0A
330
2D11
330
2E36
330
2E37
330
2E38
330
2E3A
330
2E3B
330
2E3C
330
2E3D
330
2E3E
330
2E3F
330
2E40
330
2E41
330
2E42
330
2E43
330
2E44
330
2E45
330
2E49
330
2E4A
330
2E4B
330
2E4C
330
2E4D
330
2E4E
330
2E4F
330
2E50
330
2E51
330
2E52
330
2E53
330
2E55
330
2E57
330
2E59
330
2E5A
330
2E5B
330
2E5C
  0
IDBUFFER
  5
2EB9
330
0
100
AcDbIdBuffer
330
224B
  0
IDBUFFER
  5
2EBA
330
0
100
AcDbIdBuffer
330
2387
330
2388
330
262B
330
262C
330
2E39
330
2E46
330
2E47
330
2E48
330
2E54
330
2E56
330
2E58
330
21FC
330
21FD
330
2200
330
2201
330
2206
330
2207
330
220B
330
220C
330
220D
330
220E
330
220F
330
2210
330
2219
330
221A
330
2385
330
2386
  0
IDBUFFER
  5
2EBB
330
0
100
AcDbIdBuffer
330
223E
330
2259
330
2643
330
2865
330
2D23
  0
IDBUFFER
  5
2EBC
330
0
100
AcDbIdBuffer
  0
IDBUFFER
  5
2EBD
330
0
100
AcDbIdBuffer
330
19BD
  0
ENDSEC
  0
EOF
