  0
SECTION
  2
HEADER
  9
$ACADVER
  1
AC1014
  9
$ACADMAINTVER
 70
     9
  9
$DWGCODEPAGE
  3
ANSI_932
  9
$INSBASE
 10
0.0
 20
0.0
 30
0.0
  9
$EXTMIN
 10
-84.34201976987468
 20
-25.25000099999999
 30
-0.00000001
  9
$EXTMAX
 10
14.07187634378738
 20
13.72251105824154
 30
0.00000001
  9
$LIMMIN
 10
-103.134137649193
 20
-34.60724519099901
  9
$LIMMAX
 10
18.55390181307279
 20
25.8241434171262
  9
$ORTHOMODE
 70
     0
  9
$REGENMODE
 70
     1
  9
$FILLMODE
 70
     1
  9
$QTEXTMODE
 70
     0
  9
$MIRRTEXT
 70
     0
  9
$DRAGMODE
 70
     2
  9
$LTSCALE
 40
1.0
  9
$OSMODE
 70
    55
  9
$ATTMODE
 70
     1
  9
$TEXTSIZE
 40
2.5
  9
$TRACEWID
 40
1.0
  9
$TEXTSTYLE
  7
STANDARD
  9
$CLAYER
  8
AM_0
  9
$CELTYPE
  6
BYLAYER
  9
$CECOLOR
 62
   256
  9
$CELTSCALE
 40
1.0
  9
$DELOBJ
 70
     1
  9
$DISPSILH
 70
     0
  9
$DIMSCALE
 40
0.5
  9
$DIMASZ
 40
2.5
  9
$DIMEXO
 40
1.0
  9
$DIMDLI
 40
12.0
  9
$DIMRND
 40
0.0
  9
$DIMDLE
 40
0.0
  9
$DIMEXE
 40
1.0
  9
$DIMTP
 40
0.1
  9
$DIMTM
 40
0.1
  9
$DIMTXT
 40
3.2
  9
$DIMCEN
 40
0.0
  9
$DIMTSZ
 40
0.0
  9
$DIMTOL
 70
     0
  9
$DIMLIM
 70
     0
  9
$DIMTIH
 70
     0
  9
$DIMTOH
 70
     0
  9
$DIMSE1
 70
     0
  9
$DIMSE2
 70
     0
  9
$DIMTAD
 70
     3
  9
$DIMZIN
 70
     8
  9
$DIMBLK
  1
OPEN30
  9
$DIMASO
 70
     1
  9
$DIMSHO
 70
     1
  9
$DIMPOST
  1

  9
$DIMAPOST
  1
"
  9
$DIMALT
 70
     0
  9
$DIMALTD
 70
     2
  9
$DIMALTF
 40
0.0393701
  9
$DIMLFAC
 40
1.0
  9
$DIMTOFL
 70
     1
  9
$DIMTVP
 40
0.0
  9
$DIMTIX
 70
     0
  9
$DIMSOXD
 70
     0
  9
$DIMSAH
 70
     0
  9
$DIMBLK1
  1

  9
$DIMBLK2
  1

  9
$DIMSTYLE
  2
AM_JIS
  9
$DIMCLRD
 70
   256
  9
$DIMCLRE
 70
   256
  9
$DIMCLRT
 70
     2
  9
$DIMTFAC
 40
0.71
  9
$DIMGAP
 40
1.5
  9
$DIMJUST
 70
     0
  9
$DIMSD1
 70
     0
  9
$DIMSD2
 70
     0
  9
$DIMTOLJ
 70
     0
  9
$DIMTZIN
 70
     0
  9
$DIMALTZ
 70
     0
  9
$DIMALTTZ
 70
     0
  9
$DIMFIT
 70
     3
  9
$DIMUPT
 70
     0
  9
$DIMUNIT
 70
     2
  9
$DIMDEC
 70
     3
  9
$DIMTDEC
 70
     3
  9
$DIMALTU
 70
     2
  9
$DIMALTTD
 70
     2
  9
$DIMTXSTY
  7
ASAMI
  9
$DIMAUNIT
 70
     0
  9
$LUNITS
 70
     2
  9
$LUPREC
 70
     2
  9
$SKETCHINC
 40
1.0
  9
$FILLETRAD
 40
2.5
  9
$AUNITS
 70
     0
  9
$AUPREC
 70
     0
  9
$MENU
  1
.
  9
$ELEVATION
 40
0.0
  9
$PELEVATION
 40
0.0
  9
$THICKNESS
 40
0.0
  9
$LIMCHECK
 70
     0
  9
$BLIPMODE
 70
     0
  9
$CHAMFERA
 40
0.25
  9
$CHAMFERB
 40
0.25
  9
$CHAMFERC
 40
20.0
  9
$CHAMFERD
 40
0.0
  9
$SKPOLY
 70
     0
  9
$TDCREATE
 40
2452800.443498622
  9
$TDUPDATE
 40
2453151.577293275
  9
$TDINDWG
 40
0.0963754861
  9
$TDUSRTIMER
 40
0.0963754861
  9
$USRTIMER
 70
     1
  9
$ANGBASE
 50
0.0
  9
$ANGDIR
 70
     0
  9
$PDMODE
 70
     3
  9
$PDSIZE
 40
0.0
  9
$PLINEWID
 40
0.0
  9
$COORDS
 70
     1
  9
$SPLFRAME
 70
     0
  9
$SPLINETYPE
 70
     6
  9
$SPLINESEGS
 70
     8
  9
$ATTDIA
 70
     1
  9
$ATTREQ
 70
     1
  9
$HANDLING
 70
 12289
  9
$HANDSEED
  5
38C2
  9
$SURFTAB1
 70
     6
  9
$SURFTAB2
 70
     6
  9
$SURFTYPE
 70
     6
  9
$SURFU
 70
     6
  9
$SURFV
 70
     6
  9
$UCSNAME
  2

  9
$UCSORG
 10
0.0
 20
0.0
 30
0.0
  9
$UCSXDIR
 10
1.0
 20
0.0
 30
0.0
  9
$UCSYDIR
 10
0.0
 20
1.0
 30
0.0
  9
$PUCSNAME
  2

  9
$PUCSORG
 10
0.0
 20
0.0
 30
0.0
  9
$PUCSXDIR
 10
1.0
 20
0.0
 30
0.0
  9
$PUCSYDIR
 10
0.0
 20
1.0
 30
0.0
  9
$USERI1
 70
     0
  9
$USERI2
 70
     0
  9
$USERI3
 70
     0
  9
$USERI4
 70
     0
  9
$USERI5
 70
     0
  9
$USERR1
 40
0.0
  9
$USERR2
 40
0.0
  9
$USERR3
 40
0.0
  9
$USERR4
 40
0.0
  9
$USERR5
 40
0.0
  9
$WORLDVIEW
 70
     1
  9
$SHADEDGE
 70
     3
  9
$SHADEDIF
 70
    70
  9
$TILEMODE
 70
     1
  9
$MAXACTVP
 70
    64
  9
$PINSBASE
 10
0.0
 20
0.0
 30
0.0
  9
$PLIMCHECK
 70
     0
  9
$PEXTMIN
 10
1.000000000000000E+20
 20
1.000000000000000E+20
 30
1.000000000000000E+20
  9
$PEXTMAX
 10
-1.000000000000000E+20
 20
-1.000000000000000E+20
 30
-1.000000000000000E+20
  9
$PLIMMIN
 10
0.0
 20
0.0
  9
$PLIMMAX
 10
841.0
 20
594.0
  9
$UNITMODE
 70
     0
  9
$VISRETAIN
 70
     1
  9
$PLINEGEN
 70
     0
  9
$PSLTSCALE
 70
     0
  9
$TREEDEPTH
 70
  3020
  9
$PICKSTYLE
 70
     0
  9
$CMLSTYLE
  2
STANDARD
  9
$CMLJUST
 70
     0
  9
$CMLSCALE
 40
20.0
  9
$PROXYGRAPHICS
 70
     1
  9
$MEASUREMENT
 70
     1
  0
ENDSEC
  0
SECTION
  2
CLASSES
  0
CLASS
  1
ACDBDICTIONARYWDFLT
  2
AcDbDictionaryWithDefault
  3
AutoCAD 2000
 90
        0
280
     0
281
     0
  0
CLASS
  1
ACDBPLACEHOLDER
  2
AcDbPlaceHolder
  3
AutoCAD 2000
 90
        0
280
     0
281
     0
  0
CLASS
  1
LAYOUT
  2
AcDbLayout
  3
AutoCAD 2000
 90
        0
280
     0
281
     0
  0
CLASS
  1
AMGSETTINGSOBJ
  2
AmgSettingsObj
  3
"AcadM|Product Description: AutoCAD Mechanical 2000|Company: Autodesk"
 90
        0
280
     0
281
     0
  0
CLASS
  1
ACME_DOCUMENT
  2
AcMeDbDoc
  3
AcMeServices
 90
        0
280
     0
281
     0
  0
CLASS
  1
ACMESCOPE
  2
AcMeScope
  3
AcMeServices
 90
        0
280
     0
281
     0
  0
CLASS
  1
ACMECOMMANDHISTORY
  2
AcMeCommandHistory
  3
AcMeServices
 90
        0
280
     0
281
     0
  0
CLASS
  1
DICTIONARYVAR
  2
AcDbDictionaryVar
  3
AutoCAD 2000
 90
        0
280
     0
281
     0
  0
CLASS
  1
ACIMSYSVARMAN
  2
AcImSysVarManager
  3
AcMeServices
 90
        0
280
     0
281
     0
  0
CLASS
  1
ACIMREALSYSVAR
  2
AcImRealSysVar
  3
AcMeServices
 90
        0
280
     0
281
     0
  0
CLASS
  1
ACIMINTSYSVAR
  2
AcImIntSysVar
  3
AcMeServices
 90
        0
280
     0
281
     0
  0
CLASS
  1
ACMEDRAWINGMAN
  2
AcMeDrawingMan
  3
AcMeServices
 90
        0
280
     0
281
     0
  0
CLASS
  1
ACMEVIEW
  2
AcMeView
  3
AcMeServices
 90
        0
280
     0
281
     0
  0
CLASS
  1
ACDBENTITYCACHE
  2
AcMeEntityCache
  3
AcMeServices
 90
        0
280
     0
281
     0
  0
CLASS
  1
GSMANAGER
  2
AcMeGSManager
  3
AcMeServices
 90
        0
280
     0
281
     0
  0
CLASS
  1
AmdtInternalReactor
  2
AmdtInternalReactor
  3
AcMeServices
 90
        0
280
     0
281
     0
  0
CLASS
  1
ACMESTATEMGR
  2
AcMeStateMgr
  3
AcMeServices
 90
        0
280
     0
281
     0
  0
CLASS
  1
ACME_DATABASE
  2
AcMeDbDatabase
  3
AcMeServices
 90
        0
280
     0
281
     0
  0
CLASS
  1
ACRFINSADJUSTERMGR
  2
AcRfInsAdjusterMgr
  3
AcMeServices
 90
        0
280
     0
281
     0
  0
CLASS
  1
ACMDATADICTIONARY
  2
AcmDataDictionary
  3
"AcmSymBB|Product Description: AutoCAD Mechanical 2000|Company: Autodesk"
 90
        0
280
     0
281
     0
  0
CLASS
  1
ACMDATAENTRYBLOCK
  2
AcmDataEntryBlock
  3
"AcmSymBB|Product Description: AutoCAD Mechanical 2000|Company: Autodesk"
 90
        0
280
     0
281
     0
  0
CLASS
  1
AMGOBJPROPCFG
  2
AmgObjPropCfg
  3
"AmgLay|Product Description: AutoCAD Mechanical 2000|Company: Autodesk"
 90
        1
280
     0
281
     0
  0
CLASS
  1
ACAMGFILTERDAT
  2
AcAmgFilterDat
  3
"AcadM|Product Description: AutoCAD Mechanical 2000|Company: Autodesk"
 90
        0
280
     0
281
     0
  0
CLASS
  1
LAYER_INDEX
  2
AcDbLayerIndex
  3
AutoCAD 2000
 90
        0
280
     0
281
     0
  0
CLASS
  1
IDBUFFER
  2
AcDbIdBuffer
  3
AutoCAD 2000
 90
        0
280
     0
281
     0
  0
CLASS
  1
ACIMSTRSYSVAR
  2
AcImStrSysVar
  3
AcMeServices
 90
        0
280
     0
281
     0
  0
CLASS
  1
ACMSTANDARDJIS
  2
AcmStandardJIS
  3
"AcmSymBB|Product Description: AutoCAD Mechanical 2000|Company: Autodesk"
 90
        0
280
     0
281
     0
  0
CLASS
  1
ACMSURFSTANDARDJIS
  2
AcmSurfTextStdJIS
  3
"AcmSymBB|Product Description: AutoCAD Mechanical 2000|Company: Autodesk"
 90
        0
280
     0
281
     0
  0
CLASS
  1
ACMFCFSTANDARDJIS
  2
AcmFCFStdJIS
  3
"AcmSymBB|Product Description: AutoCAD Mechanical 2000|Company: Autodesk"
 90
        0
280
     0
281
     0
  0
CLASS
  1
ACMWELDSTANDARDJIS
  2
AcmWeldingStdJIS
  3
"AcmSymBB|Product Description: AutoCAD Mechanical 2000|Company: Autodesk"
 90
        0
280
     0
281
     0
  0
CLASS
  1
ACMIDSTANDARDJIS
  2
AcmIdStdJIS
  3
"AcmSymBB|Product Description: AutoCAD Mechanical 2000|Company: Autodesk"
 90
        0
280
     0
281
     0
  0
CLASS
  1
ACMDATUMSTANDARDJIS
  2
AcmDatumStdJIS
  3
"AcmSymBB|Product Description: AutoCAD Mechanical 2000|Company: Autodesk"
 90
        0
280
     0
281
     0
  0
CLASS
  1
ACMBOMSTANDARDJIS
  2
AcmBOMStdJIS
  3
"AcmSymBB|Product Description: AutoCAD Mechanical 2000|Company: Autodesk"
 90
        0
280
     0
281
     0
  0
CLASS
  1
ACMSTANDARDANSI
  2
AcmStandardANSI
  3
"AcmSymBB|Product Description: AutoCAD Mechanical 2000|Company: Autodesk"
 90
        0
280
     0
281
     0
  0
CLASS
  1
ACMSURFSTANDARDANSI
  2
AcmSurfTextStdANSI
  3
"AcmSymBB|Product Description: AutoCAD Mechanical 2000|Company: Autodesk"
 90
        0
280
     0
281
     0
  0
CLASS
  1
ACMFCFSTANDARDANSI
  2
AcmFCFStdANSI
  3
"AcmSymBB|Product Description: AutoCAD Mechanical 2000|Company: Autodesk"
 90
        0
280
     0
281
     0
  0
CLASS
  1
ACMWELDSTANDARDANSI
  2
AcmWeldingStdANSI
  3
"AcmSymBB|Product Description: AutoCAD Mechanical 2000|Company: Autodesk"
 90
        0
280
     0
281
     0
  0
CLASS
  1
ACMIDSTANDARDANSI
  2
AcmIdStdANSI
  3
"AcmSymBB|Product Description: AutoCAD Mechanical 2000|Company: Autodesk"
 90
        0
280
     0
281
     0
  0
CLASS
  1
ACMDATUMSTANDARDANSI
  2
AcmDatumStdANSI
  3
"AcmSymBB|Product Description: AutoCAD Mechanical 2000|Company: Autodesk"
 90
        0
280
     0
281
     0
  0
CLASS
  1
ACMBOMSTANDARDANSI
  2
AcmBOMStdANSI
  3
"AcmSymBB|Product Description: AutoCAD Mechanical 2000|Company: Autodesk"
 90
        0
280
     0
281
     0
  0
CLASS
  1
ACMSTANDARDBSI
  2
AcmStandardBSI
  3
"AcmSymBB|Product Description: AutoCAD Mechanical 2000|Company: Autodesk"
 90
        0
280
     0
281
     0
  0
CLASS
  1
ACMSURFSTANDARDBSI
  2
AcmSurfTextStdBSI
  3
"AcmSymBB|Product Description: AutoCAD Mechanical 2000|Company: Autodesk"
 90
        0
280
     0
281
     0
  0
CLASS
  1
ACMFCFSTANDARDBSI
  2
AcmFCFStdBSI
  3
"AcmSymBB|Product Description: AutoCAD Mechanical 2000|Company: Autodesk"
 90
        0
280
     0
281
     0
  0
CLASS
  1
ACMWELDSTANDARDBSI
  2
AcmWeldingStdBSI
  3
"AcmSymBB|Product Description: AutoCAD Mechanical 2000|Company: Autodesk"
 90
        0
280
     0
281
     0
  0
CLASS
  1
ACMIDSTANDARDBSI
  2
AcmIdStdBSI
  3
"AcmSymBB|Product Description: AutoCAD Mechanical 2000|Company: Autodesk"
 90
        0
280
     0
281
     0
  0
CLASS
  1
ACMDATUMSTANDARDBSI
  2
AcmDatumStdBSI
  3
"AcmSymBB|Product Description: AutoCAD Mechanical 2000|Company: Autodesk"
 90
        0
280
     0
281
     0
  0
CLASS
  1
ACMBOMSTANDARDBSI
  2
AcmBOMStdBSI
  3
"AcmSymBB|Product Description: AutoCAD Mechanical 2000|Company: Autodesk"
 90
        0
280
     0
281
     0
  0
CLASS
  1
LONG_TRANSACTION
  2
AcDbLongTransaction
  3
AutoCAD 2000
 90
        0
280
     0
281
     0
  0
CLASS
  1
LWPOLYLINE
  2
AcDbPolyline
  3
AutoCAD 2000
 90
        0
280
     0
281
     1
  0
CLASS
  1
HATCH
  2
AcDbHatch
  3
AutoCAD 2000
 90
        0
280
     0
281
     1
  0
CLASS
  1
XRECORD
  2
AcDbXrecord
  3
AutoCAD 2000
 90
        0
280
     0
281
     0
  0
ENDSEC
  0
SECTION
  2
TABLES
  0
TABLE
  2
VPORT
  5
8
330
0
100
AcDbSymbolTable
 70
     3
  0
VPORT
  5
388C
330
8
100
AcDbSymbolTableRecord
100
AcDbViewportTableRecord
  2
*ACTIVE
 70
     0
 10
0.0
 20
0.0
 11
1.0
 21
1.0
 12
-33.29380501797239
 22
-5.765494367005857
 13
0.0
 23
0.0
 14
2.5
 24
2.5
 15
10.0
 25
10.0
 16
0.0
 26
0.0
 36
1.0
 17
0.0
 27
0.0
 37
0.0
 40
65.52678921362804
 41
1.56570841889117
 42
50.0
 43
0.0
 44
0.0
 50
0.0
 51
0.0
 71
     0
 72
   100
 73
     1
 74
     1
 75
     0
 76
     0
 77
     0
 78
     0
  0
ENDTAB
  0
TABLE
  2
LTYPE
  5
5
330
0
100
AcDbSymbolTable
 70
    10
  0
LTYPE
  5
14
330
5
100
AcDbSymbolTableRecord
100
AcDbLinetypeTableRecord
  2
BYBLOCK
 70
     0
  3

 72
    65
 73
     0
 40
0.0
  0
LTYPE
  5
15
330
5
100
AcDbSymbolTableRecord
100
AcDbLinetypeTableRecord
  2
BYLAYER
 70
     0
  3

 72
    65
 73
     0
 40
0.0
  0
LTYPE
  5
16
330
5
100
AcDbSymbolTableRecord
100
AcDbLinetypeTableRecord
  2
CONTINUOUS
 70
     0
  3
Solid line
 72
    65
 73
     0
 40
0.0
  0
LTYPE
  5
4B
330
5
100
AcDbSymbolTableRecord
100
AcDbLinetypeTableRecord
  2
AM_ISO02W050
 70
     0
  3
__ __ __ __ __ __ __ __ __ __ __ __ __ __ __
 72
    65
 73
     2
 40
7.5
 49
6.0
 74
     0
 49
-1.5
 74
     0
  0
LTYPE
  5
4C
330
5
100
AcDbSymbolTableRecord
100
AcDbLinetypeTableRecord
  2
AM_ISO08W050
 70
     0
  3
____ . ____ . ____ . ____ . ____ . ____ . ____
 72
    65
 73
     4
 40
18.0
 49
12.0
 74
     0
 49
-1.5
 74
     0
 49
3.0
 74
     0
 49
-1.5
 74
     0
  0
LTYPE
  5
4D
330
5
100
AcDbSymbolTableRecord
100
AcDbLinetypeTableRecord
  2
AM_ISO09W050
 70
     0
  3
_____ . . _____ . . _____ . . ____ .. ____
 72
    65
 73
     6
 40
22.5
 49
12.0
 74
     0
 49
-1.5
 74
     0
 49
3.0
 74
     0
 49
-1.5
 74
     0
 49
3.0
 74
     0
 49
-1.5
 74
     0
  0
LTYPE
  5
4E
330
5
100
AcDbSymbolTableRecord
100
AcDbLinetypeTableRecord
  2
AMCONSTR
 70
     0
  3
_______________________
 72
    65
 73
     2
 40
9999.0
 49
9999.0
 74
     0
 49
0.0
 74
     0
  0
LTYPE
  5
4F
330
5
100
AcDbSymbolTableRecord
100
AcDbLinetypeTableRecord
  2
AM_ISO02W050X2
 70
     0
  3
 _ _ _ _ _ _ _ _ _ _ _ _
 72
    65
 73
     2
 40
3.75
 49
3.0
 74
     0
 49
-0.75
 74
     0
  0
LTYPE
  5
50
330
5
100
AcDbSymbolTableRecord
100
AcDbLinetypeTableRecord
  2
AM_ISO08W050X2
 70
     0
  3
__ . __ . __ . __ . __ . __
 72
    65
 73
     4
 40
9.0
 49
6.0
 74
     0
 49
-0.75
 74
     0
 49
1.5
 74
     0
 49
-0.75
 74
     0
  0
LTYPE
  5
53
330
5
100
AcDbSymbolTableRecord
100
AcDbLinetypeTableRecord
  2
AMZIGZAG
 70
     0
  3
/\/-/\/-/\/-/\/-/\/-/\/
 72
    65
 73
     2
 40
11.00009999999999
 49
0.0001
 74
     4
 75
   135
340
52
 46
0.04
 50
0.0
 44
0.0
 45
0.0
 49
-11.0
 74
     0
  0
LTYPE
  5
166
330
5
100
AcDbSymbolTableRecord
100
AcDbLinetypeTableRecord
  2
ACJISTGL
 70
     0
  3
_ _ _ _ _
 72
    65
 73
     2
 40
3.0
 49
2.0
 74
     0
 49
-1.0
 74
     0
  0
LTYPE
  5
26A
330
5
100
AcDbSymbolTableRecord
100
AcDbLinetypeTableRecord
  2
ACJISTGB
 70
     0
  3
__ . . __ . .
 72
    65
 73
     6
 40
9.0
 49
4.0
 74
     0
 49
-1.0
 74
     0
 49
1.0
 74
     0
 49
-1.0
 74
     0
 49
1.0
 74
     0
 49
-1.0
 74
     0
  0
ENDTAB
  0
TABLE
  2
LAYER
  5
2
330
0
100
AcDbSymbolTable
 70
     7
  0
LAYER
  5
10
330
2
100
AcDbSymbolTableRecord
100
AcDbLayerTableRecord
  2
0
 70
     0
 62
     7
  6
CONTINUOUS
  0
LAYER
  5
3F9
330
2
100
AcDbSymbolTableRecord
100
AcDbLayerTableRecord
  2
AM_0
 70
     0
 62
     7
  6
CONTINUOUS
  0
LAYER
  5
C7C
330
2
100
AcDbSymbolTableRecord
100
AcDbLayerTableRecord
  2
AM_7
 70
     0
 62
     4
  6
AM_ISO08W050
  0
LAYER
  5
C97
330
2
100
AcDbSymbolTableRecord
100
AcDbLayerTableRecord
  2
AM_11
 70
     0
 62
     3
  6
AM_ISO09W050
  0
LAYER
  5
CC5
330
2
100
AcDbSymbolTableRecord
100
AcDbLayerTableRecord
  2
AM_5
 70
     0
 62
     3
  6
CONTINUOUS
  0
LAYER
  5
CC7
330
2
100
AcDbSymbolTableRecord
100
AcDbLayerTableRecord
  2
DEFPOINTS
 70
     0
 62
     7
  6
CONTINUOUS
  0
LAYER
  5
19BC
330
2
100
AcDbSymbolTableRecord
100
AcDbLayerTableRecord
  2
AM_6
 70
     0
 62
     2
  6
CONTINUOUS
  0
ENDTAB
  0
TABLE
  2
STYLE
  5
3
330
0
100
AcDbSymbolTable
 70
     5
  0
STYLE
  5
11
330
3
100
AcDbSymbolTableRecord
100
AcDbTextStyleTableRecord
  2
STANDARD
 70
     0
 40
0.0
 41
1.0
 50
0.0
 71
     0
 42
2.5
  3
simplex.shx
  4
EXTFONT.SHX
  0
STYLE
  5
52
330
3
100
AcDbSymbolTableRecord
100
AcDbTextStyleTableRecord
  2

 70
     1
 40
0.0
 41
1.0
 50
0.0
 71
     0
 42
2.5
  3
ltypeshp.shx
  4

  0
STYLE
  5
6B
330
3
100
AcDbSymbolTableRecord
100
AcDbTextStyleTableRecord
  2
ASAMI
 70
     0
 40
0.0
 41
1.0
 50
0.0
 71
     0
 42
2.5
  3
simplex.shx
  4
EXTFONT.SHX
  0
STYLE
  5
262
330
3
100
AcDbSymbolTableRecord
100
AcDbTextStyleTableRecord
  2
ACJISTS
 70
     0
 40
1.0
 41
1.0
 50
0.0
 71
     0
 42
2.5
  3
simplex.shx
  4
bigfont.shx
  0
STYLE
  5
269
330
3
100
AcDbSymbolTableRecord
100
AcDbTextStyleTableRecord
  2
ACJISGDT
 70
     0
 40
0.0
 41
1.0
 50
0.0
 71
     0
 42
2.5
  3
amgdtans.shx
  4

  0
ENDTAB
  0
TABLE
  2
VIEW
  5
6
330
0
100
AcDbSymbolTable
 70
     0
  0
ENDTAB
  0
TABLE
  2
UCS
  5
7
330
0
100
AcDbSymbolTable
 70
     0
  0
ENDTAB
  0
TABLE
  2
APPID
  5
9
330
0
100
AcDbSymbolTable
 70
    16
  0
APPID
  5
12
330
9
100
AcDbSymbolTableRecord
100
AcDbRegAppTableRecord
  2
ACAD
 70
     0
  0
APPID
  5
30
330
9
100
AcDbSymbolTableRecord
100
AcDbRegAppTableRecord
  2
MCAD_NO_VIS
 70
     0
  0
APPID
  5
31
330
9
100
AcDbSymbolTableRecord
100
AcDbRegAppTableRecord
  2
ACAD_TEMP_GRAPHIC
 70
     0
  0
APPID
  5
2C2
330
9
100
AcDbSymbolTableRecord
100
AcDbRegAppTableRecord
  2
GENIUS_GENDTOL_13
 70
     0
  0
APPID
  5
339
330
9
100
AcDbSymbolTableRecord
100
AcDbRegAppTableRecord
  2
GENIUS_GENODEF_13
 70
     0
  0
APPID
  5
33A
330
9
100
AcDbSymbolTableRecord
100
AcDbRegAppTableRecord
  2
GENIUS_GENOBJ-N-RSBK_13
 70
     0
  0
APPID
  5
33B
330
9
100
AcDbSymbolTableRecord
100
AcDbRegAppTableRecord
  2
GENIUS_GENOBJ-N-LIB_13
 70
     0
  0
APPID
  5
33C
330
9
100
AcDbSymbolTableRecord
100
AcDbRegAppTableRecord
  2
GENIUS_GENSCALE_13
 70
     0
  0
APPID
  5
378
330
9
100
AcDbSymbolTableRecord
100
AcDbRegAppTableRecord
  2
GENIUS_GENDIMSH_14
 70
     0
  0
APPID
  5
C82
330
9
100
AcDbSymbolTableRecord
100
AcDbRegAppTableRecord
  2
GENIUS_GENOBJ-N-CRS_13
 70
     0
  0
APPID
  5
C83
330
9
100
AcDbSymbolTableRecord
100
AcDbRegAppTableRecord
  2
GENIUS_GENOENT_13
 70
     0
  0
APPID
  5
C84
330
9
100
AcDbSymbolTableRecord
100
AcDbRegAppTableRecord
  2
GENIUS_GENOREF_13
 70
     0
  0
APPID
  5
C85
330
9
100
AcDbSymbolTableRecord
100
AcDbRegAppTableRecord
  2
GENIUS_GENOLIS_13
 70
     0
  0
APPID
  5
CA0
330
9
100
AcDbSymbolTableRecord
100
AcDbRegAppTableRecord
  2
GENIUS_GENOBJ-N-CEN_13
 70
     0
  0
APPID
  5
1CFA
330
9
100
AcDbSymbolTableRecord
100
AcDbRegAppTableRecord
  2
GENIUS_GENFIL_13
 70
     0
  0
APPID
  5
1CFB
330
9
100
AcDbSymbolTableRecord
100
AcDbRegAppTableRecord
  2
GENIUS_GENOBJ-N-CHA_13
 70
     0
  0
ENDTAB
  0
TABLE
  2
DIMSTYLE
  5
A
330
0
100
AcDbSymbolTable
 70
     9
  0
DIMSTYLE
105
58
330
A
100
AcDbSymbolTableRecord
100
AcDbDimStyleTableRecord
  2
AM_JIS
 70
     0
  3

  4
"
  5
OPEN30
  6

  7

 40
0.5
 41
2.5
 42
1.0
 43
12.0
 44
1.0
 45
0.0
 46
0.0
 47
0.1
 48
0.1
140
3.2
141
0.0
142
0.0
143
0.0393701
144
1.0
145
0.0
146
0.71
147
1.5
 71
     0
 72
     0
 73
     0
 74
     0
 75
     0
 76
     0
 77
     3
 78
     8
170
     0
171
     2
172
     1
173
     0
174
     0
175
     0
176
   256
177
   256
178
     2
270
     2
271
     3
272
     3
273
     2
274
     2
340
6B
275
     0
280
     0
281
     0
282
     0
283
     0
284
     0
285
     0
286
     0
287
     3
288
     0
  0
DIMSTYLE
105
5F
330
A
100
AcDbSymbolTableRecord
100
AcDbDimStyleTableRecord
  2
AM_JIS$3
 70
     0
  3

  4
"
  5
OPEN30
  6

  7

 40
0.5
 41
2.5
 42
1.0
 43
10.0
 44
1.0
 45
0.0
 46
0.0
 47
0.1
 48
0.1
140
3.2
141
0.0
142
0.0
143
0.0393701
144
1.0
145
0.0
146
0.71
147
1.5
 71
     0
 72
     0
 73
     0
 74
     1
 75
     0
 76
     0
 77
     3
 78
     8
170
     0
171
     2
172
     0
173
     0
174
     0
175
     0
176
   256
177
   256
178
     2
270
     2
271
     2
272
     3
273
     2
274
     2
340
6B
275
     0
280
     0
281
     0
282
     0
283
     0
284
     0
285
     0
286
     0
287
     0
288
     1
  0
DIMSTYLE
105
60
330
A
100
AcDbSymbolTableRecord
100
AcDbDimStyleTableRecord
  2
AM_JIS$4
 70
     0
  3

  4
"
  5
OPEN30
  6

  7

 40
0.5
 41
2.5
 42
1.0
 43
10.0
 44
1.0
 45
0.0
 46
0.0
 47
0.1
 48
0.1
140
3.2
141
0.0
142
0.0
143
0.0393701
144
1.0
145
0.0
146
0.71
147
1.5
 71
     0
 72
     0
 73
     0
 74
     1
 75
     0
 76
     0
 77
     3
 78
     8
170
     0
171
     2
172
     0
173
     0
174
     0
175
     0
176
   256
177
   256
178
     2
270
     2
271
     2
272
     3
273
     2
274
     2
340
6B
275
     0
280
     0
281
     0
282
     0
283
     0
284
     0
285
     0
286
     0
287
     0
288
     1
  0
DIMSTYLE
105
61
330
A
100
AcDbSymbolTableRecord
100
AcDbDimStyleTableRecord
  2
AM_JIS$6
 70
     0
  3

  4
"
  5
OPEN30
  6

  7

 40
0.5
 41
2.5
 42
1.0
 43
10.0
 44
1.0
 45
0.0
 46
0.0
 47
0.1
 48
0.1
140
3.2
141
0.0
142
0.0
143
0.0393701
144
1.0
145
0.0
146
0.71
147
1.5
 71
     0
 72
     0
 73
     0
 74
     0
 75
     0
 76
     0
 77
     0
 78
     8
170
     0
171
     2
172
     1
173
     0
174
     0
175
     0
176
   256
177
   256
178
     2
270
     2
271
     2
272
     2
273
     2
274
     2
340
6B
275
     0
280
     0
281
     0
282
     0
283
     0
284
     0
285
     0
286
     0
287
     3
288
     0
  0
DIMSTYLE
105
62
330
A
100
AcDbSymbolTableRecord
100
AcDbDimStyleTableRecord
  2
AM_JIS$7
 70
     0
  3

  4
"
  5
OPEN30
  6

  7

 40
0.5
 41
2.5
 42
1.0
 43
10.0
 44
1.0
 45
0.0
 46
0.0
 47
0.1
 48
0.1
140
3.2
141
0.0
142
0.0
143
0.0393701
144
1.0
145
0.0
146
0.71
147
1.5
 71
     0
 72
     0
 73
     0
 74
     0
 75
     0
 76
     0
 77
     3
 78
     8
170
     0
171
     2
172
     1
173
     0
174
     0
175
     0
176
   256
177
   256
178
     2
270
     2
271
     2
272
     3
273
     2
274
     2
340
6B
275
     0
280
     0
281
     0
282
     0
283
     0
284
     0
285
     0
286
     0
287
     3
288
     0
  0
DIMSTYLE
105
63
330
A
100
AcDbSymbolTableRecord
100
AcDbDimStyleTableRecord
  2
AM_JIS$SF
 70
     0
  3

  4
"
  5
OPEN30
  6

  7

 40
0.5
 41
2.5
 42
1.0
 43
10.0
 44
1.0
 45
0.0
 46
0.0
 47
0.1
 48
0.1
140
3.2
141
0.0
142
0.0
143
0.0393701
144
1.0
145
0.0
146
0.71
147
1.5
 71
     0
 72
     0
 73
     0
 74
     0
 75
     1
 76
     1
 77
     3
 78
     8
170
     0
171
     2
172
     1
173
     0
174
     0
175
     0
176
   256
177
   256
178
     2
270
     2
271
     2
272
     2
273
     2
274
     2
340
6B
275
     0
280
     0
281
     0
282
     0
283
     0
284
     0
285
     0
286
     0
287
     3
288
     0
  0
DIMSTYLE
105
68
330
A
100
AcDbSymbolTableRecord
100
AcDbDimStyleTableRecord
  2
AM_JIS$SH
 70
     0
  3

  4
"
  5

  6
GENAXEH
  7
OPEN30
 40
0.5
 41
2.5
 42
1.0
 43
10.0
 44
1.0
 45
0.0
 46
0.0
 47
0.1
 48
0.1
140
3.2
141
0.0
142
0.0
143
0.0393701
144
2.0
145
0.0
146
0.71
147
1.5
 71
     0
 72
     0
 73
     0
 74
     0
 75
     1
 76
     1
 77
     3
 78
     8
170
     0
171
     2
172
     1
173
     1
174
     0
175
     0
176
   256
177
   256
178
     2
270
     2
271
     2
272
     2
273
     2
274
     2
340
6B
275
     0
280
     0
281
     0
282
     0
283
     0
284
     0
285
     0
286
     0
287
     3
288
     0
  0
DIMSTYLE
105
B34
102
{ACAD_REACTORS
330
2FE5
102
}
330
A
100
AcDbSymbolTableRecord
100
AcDbDimStyleTableRecord
  2
AM_JIS$2
 70
     0
  3

  4
"
  5
OPEN30
  6

  7

 40
0.5
 41
2.5
 42
1.0
 43
12.0
 44
1.0
 45
0.0
 46
0.0
 47
0.1
 48
0.1
140
3.2
141
0.0
142
0.0
143
0.0393701
144
1.0
145
0.0
146
0.71
147
1.5
 71
     0
 72
     0
 73
     0
 74
     0
 75
     0
 76
     0
 77
     3
 78
     8
170
     0
171
     2
172
     1
173
     0
174
     0
175
     0
176
   256
177
   256
178
     2
270
     2
271
     3
272
     3
273
     2
274
     2
340
6B
275
     0
280
     0
281
     0
282
     0
283
     0
284
     0
285
     0
286
     0
287
     3
288
     0
  0
DIMSTYLE
105
BA5
102
{ACAD_REACTORS
330
223E
330
2259
330
282D
330
2ABE
102
}
330
A
100
AcDbSymbolTableRecord
100
AcDbDimStyleTableRecord
  2
AM_JIS$0
 70
     0
  3

  4
"
  5
OPEN30
  6

  7

 40
0.5
 41
2.5
 42
0.0
 43
10.0
 44
1.0
 45
0.0
 46
0.0
 47
0.1
 48
0.1000000001
140
3.799999999999999
141
0.0
142
0.0
143
0.0393701
144
1.0
145
0.0
146
0.71
147
1.5
 71
     0
 72
     0
 73
     0
 74
     0
 75
     0
 76
     0
 77
     3
 78
     1
170
     0
171
     2
172
     1
173
     0
174
     0
175
     0
176
     3
177
     3
178
     2
270
     2
271
     2
272
     2
273
     2
274
     2
340
11
275
     1
280
     0
281
     0
282
     0
283
     0
284
     8
285
     0
286
     0
287
     0
288
     0
  0
ENDTAB
  0
TABLE
  2
BLOCK_RECORD
  5
1
330
0
100
AcDbSymbolTable
 70
    10
  0
BLOCK_RECORD
  5
1F
102
{ACAD_XDICTIONARY
360
74
102
}
330
1
100
AcDbSymbolTableRecord
100
AcDbBlockTableRecord
  2
*MODEL_SPACE
  0
BLOCK_RECORD
  5
101
102
{ACAD_XDICTIONARY
360
38B5
102
}
330
1
100
AcDbSymbolTableRecord
100
AcDbBlockTableRecord
  2
*PAPER_SPACE
  0
BLOCK_RECORD
  5
59
330
1
100
AcDbSymbolTableRecord
100
AcDbBlockTableRecord
  2
_OPEN30
  0
BLOCK_RECORD
  5
64
330
1
100
AcDbSymbolTableRecord
100
AcDbBlockTableRecord
  2
GENAXEH
  0
BLOCK_RECORD
  5
223F
330
1
100
AcDbSymbolTableRecord
100
AcDbBlockTableRecord
  2
*D5
  0
BLOCK_RECORD
  5
225A
330
1
100
AcDbSymbolTableRecord
100
AcDbBlockTableRecord
  2
*D6
  0
BLOCK_RECORD
  5
2833
330
1
100
AcDbSymbolTableRecord
100
AcDbBlockTableRecord
  2
*D7
  0
BLOCK_RECORD
  5
2ABF
330
1
100
AcDbSymbolTableRecord
100
AcDbBlockTableRecord
  2
*D8
  0
BLOCK_RECORD
  5
2FE6
330
1
100
AcDbSymbolTableRecord
100
AcDbBlockTableRecord
  2
*D9
  0
ENDTAB
  0
ENDSEC
  0
SECTION
  2
BLOCKS
  0
BLOCK
  5
20
330
1F
100
AcDbEntity
  8
0
100
AcDbBlockBegin
  2
*MODEL_SPACE
 70
     0
 10
0.0
 20
0.0
 30
0.0
  3
*MODEL_SPACE
  1

  0
ENDBLK
  5
21
330
1F
100
AcDbEntity
  8
0
100
AcDbBlockEnd
  0
BLOCK
  5
103
330
101
100
AcDbEntity
 67
     1
  8
0
100
AcDbBlockBegin
  2
*PAPER_SPACE
 70
     0
 10
0.0
 20
0.0
 30
0.0
  3
*PAPER_SPACE
  1

  0
ENDBLK
  5
104
330
101
100
AcDbEntity
 67
     1
  8
0
100
AcDbBlockEnd
  0
BLOCK
  5
5D
330
59
100
AcDbEntity
  8
0
100
AcDbBlockBegin
  2
_OPEN30
 70
     0
 10
0.0
 20
0.0
 30
0.0
  3
_OPEN30
  1

  0
LINE
  5
5A
330
59
100
AcDbEntity
  8
0
 62
     0
100
AcDbLine
 10
-1.0
 20
0.26794919
 30
0.0
 11
0.0
 21
0.0
 31
0.0
  0
LINE
  5
5B
330
59
100
AcDbEntity
  8
0
 62
     0
100
AcDbLine
 10
0.0
 20
0.0
 30
0.0
 11
-1.0
 21
-0.26794919
 31
0.0
  0
LINE
  5
5C
330
59
100
AcDbEntity
  8
0
 62
     0
100
AcDbLine
 10
0.0
 20
0.0
 30
0.0
 11
-1.0
 21
0.0
 31
0.0
  0
ENDBLK
  5
5E
330
59
100
AcDbEntity
  8
0
100
AcDbBlockEnd
  0
BLOCK
  5
66
330
64
100
AcDbEntity
  8
0
100
AcDbBlockBegin
  2
GENAXEH
 70
     0
 10
0.0
 20
0.0
 30
0.0
  3
GENAXEH
  1

  0
LINE
  5
65
330
64
100
AcDbEntity
  8
0
100
AcDbLine
 10
-1.0
 20
0.0
 30
0.0
 11
1.0
 21
0.0
 31
0.0
  0
ENDBLK
  5
67
330
64
100
AcDbEntity
  8
0
100
AcDbBlockEnd
  0
BLOCK
  5
2249
330
223F
100
AcDbEntity
  8
0
100
AcDbBlockBegin
  2
*D5
 70
     1
 10
0.0
 20
0.0
 30
0.0
  3
*D5
  1

  0
LINE
  5
3855
330
223F
100
AcDbEntity
  8
AM_5
 62
     3
100
AcDbLine
 10
-25.00000000000006
 20
-1.999999999999985
 30
0.0
 11
-25.00000000000006
 21
-9.50000099999994
 31
0.0
  0
LINE
  5
3856
330
223F
100
AcDbEntity
  8
AM_5
 62
     3
100
AcDbLine
 10
-0.999999999999993
 20
-1.849998526882963
 30
0.0
 11
-0.9999999999999936
 21
-9.50000099999994
 31
0.0
  0
LINE
  5
3857
330
223F
100
AcDbEntity
  8
AM_5
 62
     3
100
AcDbLine
 10
-23.75000000000006
 20
-9.00000099999994
 30
0.0
 11
-2.249999999999993
 21
-9.00000099999994
 31
0.0
  0
INSERT
  5
3858
330
223F
100
AcDbEntity
  8
AM_5
 62
     3
100
AcDbBlockReference
  2
_OPEN30
 10
-25.00000000000006
 20
-9.00000099999994
 30
0.0
 41
1.25
 42
1.25
 43
1.25
 50
180.0
  0
INSERT
  5
3859
330
223F
100
AcDbEntity
  8
AM_5
 62
     3
100
AcDbBlockReference
  2
_OPEN30
 10
-0.9999999999999936
 20
-9.00000099999994
 30
0.0
 41
1.25
 42
1.25
 43
1.25
  0
MTEXT
  5
385A
330
223F
100
AcDbEntity
  8
AM_5
 62
     2
100
AcDbMText
 10
-13.00000000000002
 20
-7.30000099999994
 30
0.0
 40
1.9
 41
0.0
 71
     5
 72
     1
  1
24
1001
ACAD
1000
MTEXTBEGIN
1070
    73
1070
     1
1070
    44
1040
1.0
1070
    74
1070
     0
1000
MTEXTEND
  0
POINT
  5
385B
330
223F
100
AcDbEntity
  8
DEFPOINTS
 62
     0
100
AcDbPoint
 10
-25.00000000000006
 20
-1.999999999999985
 30
0.0
  0
POINT
  5
385C
330
223F
100
AcDbEntity
  8
DEFPOINTS
 62
     0
100
AcDbPoint
 10
-0.999999999999993
 20
-1.849998526882963
 30
0.0
  0
POINT
  5
385D
330
223F
100
AcDbEntity
  8
DEFPOINTS
 62
     0
100
AcDbPoint
 10
-0.9999999999999936
 20
-9.00000099999994
 30
0.0
  0
ENDBLK
  5
224A
330
223F
100
AcDbEntity
  8
0
100
AcDbBlockEnd
  0
BLOCK
  5
2264
330
225A
100
AcDbEntity
  8
0
100
AcDbBlockBegin
  2
*D6
 70
     1
 10
0.0
 20
0.0
 30
0.0
  3
*D6
  1

  0
LINE
  5
3843
330
225A
100
AcDbEntity
  8
AM_5
 62
     3
100
AcDbLine
 10
-72.99999999999998
 20
-1.531249841054149
 30
0.0
 11
-72.99999999999998
 21
-14.50000099999996
 31
0.0
  0
LINE
  5
3844
330
225A
100
AcDbEntity
  8
AM_5
 62
     3
100
AcDbLine
 10
-0.999999999999993
 20
-1.849998526882963
 30
0.0
 11
-0.9999999999999939
 21
-14.50000099999996
 31
0.0
  0
LINE
  5
3845
330
225A
100
AcDbEntity
  8
AM_5
 62
     3
100
AcDbLine
 10
-71.74999999999998
 20
-14.00000099999996
 30
0.0
 11
-2.249999999999993
 21
-14.00000099999996
 31
0.0
  0
INSERT
  5
3846
330
225A
100
AcDbEntity
  8
AM_5
 62
     3
100
AcDbBlockReference
  2
_OPEN30
 10
-72.99999999999998
 20
-14.00000099999996
 30
0.0
 41
1.25
 42
1.25
 43
1.25
 50
180.0
  0
INSERT
  5
3847
330
225A
100
AcDbEntity
  8
AM_5
 62
     3
100
AcDbBlockReference
  2
_OPEN30
 10
-0.9999999999999939
 20
-14.00000099999996
 30
0.0
 41
1.25
 42
1.25
 43
1.25
  0
MTEXT
  5
3848
330
225A
100
AcDbEntity
  8
AM_5
 62
     2
100
AcDbMText
 10
-36.99999999999999
 20
-12.30000099999996
 30
0.0
 40
1.9
 41
0.0
 71
     5
 72
     1
  1
72
1001
ACAD
1000
MTEXTBEGIN
1070
    73
1070
     1
1070
    44
1040
1.0
1070
    74
1070
     0
1000
MTEXTEND
  0
POINT
  5
3849
330
225A
100
AcDbEntity
  8
DEFPOINTS
 62
     0
100
AcDbPoint
 10
-72.99999999999998
 20
-1.531249841054149
 30
0.0
  0
POINT
  5
384A
330
225A
100
AcDbEntity
  8
DEFPOINTS
 62
     0
100
AcDbPoint
 10
-0.999999999999993
 20
-1.849998526882963
 30
0.0
  0
POINT
  5
384B
330
225A
100
AcDbEntity
  8
DEFPOINTS
 62
     0
100
AcDbPoint
 10
-0.9999999999999939
 20
-14.00000099999996
 30
0.0
  0
ENDBLK
  5
2265
330
225A
100
AcDbEntity
  8
0
100
AcDbBlockEnd
  0
BLOCK
  5
283F
330
2833
100
AcDbEntity
  8
0
100
AcDbBlockBegin
  2
*D7
 70
     1
 10
0.0
 20
0.0
 30
0.0
  3
*D7
  1

  0
LINE
  5
384C
330
2833
100
AcDbEntity
  8
AM_5
 62
     3
100
AcDbLine
 10
-72.74285714285714
 20
-1.999999999999916
 30
0.0
 11
-82.19201976987468
 21
-1.999999999999913
 31
0.0
  0
LINE
  5
384D
330
2833
100
AcDbEntity
  8
AM_5
 62
     3
100
AcDbLine
 10
-72.74285714285714
 20
2.000000000000083
 30
0.0
 11
-82.19201976987468
 21
2.000000000000086
 31
0.0
  0
LINE
  5
384E
330
2833
100
AcDbEntity
  8
AM_5
 62
     3
100
AcDbLine
 10
-81.69201976987467
 20
-0.749999999999914
 30
0.0
 11
-81.69201976987467
 21
0.7500000000000865
 31
0.0
  0
INSERT
  5
384F
330
2833
100
AcDbEntity
  8
AM_5
 62
     3
100
AcDbBlockReference
  2
_OPEN30
 10
-81.69201976987467
 20
-1.999999999999913
 30
0.0
 41
1.25
 42
1.25
 43
1.25
 50
270.0
  0
INSERT
  5
3850
330
2833
100
AcDbEntity
  8
AM_5
 62
     3
100
AcDbBlockReference
  2
_OPEN30
 10
-81.69201976987467
 20
2.000000000000086
 30
0.0
 41
1.25
 42
1.25
 43
1.25
 50
90.0
  0
MTEXT
  5
3851
330
2833
100
AcDbEntity
  8
AM_5
 62
     2
100
AcDbMText
 10
-83.39201976987467
 20
0.0000000000000734
 30
0.0
 40
1.9
 41
0.0
 71
     5
 72
     1
  1
%%c4
 11
0.0000000000000001
 21
1.0
 31
0.0
1001
ACAD
1000
MTEXTBEGIN
1070
    73
1070
     1
1070
    44
1040
1.0
1070
    74
1070
     0
1000
MTEXTEND
  0
POINT
  5
3852
330
2833
100
AcDbEntity
  8
DEFPOINTS
 62
     0
100
AcDbPoint
 10
-72.74285714285714
 20
-1.999999999999916
 30
0.0
  0
POINT
  5
3853
330
2833
100
AcDbEntity
  8
DEFPOINTS
 62
     0
100
AcDbPoint
 10
-72.74285714285714
 20
2.000000000000083
 30
0.0
  0
POINT
  5
3854
330
2833
100
AcDbEntity
  8
DEFPOINTS
 62
     0
100
AcDbPoint
 10
-81.69201976987467
 20
2.000000000000086
 30
0.0
  0
ENDBLK
  5
2840
330
2833
100
AcDbEntity
  8
0
100
AcDbBlockEnd
  0
BLOCK
  5
2ACB
330
2ABF
100
AcDbEntity
  8
0
100
AcDbBlockBegin
  2
*D8
 70
     1
 10
0.0
 20
0.0
 30
0.0
  3
*D8
  1

  0
LINE
  5
385E
330
2ABF
100
AcDbEntity
  8
AM_5
 62
     3
100
AcDbLine
 10
-0.9999999999999927
 20
-1.849998526882963
 30
0.0
 11
8.215865571920963
 21
-1.849998526882966
 31
0.0
  0
LINE
  5
385F
330
2ABF
100
AcDbEntity
  8
AM_5
 62
     3
100
AcDbLine
 10
-0.9999999999999873
 20
1.850001473118333
 30
0.0
 11
8.215865571920963
 21
1.85000147311833
 31
0.0
  0
LINE
  5
3860
330
2ABF
100
AcDbEntity
  8
AM_5
 62
     3
100
AcDbLine
 10
7.715865571920962
 20
-3.099998526882965
 30
0.0
 11
7.715865571920962
 21
-4.349998526882965
 31
0.0
  0
LINE
  5
3861
330
2ABF
100
AcDbEntity
  8
AM_5
 62
     3
100
AcDbLine
 10
7.715865571920963
 20
3.10000147311833
 30
0.0
 11
7.715865571920965
 21
11.55000147311832
 31
0.0
  0
LINE
  5
3862
330
2ABF
100
AcDbEntity
  8
AM_5
 62
     3
100
AcDbLine
 10
7.715865571920963
 20
-1.849998526882965
 30
0.0
 11
7.715865571920963
 21
1.85000147311833
 31
0.0
  0
INSERT
  5
3863
330
2ABF
100
AcDbEntity
  8
AM_5
 62
     3
100
AcDbBlockReference
  2
_OPEN30
 10
7.715865571920963
 20
-1.849998526882965
 30
0.0
 41
1.25
 42
1.25
 43
1.25
 50
90.0
  0
INSERT
  5
3864
330
2ABF
100
AcDbEntity
  8
AM_5
 62
     3
100
AcDbBlockReference
  2
_OPEN30
 10
7.715865571920963
 20
1.85000147311833
 30
0.0
 41
1.25
 42
1.25
 43
1.25
 50
270.0
  0
MTEXT
  5
3865
330
2ABF
100
AcDbEntity
  8
AM_5
 62
     2
100
AcDbMText
 10
6.015865571920963
 20
7.950001473118332
 30
0.0
 40
1.9
 41
0.0
 71
     5
 72
     1
  1
%%c3.7
 11
0.0000000000000001
 21
1.0
 31
0.0
1001
ACAD
1000
MTEXTBEGIN
1070
    73
1070
     1
1070
    44
1040
1.0
1070
    74
1070
     0
1000
MTEXTEND
  0
POINT
  5
3866
330
2ABF
100
AcDbEntity
  8
DEFPOINTS
 62
     0
100
AcDbPoint
 10
-0.9999999999999927
 20
-1.849998526882963
 30
0.0
  0
POINT
  5
3867
330
2ABF
100
AcDbEntity
  8
DEFPOINTS
 62
     0
100
AcDbPoint
 10
-0.9999999999999873
 20
1.850001473118333
 30
0.0
  0
POINT
  5
3868
330
2ABF
100
AcDbEntity
  8
DEFPOINTS
 62
     0
100
AcDbPoint
 10
7.715865571920963
 20
1.85000147311833
 30
0.0
  0
ENDBLK
  5
2ACC
330
2ABF
100
AcDbEntity
  8
0
100
AcDbBlockEnd
  0
BLOCK
  5
2FF6
330
2FE6
100
AcDbEntity
  8
0
100
AcDbBlockBegin
  2
*D9
 70
     1
 10
0.0
 20
0.0
 30
0.0
  3
*D9
  1

  0
LINE
  5
38B7
330
2FE6
100
AcDbEntity
  8
AM_5
100
AcDbLine
 10
0.1710075272764174
 20
-0.469846310849606
 30
0.0
 11
4.994583140029979
 21
-13.72251149804377
 31
0.0
  0
LINE
  5
38B8
330
2FE6
100
AcDbEntity
  8
AM_5
100
AcDbLine
 10
0.1710073032923431
 20
0.4698477016271029
 30
0.0
 11
4.994592641252855
 21
13.72251105824154
 31
0.0
  0
ARC
  5
38B9
330
2FE6
100
AcDbEntity
  8
AM_5
100
AcDbCircle
 10
-0.0000030924289164
 20
0.0000015091818961
 30
0.0
 40
14.1031933106066
100
AcDbArc
 50
295.079926512901
 51
64.92003381651979
  0
INSERT
  5
38BA
330
2FE6
100
AcDbEntity
  8
AM_5
100
AcDbBlockReference
  2
_OPEN30
 10
4.823573069621912
 20
-13.25266518719411
 30
0.0
 41
1.25
 42
1.25
 43
1.25
 50
202.5399631799436
  0
INSERT
  5
38BB
330
2FE6
100
AcDbEntity
  8
AM_5
100
AcDbBlockReference
  2
_OPEN30
 10
4.823582245531595
 20
13.25266486579634
 30
0.0
 41
1.25
 42
1.25
 43
1.25
 50
157.459997149477
  0
MTEXT
  5
38BC
330
2FE6
100
AcDbEntity
  8
AM_5
 62
     2
100
AcDbMText
 10
12.55319021817684
 20
-0.0000033732182727
 30
0.0
 40
1.6
 41
0.0
 71
     5
 72
     1
  1
140°
  7
ASAMI
 11
0.0000000000000001
 21
1.0
 31
0.0
  0
POINT
  5
38BD
330
2FE6
100
AcDbEntity
  8
DEFPOINTS
 62
     0
100
AcDbPoint
 10
12.94977873726876
 20
5.585985050114581
 30
0.0
  0
POINT
  5
38BE
330
2FE6
100
AcDbEntity
  8
DEFPOINTS
 62
     0
100
AcDbPoint
 10
-0.0000031789143187
 20
0.0000012715657161
 30
0.0
  0
POINT
  5
38BF
330
2FE6
100
AcDbEntity
  8
DEFPOINTS
 62
     0
100
AcDbPoint
 10
-0.0000025431316495
 20
0.0000000000000462
 30
0.0
  0
POINT
  5
38C0
330
2FE6
100
AcDbEntity
  8
DEFPOINTS
 62
     0
100
AcDbPoint
 10
-0.1953284988367623
 20
0.5366536571925093
 30
0.0
  0
POINT
  5
38C1
330
2FE6
100
AcDbEntity
  8
DEFPOINTS
 62
     0
100
AcDbPoint
 10
-0.1953317107825157
 20
-0.536658307444751
 30
0.0
  0
ENDBLK
  5
2FF7
330
2FE6
100
AcDbEntity
  8
0
100
AcDbBlockEnd
  0
ENDSEC
  0
SECTION
  2
ENTITIES
  0
LINE
  5
C1D
330
1F
100
AcDbEntity
  8
AM_0
 48
0.5
100
AcDbLine
 10
0.0000000000001274
 20
0.0000000000000582
 30
0.0
 11
-0.1953284988367623
 21
0.5366536571925093
 31
0.0
  0
LINE
  5
C20
330
1F
100
AcDbEntity
  8
AM_0
 48
0.5
100
AcDbLine
 10
0.0000000000001261
 20
0.0000000000000546
 30
0.0
 11
-0.1953317107825157
 21
-0.536658307444751
 31
0.0
  0
TEXT
  5
19BD
330
1F
100
AcDbEntity
  8
AM_6
100
AcDbText
 10
-48.24999999999999
 20
-25.25000099999999
 30
0.0
 40
2.5
  1
MDW037MHK
 50
0.0000000000001527
 72
     4
 11
-36.99999999999998
 21
-24.00000099999996
 31
0.0
100
AcDbText
  0
ELLIPSE
  5
2206
330
1F
100
AcDbEntity
  8
AM_11
 48
0.5
100
AcDbEllipse
 10
-29.34361877441191
 20
7.729693494220502
 30
0.0
 11
8.790537643432497
 21
0.0000000000000142
 31
0.0
210
0.0
220
0.0
230
1.0
 40
0.9722222222222224
 41
4.271663339930095
 42
5.153112800913389
  0
ELLIPSE
  5
2207
330
1F
100
AcDbEntity
  8
AM_11
 48
0.5
100
AcDbEllipse
 10
-29.34361877441195
 20
-7.729687927186498
 30
0.0
 11
-8.79053764343249
 21
0.0000000000000083
 31
0.0
210
0.0
220
0.0
230
1.0
 40
0.9722222222222233
 41
4.271664206181686
 42
5.153113667164993
  0
ELLIPSE
  5
220B
330
1F
100
AcDbEntity
  8
AM_11
 48
0.5
100
AcDbEllipse
 10
-21.84361877441192
 20
7.729693494220489
 30
0.0
 11
-8.790537643432497
 21
0.0000000000000005
 31
0.0
210
0.0
220
0.0
230
1.0
 40
0.9722222222222224
 41
1.130070686340304
 42
2.011520147323597
  0
ELLIPSE
  5
220C
330
1F
100
AcDbEntity
  8
AM_11
 48
0.5
100
AcDbEllipse
 10
-21.84361877441195
 20
-7.729687927186511
 30
0.0
 11
-8.790537643432495
 21
0.0000000000000044
 31
0.0
210
0.0
220
0.0
230
1.0
 40
0.9722222222222226
 41
4.271664206181685
 42
5.153113667164992
  0
ELLIPSE
  5
220D
330
1F
100
AcDbEntity
  8
AM_11
 48
0.5
100
AcDbEllipse
 10
-44.34358596277842
 20
7.729693494220492
 30
0.0
 11
8.79053764343249
 21
0.0000000000000669
 31
0.0
210
0.0
220
0.0
230
1.0
 40
0.9722222222222233
 41
4.271663339930089
 42
5.153112800913382
  0
ELLIPSE
  5
220E
330
1F
100
AcDbEntity
  8
AM_11
 48
0.5
100
AcDbEllipse
 10
-44.34358596277845
 20
-7.729687927186509
 30
0.0
 11
-8.79053764343249
 21
0.0000000000000083
 31
0.0
210
0.0
220
0.0
230
1.0
 40
0.9722222222222233
 41
4.271664206181686
 42
5.153113667164993
  0
ELLIPSE
  5
220F
330
1F
100
AcDbEntity
  8
AM_11
 48
0.5
100
AcDbEllipse
 10
-51.84356955696177
 20
-7.729687927186515
 30
0.0
 11
8.790537643432477
 21
0.0000000000000552
 31
0.0
210
0.0
220
0.0
230
1.0
 40
0.9722222222222244
 41
1.130071552591885
 42
2.011521013575192
  0
ELLIPSE
  5
2210
330
1F
100
AcDbEntity
  8
AM_11
 48
0.5
100
AcDbEllipse
 10
-51.84356955696174
 20
7.729693494220487
 30
0.0
 11
-8.790537643432493
 21
0.0000000000000669
 31
0.0
210
0.0
220
0.0
230
1.0
 40
0.972222222222223
 41
1.130070686340312
 42
2.011520147323604
  0
ELLIPSE
  5
2219
330
1F
100
AcDbEntity
  8
AM_11
 48
0.5
100
AcDbEllipse
 10
-59.34355315114498
 20
7.729693494220479
 30
0.0
 11
-8.790537643432497
 21
0.0000000000000005
 31
0.0
210
0.0
220
0.0
230
1.0
 40
0.9722222222222224
 41
1.130070686340304
 42
2.011520147323597
  0
ELLIPSE
  5
221A
330
1F
100
AcDbEntity
  8
AM_11
 48
0.5
100
AcDbEllipse
 10
-59.34355315114502
 20
-7.729687927186519
 30
0.0
 11
-8.79053764343249
 21
0.0000000000000083
 31
0.0
210
0.0
220
0.0
230
1.0
 40
0.9722222222222233
 41
4.271664206181686
 42
5.153113667164993
  0
ELLIPSE
  5
2228
330
1F
100
AcDbEntity
  8
AM_11
 48
0.5
100
AcDbEllipse
 10
-36.84360236859517
 20
7.729693494220496
 30
0.0
 11
8.790537643432491
 21
0.0000000000000747
 31
0.0
210
0.0
220
0.0
230
1.0
 40
0.972222222222223
 41
4.271663339930089
 42
5.153112800913382
  0
ELLIPSE
  5
2229
330
1F
100
AcDbEntity
  8
AM_11
 48
0.5
100
AcDbEllipse
 10
-36.8436023685952
 20
-7.729687927186503
 30
0.0
 11
-8.79053764343249
 21
0.0000000000000083
 31
0.0
210
0.0
220
0.0
230
1.0
 40
0.9722222222222233
 41
4.271664206181686
 42
5.153113667164993
  0
DIMENSION
  5
223E
330
1F
100
AcDbEntity
  8
AM_5
100
AcDbDimension
  2
*D5
 10
-0.9999999999999936
 20
-9.00000099999994
 30
0.0
 11
-13.00000000000002
 21
-7.30000099999994
 31
0.0
 70
    32
  1
<>
  3
AM_JIS$0
100
AcDbAlignedDimension
 13
-25.00000000000006
 23
-1.999999999999985
 33
0.0
 14
-0.999999999999993
 24
-1.849998526882963
 34
0.0
 50
0.0000000000000384
100
AcDbRotatedDimension
1001
GENIUS_GENDTOL_13
1000

1000
h7
1000

1040
0.0
1001
ACAD
1000
DSTYLE
1002
{
1070
   271
1070
     0
1002
}
  0
LINE
  5
224B
330
1F
100
AcDbEntity
  8
AM_7
100
AcDbLine
 10
-74.69201876987468
 20
0.0000000000001442
 30
0.0
 11
0.7158645719209631
 21
0.0000000000000537
 31
0.0
1001
GENIUS_GENODEF_13
1002
{
1000
HIER
1070
     0
1002
}
1002
{
1000
MANEDIT
1070
     0
1002
}
1002
{
1000
NOSEL
1070
     0
1002
}
1002
{
1000
BEHIND
1070
     0
1002
}
1002
{
1000
REACTOR
1002
}
1001
GENIUS_GENOBJ-N-CEN_13
1002
{
1000
OWNER
1000
GEN
1002
}
  0
DIMENSION
  5
2259
330
1F
100
AcDbEntity
  8
AM_5
100
AcDbDimension
  2
*D6
 10
-0.9999999999999939
 20
-14.00000099999996
 30
0.0
 11
-36.99999999999999
 21
-12.30000099999996
 31
0.0
 70
    32
  1
<>
  3
AM_JIS$0
100
AcDbAlignedDimension
 13
-72.99999999999998
 23
-1.531249841054149
 33
0.0
 14
-0.999999999999993
 24
-1.849998526882963
 34
0.0
100
AcDbRotatedDimension
1001
GENIUS_GENDTOL_13
1000

1000
h7
1000

1040
0.0
1001
ACAD
1000
DSTYLE
1002
{
1070
   271
1070
     0
1002
}
  0
ELLIPSE
  5
27F0
330
1F
100
AcDbEntity
  8
AM_11
 48
0.5
100
AcDbEllipse
 10
-66.84356049944482
 20
7.72969913786316
 30
0.0
 11
8.79053764343249
 21
0.0000000000000669
 31
0.0
210
0.0
220
0.0
230
1.0
 40
0.9722222222222233
 41
4.271663339930089
 42
5.153112800913382
  0
ELLIPSE
  5
27F1
330
1F
100
AcDbEntity
  8
AM_11
 48
0.5
100
AcDbEllipse
 10
-66.84356049944485
 20
-7.729682283543841
 30
0.0
 11
-8.79053764343249
 21
0.0000000000000083
 31
0.0
210
0.0
220
0.0
230
1.0
 40
0.9722222222222233
 41
4.271664206181686
 42
5.153113667164993
  0
ELLIPSE
  5
27F2
330
1F
100
AcDbEntity
  8
AM_11
 48
0.5
100
AcDbEllipse
 10
-74.34354409362815
 20
-7.729682283543847
 30
0.0
 11
8.790537643432477
 21
0.0000000000000552
 31
0.0
210
0.0
220
0.0
230
1.0
 40
0.9722222222222244
 41
1.130071552591885
 42
1.417355117759801
  0
ELLIPSE
  5
27F3
330
1F
100
AcDbEntity
  8
AM_11
 48
0.5
100
AcDbEllipse
 10
-74.34354409362812
 20
7.729699137863155
 30
0.0
 11
-8.790537643432493
 21
0.0000000000000669
 31
0.0
210
0.0
220
0.0
230
1.0
 40
0.972222222222223
 41
1.724237535829987
 42
2.011520147323604
  0
LINE
  5
27F8
330
1F
100
AcDbEntity
  8
AM_0
 48
0.5
100
AcDbLine
 10
-25.00000000000003
 20
-1.999999999999965
 30
0.0
 11
-24.99999999999998
 21
2.000000000000033
 31
0.0
  0
LINE
  5
2827
330
1F
100
AcDbEntity
  8
AM_0
100
AcDbLine
 10
-72.74285714285714
 20
2.000000000000079
 30
0.0
 11
-72.74285714285714
 21
-1.999999999999919
 31
0.0
  0
LINE
  5
2828
330
1F
100
AcDbEntity
  8
AM_0
 48
0.5
100
AcDbLine
 10
-73.0
 20
-1.749999999999915
 30
0.0
 11
-72.99999999999998
 21
1.750000000000084
 31
0.0
  0
LINE
  5
2829
330
1F
100
AcDbEntity
  8
AM_0
100
AcDbLine
 10
-73.0
 20
-1.749999999999915
 30
0.0
 11
-72.75
 21
-1.999999999999916
 31
0.0
1001
GENIUS_GENFIL_13
1070
     0
1040
0.25
1040
0.25
1040
20.0
1040
0.0
1002
{
1002
}
1001
GENIUS_GENODEF_13
1002
{
1000
HIER
1070
     0
1002
}
1002
{
1000
MANEDIT
1070
     0
1002
}
1002
{
1000
NOSEL
1070
     0
1002
}
1002
{
1000
BEHIND
1070
     0
1002
}
1002
{
1000
REACTOR
1002
}
1001
GENIUS_GENOBJ-N-CHA_13
1002
{
1000
OWNER
1000
GEN
1002
}
  0
LINE
  5
282B
330
1F
100
AcDbEntity
  8
AM_0
100
AcDbLine
 10
-72.75
 20
-1.999999999999916
 30
0.0
 11
-24.99999999999998
 21
-1.999999999999985
 31
0.0
1001
GENIUS_GENODEF_13
1002
{
1000
HIER
1070
     0
1002
}
1002
{
1000
MANEDIT
1070
     0
1002
}
1002
{
1000
NOSEL
1070
     0
1002
}
1002
{
1000
BEHIND
1070
     0
1002
}
1002
{
1000
REACTOR
1002
}
1001
GENIUS_GENOBJ-N-CEN_13
1002
{
1000
OWNER
1000
GEN
1002
}
  0
LINE
  5
282C
330
1F
100
AcDbEntity
  8
AM_0
100
AcDbLine
 10
-72.74999999999998
 20
2.000000000000084
 30
0.0
 11
-24.99999999999998
 21
2.000000000000012
 31
0.0
1001
GENIUS_GENODEF_13
1002
{
1000
HIER
1070
     0
1002
}
1002
{
1000
MANEDIT
1070
     0
1002
}
1002
{
1000
NOSEL
1070
     0
1002
}
1002
{
1000
BEHIND
1070
     0
1002
}
1002
{
1000
REACTOR
1002
}
1001
GENIUS_GENOBJ-N-CEN_13
1002
{
1000
OWNER
1000
GEN
1002
}
  0
DIMENSION
  5
282D
330
1F
100
AcDbEntity
  8
AM_5
100
AcDbDimension
  2
*D7
 10
-81.69201976987467
 20
2.000000000000086
 30
0.0
 11
-81.69201976987467
 21
0.0000000000000732
 31
0.0
 70
   160
  1
%%c<>
  3
AM_JIS$0
100
AcDbAlignedDimension
 13
-72.74285714285714
 23
-1.999999999999916
 33
0.0
 14
-72.74285714285714
 24
2.000000000000083
 34
0.0
 50
270.0
100
AcDbRotatedDimension
1001
ACAD
1000
DSTYLE
1002
{
1070
   271
1070
     0
1002
}
1001
GENIUS_GENDTOL_13
1000

1000
h7
1000

1040
0.0
  0
LINE
  5
2830
330
1F
100
AcDbEntity
  8
AM_0
100
AcDbLine
 10
-25.00000000000003
 20
-1.999999999999965
 30
0.0
 11
-24.74061013957728
 21
-1.850241194259836
 31
0.0
  0
LINE
  5
2831
330
1F
100
AcDbEntity
  8
AM_0
100
AcDbLine
 10
-25.0
 20
2.000000000000033
 30
0.0
 11
-24.74061013957727
 21
1.850241194259915
 31
0.0
  0
LINE
  5
2964
330
1F
100
AcDbEntity
  8
AM_0
100
AcDbLine
 10
-72.99999999999998
 20
1.750000000000084
 30
0.0
 11
-72.74999999999998
 21
2.000000000000084
 31
0.0
1001
GENIUS_GENFIL_13
1070
     0
1040
0.25
1040
0.25
1040
20.0
1040
0.0
1002
{
1002
}
1001
GENIUS_GENODEF_13
1002
{
1000
HIER
1070
     0
1002
}
1002
{
1000
MANEDIT
1070
     0
1002
}
1002
{
1000
NOSEL
1070
     0
1002
}
1002
{
1000
BEHIND
1070
     0
1002
}
1002
{
1000
REACTOR
1002
}
1001
GENIUS_GENOBJ-N-CHA_13
1002
{
1000
OWNER
1000
GEN
1002
}
  0
DIMENSION
  5
2ABE
330
1F
100
AcDbEntity
  8
AM_5
100
AcDbDimension
  2
*D8
 10
7.715865571920963
 20
1.85000147311833
 30
0.0
 11
7.715865571920963
 21
7.950001473118331
 31
0.0
 70
   160
  1
%%c<>
  3
AM_JIS$0
100
AcDbAlignedDimension
 13
-0.9999999999999927
 23
-1.849998526882963
 33
0.0
 14
-0.9999999999999873
 24
1.850001473118333
 34
0.0
 50
89.99999999999991
100
AcDbRotatedDimension
1001
ACAD
1000
DSTYLE
1002
{
1070
   271
1070
     1
1002
}
1001
GENIUS_GENDTOL_13
1000

1000
h7
1000

1040
0.0
  0
LINE
  5
2B4E
330
1F
100
AcDbEntity
  8
AM_0
 48
0.5
100
AcDbLine
 10
-0.6763614388630673
 20
1.275256221049708
 30
0.0
 11
-0.9999999999999873
 21
1.850001473118333
 31
0.0
  0
ELLIPSE
  5
2B77
330
1F
100
AcDbEntity
  8
AM_0
 48
0.5
100
AcDbEllipse
 10
2.790269366573005
 20
2.009522195823146
 30
0.0
 11
3.463179528777598
 21
0.7508059886992438
 31
0.0
210
0.0
220
0.0
230
0.9999999999999998
 40
0.553472745456442
 41
3.132977998936413
 42
3.565569191650999
  0
LINE
  5
2B9A
330
1F
100
AcDbEntity
  8
AM_0
100
AcDbLine
 10
-24.74061013957727
 20
1.850241194259918
 30
0.0
 11
-24.74061013957728
 21
-1.850241194259837
 31
0.0
  0
ELLIPSE
  5
2D3A
330
1F
100
AcDbEntity
  8
AM_0
 48
0.5
100
AcDbEllipse
 10
2.790280582997052
 20
-2.009510617183197
 30
0.0
 11
3.463183719462436
 21
-0.750786658419818
 31
0.0
210
0.0
220
0.0
230
-1.0
 40
0.553472745456442
 41
3.132977998936413
 42
3.565569191650999
  0
LINE
  5
2D3B
330
1F
100
AcDbEntity
  8
AM_0
 48
0.5
100
AcDbLine
 10
-0.6763543208031808
 20
-1.275263991952757
 30
0.0
 11
-0.9999999999999927
 21
-1.849998526882963
 31
0.0
  0
DIMENSION
  5
2FE5
330
1F
100
AcDbEntity
  8
AM_5
100
AcDbDimension
  2
*D9
 10
-0.1953317107825157
 20
-0.536658307444751
 30
0.0
 11
12.55319021817684
 21
-0.0000033732182747
 31
0.0
 70
    34
  1
<>
  3
AM_JIS$2
100
AcDb2LineAngularDimension
 13
-0.0000025431316495
 23
0.0000000000000462
 33
0.0
 14
-0.1953284988367623
 24
0.5366536571925093
 34
0.0
 15
-0.0000031789143187
 25
0.0000012715657161
 35
0.0
 16
12.94977873726876
 26
5.585985050114581
 36
0.0
1001
GENIUS_GENDTOL_13
1000

1000
h7
1000

1040
0.0
1001
ACAD
1000
DSTYLE
1002
{
1070
   271
1070
     0
1002
}
  0
ELLIPSE
  5
36A9
330
1F
100
AcDbEntity
  8
AM_11
 48
0.5
100
AcDbEllipse
 10
0.0313795118177116
 20
6.814750042527941
 30
0.0
 11
-0.0000000000013683
 21
7.534746551513586
 31
0.0
210
0.0
220
0.0
230
1.0
 40
0.9722222222222322
 41
2.700867013135022
 42
2.862597064175711
  0
ELLIPSE
  5
36B3
330
1F
100
AcDbEntity
  8
AM_11
 48
0.5
100
AcDbEllipse
 10
-6.843618774414025
 20
7.950541879769614
 30
0.0
 11
-6.21584877794673
 21
6.215848777946732
 31
0.0
210
0.0
220
0.0
230
0.9999999999999996
 40
0.9999999999999998
 41
1.915468849737753
 42
2.796918310721046
  0
ELLIPSE
  5
36B4
330
1F
100
AcDbEntity
  8
AM_11
 48
0.5
100
AcDbEllipse
 10
-6.843618774414058
 20
-7.950536153677584
 30
0.0
 11
6.215848777946732
 21
6.215848777946731
 31
0.0
210
0.0
220
0.0
230
1.0
 40
1.0
 41
0.3446733891944436
 42
1.226122850177751
  0
ELLIPSE
  5
36B5
330
1F
100
AcDbEntity
  8
AM_11
 48
0.5
100
AcDbEllipse
 10
-14.34361877441405
 20
-7.950536153677568
 30
0.0
 11
6.215848777946733
 21
6.21584877794673
 31
0.0
210
0.0
220
0.0
230
1.0
 40
1.0
 41
0.344673389194444
 42
1.22612285017775
  0
ELLIPSE
  5
36B6
330
1F
100
AcDbEntity
  8
AM_11
 48
0.5
100
AcDbEllipse
 10
-14.34361877441402
 20
7.95054187976963
 30
0.0
 11
6.215848777946733
 21
6.21584877794673
 31
0.0
210
0.0
220
0.0
230
1.0
 40
0.9999999999999996
 41
3.486265176532648
 42
4.367714637515941
  0
LINE
  5
37DF
330
1F
100
AcDbEntity
  8
AM_0
100
AcDbLine
 10
-24.74019141023966
 20
-1.849999440764051
 30
0.0
 11
-22.76994021475149
 21
-1.849999262406789
 31
0.0
1001
GENIUS_GENODEF_13
1002
{
1000
HIER
1070
     0
1002
}
1002
{
1000
MANEDIT
1070
     0
1002
}
1002
{
1000
NOSEL
1070
     0
1002
}
1002
{
1000
BEHIND
1070
     0
1002
}
1002
{
1000
REACTOR
1002
}
1001
GENIUS_GENOBJ-N-CEN_13
1002
{
1000
OWNER
1000
GEN
1002
}
  0
LINE
  5
37E0
330
1F
100
AcDbEntity
  8
AM_0
100
AcDbLine
 10
-24.74061013957728
 20
1.850241194259918
 30
0.0
 11
-21.94266913553934
 21
1.85025299049081
 31
0.0
1001
GENIUS_GENODEF_13
1002
{
1000
HIER
1070
     0
1002
}
1002
{
1000
MANEDIT
1070
     0
1002
}
1002
{
1000
NOSEL
1070
     0
1002
}
1002
{
1000
BEHIND
1070
     0
1002
}
1002
{
1000
REACTOR
1002
}
1001
GENIUS_GENOBJ-N-CEN_13
1002
{
1000
OWNER
1000
GEN
1002
}
  0
LINE
  5
37E1
330
1F
100
AcDbEntity
  8
AM_0
 48
0.5
100
AcDbLine
 10
-2.404424753870355
 20
1.850000296924001
 30
0.0
 11
-0.9999999999999873
 21
1.850001473118333
 31
0.0
  0
LINE
  5
37E2
330
1F
100
AcDbEntity
  8
AM_0
 48
0.5
100
AcDbLine
 10
-2.404424753870443
 20
-1.849999703075998
 30
0.0
 11
-0.9999999999999873
 21
-1.849998526882968
 31
0.0
  0
LINE
  5
37E3
330
1F
100
AcDbEntity
  8
AM_0
 48
0.5
100
AcDbLine
 10
0.0000000000000124
 20
0.0000000000000586
 30
0.0
 11
-1.493084123035272
 21
0.7103441028727597
 31
0.0
  0
LINE
  5
37E4
330
1F
100
AcDbEntity
  8
AM_11
 48
0.5
100
AcDbLine
 10
-21.94273176951881
 20
1.850263122998552
 30
0.0
 11
-17.42548961869056
 21
1.850000296924408
 31
0.0
  0
LINE
  5
37E5
330
1F
100
AcDbEntity
  8
AM_11
 48
0.5
100
AcDbLine
 10
-22.76994021475149
 20
-1.849999262406789
 30
0.0
 11
-17.56629959996362
 21
-1.849980913304991
 31
0.0
  0
LINE
  5
37E6
330
1F
100
AcDbEntity
  8
AM_0
 48
0.5
100
AcDbLine
 10
-17.56316922317084
 20
-1.850008481001227
 30
0.0
 11
-9.482947991649098
 21
-1.849999703075806
 31
0.0
  0
LINE
  5
37E7
330
1F
100
AcDbEntity
  8
AM_0
 48
0.5
100
AcDbLine
 10
-17.42549571538098
 20
1.850000296924408
 30
0.0
 11
-9.482947991649002
 21
1.850000296924192
 31
0.0
  0
LINE
  5
37E8
330
1F
100
AcDbEntity
  8
AM_0
 48
0.5
100
AcDbLine
 10
-18.34612961404988
 20
0.8868670406348739
 30
0.0
 11
-23.49999999999997
 21
-0.1497131918813709
 31
0.0
  0
LINE
  5
37E9
330
1F
100
AcDbEntity
  8
AM_11
 48
0.5
100
AcDbLine
 10
-9.482947991649098
 20
-1.849999703075806
 30
0.0
 11
-2.404424753870443
 21
-1.849999703075998
 31
0.0
  0
LINE
  5
37EA
330
1F
100
AcDbEntity
  8
AM_11
 48
0.5
100
AcDbLine
 10
-9.482947991649002
 20
1.850000296924192
 30
0.0
 11
-2.404424753870355
 21
1.850000296924001
 31
0.0
  0
ELLIPSE
  5
37EB
330
1F
100
AcDbEntity
  8
AM_0
 48
0.5
100
AcDbEllipse
 10
-0.9379901722498367
 20
-0.482136334088089
 30
0.0
 11
-0.2886444631659137
 21
0.1491241325178243
 31
0.0
210
0.0
220
0.0
230
1.0
 40
0.4819845312631607
 41
4.446849619083216
 42
7.590289960412722
  0
ELLIPSE
  5
37EC
330
1F
100
AcDbEntity
  8
AM_0
 48
0.5
100
AcDbEllipse
 10
-0.9379901722498367
 20
-0.482136334088089
 30
0.0
 11
-0.0601037300934248
 21
0.3031403021631029
 31
0.0
210
0.0
220
0.0
230
1.0
 40
0.5326819006268298
 41
1.788571732758021
 42
4.923913622469998
  0
ELLIPSE
  5
37ED
330
1F
100
AcDbEntity
  8
AM_0
 48
0.5
100
AcDbEllipse
 10
-3.774148196043076
 20
9.850622625840738
 30
0.0
 11
0.0000000000008035
 21
10.831733193175
 31
0.0
210
0.0
220
0.0
230
1.0
 40
0.8378378378378366
 41
3.475567835903582
 42
3.5704955118537
  0
SPLINE
  5
37EE
330
1F
100
AcDbEntity
  8
AM_0
 48
0.5
100
AcDbSpline
210
0.0
220
0.0
230
1.0
 70
     8
 71
     3
 72
    10
 73
     6
 74
     0
 42
0.0000000001
 43
0.0000000001
 40
0.0
 40
0.0
 40
0.0
 40
0.0
 40
2.69986029516136
 40
4.147722969032201
 40
6.285750005020438
 40
6.285750005020438
 40
6.285750005020438
 40
6.285750005020438
 10
-2.842196799005881
 20
0.3348404356772229
 30
0.0
 10
-2.57500411438517
 20
0.1629626516010463
 30
0.0
 10
-2.164523158335397
 20
-0.1010885788114184
 30
0.0
 10
-1.193790838176957
 20
0.0267432476185647
 30
0.0
 10
-1.376607969553155
 20
0.4572977537030505
 30
0.0
 10
-1.497401849301355
 20
0.7197339858834127
 30
0.0
  0
SPLINE
  5
37EF
330
1F
100
AcDbEntity
  8
AM_0
100
AcDbSpline
210
0.0
220
0.0
230
1.0
 70
     8
 71
     3
 72
    11
 73
     7
 74
     0
 42
0.0000000001
 43
0.0000000001
 40
11.27226913003534
 40
11.27226913003534
 40
11.27226913003534
 40
11.2722691300354
 40
12.28301561507924
 40
13.29510212255852
 40
14.30984805882082
 40
15.18258238371378
 40
15.18258238371378
 40
15.18258238371378
 40
15.18258238371378
 10
-9.482947991649089
 20
-1.849999703075806
 30
0.0
 10
-9.607675306809186
 20
-1.840945265469311
 30
0.0
 10
-9.856894677695242
 20
-1.819024866089209
 30
0.0
 10
-10.22943681165427
 20
-1.774805998541614
 30
0.0
 10
-10.58298586572209
 20
-1.72199140966575
 30
0.0
 10
-10.81164064098004
 20
-1.681391263333873
 30
0.0
 10
-10.91701127235769
 20
-1.661335912462376
 30
0.0
  0
SPLINE
  5
37F0
330
1F
100
AcDbEntity
  8
AM_0
100
AcDbSpline
210
0.0
220
0.0
230
1.0
 70
     8
 71
     3
 72
    22
 73
    18
 74
     0
 42
0.0000000001
 43
0.0000000001
 40
17.17441611292
 40
17.17441611292
 40
17.17441611292
 40
17.17441611292
 40
17.38177636558528
 40
18.41823744757437
 40
19.46215659509824
 40
20.51397914882054
 40
21.57394542641293
 40
22.64209583141747
 40
23.71826625065247
 40
24.80210429862395
 40
25.8930771157021
 40
26.99048705697709
 40
28.09349309193389
 40
29.20112995599786
 40
30.31233024745139
 40
31.42594771747373
 40
32.5407895042663
 40
32.54078950426994
 40
32.54078950426994
 40
32.54078950426994
 10
-10.91717560916062
 20
-1.661313092726523
 30
0.0
 10
-10.94233764687827
 20
-1.657030524177797
 30
0.0
 10
-11.09317032120643
 20
-1.630944931051224
 30
0.0
 10
-11.36948728118826
 20
-1.578639921716907
 30
0.0
 10
-11.74508369156103
 20
-1.497804512922789
 30
0.0
 10
-12.12064182944802
 20
-1.407738214015234
 30
0.0
 10
-12.49616434626859
 20
-1.309003241164237
 30
0.0
 10
-12.87165074598365
 20
-1.202204985734877
 30
0.0
 10
-13.24710565039534
 20
-1.088008102621574
 30
0.0
 10
-13.62253079796544
 20
-0.9671144091250232
 30
0.0
 10
-13.99792966226928
 20
-0.8402694500288065
 30
0.0
 10
-14.37330641750424
 20
-0.7082557783856092
 30
0.0
 10
-14.74866432171403
 20
-0.5718851502545635
 30
0.0
 10
-15.12400715348289
 20
-0.4319965407837959
 30
0.0
 10
-15.49933823989829
 20
-0.2894501065767487
 30
0.0
 10
-15.87466314116388
 20
-0.145125436179969
 30
0.0
 10
-16.12483062748533
 20
-0.0483299411780484
 30
0.0
 10
-16.24998309345564
 20
0.0000943927904986
 30
0.0
  0
SPLINE
  5
37F1
330
1F
100
AcDbEntity
  8
AM_0
100
AcDbSpline
210
0.0
220
0.0
230
1.0
 70
     8
 71
     3
 72
    17
 73
    13
 74
     0
 42
0.0000000001
 43
0.0000000001
 40
1.580019955310467
 40
1.580019955310467
 40
1.580019955310467
 40
1.580019955310467
 40
2.030549285115227
 40
3.082371838836284
 40
4.126290986361125
 40
5.162752068350215
 40
6.192395305374981
 40
7.216039564037012
 40
8.234688489606833
 40
9.249433870634691
 40
10.26152376260694
 40
11.27226744710342
 40
11.27226744710342
 40
11.27226744710342
 40
11.27226744710352
 10
-5.943410241689069
 20
-1.365354179268069
 30
0.0
 10
-5.996575304833585
 20
-1.379416196121137
 30
0.0
 10
-6.174164477187642
 20
-1.425506334607918
 30
0.0
 10
-6.477353234667731
 20
-1.497800365958197
 30
0.0
 10
-6.852897362879533
 20
-1.578760090611232
 30
0.0
 10
-7.228544878038228
 20
-1.649831979700754
 30
0.0
 10
-7.604209605234949
 20
-1.710777357849568
 30
0.0
 10
-7.979915260430404
 20
-1.761152905433795
 30
0.0
 10
-8.35564687205149
 20
-1.800671151415917
 30
0.0
 10
-8.731401879730421
 20
-1.829076004338999
 30
0.0
 10
-9.107171025836876
 20
-1.846184618866067
 30
0.0
 10
-9.357744591522688
 20
-1.849999713661605
 30
0.0
 10
-9.482947991649057
 20
-1.849999703075806
 30
0.0
  0
SPLINE
  5
37F2
330
1F
100
AcDbEntity
  8
AM_0
100
AcDbSpline
210
0.0
220
0.0
230
1.0
 70
     8
 71
     3
 72
    23
 73
    19
 74
     0
 42
0.0000000001
 43
0.0000000001
 40
16.03460024169435
 40
16.03460024169435
 40
16.03460024169435
 40
16.03460024169435
 40
16.35212704903564
 40
17.38177054169784
 40
18.41822485651776
 40
19.46214173629503
 40
20.51396345435107
 40
21.57393551351153
 40
22.64208202342361
 40
23.7182574881101
 40
24.80209208578934
 40
25.89306333925047
 40
26.99048218457928
 40
28.09348763352352
 40
29.20111863782268
 40
30.31232390128032
 40
31.42594612798585
 40
32.5407912310448
 40
32.5407912310486
 40
32.5407912310486
 40
32.5407912310486
 10
-21.94273176951881
 20
1.850263122998548
 30
0.0
 10
-21.9041261069587
 20
1.844017848782836
 30
0.0
 10
-21.74049834509002
 20
1.816821437344325
 30
0.0
 10
-21.45226628040809
 20
1.763534219826202
 30
0.0
 10
-21.07900500209738
 20
1.684296710120085
 30
0.0
 10
-20.70609042641902
 20
1.595326194275827
 30
0.0
 10
-20.33350051755328
 20
1.497137588259453
 30
0.0
 10
-19.96122205162404
 20
1.390278295747635
 30
0.0
 10
-19.58923351182816
 20
1.27535916952035
 30
0.0
 10
-19.21750899429762
 20
1.153049010066409
 30
0.0
 10
-18.84602737631023
 20
1.024040452687679
 30
0.0
 10
-18.47475887483767
 20
0.8890841681198578
 30
0.0
 10
-18.10367340271963
 20
0.7489645805965088
 30
0.0
 10
-17.73274623558954
 20
0.6044873190039901
 30
0.0
 10
-17.36194633842178
 20
0.4564924988331021
 30
0.0
 10
-16.99123936729286
 20
0.3058443012562055
 30
0.0
 10
-16.62059513619082
 20
0.1534156917841514
 30
0.0
 10
-16.37356535206358
 20
0.0512206438433601
 30
0.0
 10
-16.24998309345398
 20
0.0000943927898371
 30
0.0
  0
SPLINE
  5
37F3
330
1F
100
AcDbEntity
  8
AM_0
100
AcDbSpline
210
0.0
220
0.0
230
1.0
 70
     8
 71
     3
 72
    46
 73
    42
 74
     0
 42
0.0000000001
 43
0.0000000001
 40
0.0
 40
0.0
 40
0.0
 40
0.0
 40
0.5056245176053715
 40
0.759310862862336
 40
1.013969309739036
 40
1.269880374404297
 40
1.527291183660732
 40
1.786406454158005
 40
2.047386241038974
 40
2.310345544571907
 40
2.575337113970003
 40
2.842374715221223
 40
3.111417320030211
 40
3.382376832022752
 40
3.655120036292296
 40
3.929472521611371
 40
4.205224030350333
 40
4.482133246366229
 40
4.759933319229942
 40
5.038338087391601
 40
5.317048131389549
 40
5.595758175387723
 40
5.874162943549383
 40
6.151963016412869
 40
6.428872232428759
 40
6.704623741167955
 40
6.978976226486705
 40
7.251719430756336
 40
7.522680721168327
 40
7.791723325977311
 40
8.058760927228529
 40
8.32375249662655
 40
8.586708135057122
 40
8.84768792193809
 40
9.106803192435362
 40
9.364213819003406
 40
9.620125035580644
 40
9.87478726697307
 40
10.12847352585208
 40
10.38149610319407
 40
10.63418200686337
 40
10.63418200686337
 40
10.63418200686337
 40
10.63418200686337
 10
-1.352526455277953
 20
-1.849999703076026
 30
0.0
 10
-1.603112259617501
 20
-1.84578526006933
 30
0.0
 10
-1.979424160423365
 20
-1.839456309940375
 30
0.0
 10
-2.479822505223436
 20
-1.800490126686452
 30
0.0
 10
-2.855556400530573
 20
-1.761201848502265
 30
0.0
 10
-3.23125817953418
 20
-1.710762373051855
 30
0.0
 10
-3.606926852507111
 20
-1.649842412309913
 30
0.0
 10
-3.982560489565736
 20
-1.578733215587748
 30
0.0
 10
-4.358158461580131
 20
-1.497898014162167
 30
0.0
 10
-4.733719097006657
 20
-1.407833148136099
 30
0.0
 10
-5.109243146500979
 20
-1.309097233208596
 30
0.0
 10
-5.48472960001757
 20
-1.202299109700183
 30
0.0
 10
-5.860184489947201
 20
-1.088102191013034
 30
0.0
 10
-6.235609641075682
 20
-0.9672085064996341
 30
0.0
 10
-6.611008505787416
 20
-0.8403635474269767
 30
0.0
 10
-6.986385255751453
 20
-0.7083498665371848
 30
0.0
 10
-7.361743180788632
 20
-0.5719792756459202
 30
0.0
 10
-7.737085934078625
 20
-0.4320905256726689
 30
0.0
 10
-8.11241749532459
 20
-0.2895445499044043
 30
0.0
 10
-8.487741293204893
 20
-0.1452179058910474
 30
0.0
 10
-8.863061936047069
 20
0.0000002968947937
 30
0.0
 10
-9.238382578806792
 20
0.1452184998571049
 30
0.0
 10
-9.613706376934418
 20
0.2895451433413145
 30
0.0
 10
-9.989037937276394
 20
0.4320911210433886
 30
0.0
 10
-10.3643806939184
 20
0.5719798638448374
 30
0.0
 10
-10.73973860652658
 20
0.7083504813283874
 30
0.0
 10
-11.11511540251945
 20
0.8403640637376087
 30
0.0
 10
-11.49051491307237
 20
0.9672096628463259
 30
0.0
 10
-11.86594152292187
 20
1.08810224897932
 30
0.0
 10
-12.24139708260547
 20
1.202299753229158
 30
0.0
 10
-12.61688352737968
 20
1.309097908515701
 30
0.0
 10
-12.99240603426387
 20
1.407832916144519
 30
0.0
 10
-13.36796416740711
 20
1.497899175397777
 30
0.0
 10
-13.74356060625579
 20
1.578734707044003
 30
0.0
 10
-14.11919402591738
 20
1.649839251429194
 30
0.0
 10
-14.49486297430759
 20
1.710776881360372
 30
0.0
 10
-14.87056715106894
 20
1.76114432859307
 30
0.0
 10
-15.24629911031457
 20
1.8007091889366
 30
0.0
 10
-15.62205431591369
 20
1.828936633459676
 30
0.0
 10
-15.99782316114725
 20
1.846699082115693
 30
0.0
 10
-16.24839682779949
 20
1.848900380490412
 30
0.0
 10
-16.37360025184953
 20
1.850000296924383
 30
0.0
  0
SPLINE
  5
37F4
330
1F
100
AcDbEntity
  8
AM_0
100
AcDbSpline
210
0.0
220
0.0
230
1.0
 70
     8
 71
     3
 72
    55
 73
    51
 74
     0
 42
0.0000000001
 43
0.0000000001
 40
0.0
 40
0.0
 40
0.0
 40
0.0
 40
1.010743684496582
 40
2.022833576467832
 40
3.037578957496688
 40
4.056212745003489
 40
5.079857003664532
 40
6.109500240690281
 40
7.145961322679372
 40
8.189895241603872
 40
9.241717795325891
 40
10.30168407291828
 40
11.36983447792315
 40
12.44600489715814
 40
13.52984294512926
 40
14.62081576220742
 40
15.7182257034828
 40
16.82123173843959
 40
17.92886860250316
 40
19.0400688939571
 40
20.15368796660465
 40
21.26852814259644
 40
22.38336992938901
 40
23.49698739941135
 40
24.6081876908653
 40
25.71582455492886
 40
26.81883757994213
 40
27.91624752121713
 40
29.00722033829659
 40
30.09105838626677
 40
31.16722880550176
 40
32.23537921050758
 40
33.29534548809967
 40
34.347168041821
 40
35.39108718934584
 40
36.42754827133493
 40
37.45720575381954
 40
38.48085062012849
 40
39.49948440763516
 40
40.51422944315121
 40
41.52631975251916
 40
42.53706336719636
 40
43.54780698187354
 40
44.55989729124051
 40
45.57464232675757
 40
46.59327611426424
 40
47.6169209805722
 40
48.64656348684535
 40
49.68302456883444
 40
50.58557219878025
 40
50.58557219878025
 40
50.58557219878025
 40
50.58557219878025
 10
-2.404424753870443
 20
-1.849999703075996
 30
0.0
 10
-2.529628155648627
 20
-1.848898997894981
 30
0.0
 10
-2.780201717363285
 20
-1.84669612150595
 30
0.0
 10
-3.155970871440021
 20
-1.828938464771232
 30
0.0
 10
-3.531723985348388
 20
-1.800708429380509
 30
0.0
 10
-3.907453843828044
 20
-1.761142961111327
 30
0.0
 10
-4.283156697686449
 20
-1.710778247915978
 30
0.0
 10
-4.658825135146338
 20
-1.649838253647872
 30
0.0
 10
-5.034460412801942
 20
-1.578733491829267
 30
0.0
 10
-5.410059199527491
 20
-1.497899374000517
 30
0.0
 10
-5.785618936810769
 20
-1.407832216741367
 30
0.0
 10
-6.161141496609388
 20
-1.309097362287577
 30
0.0
 10
-6.536627884647677
 20
-1.202299074717223
 30
0.0
 10
-6.912082792327293
 20
-1.088102200499042
 30
0.0
 10
-7.28750793862065
 20
-0.9672085038925061
 30
0.0
 10
-7.662906804746724
 20
-0.8403635482812051
 30
0.0
 10
-8.038283553929746
 20
-0.7083498657447636
 30
0.0
 10
-8.413641480676476
 20
-0.5719792779705064
 30
0.0
 10
-8.78898422787838
 20
-0.4320905171227189
 30
0.0
 10
-9.164315811862302
 20
-0.2895445819048014
 30
0.0
 10
-9.539639524643581
 20
-0.1452177861452356
 30
0.0
 10
-9.914960666374375
 20
-0.0000000805429977
 30
0.0
 10
-10.29028012322727
 20
0.1452202390684387
 30
0.0
 10
-10.66560509401182
 20
0.2895447872780503
 30
0.0
 10
-11.04093621464389
 20
0.4320911539743952
 30
0.0
 10
-11.41627963107775
 20
0.5719804477360077
 30
0.0
 10
-11.79163911498922
 20
0.7083498716997195
 30
0.0
 10
-12.16701645661592
 20
0.8403642237292181
 30
0.0
 10
-12.54241537693709
 20
0.9672090764823318
 30
0.0
 10
-12.91784050956993
 20
1.08810279851236
 30
0.0
 10
-13.29329541821093
 20
1.202299672897593
 30
0.0
 10
-13.66878181581318
 20
1.309097934930867
 30
0.0
 10
-14.04430433685377
 20
1.40783289020203
 30
0.0
 10
-14.41986246011924
 20
1.49789925216933
 30
0.0
 10
-14.79545892420015
 20
1.57873442872335
 30
0.0
 10
-15.17109406251456
 20
1.649840620369264
 30
0.0
 10
-15.54676518237298
 20
1.710773654444081
 30
0.0
 10
-15.92246927744746
 20
1.761153956582858
 30
0.0
 10
-16.29819924731025
 20
1.800672525096225
 30
0.0
 10
-16.67395262230328
 20
1.82907399120815
 30
0.0
 10
-17.04972145777255
 20
1.846187974001708
 30
0.0
 10
-17.4254985505341
 20
1.851905189367587
 30
0.0
 10
-17.80127564274274
 20
1.846187973992765
 30
0.0
 10
-18.17704447987394
 20
1.829073991244146
 30
0.0
 10
-18.55279784874824
 20
1.800672524960755
 30
0.0
 10
-18.92852784155173
 20
1.761153957092194
 30
0.0
 10
-19.30423001875436
 20
1.710773898141274
 30
0.0
 10
-19.67989965861157
 20
1.649841243376713
 30
0.0
 10
-20.03845548237979
 20
1.581962199648151
 30
0.0
 10
-20.27109058419039
 20
1.532321613263134
 30
0.0
 10
-20.37901971247611
 20
1.508129333904076
 30
0.0
  0
SPLINE
  5
37F5
330
1F
100
AcDbEntity
  8
AM_0
 48
0.5
100
AcDbSpline
210
0.0
220
0.0
230
1.0
 70
     8
 71
     3
 72
    25
 73
    21
 74
     0
 42
0.0000000001
 43
0.0000000001
 40
6.846175049578289
 40
6.846175049578289
 40
6.846175049578289
 40
6.846175049578289
 40
7.604337694224321
 40
8.711974558287883
 40
9.814980593243754
 40
10.91239053451967
 40
12.0033633515982
 40
13.08720139956839
 40
14.16337181880432
 40
15.23152222380919
 40
16.29148850140128
 40
17.34331105512262
 40
18.38723020264746
 40
19.42369128463655
 40
20.45333379090873
 40
21.47697865721768
 40
22.49561244472435
 40
23.5103574802404
 40
24.52244778960836
 40
25.53320666051913
 40
25.53320666051913
 40
25.53320666051913
 40
25.53320666051913
 10
-2.84266616647913
 20
0.3348624085980614
 30
0.0
 10
-2.928028055289534
 20
0.3673451183851793
 30
0.0
 10
-3.138278947680885
 20
0.4469583603131452
 30
0.0
 10
-3.473731298838061
 20
0.5719798095334562
 30
0.0
 10
-3.849089182534246
 20
0.7083504761990313
 30
0.0
 10
-4.224465943222177
 20
0.8403641375811126
 30
0.0
 10
-4.599864806087795
 20
0.9672090994497198
 30
0.0
 10
-4.975289954000881
 20
1.088102792039518
 30
0.0
 10
-5.350744858464813
 20
1.20229967602398
 30
0.0
 10
-5.726231257638034
 20
1.309097928894164
 30
0.0
 10
-6.101753776549752
 20
1.407832911015001
 30
0.0
 10
-6.477311906697613
 20
1.497899175766521
 30
0.0
 10
-6.852908345636917
 20
1.578734710599681
 30
0.0
 10
-7.228541767870504
 20
1.649839236992615
 30
0.0
 10
-7.604210705984408
 20
1.710776935071445
 30
0.0
 10
-7.979913069557545
 20
1.76114388150813
 30
0.0
 10
-8.355643012812011
 20
1.800709560254163
 30
0.0
 10
-8.731396394822485
 20
1.828936571227772
 30
0.0
 10
-9.107167115979327
 20
1.846699190230137
 30
0.0
 10
-9.357742676000931
 20
1.848900410973693
 30
0.0
 10
-9.482947991649002
 20
1.850000296924192
 30
0.0
  0
SPLINE
  5
37F6
330
1F
100
AcDbEntity
  8
AM_0
 48
0.5
100
AcDbSpline
210
0.0
220
0.0
230
1.0
 70
     8
 71
     3
 72
    17
 73
    13
 74
     0
 42
0.0000000001
 43
0.0000000001
 40
0.0
 40
0.0
 40
0.0
 40
0.0
 40
1.010743614677189
 40
2.022833924044153
 40
3.037578959561199
 40
4.056212747067873
 40
5.079857613375832
 40
6.109500119648989
 40
7.14596120163808
 40
8.18989512056258
 40
9.241717674284874
 40
9.693948937866434
 40
9.693948937866434
 40
9.693948937866434
 40
9.693948937866434
 10
-2.404424753870363
 20
1.850000296924001
 30
0.0
 10
-2.529628178434072
 20
1.84890038496467
 30
0.0
 10
-2.780201846114231
 20
1.846699095545205
 30
0.0
 10
-3.155970683622739
 20
1.828936579597588
 30
0.0
 10
-3.531724050946291
 20
1.800709532137268
 30
0.0
 10
-3.907454049608189
 20
1.761143986218784
 30
0.0
 10
-4.283156204772962
 20
1.71077654146192
 30
0.0
 10
-4.658825927610217
 20
1.649840719366346
 30
0.0
 10
-5.034458176000869
 20
1.57872878397108
 30
0.0
 10
-5.410067525983992
 20
1.497919479139366
 30
0.0
 10
-5.713269187783989
 20
1.42512251074525
 30
0.0
 10
-5.891326980633758
 20
1.379613936836807
 30
0.0
 10
-5.94477037712857
 20
1.365684067011197
 30
0.0
  0
ELLIPSE
  5
37F7
330
1F
100
AcDbEntity
  8
AM_0
 48
0.5
100
AcDbEllipse
 10
1.030391167913363
 20
2.221039115283354
 30
0.0
 11
-4.540398970568582
 21
0.6529579001896088
 31
0.0
210
0.0
220
0.0
230
0.9999999999999998
 40
0.8376283295248811
 41
0.6807180174608845
 42
1.083816136583049
  0
ELLIPSE
  5
37F8
330
1F
100
AcDbEntity
  8
AM_0
 48
0.5
100
AcDbEllipse
 10
1.890232579369273
 20
-0.2420151629348269
 30
0.0
 11
-3.561518432276784
 21
0.1753041420919839
 31
0.0
210
0.0
220
0.0
230
0.9999999999999998
 40
0.7952579259116334
 41
0.2721302182218237
 42
0.6642388134564872
  0
ELLIPSE
  5
37F9
330
1F
100
AcDbEntity
  8
AM_0
 48
0.5
100
AcDbEllipse
 10
-3.775544035775189
 20
3.104970974617551
 30
0.0
 11
-2.880485535436894
 21
3.544851992853422
 31
0.0
210
0.0
220
0.0
230
1.0
 40
0.7357605678895776
 41
2.907786508457863
 42
3.071933356807726
  0
SPLINE
  5
37FA
330
1F
100
AcDbEntity
  8
AM_0
 48
0.5
100
AcDbSpline
210
0.0
220
0.0
230
1.0
 70
     8
 71
     3
 72
    26
 73
    22
 74
     0
 42
0.0000000001
 43
0.0000000001
 40
0.0
 40
0.0
 40
0.0
 40
0.0
 40
0.2526859211241313
 40
0.5057083941171959
 40
0.7593947393741639
 40
1.01405318625086
 40
1.26996425091637
 40
1.527375060172565
 40
1.786490330669834
 40
2.047470117551047
 40
2.310425755981314
 40
2.575417325379407
 40
2.842456731169063
 40
3.111495753801943
 40
3.382458822635121
 40
3.655202026904655
 40
3.929554512223505
 40
4.205306020962704
 40
4.482215236978595
 40
4.76001530984208
 40
5.029821427366006
 40
5.029821427366006
 40
5.029821427366006
 40
5.029821427366006
 10
-16.37644465889331
 20
-1.850094884132085
 30
0.0
 10
-16.50164806068655
 20
-1.848994178999036
 30
0.0
 10
-16.75222162243147
 20
-1.84679130270599
 30
0.0
 10
-17.12799077628168
 20
-1.829033645249995
 30
0.0
 10
-17.50374389105434
 20
-1.800803612611474
 30
0.0
 10
-17.87947374628521
 20
-1.761238133996917
 30
0.0
 10
-18.25517661236035
 20
-1.710873459704358
 30
0.0
 10
-18.63084500382127
 20
-1.649933318957812
 30
0.0
 10
-19.00647867075244
 20
-1.578829446993083
 30
0.0
 10
-19.38207505134059
 20
-1.497993692917708
 30
0.0
 10
-19.75763325763947
 20
-1.407927629079577
 30
0.0
 10
-20.13315638050716
 20
-1.309191834151441
 30
0.0
 10
-20.50864286389852
 20
-1.202395969841054
 30
0.0
 10
-20.88409696218107
 20
-1.088195148462665
 30
0.0
 10
-21.25952369543495
 20
-0.9673049392046522
 30
0.0
 10
-21.63492387481621
 20
-0.8404586932301826
 30
0.0
 10
-22.01030029873594
 20
-0.7084444772298978
 30
0.0
 10
-22.38565986054055
 20
-0.5720767904144564
 30
0.0
 10
-22.76099635699655
 20
-0.4321768951092196
 30
0.0
 10
-23.13247733217016
 20
-0.2911435720309237
 30
0.0
 10
-23.37859745479065
 20
-0.1963963962963251
 30
0.0
 10
-23.49999999999998
 20
-0.1497131918813709
 30
0.0
  0
SPLINE
  5
37FB
330
1F
100
AcDbEntity
  8
AM_0
100
AcDbSpline
210
0.0
220
0.0
230
1.0
 70
     8
 71
     3
 72
    13
 73
     9
 74
     0
 42
0.0000000001
 43
0.0000000001
 40
16.03460056234195
 40
16.03460056234195
 40
16.03460056234195
 40
16.03460056234195
 40
16.35212717791071
 40
17.38177067057215
 40
18.41822498539278
 40
19.46214186516937
 40
20.5139635832251
 40
21.34083983469381
 40
21.34083983469381
 40
21.34083983469381
 40
21.34083983469381
 10
-22.75685304374538
 20
-1.85009488413189
 30
0.0
 10
-22.6504680731342
 20
-1.844018043191834
 30
0.0
 10
-22.48684017586688
 20
-1.81682237793517
 30
0.0
 10
-22.1986082683047
 20
-1.763534538276284
 30
0.0
 10
-21.82534694302077
 20
-1.684297248276822
 30
0.0
 10
-21.45243238006369
 20
-1.595326672932305
 30
0.0
 10
-21.1073637318933
 20
-1.504390759585073
 30
0.0
 10
-20.88721601098655
 20
-1.441774911672438
 30
0.0
 10
-20.79063852526262
 20
-1.413471977860213
 30
0.0
  0
ELLIPSE
  5
37FC
330
1F
100
AcDbEntity
  8
AM_0
 48
0.5
100
AcDbEllipse
 10
-22.75685281044443
 20
-1.23342821746525
 30
0.0
 11
-0.743194192377498
 21
0.0000000000000859
 31
0.0
210
0.0
220
0.0
230
1.0
 40
0.8297517297517234
 41
0.0112467747892655
 42
1.570796012878467
  0
ELLIPSE
  5
37FD
330
1F
100
AcDbEntity
  8
AM_0
 48
0.5
100
AcDbEllipse
 10
-22.94278744145958
 20
-1.252216809485889
 30
0.0
 11
-0.5573956442831265
 21
0.0000000000000372
 31
0.0
210
0.0
220
0.0
230
1.0
 40
0.8297517297517225
 41
4.317028824483129
 42
6.257553905069413
  0
SPLINE
  5
37FE
330
1F
100
AcDbEntity
  8
AM_0
 48
0.5
100
AcDbSpline
210
0.0
220
0.0
230
1.0
 70
     8
 71
     3
 72
    22
 73
    18
 74
     0
 42
0.0000000001
 43
0.0000000001
 40
0.0
 40
0.0
 40
0.0
 40
0.0
 40
1.010743684496582
 40
2.022833993863546
 40
3.037578683882831
 40
4.056212471389632
 40
5.079857945358201
 40
6.109499720892564
 40
7.145961650132166
 40
8.189873411961459
 40
9.241710626092514
 40
10.30166235592959
 40
11.36982472628033
 40
12.44598212828784
 40
13.52983440361964
 40
14.62080578343036
 40
14.90544694398022
 40
14.90544694398022
 40
14.90544694398022
 40
14.90544694398022
 10
-17.41525857228099
 20
-1.850094884132055
 30
0.0
 10
-17.55354638318821
 20
-1.848994507788945
 30
0.0
 10
-17.80412004448707
 20
-1.846792289059297
 30
0.0
 10
-18.17988880482831
 20
-1.8290296857249
 30
0.0
 10
-18.55564232534129
 20
-1.800804402961142
 30
0.0
 10
-18.93137238360965
 20
-1.761238898218318
 30
0.0
 10
-19.30707421417848
 20
-1.710869486214349
 30
0.0
 10
-19.68274389761385
 20
-1.64993461447323
 30
0.0
 10
-20.05837592902153
 20
-1.578828158666883
 30
0.0
 10
-20.43397289137845
 20
-1.497991234255514
 30
0.0
 10
-20.8095314018812
 20
-1.407928573481043
 30
0.0
 10
-21.18505342316161
 20
-1.309188307841912
 30
0.0
 10
-21.56054137595701
 20
-1.202398766792984
 30
0.0
 10
-21.93599497823184
 20
-1.088194809635047
 30
0.0
 10
-22.31142126366709
 20
-0.9673039672814239
 30
0.0
 10
-22.5935803536226
 20
-0.8719684581802244
 30
0.0
 10
-22.75080924487408
 20
-0.8174777456554769
 30
0.0
 10
-22.72811175610575
 20
-0.8253950244625787
 30
0.0
  0
VIEWPORT
  5
110
330
101
100
AcDbEntity
 67
     1
  8
0
100
AcDbViewport
 10
420.5
 20
297.0
 30
0.0
 40
948.9782706766916
 41
628.452
 68
     1
 69
     1
1001
ACAD
1000
MVIEW
1002
{
1070
    16
1010
0.0
1020
0.0
1030
0.0
1010
0.0
1020
0.0
1030
1.0
1040
0.0
1040
628.452
1040
420.5
1040
297.0
1040
50.0
1040
0.0
1040
0.0
1070
     0
1070
   100
1070
     1
1070
     1
1070
     0
1070
     0
1070
     0
1070
     0
1040
0.0
1040
0.0
1040
0.0
1040
10.0
1040
10.0
1040
10.0
1040
10.0
1070
     0
1002
{
1002
}
1002
}
  0
ENDSEC
  0
SECTION
  2
OBJECTS
  0
DICTIONARY
  5
C
330
0
100
AcDbDictionary
  3
ACAD_GROUP
350
D
  3
ACAD_LAYOUT
350
1A
  3
ACAD_MLINESTYLE
350
17
  3
ACAD_PLOTSETTINGS
350
19
  3
ACAD_PLOTSTYLENAME
350
E
  3
ACDBVARIABLEDICTIONARY
350
34
  3
ACMDICTIONARY
350
43
  3
AMG
350
2B
  3
AMGSNAPSETTINGS
350
6E
  3
DWGPROPS
350
3881
  3
ACDBHEADERROUNDTRIPXREC
350
388D
  0
DICTIONARY
  5
74
330
1F
100
AcDbDictionary
280
     1
  3
ACAD_INDEX
360
3883
  3
ACAD_LAYOUTSELFREF
360
38B0
  0
DICTIONARY
  5
38B5
330
101
100
AcDbDictionary
280
     1
  3
ACAD_LAYOUTSELFREF
360
38B6
  0
DICTIONARY
  5
D
102
{ACAD_REACTORS
330
C
102
}
330
C
100
AcDbDictionary
  0
DICTIONARY
  5
1A
102
{ACAD_REACTORS
330
C
102
}
330
C
100
AcDbDictionary
  0
DICTIONARY
  5
17
102
{ACAD_REACTORS
330
C
102
}
330
C
100
AcDbDictionary
  3
STANDARD
350
18
  0
DICTIONARY
  5
19
102
{ACAD_REACTORS
330
C
102
}
330
C
100
AcDbDictionary
  0
ACDBDICTIONARYWDFLT
  5
E
102
{ACAD_REACTORS
330
C
102
}
330
C
100
AcDbDictionary
281
     1
  3
Normal
350
F
100
AcDbDictionaryWithDefault
340
F
  0
DICTIONARY
  5
34
102
{ACAD_REACTORS
330
C
102
}
330
C
100
AcDbDictionary
  3
INDEXCTL
350
35
  3
SORTENTS
350
B5E
  0
DICTIONARY
  5
43
102
{ACAD_REACTORS
330
C
102
}
330
C
100
AcDbDictionary
  3
ACMSTDDICTIONARY
350
260
  0
DICTIONARY
  5
2B
102
{ACAD_REACTORS
330
C
102
}
330
C
100
AcDbDictionary
  3
ACMGSETTINGS
350
2C
  0
DICTIONARY
  5
6E
102
{ACAD_REACTORS
330
C
102
}
330
C
100
AcDbDictionary
  0
XRECORD
  5
3881
102
{ACAD_REACTORS
330
C
102
}
330
C
100
AcDbXrecord
  1
DWGPROPS COOKIE
  2

  3

  4

  6

  7

  8

  9

300
AmdtFileType=82
301
=
302
=
303
=
304
=
305
=
306
=
307
=
308
=
309
=
 40
0.096286875
 41
2452800.443498622
 42
2452946.600755023
  1

 90
        1
  0
DICTIONARY
  5
388D
102
{ACAD_REACTORS
330
C
102
}
330
C
100
AcDbDictionary
  3
TSTACKALIGN
350
388E
  3
TSTACKSIZE
350
388F
  3
HYPERLINKBASE
350
3890
  3
STYLESHEET
350
3891
  3
LAYOUTDICT
350
3892
  3
PLOTSETDICT
350
3893
  3
PLOTSTYLNAMDICT
350
3894
  3
LWETCUNION
350
3895
  3
INSUNITS
350
3896
  3
CEPSNTYPE
350
3897
  3
FINGERPRINTGUID
350
3898
  3
VERSIONGUID
350
3899
  3
PSVPSCALE
350
389A
  3
DIMSTYLEDATA
350
389B
  3
PUCSORTHOREF
350
389C
  3
PUCSORTHOVIEW
350
389D
  3
PUCSBASE
350
389E
  3
PUCSORGTOP
350
389F
  3
PUCSORGBOTTOM
350
38A0
  3
PUCSORGLEFT
350
38A1
  3
PUCSORGRIGHT
350
38A2
  3
PUCSORGFRONT
350
38A3
  3
PUCSORGBACK
350
38A4
  3
UCSORTHOREF
350
38A5
  3
UCSORTHOVIEW
350
38A6
  3
UCSBASE
350
38A7
  3
UCSORGTOP
350
38A8
  3
UCSORGBOTTOM
350
38A9
  3
UCSORGLEFT
350
38AA
  3
UCSORGRIGHT
350
38AB
  3
UCSORGFRONT
350
38AC
  3
UCSORGBACK
350
38AD
  0
DICTIONARY
  5
3883
102
{ACAD_REACTORS
330
74
102
}
330
74
100
AcDbDictionary
  3
*A1
350
3884
  0
XRECORD
  5
38B0
102
{ACAD_REACTORS
330
74
102
}
330
74
100
AcDbXrecord
340
1F
  0
XRECORD
  5
38B6
102
{ACAD_REACTORS
330
38B5
102
}
330
38B5
100
AcDbXrecord
340
101
  0
MLINESTYLE
  5
18
102
{ACAD_REACTORS
330
17
102
}
330
17
100
AcDbMlineStyle
  2
STANDARD
 70
     0
  3

 62
   256
 51
90.0
 52
90.0
 71
     2
 49
0.5
 62
   256
  6
BYLAYER
 49
-0.5
 62
   256
  6
BYLAYER
  0
ACDBPLACEHOLDER
  5
F
102
{ACAD_REACTORS
330
E
102
}
330
E
100
AcDbPlaceHolder
280
     0
  0
DICTIONARYVAR
  5
35
102
{ACAD_REACTORS
330
34
102
}
330
34
100
DictionaryVariables
280
     0
  1
1
  0
DICTIONARYVAR
  5
B5E
102
{ACAD_REACTORS
330
34
102
}
330
34
100
DictionaryVariables
280
     0
  1
96
  0
DICTIONARY
  5
260
102
{ACAD_REACTORS
330
43
102
}
330
43
100
AcDbDictionary
  0
DICTIONARY
  5
2C
102
{ACAD_REACTORS
330
2B
102
}
330
2B
100
AcDbDictionary
  3
DWGSETTINGS
350
2D
  0
XRECORD
  5
388E
102
{ACAD_REACTORS
330
388D
102
}
330
388D
100
AcDbXrecord
 90
        1
  0
XRECORD
  5
388F
102
{ACAD_REACTORS
330
388D
102
}
330
388D
100
AcDbXrecord
 90
       70
  0
XRECORD
  5
3890
102
{ACAD_REACTORS
330
388D
102
}
330
388D
100
AcDbXrecord
  1

  0
XRECORD
  5
3891
102
{ACAD_REACTORS
330
388D
102
}
330
388D
100
AcDbXrecord
  1
ASAMI.ctb
  0
XRECORD
  5
3892
102
{ACAD_REACTORS
330
388D
102
}
330
388D
100
AcDbXrecord
340
1A
  0
XRECORD
  5
3893
102
{ACAD_REACTORS
330
388D
102
}
330
388D
100
AcDbXrecord
340
19
  0
XRECORD
  5
3894
102
{ACAD_REACTORS
330
388D
102
}
330
388D
100
AcDbXrecord
340
E
  0
XRECORD
  5
3895
102
{ACAD_REACTORS
330
388D
102
}
330
388D
100
AcDbXrecord
 90
    10781
  0
XRECORD
  5
3896
102
{ACAD_REACTORS
330
388D
102
}
330
388D
100
AcDbXrecord
 90
        4
  0
XRECORD
  5
3897
102
{ACAD_REACTORS
330
388D
102
}
330
388D
100
AcDbXrecord
 90
        0
  0
XRECORD
  5
3898
102
{ACAD_REACTORS
330
388D
102
}
330
388D
100
AcDbXrecord
  1
{AFB28963-8C59-40AE-9337-C84526B81ACE}
  0
XRECORD
  5
3899
102
{ACAD_REACTORS
330
388D
102
}
330
388D
100
AcDbXrecord
  1
{9C0A0BA1-07E7-43DB-B618-A5951993EA0B}
  0
XRECORD
  5
389A
102
{ACAD_REACTORS
330
388D
102
}
330
388D
100
AcDbXrecord
 40
0.0
  0
XRECORD
  5
389B
102
{ACAD_REACTORS
330
388D
102
}
330
388D
100
AcDbXrecord
1000
DSTYLE
1002
{
1070
    79
 70
     2
1070
   341
340
59
1070
   342
340
59
1070
   371
 70
    -1
1070
   372
 70
    -1
1002
}
  0
XRECORD
  5
389C
102
{ACAD_REACTORS
330
388D
102
}
330
388D
100
AcDbXrecord
340
0
  0
XRECORD
  5
389D
102
{ACAD_REACTORS
330
388D
102
}
330
388D
100
AcDbXrecord
 70
     0
  0
XRECORD
  5
389E
102
{ACAD_REACTORS
330
388D
102
}
330
388D
100
AcDbXrecord
340
0
  0
XRECORD
  5
389F
102
{ACAD_REACTORS
330
388D
102
}
330
388D
100
AcDbXrecord
 10
0.0
 20
0.0
 30
0.0
  0
XRECORD
  5
38A0
102
{ACAD_REACTORS
330
388D
102
}
330
388D
100
AcDbXrecord
 10
0.0
 20
0.0
 30
0.0
  0
XRECORD
  5
38A1
102
{ACAD_REACTORS
330
388D
102
}
330
388D
100
AcDbXrecord
 10
0.0
 20
0.0
 30
0.0
  0
XRECORD
  5
38A2
102
{ACAD_REACTORS
330
388D
102
}
330
388D
100
AcDbXrecord
 10
0.0
 20
0.0
 30
0.0
  0
XRECORD
  5
38A3
102
{ACAD_REACTORS
330
388D
102
}
330
388D
100
AcDbXrecord
 10
0.0
 20
0.0
 30
0.0
  0
XRECORD
  5
38A4
102
{ACAD_REACTORS
330
388D
102
}
330
388D
100
AcDbXrecord
 10
0.0
 20
0.0
 30
0.0
  0
XRECORD
  5
38A5
102
{ACAD_REACTORS
330
388D
102
}
330
388D
100
AcDbXrecord
340
0
  0
XRECORD
  5
38A6
102
{ACAD_REACTORS
330
388D
102
}
330
388D
100
AcDbXrecord
 70
     0
  0
XRECORD
  5
38A7
102
{ACAD_REACTORS
330
388D
102
}
330
388D
100
AcDbXrecord
340
0
  0
XRECORD
  5
38A8
102
{ACAD_REACTORS
330
388D
102
}
330
388D
100
AcDbXrecord
 10
0.0
 20
0.0
 30
0.0
  0
XRECORD
  5
38A9
102
{ACAD_REACTORS
330
388D
102
}
330
388D
100
AcDbXrecord
 10
0.0
 20
0.0
 30
0.0
  0
XRECORD
  5
38AA
102
{ACAD_REACTORS
330
388D
102
}
330
388D
100
AcDbXrecord
 10
0.0
 20
0.0
 30
0.0
  0
XRECORD
  5
38AB
102
{ACAD_REACTORS
330
388D
102
}
330
388D
100
AcDbXrecord
 10
0.0
 20
0.0
 30
0.0
  0
XRECORD
  5
38AC
102
{ACAD_REACTORS
330
388D
102
}
330
388D
100
AcDbXrecord
 10
0.0
 20
0.0
 30
0.0
  0
XRECORD
  5
38AD
102
{ACAD_REACTORS
330
388D
102
}
330
388D
100
AcDbXrecord
 10
0.0
 20
0.0
 30
0.0
  0
LAYER_INDEX
  5
3884
102
{ACAD_REACTORS
330
3883
102
}
330
3883
100
AcDbIndex
 40
2453151.577293275
100
AcDbLayerIndex
  8
0
360
3885
 90
        0
  8
AM_0
360
3886
 90
       44
  8
AM_7
360
3887
 90
        1
  8
AM_11
360
3888
 90
       25
  8
AM_5
360
3889
 90
        5
  8
Defpoints
360
388A
 90
        0
  8
AM_6
360
388B
 90
        1
  0
XRECORD
  5
2D
102
{ACAD_REACTORS
330
2C
102
}
330
2C
100
AcDbXrecord
  1
VERSION
140
15.0
  1
PRODUCT
  2
AutoCAD Mechanical 2000
  0
IDBUFFER
  5
3885
330
0
100
AcDbIdBuffer
  0
IDBUFFER
  5
3886
330
0
100
AcDbIdBuffer
330
37DF
330
37E0
330
37E1
330
37E2
330
37E3
330
37E6
330
37E7
330
37E8
330
37EB
330
37EC
330
37ED
330
37EE
330
37EF
330
37F0
330
37F1
330
37F2
330
37F3
330
37F4
330
37F5
330
37F6
330
37F7
330
37F8
330
37F9
330
37FA
330
37FB
330
37FC
330
37FD
330
37FE
330
C1D
330
C20
330
27F8
330
2827
330
2828
330
2829
330
282B
330
282C
330
2830
330
2831
330
2964
330
2B4E
330
2B77
330
2B9A
330
2D3A
330
2D3B
  0
IDBUFFER
  5
3887
330
0
100
AcDbIdBuffer
330
224B
  0
IDBUFFER
  5
3888
330
0
100
AcDbIdBuffer
330
36A9
330
36B3
330
36B4
330
36B5
330
36B6
330
37E4
330
37E5
330
37E9
330
37EA
330
2206
330
2207
330
220B
330
220C
330
220D
330
220E
330
220F
330
2210
330
2219
330
221A
330
2228
330
2229
330
27F0
330
27F1
330
27F2
330
27F3
  0
IDBUFFER
  5
3889
330
0
100
AcDbIdBuffer
330
223E
330
2259
330
282D
330
2ABE
330
2FE5
  0
IDBUFFER
  5
388A
330
0
100
AcDbIdBuffer
  0
IDBUFFER
  5
388B
330
0
100
AcDbIdBuffer
330
19BD
  0
ENDSEC
  0
EOF
