  0
SECTION
  2
HEADER
  9
$ACADVER
  1
AC1014
  9
$ACADMAINTVER
 70
     9
  9
$DWGCODEPAGE
  3
ANSI_932
  9
$INSBASE
 10
0.0
 20
0.0
 30
0.0
  9
$EXTMIN
 10
-95.05241605610317
 20
-30.66473432486128
 30
-0.00000001
  9
$EXTMAX
 10
18.51606462088741
 20
17.92090915246227
 30
0.00000001
  9
$LIMMIN
 10
-113.2944314138306
 20
-53.73171721254141
  9
$LIMMAX
 10
35.53663099505621
 20
39.99301025758938
  9
$ORTHOMODE
 70
     0
  9
$REGENMODE
 70
     1
  9
$FILLMODE
 70
     1
  9
$QTEXTMODE
 70
     0
  9
$MIRRTEXT
 70
     0
  9
$DRAGMODE
 70
     2
  9
$LTSCALE
 40
1.0
  9
$OSMODE
 70
    55
  9
$ATTMODE
 70
     1
  9
$TEXTSIZE
 40
2.5
  9
$TRACEWID
 40
1.0
  9
$TEXTSTYLE
  7
STANDARD
  9
$CLAYER
  8
AM_0
  9
$CELTYPE
  6
BYLAYER
  9
$CECOLOR
 62
   256
  9
$CELTSCALE
 40
1.0
  9
$DELOBJ
 70
     1
  9
$DISPSILH
 70
     0
  9
$DIMSCALE
 40
1.0
  9
$DIMASZ
 40
2.5
  9
$DIMEXO
 40
1.0
  9
$DIMDLI
 40
12.0
  9
$DIMRND
 40
0.0
  9
$DIMDLE
 40
0.0
  9
$DIMEXE
 40
1.0
  9
$DIMTP
 40
0.1
  9
$DIMTM
 40
0.1
  9
$DIMTXT
 40
3.2
  9
$DIMCEN
 40
0.0
  9
$DIMTSZ
 40
0.0
  9
$DIMTOL
 70
     0
  9
$DIMLIM
 70
     0
  9
$DIMTIH
 70
     0
  9
$DIMTOH
 70
     0
  9
$DIMSE1
 70
     0
  9
$DIMSE2
 70
     0
  9
$DIMTAD
 70
     3
  9
$DIMZIN
 70
     8
  9
$DIMBLK
  1
OPEN30
  9
$DIMASO
 70
     1
  9
$DIMSHO
 70
     1
  9
$DIMPOST
  1

  9
$DIMAPOST
  1
"
  9
$DIMALT
 70
     0
  9
$DIMALTD
 70
     2
  9
$DIMALTF
 40
0.0393701
  9
$DIMLFAC
 40
1.0
  9
$DIMTOFL
 70
     1
  9
$DIMTVP
 40
0.0
  9
$DIMTIX
 70
     0
  9
$DIMSOXD
 70
     0
  9
$DIMSAH
 70
     0
  9
$DIMBLK1
  1

  9
$DIMBLK2
  1

  9
$DIMSTYLE
  2
AM_JIS
  9
$DIMCLRD
 70
   256
  9
$DIMCLRE
 70
   256
  9
$DIMCLRT
 70
     2
  9
$DIMTFAC
 40
0.71
  9
$DIMGAP
 40
1.5
  9
$DIMJUST
 70
     0
  9
$DIMSD1
 70
     0
  9
$DIMSD2
 70
     0
  9
$DIMTOLJ
 70
     0
  9
$DIMTZIN
 70
     0
  9
$DIMALTZ
 70
     0
  9
$DIMALTTZ
 70
     0
  9
$DIMFIT
 70
     3
  9
$DIMUPT
 70
     0
  9
$DIMUNIT
 70
     2
  9
$DIMDEC
 70
     3
  9
$DIMTDEC
 70
     3
  9
$DIMALTU
 70
     2
  9
$DIMALTTD
 70
     2
  9
$DIMTXSTY
  7
ASAMI
  9
$DIMAUNIT
 70
     0
  9
$LUNITS
 70
     2
  9
$LUPREC
 70
     2
  9
$SKETCHINC
 40
1.0
  9
$FILLETRAD
 40
2.5
  9
$AUNITS
 70
     0
  9
$AUPREC
 70
     0
  9
$MENU
  1
.
  9
$ELEVATION
 40
0.0
  9
$PELEVATION
 40
0.0
  9
$THICKNESS
 40
0.0
  9
$LIMCHECK
 70
     0
  9
$BLIPMODE
 70
     0
  9
$CHAMFERA
 40
0.25
  9
$CHAMFERB
 40
0.25
  9
$CHAMFERC
 40
20.0
  9
$CHAMFERD
 40
0.0
  9
$SKPOLY
 70
     0
  9
$TDCREATE
 40
2452800.443498622
  9
$TDUPDATE
 40
2453151.583732083
  9
$TDINDWG
 40
0.1067287963
  9
$TDUSRTIMER
 40
0.1067287963
  9
$USRTIMER
 70
     1
  9
$ANGBASE
 50
0.0
  9
$ANGDIR
 70
     0
  9
$PDMODE
 70
     3
  9
$PDSIZE
 40
0.0
  9
$PLINEWID
 40
0.0
  9
$COORDS
 70
     1
  9
$SPLFRAME
 70
     0
  9
$SPLINETYPE
 70
     6
  9
$SPLINESEGS
 70
     8
  9
$ATTDIA
 70
     1
  9
$ATTREQ
 70
     1
  9
$HANDLING
 70
 12289
  9
$HANDSEED
  5
2D2A
  9
$SURFTAB1
 70
     6
  9
$SURFTAB2
 70
     6
  9
$SURFTYPE
 70
     6
  9
$SURFU
 70
     6
  9
$SURFV
 70
     6
  9
$UCSNAME
  2

  9
$UCSORG
 10
0.0
 20
0.0
 30
0.0
  9
$UCSXDIR
 10
1.0
 20
0.0000000000000007
 30
0.0
  9
$UCSYDIR
 10
-0.0000000000000007
 20
1.0
 30
0.0
  9
$PUCSNAME
  2

  9
$PUCSORG
 10
0.0
 20
0.0
 30
0.0
  9
$PUCSXDIR
 10
1.0
 20
0.0
 30
0.0
  9
$PUCSYDIR
 10
0.0
 20
1.0
 30
0.0
  9
$USERI1
 70
     0
  9
$USERI2
 70
     0
  9
$USERI3
 70
     0
  9
$USERI4
 70
     0
  9
$USERI5
 70
     0
  9
$USERR1
 40
0.0
  9
$USERR2
 40
0.0
  9
$USERR3
 40
0.0
  9
$USERR4
 40
0.0
  9
$USERR5
 40
0.0
  9
$WORLDVIEW
 70
     1
  9
$SHADEDGE
 70
     3
  9
$SHADEDIF
 70
    70
  9
$TILEMODE
 70
     1
  9
$MAXACTVP
 70
    64
  9
$PINSBASE
 10
0.0
 20
0.0
 30
0.0
  9
$PLIMCHECK
 70
     0
  9
$PEXTMIN
 10
1.000000000000000E+20
 20
1.000000000000000E+20
 30
1.000000000000000E+20
  9
$PEXTMAX
 10
-1.000000000000000E+20
 20
-1.000000000000000E+20
 30
-1.000000000000000E+20
  9
$PLIMMIN
 10
0.0
 20
0.0
  9
$PLIMMAX
 10
841.0
 20
594.0
  9
$UNITMODE
 70
     0
  9
$VISRETAIN
 70
     1
  9
$PLINEGEN
 70
     0
  9
$PSLTSCALE
 70
     0
  9
$TREEDEPTH
 70
  3020
  9
$PICKSTYLE
 70
     0
  9
$CMLSTYLE
  2
STANDARD
  9
$CMLJUST
 70
     0
  9
$CMLSCALE
 40
20.0
  9
$PROXYGRAPHICS
 70
     1
  9
$MEASUREMENT
 70
     1
  0
ENDSEC
  0
SECTION
  2
CLASSES
  0
CLASS
  1
ACDBDICTIONARYWDFLT
  2
AcDbDictionaryWithDefault
  3
AutoCAD 2000
 90
        0
280
     0
281
     0
  0
CLASS
  1
ACDBPLACEHOLDER
  2
AcDbPlaceHolder
  3
AutoCAD 2000
 90
        0
280
     0
281
     0
  0
CLASS
  1
LAYOUT
  2
AcDbLayout
  3
AutoCAD 2000
 90
        0
280
     0
281
     0
  0
CLASS
  1
AMGSETTINGSOBJ
  2
AmgSettingsObj
  3
"AcadM|Product Description: AutoCAD Mechanical 2000|Company: Autodesk"
 90
        0
280
     0
281
     0
  0
CLASS
  1
ACME_DOCUMENT
  2
AcMeDbDoc
  3
AcMeServices
 90
        0
280
     0
281
     0
  0
CLASS
  1
ACMESCOPE
  2
AcMeScope
  3
AcMeServices
 90
        0
280
     0
281
     0
  0
CLASS
  1
ACMECOMMANDHISTORY
  2
AcMeCommandHistory
  3
AcMeServices
 90
        0
280
     0
281
     0
  0
CLASS
  1
DICTIONARYVAR
  2
AcDbDictionaryVar
  3
AutoCAD 2000
 90
        0
280
     0
281
     0
  0
CLASS
  1
ACIMSYSVARMAN
  2
AcImSysVarManager
  3
AcMeServices
 90
        0
280
     0
281
     0
  0
CLASS
  1
ACIMREALSYSVAR
  2
AcImRealSysVar
  3
AcMeServices
 90
        0
280
     0
281
     0
  0
CLASS
  1
ACIMINTSYSVAR
  2
AcImIntSysVar
  3
AcMeServices
 90
        0
280
     0
281
     0
  0
CLASS
  1
ACMEDRAWINGMAN
  2
AcMeDrawingMan
  3
AcMeServices
 90
        0
280
     0
281
     0
  0
CLASS
  1
ACMEVIEW
  2
AcMeView
  3
AcMeServices
 90
        0
280
     0
281
     0
  0
CLASS
  1
ACDBENTITYCACHE
  2
AcMeEntityCache
  3
AcMeServices
 90
        0
280
     0
281
     0
  0
CLASS
  1
GSMANAGER
  2
AcMeGSManager
  3
AcMeServices
 90
        0
280
     0
281
     0
  0
CLASS
  1
AmdtInternalReactor
  2
AmdtInternalReactor
  3
AcMeServices
 90
        0
280
     0
281
     0
  0
CLASS
  1
ACMESTATEMGR
  2
AcMeStateMgr
  3
AcMeServices
 90
        0
280
     0
281
     0
  0
CLASS
  1
ACME_DATABASE
  2
AcMeDbDatabase
  3
AcMeServices
 90
        0
280
     0
281
     0
  0
CLASS
  1
ACRFINSADJUSTERMGR
  2
AcRfInsAdjusterMgr
  3
AcMeServices
 90
        0
280
     0
281
     0
  0
CLASS
  1
ACMDATADICTIONARY
  2
AcmDataDictionary
  3
"AcmSymBB|Product Description: AutoCAD Mechanical 2000|Company: Autodesk"
 90
        0
280
     0
281
     0
  0
CLASS
  1
ACMDATAENTRYBLOCK
  2
AcmDataEntryBlock
  3
"AcmSymBB|Product Description: AutoCAD Mechanical 2000|Company: Autodesk"
 90
        0
280
     0
281
     0
  0
CLASS
  1
AMGOBJPROPCFG
  2
AmgObjPropCfg
  3
"AmgLay|Product Description: AutoCAD Mechanical 2000|Company: Autodesk"
 90
        1
280
     0
281
     0
  0
CLASS
  1
ACAMGFILTERDAT
  2
AcAmgFilterDat
  3
"AcadM|Product Description: AutoCAD Mechanical 2000|Company: Autodesk"
 90
        0
280
     0
281
     0
  0
CLASS
  1
LAYER_INDEX
  2
AcDbLayerIndex
  3
AutoCAD 2000
 90
        0
280
     0
281
     0
  0
CLASS
  1
IDBUFFER
  2
AcDbIdBuffer
  3
AutoCAD 2000
 90
        0
280
     0
281
     0
  0
CLASS
  1
ACIMSTRSYSVAR
  2
AcImStrSysVar
  3
AcMeServices
 90
        0
280
     0
281
     0
  0
CLASS
  1
ACMSTANDARDJIS
  2
AcmStandardJIS
  3
"AcmSymBB|Product Description: AutoCAD Mechanical 2000|Company: Autodesk"
 90
        0
280
     0
281
     0
  0
CLASS
  1
ACMSURFSTANDARDJIS
  2
AcmSurfTextStdJIS
  3
"AcmSymBB|Product Description: AutoCAD Mechanical 2000|Company: Autodesk"
 90
        0
280
     0
281
     0
  0
CLASS
  1
ACMFCFSTANDARDJIS
  2
AcmFCFStdJIS
  3
"AcmSymBB|Product Description: AutoCAD Mechanical 2000|Company: Autodesk"
 90
        0
280
     0
281
     0
  0
CLASS
  1
ACMWELDSTANDARDJIS
  2
AcmWeldingStdJIS
  3
"AcmSymBB|Product Description: AutoCAD Mechanical 2000|Company: Autodesk"
 90
        0
280
     0
281
     0
  0
CLASS
  1
ACMIDSTANDARDJIS
  2
AcmIdStdJIS
  3
"AcmSymBB|Product Description: AutoCAD Mechanical 2000|Company: Autodesk"
 90
        0
280
     0
281
     0
  0
CLASS
  1
ACMDATUMSTANDARDJIS
  2
AcmDatumStdJIS
  3
"AcmSymBB|Product Description: AutoCAD Mechanical 2000|Company: Autodesk"
 90
        0
280
     0
281
     0
  0
CLASS
  1
ACMBOMSTANDARDJIS
  2
AcmBOMStdJIS
  3
"AcmSymBB|Product Description: AutoCAD Mechanical 2000|Company: Autodesk"
 90
        0
280
     0
281
     0
  0
CLASS
  1
ACMSTANDARDANSI
  2
AcmStandardANSI
  3
"AcmSymBB|Product Description: AutoCAD Mechanical 2000|Company: Autodesk"
 90
        0
280
     0
281
     0
  0
CLASS
  1
ACMSURFSTANDARDANSI
  2
AcmSurfTextStdANSI
  3
"AcmSymBB|Product Description: AutoCAD Mechanical 2000|Company: Autodesk"
 90
        0
280
     0
281
     0
  0
CLASS
  1
ACMFCFSTANDARDANSI
  2
AcmFCFStdANSI
  3
"AcmSymBB|Product Description: AutoCAD Mechanical 2000|Company: Autodesk"
 90
        0
280
     0
281
     0
  0
CLASS
  1
ACMWELDSTANDARDANSI
  2
AcmWeldingStdANSI
  3
"AcmSymBB|Product Description: AutoCAD Mechanical 2000|Company: Autodesk"
 90
        0
280
     0
281
     0
  0
CLASS
  1
ACMIDSTANDARDANSI
  2
AcmIdStdANSI
  3
"AcmSymBB|Product Description: AutoCAD Mechanical 2000|Company: Autodesk"
 90
        0
280
     0
281
     0
  0
CLASS
  1
ACMDATUMSTANDARDANSI
  2
AcmDatumStdANSI
  3
"AcmSymBB|Product Description: AutoCAD Mechanical 2000|Company: Autodesk"
 90
        0
280
     0
281
     0
  0
CLASS
  1
ACMBOMSTANDARDANSI
  2
AcmBOMStdANSI
  3
"AcmSymBB|Product Description: AutoCAD Mechanical 2000|Company: Autodesk"
 90
        0
280
     0
281
     0
  0
CLASS
  1
ACMSTANDARDBSI
  2
AcmStandardBSI
  3
"AcmSymBB|Product Description: AutoCAD Mechanical 2000|Company: Autodesk"
 90
        0
280
     0
281
     0
  0
CLASS
  1
ACMSURFSTANDARDBSI
  2
AcmSurfTextStdBSI
  3
"AcmSymBB|Product Description: AutoCAD Mechanical 2000|Company: Autodesk"
 90
        0
280
     0
281
     0
  0
CLASS
  1
ACMFCFSTANDARDBSI
  2
AcmFCFStdBSI
  3
"AcmSymBB|Product Description: AutoCAD Mechanical 2000|Company: Autodesk"
 90
        0
280
     0
281
     0
  0
CLASS
  1
ACMWELDSTANDARDBSI
  2
AcmWeldingStdBSI
  3
"AcmSymBB|Product Description: AutoCAD Mechanical 2000|Company: Autodesk"
 90
        0
280
     0
281
     0
  0
CLASS
  1
ACMIDSTANDARDBSI
  2
AcmIdStdBSI
  3
"AcmSymBB|Product Description: AutoCAD Mechanical 2000|Company: Autodesk"
 90
        0
280
     0
281
     0
  0
CLASS
  1
ACMDATUMSTANDARDBSI
  2
AcmDatumStdBSI
  3
"AcmSymBB|Product Description: AutoCAD Mechanical 2000|Company: Autodesk"
 90
        0
280
     0
281
     0
  0
CLASS
  1
ACMBOMSTANDARDBSI
  2
AcmBOMStdBSI
  3
"AcmSymBB|Product Description: AutoCAD Mechanical 2000|Company: Autodesk"
 90
        0
280
     0
281
     0
  0
CLASS
  1
LONG_TRANSACTION
  2
AcDbLongTransaction
  3
AutoCAD 2000
 90
        0
280
     0
281
     0
  0
CLASS
  1
LWPOLYLINE
  2
AcDbPolyline
  3
AutoCAD 2000
 90
        0
280
     0
281
     1
  0
CLASS
  1
HATCH
  2
AcDbHatch
  3
AutoCAD 2000
 90
        0
280
     0
281
     1
  0
CLASS
  1
XRECORD
  2
AcDbXrecord
  3
AutoCAD 2000
 90
        0
280
     0
281
     0
  0
ENDSEC
  0
SECTION
  2
TABLES
  0
TABLE
  2
VPORT
  5
8
330
0
100
AcDbSymbolTable
 70
     3
  0
VPORT
  5
2CFF
330
8
100
AcDbSymbolTableRecord
100
AcDbViewportTableRecord
  2
*ACTIVE
 70
     0
 10
0.0
 20
0.0
 11
1.0
 21
1.0
 12
-30.0284017671534
 22
-9.900339026455426
 13
0.0
 23
0.0
 14
2.5
 24
2.5
 15
10.0
 25
10.0
 16
0.0
 26
0.0
 36
1.0
 17
0.0
 27
0.0
 37
0.0
 40
124.528153496803
 41
1.56570841889117
 42
50.0
 43
0.0
 44
0.0
 50
0.0
 51
0.0
 71
     0
 72
   100
 73
     1
 74
     1
 75
     0
 76
     0
 77
     0
 78
     0
  0
ENDTAB
  0
TABLE
  2
LTYPE
  5
5
330
0
100
AcDbSymbolTable
 70
    10
  0
LTYPE
  5
14
330
5
100
AcDbSymbolTableRecord
100
AcDbLinetypeTableRecord
  2
BYBLOCK
 70
     0
  3

 72
    65
 73
     0
 40
0.0
  0
LTYPE
  5
15
330
5
100
AcDbSymbolTableRecord
100
AcDbLinetypeTableRecord
  2
BYLAYER
 70
     0
  3

 72
    65
 73
     0
 40
0.0
  0
LTYPE
  5
16
330
5
100
AcDbSymbolTableRecord
100
AcDbLinetypeTableRecord
  2
CONTINUOUS
 70
     0
  3
Solid line
 72
    65
 73
     0
 40
0.0
  0
LTYPE
  5
4B
330
5
100
AcDbSymbolTableRecord
100
AcDbLinetypeTableRecord
  2
AM_ISO02W050
 70
     0
  3
__ __ __ __ __ __ __ __ __ __ __ __ __ __ __
 72
    65
 73
     2
 40
7.5
 49
6.0
 74
     0
 49
-1.5
 74
     0
  0
LTYPE
  5
4C
330
5
100
AcDbSymbolTableRecord
100
AcDbLinetypeTableRecord
  2
AM_ISO08W050
 70
     0
  3
____ . ____ . ____ . ____ . ____ . ____ . ____
 72
    65
 73
     4
 40
18.0
 49
12.0
 74
     0
 49
-1.5
 74
     0
 49
3.0
 74
     0
 49
-1.5
 74
     0
  0
LTYPE
  5
4D
330
5
100
AcDbSymbolTableRecord
100
AcDbLinetypeTableRecord
  2
AM_ISO09W050
 70
     0
  3
_____ . . _____ . . _____ . . ____ .. ____
 72
    65
 73
     6
 40
22.5
 49
12.0
 74
     0
 49
-1.5
 74
     0
 49
3.0
 74
     0
 49
-1.5
 74
     0
 49
3.0
 74
     0
 49
-1.5
 74
     0
  0
LTYPE
  5
4E
330
5
100
AcDbSymbolTableRecord
100
AcDbLinetypeTableRecord
  2
AMCONSTR
 70
     0
  3
_______________________
 72
    65
 73
     2
 40
9999.0
 49
9999.0
 74
     0
 49
0.0
 74
     0
  0
LTYPE
  5
4F
330
5
100
AcDbSymbolTableRecord
100
AcDbLinetypeTableRecord
  2
AM_ISO02W050X2
 70
     0
  3
 _ _ _ _ _ _ _ _ _ _ _ _
 72
    65
 73
     2
 40
3.75
 49
3.0
 74
     0
 49
-0.75
 74
     0
  0
LTYPE
  5
50
330
5
100
AcDbSymbolTableRecord
100
AcDbLinetypeTableRecord
  2
AM_ISO08W050X2
 70
     0
  3
__ . __ . __ . __ . __ . __
 72
    65
 73
     4
 40
9.0
 49
6.0
 74
     0
 49
-0.75
 74
     0
 49
1.5
 74
     0
 49
-0.75
 74
     0
  0
LTYPE
  5
53
330
5
100
AcDbSymbolTableRecord
100
AcDbLinetypeTableRecord
  2
AMZIGZAG
 70
     0
  3
/\/-/\/-/\/-/\/-/\/-/\/
 72
    65
 73
     2
 40
11.00009999999999
 49
0.0001
 74
     4
 75
   135
340
52
 46
0.04
 50
0.0
 44
0.0
 45
0.0
 49
-11.0
 74
     0
  0
LTYPE
  5
166
330
5
100
AcDbSymbolTableRecord
100
AcDbLinetypeTableRecord
  2
ACJISTGL
 70
     0
  3
_ _ _ _ _
 72
    65
 73
     2
 40
3.0
 49
2.0
 74
     0
 49
-1.0
 74
     0
  0
LTYPE
  5
26A
330
5
100
AcDbSymbolTableRecord
100
AcDbLinetypeTableRecord
  2
ACJISTGB
 70
     0
  3
__ . . __ . .
 72
    65
 73
     6
 40
9.0
 49
4.0
 74
     0
 49
-1.0
 74
     0
 49
1.0
 74
     0
 49
-1.0
 74
     0
 49
1.0
 74
     0
 49
-1.0
 74
     0
  0
ENDTAB
  0
TABLE
  2
LAYER
  5
2
330
0
100
AcDbSymbolTable
 70
     8
  0
LAYER
  5
10
330
2
100
AcDbSymbolTableRecord
100
AcDbLayerTableRecord
  2
0
 70
     0
 62
     7
  6
CONTINUOUS
  0
LAYER
  5
3F9
330
2
100
AcDbSymbolTableRecord
100
AcDbLayerTableRecord
  2
AM_0
 70
     0
 62
     7
  6
CONTINUOUS
  0
LAYER
  5
C7C
330
2
100
AcDbSymbolTableRecord
100
AcDbLayerTableRecord
  2
AM_7
 70
     0
 62
     4
  6
AM_ISO08W050
  0
LAYER
  5
C97
330
2
100
AcDbSymbolTableRecord
100
AcDbLayerTableRecord
  2
AM_11
 70
     0
 62
     3
  6
AM_ISO09W050
  0
LAYER
  5
CC5
330
2
100
AcDbSymbolTableRecord
100
AcDbLayerTableRecord
  2
AM_5
 70
     0
 62
     3
  6
CONTINUOUS
  0
LAYER
  5
CC7
330
2
100
AcDbSymbolTableRecord
100
AcDbLayerTableRecord
  2
DEFPOINTS
 70
     0
 62
     7
  6
CONTINUOUS
  0
LAYER
  5
19BC
330
2
100
AcDbSymbolTableRecord
100
AcDbLayerTableRecord
  2
AM_6
 70
     0
 62
     2
  6
CONTINUOUS
  0
LAYER
  5
2991
330
2
100
AcDbSymbolTableRecord
100
AcDbLayerTableRecord
  2
AM_CL
 70
     0
 62
     1
  6
AMCONSTR
  0
ENDTAB
  0
TABLE
  2
STYLE
  5
3
330
0
100
AcDbSymbolTable
 70
     5
  0
STYLE
  5
11
330
3
100
AcDbSymbolTableRecord
100
AcDbTextStyleTableRecord
  2
STANDARD
 70
     0
 40
0.0
 41
1.0
 50
0.0
 71
     0
 42
2.5
  3
simplex.shx
  4
EXTFONT.SHX
  0
STYLE
  5
52
330
3
100
AcDbSymbolTableRecord
100
AcDbTextStyleTableRecord
  2

 70
     1
 40
0.0
 41
1.0
 50
0.0
 71
     0
 42
2.5
  3
ltypeshp.shx
  4

  0
STYLE
  5
6B
330
3
100
AcDbSymbolTableRecord
100
AcDbTextStyleTableRecord
  2
ASAMI
 70
     0
 40
0.0
 41
1.0
 50
0.0
 71
     0
 42
2.5
  3
simplex.shx
  4
EXTFONT.SHX
  0
STYLE
  5
262
330
3
100
AcDbSymbolTableRecord
100
AcDbTextStyleTableRecord
  2
ACJISTS
 70
     0
 40
1.0
 41
1.0
 50
0.0
 71
     0
 42
2.5
  3
simplex.shx
  4
bigfont.shx
  0
STYLE
  5
269
330
3
100
AcDbSymbolTableRecord
100
AcDbTextStyleTableRecord
  2
ACJISGDT
 70
     0
 40
0.0
 41
1.0
 50
0.0
 71
     0
 42
2.5
  3
amgdtans.shx
  4

  0
ENDTAB
  0
TABLE
  2
VIEW
  5
6
330
0
100
AcDbSymbolTable
 70
     0
  0
ENDTAB
  0
TABLE
  2
UCS
  5
7
330
0
100
AcDbSymbolTable
 70
     0
  0
ENDTAB
  0
TABLE
  2
APPID
  5
9
330
0
100
AcDbSymbolTable
 70
    16
  0
APPID
  5
12
330
9
100
AcDbSymbolTableRecord
100
AcDbRegAppTableRecord
  2
ACAD
 70
     0
  0
APPID
  5
30
330
9
100
AcDbSymbolTableRecord
100
AcDbRegAppTableRecord
  2
MCAD_NO_VIS
 70
     0
  0
APPID
  5
31
330
9
100
AcDbSymbolTableRecord
100
AcDbRegAppTableRecord
  2
ACAD_TEMP_GRAPHIC
 70
     0
  0
APPID
  5
2C2
330
9
100
AcDbSymbolTableRecord
100
AcDbRegAppTableRecord
  2
GENIUS_GENDTOL_13
 70
     0
  0
APPID
  5
339
330
9
100
AcDbSymbolTableRecord
100
AcDbRegAppTableRecord
  2
GENIUS_GENODEF_13
 70
     0
  0
APPID
  5
33A
330
9
100
AcDbSymbolTableRecord
100
AcDbRegAppTableRecord
  2
GENIUS_GENOBJ-N-RSBK_13
 70
     0
  0
APPID
  5
33B
330
9
100
AcDbSymbolTableRecord
100
AcDbRegAppTableRecord
  2
GENIUS_GENOBJ-N-LIB_13
 70
     0
  0
APPID
  5
33C
330
9
100
AcDbSymbolTableRecord
100
AcDbRegAppTableRecord
  2
GENIUS_GENSCALE_13
 70
     0
  0
APPID
  5
378
330
9
100
AcDbSymbolTableRecord
100
AcDbRegAppTableRecord
  2
GENIUS_GENDIMSH_14
 70
     0
  0
APPID
  5
C82
330
9
100
AcDbSymbolTableRecord
100
AcDbRegAppTableRecord
  2
GENIUS_GENOBJ-N-CRS_13
 70
     0
  0
APPID
  5
C83
330
9
100
AcDbSymbolTableRecord
100
AcDbRegAppTableRecord
  2
GENIUS_GENOENT_13
 70
     0
  0
APPID
  5
C84
330
9
100
AcDbSymbolTableRecord
100
AcDbRegAppTableRecord
  2
GENIUS_GENOREF_13
 70
     0
  0
APPID
  5
C85
330
9
100
AcDbSymbolTableRecord
100
AcDbRegAppTableRecord
  2
GENIUS_GENOLIS_13
 70
     0
  0
APPID
  5
CA0
330
9
100
AcDbSymbolTableRecord
100
AcDbRegAppTableRecord
  2
GENIUS_GENOBJ-N-CEN_13
 70
     0
  0
APPID
  5
1CFA
330
9
100
AcDbSymbolTableRecord
100
AcDbRegAppTableRecord
  2
GENIUS_GENFIL_13
 70
     0
  0
APPID
  5
1CFB
330
9
100
AcDbSymbolTableRecord
100
AcDbRegAppTableRecord
  2
GENIUS_GENOBJ-N-CHA_13
 70
     0
  0
ENDTAB
  0
TABLE
  2
DIMSTYLE
  5
A
330
0
100
AcDbSymbolTable
 70
     9
  0
DIMSTYLE
105
58
330
A
100
AcDbSymbolTableRecord
100
AcDbDimStyleTableRecord
  2
AM_JIS
 70
     0
  3

  4
"
  5
OPEN30
  6

  7

 40
0.5
 41
2.5
 42
1.0
 43
12.0
 44
1.0
 45
0.0
 46
0.0
 47
0.1
 48
0.1
140
3.2
141
0.0
142
0.0
143
0.0393701
144
1.0
145
0.0
146
0.71
147
1.5
 71
     0
 72
     0
 73
     0
 74
     0
 75
     0
 76
     0
 77
     3
 78
     8
170
     0
171
     2
172
     1
173
     0
174
     0
175
     0
176
   256
177
   256
178
     2
270
     2
271
     3
272
     3
273
     2
274
     2
340
6B
275
     0
280
     0
281
     0
282
     0
283
     0
284
     0
285
     0
286
     0
287
     3
288
     0
  0
DIMSTYLE
105
5F
330
A
100
AcDbSymbolTableRecord
100
AcDbDimStyleTableRecord
  2
AM_JIS$3
 70
     0
  3

  4
"
  5
OPEN30
  6

  7

 40
0.5
 41
2.5
 42
1.0
 43
10.0
 44
1.0
 45
0.0
 46
0.0
 47
0.1
 48
0.1
140
3.2
141
0.0
142
0.0
143
0.0393701
144
1.0
145
0.0
146
0.71
147
1.5
 71
     0
 72
     0
 73
     0
 74
     1
 75
     0
 76
     0
 77
     3
 78
     8
170
     0
171
     2
172
     0
173
     0
174
     0
175
     0
176
   256
177
   256
178
     2
270
     2
271
     2
272
     3
273
     2
274
     2
340
6B
275
     0
280
     0
281
     0
282
     0
283
     0
284
     0
285
     0
286
     0
287
     0
288
     1
  0
DIMSTYLE
105
60
330
A
100
AcDbSymbolTableRecord
100
AcDbDimStyleTableRecord
  2
AM_JIS$4
 70
     0
  3

  4
"
  5
OPEN30
  6

  7

 40
0.5
 41
2.5
 42
1.0
 43
10.0
 44
1.0
 45
0.0
 46
0.0
 47
0.1
 48
0.1
140
3.2
141
0.0
142
0.0
143
0.0393701
144
1.0
145
0.0
146
0.71
147
1.5
 71
     0
 72
     0
 73
     0
 74
     1
 75
     0
 76
     0
 77
     3
 78
     8
170
     0
171
     2
172
     0
173
     0
174
     0
175
     0
176
   256
177
   256
178
     2
270
     2
271
     2
272
     3
273
     2
274
     2
340
6B
275
     0
280
     0
281
     0
282
     0
283
     0
284
     0
285
     0
286
     0
287
     0
288
     1
  0
DIMSTYLE
105
61
330
A
100
AcDbSymbolTableRecord
100
AcDbDimStyleTableRecord
  2
AM_JIS$6
 70
     0
  3

  4
"
  5
OPEN30
  6

  7

 40
0.5
 41
2.5
 42
1.0
 43
10.0
 44
1.0
 45
0.0
 46
0.0
 47
0.1
 48
0.1
140
3.2
141
0.0
142
0.0
143
0.0393701
144
1.0
145
0.0
146
0.71
147
1.5
 71
     0
 72
     0
 73
     0
 74
     0
 75
     0
 76
     0
 77
     0
 78
     8
170
     0
171
     2
172
     1
173
     0
174
     0
175
     0
176
   256
177
   256
178
     2
270
     2
271
     2
272
     2
273
     2
274
     2
340
6B
275
     0
280
     0
281
     0
282
     0
283
     0
284
     0
285
     0
286
     0
287
     3
288
     0
  0
DIMSTYLE
105
62
330
A
100
AcDbSymbolTableRecord
100
AcDbDimStyleTableRecord
  2
AM_JIS$7
 70
     0
  3

  4
"
  5
OPEN30
  6

  7

 40
0.5
 41
2.5
 42
1.0
 43
10.0
 44
1.0
 45
0.0
 46
0.0
 47
0.1
 48
0.1
140
3.2
141
0.0
142
0.0
143
0.0393701
144
1.0
145
0.0
146
0.71
147
1.5
 71
     0
 72
     0
 73
     0
 74
     0
 75
     0
 76
     0
 77
     3
 78
     8
170
     0
171
     2
172
     1
173
     0
174
     0
175
     0
176
   256
177
   256
178
     2
270
     2
271
     2
272
     3
273
     2
274
     2
340
6B
275
     0
280
     0
281
     0
282
     0
283
     0
284
     0
285
     0
286
     0
287
     3
288
     0
  0
DIMSTYLE
105
63
330
A
100
AcDbSymbolTableRecord
100
AcDbDimStyleTableRecord
  2
AM_JIS$SF
 70
     0
  3

  4
"
  5
OPEN30
  6

  7

 40
0.5
 41
2.5
 42
1.0
 43
10.0
 44
1.0
 45
0.0
 46
0.0
 47
0.1
 48
0.1
140
3.2
141
0.0
142
0.0
143
0.0393701
144
1.0
145
0.0
146
0.71
147
1.5
 71
     0
 72
     0
 73
     0
 74
     0
 75
     1
 76
     1
 77
     3
 78
     8
170
     0
171
     2
172
     1
173
     0
174
     0
175
     0
176
   256
177
   256
178
     2
270
     2
271
     2
272
     2
273
     2
274
     2
340
6B
275
     0
280
     0
281
     0
282
     0
283
     0
284
     0
285
     0
286
     0
287
     3
288
     0
  0
DIMSTYLE
105
68
330
A
100
AcDbSymbolTableRecord
100
AcDbDimStyleTableRecord
  2
AM_JIS$SH
 70
     0
  3

  4
"
  5

  6
GENAXEH
  7
OPEN30
 40
0.5
 41
2.5
 42
1.0
 43
10.0
 44
1.0
 45
0.0
 46
0.0
 47
0.1
 48
0.1
140
3.2
141
0.0
142
0.0
143
0.0393701
144
2.0
145
0.0
146
0.71
147
1.5
 71
     0
 72
     0
 73
     0
 74
     0
 75
     1
 76
     1
 77
     3
 78
     8
170
     0
171
     2
172
     1
173
     1
174
     0
175
     0
176
   256
177
   256
178
     2
270
     2
271
     2
272
     2
273
     2
274
     2
340
6B
275
     0
280
     0
281
     0
282
     0
283
     0
284
     0
285
     0
286
     0
287
     3
288
     0
  0
DIMSTYLE
105
B34
102
{ACAD_REACTORS
330
11B2
102
}
330
A
100
AcDbSymbolTableRecord
100
AcDbDimStyleTableRecord
  2
AM_JIS$2
 70
     0
  3

  4
"
  5
OPEN30
  6

  7

 40
0.5
 41
2.5
 42
1.0
 43
12.0
 44
1.0
 45
0.0
 46
0.0
 47
0.1
 48
0.1
140
3.2
141
0.0
142
0.0
143
0.0393701
144
1.0
145
0.0
146
0.71
147
1.5
 71
     0
 72
     0
 73
     0
 74
     0
 75
     0
 76
     0
 77
     3
 78
     8
170
     0
171
     2
172
     1
173
     0
174
     0
175
     0
176
   256
177
   256
178
     2
270
     2
271
     3
272
     3
273
     2
274
     2
340
6B
275
     0
280
     0
281
     0
282
     0
283
     0
284
     0
285
     0
286
     0
287
     3
288
     0
  0
DIMSTYLE
105
BA5
102
{ACAD_REACTORS
330
223E
330
2259
330
2643
330
2865
102
}
330
A
100
AcDbSymbolTableRecord
100
AcDbDimStyleTableRecord
  2
AM_JIS$0
 70
     0
  3

  4
"
  5
OPEN30
  6

  7

 40
0.5
 41
2.5
 42
0.8
 43
10.0
 44
1.0
 45
0.0
 46
0.0
 47
0.1
 48
0.1000000001
140
3.799999999999999
141
0.0
142
0.0
143
0.0393701
144
1.0
145
0.0
146
0.71
147
1.5
 71
     0
 72
     0
 73
     0
 74
     0
 75
     0
 76
     0
 77
     3
 78
     1
170
     0
171
     2
172
     1
173
     0
174
     0
175
     0
176
     3
177
     3
178
     2
270
     2
271
     2
272
     2
273
     2
274
     2
340
11
275
     1
280
     0
281
     0
282
     0
283
     0
284
     8
285
     0
286
     0
287
     0
288
     0
  0
ENDTAB
  0
TABLE
  2
BLOCK_RECORD
  5
1
330
0
100
AcDbSymbolTable
 70
    17
  0
BLOCK_RECORD
  5
1F
102
{ACAD_XDICTIONARY
360
74
102
}
330
1
100
AcDbSymbolTableRecord
100
AcDbBlockTableRecord
  2
*MODEL_SPACE
  0
BLOCK_RECORD
  5
101
102
{ACAD_XDICTIONARY
360
2D28
102
}
330
1
100
AcDbSymbolTableRecord
100
AcDbBlockTableRecord
  2
*PAPER_SPACE
  0
BLOCK_RECORD
  5
59
330
1
100
AcDbSymbolTableRecord
100
AcDbBlockTableRecord
  2
_OPEN30
  0
BLOCK_RECORD
  5
64
330
1
100
AcDbSymbolTableRecord
100
AcDbBlockTableRecord
  2
GENAXEH
  0
BLOCK_RECORD
  5
11B3
330
1
100
AcDbSymbolTableRecord
100
AcDbBlockTableRecord
  2
*D5
  0
BLOCK_RECORD
  5
223F
330
1
100
AcDbSymbolTableRecord
100
AcDbBlockTableRecord
  2
*D6
  0
BLOCK_RECORD
  5
225A
330
1
100
AcDbSymbolTableRecord
100
AcDbBlockTableRecord
  2
*D8
  0
BLOCK_RECORD
  5
2644
330
1
100
AcDbSymbolTableRecord
100
AcDbBlockTableRecord
  2
*D11
  0
BLOCK_RECORD
  5
2866
330
1
100
AcDbSymbolTableRecord
100
AcDbBlockTableRecord
  2
*D12
  0
ENDTAB
  0
ENDSEC
  0
SECTION
  2
BLOCKS
  0
BLOCK
  5
20
330
1F
100
AcDbEntity
  8
0
100
AcDbBlockBegin
  2
*MODEL_SPACE
 70
     0
 10
0.0
 20
0.0
 30
0.0
  3
*MODEL_SPACE
  1

  0
ENDBLK
  5
21
330
1F
100
AcDbEntity
  8
0
100
AcDbBlockEnd
  0
BLOCK
  5
103
330
101
100
AcDbEntity
 67
     1
  8
0
100
AcDbBlockBegin
  2
*PAPER_SPACE
 70
     0
 10
0.0
 20
0.0
 30
0.0
  3
*PAPER_SPACE
  1

  0
ENDBLK
  5
104
330
101
100
AcDbEntity
 67
     1
  8
0
100
AcDbBlockEnd
  0
BLOCK
  5
5D
330
59
100
AcDbEntity
  8
0
100
AcDbBlockBegin
  2
_OPEN30
 70
     0
 10
0.0
 20
0.0
 30
0.0
  3
_OPEN30
  1

  0
LINE
  5
5A
330
59
100
AcDbEntity
  8
0
 62
     0
100
AcDbLine
 10
-1.0
 20
0.26794919
 30
0.0
 11
0.0
 21
0.0
 31
0.0
  0
LINE
  5
5B
330
59
100
AcDbEntity
  8
0
 62
     0
100
AcDbLine
 10
0.0
 20
0.0
 30
0.0
 11
-1.0
 21
-0.26794919
 31
0.0
  0
LINE
  5
5C
330
59
100
AcDbEntity
  8
0
 62
     0
100
AcDbLine
 10
0.0
 20
0.0
 30
0.0
 11
-1.0
 21
0.0
 31
0.0
  0
ENDBLK
  5
5E
330
59
100
AcDbEntity
  8
0
100
AcDbBlockEnd
  0
BLOCK
  5
66
330
64
100
AcDbEntity
  8
0
100
AcDbBlockBegin
  2
GENAXEH
 70
     0
 10
0.0
 20
0.0
 30
0.0
  3
GENAXEH
  1

  0
LINE
  5
65
330
64
100
AcDbEntity
  8
0
100
AcDbLine
 10
-1.0
 20
0.0
 30
0.0
 11
1.0
 21
0.0
 31
0.0
  0
ENDBLK
  5
67
330
64
100
AcDbEntity
  8
0
100
AcDbBlockEnd
  0
BLOCK
  5
11C1
330
11B3
100
AcDbEntity
  8
0
100
AcDbBlockBegin
  2
*D5
 70
     1
 10
0.0
 20
0.0
 30
0.0
  3
*D5
  1

  0
LINE
  5
2CCE
330
11B3
100
AcDbEntity
  8
AM_5
100
AcDbLine
 10
0.1710071844708795
 20
-0.4698477273823397
 30
0.0
 11
6.522675623088667
 21
-17.92091348335527
 31
0.0
  0
LINE
  5
2CCF
330
11B3
100
AcDbEntity
  8
AM_5
100
AcDbLine
 10
0.1710069604868053
 20
0.4698462850943691
 30
0.0
 11
6.522688031209099
 21
17.92090915246227
 31
0.0
  0
ARC
  5
2CD0
330
11B3
100
AcDbEntity
  8
AM_5
100
AcDbCircle
 10
-0.0000034352344543
 20
0.0000000926491624
 30
0.0
 40
18.57103787150838
100
AcDbArc
 50
293.8572560512663
 51
66.1427042781545
  0
INSERT
  5
2CD1
330
11B3
100
AcDbEntity
  8
AM_5
100
AcDbBlockReference
  2
_OPEN30
 10
6.3516655526806
 20
-17.45106717250562
 30
0.0
 41
1.25
 42
1.25
 43
1.25
 50
201.9286279491263
  0
INSERT
  5
2CD2
330
11B3
100
AcDbEntity
  8
AM_5
100
AcDbBlockReference
  2
_OPEN30
 10
6.35167763548784
 20
17.45106296001706
 30
0.0
 41
1.25
 42
1.25
 43
1.25
 50
158.0713323802944
  0
MTEXT
  5
2CD3
330
11B3
100
AcDbEntity
  8
AM_5
 62
     2
100
AcDbMText
 10
17.02103443627282
 20
-0.0000063364790813
 30
0.0
 40
1.6
 41
0.0
 71
     5
 72
     1
  1
140°
  7
ASAMI
 11
0.0000000000000001
 21
1.0
 31
0.0
1001
ACAD
1000
MTEXTBEGIN
1070
    73
1070
     1
1070
    44
1040
1.0
1070
    74
1070
     0
1000
MTEXTEND
  0
POINT
  5
2CD4
330
11B3
100
AcDbEntity
  8
DEFPOINTS
 62
     0
100
AcDbPoint
 10
17.05222604858183
 20
7.355604571974099
 30
0.0
  0
POINT
  5
2CD5
330
11B3
100
AcDbEntity
  8
DEFPOINTS
 62
     0
100
AcDbPoint
 10
-0.0000035217198566
 20
-0.0000001449670176
 30
0.0
  0
POINT
  5
2CD6
330
11B3
100
AcDbEntity
  8
DEFPOINTS
 62
     0
100
AcDbPoint
 10
-0.0000028859371874
 20
-0.0000014165326875
 30
0.0
  0
POINT
  5
2CD7
330
11B3
100
AcDbEntity
  8
DEFPOINTS
 62
     0
100
AcDbPoint
 10
-0.2669121673498531
 20
0.7333258132849833
 30
0.0
  0
POINT
  5
2CD8
330
11B3
100
AcDbEntity
  8
DEFPOINTS
 62
     0
100
AcDbPoint
 10
-0.2669166178298541
 20
-0.7333362757450219
 30
0.0
  0
ENDBLK
  5
11C2
330
11B3
100
AcDbEntity
  8
0
100
AcDbBlockEnd
  0
BLOCK
  5
2249
330
223F
100
AcDbEntity
  8
0
100
AcDbBlockBegin
  2
*D6
 70
     1
 10
0.0
 20
0.0
 30
0.0
  3
*D6
  1

  0
LINE
  5
2CC5
330
223F
100
AcDbEntity
  8
AM_5
 62
     3
100
AcDbLine
 10
-36.64846385102647
 20
-1.733334604898732
 30
0.0
 11
-36.64846385102647
 21
-12.68299314986483
 31
0.0
  0
LINE
  5
2CC6
330
223F
100
AcDbEntity
  8
AM_5
 62
     3
100
AcDbLine
 10
-0.6551473048681871
 20
-2.19999999801338
 30
0.0
 11
-0.6551473048681878
 21
-12.68299314986483
 31
0.0
  0
LINE
  5
2CC7
330
223F
100
AcDbEntity
  8
AM_5
 62
     3
100
AcDbLine
 10
-35.39846385102647
 20
-12.18299314986483
 30
0.0
 11
-1.905147304868187
 21
-12.18299314986483
 31
0.0
  0
INSERT
  5
2CC8
330
223F
100
AcDbEntity
  8
AM_5
 62
     3
100
AcDbBlockReference
  2
_OPEN30
 10
-36.64846385102647
 20
-12.18299314986483
 30
0.0
 41
1.25
 42
1.25
 43
1.25
 50
180.0
  0
INSERT
  5
2CC9
330
223F
100
AcDbEntity
  8
AM_5
 62
     3
100
AcDbBlockReference
  2
_OPEN30
 10
-0.6551473048681878
 20
-12.18299314986483
 30
0.0
 41
1.25
 42
1.25
 43
1.25
  0
MTEXT
  5
2CCA
330
223F
100
AcDbEntity
  8
AM_5
 62
     2
100
AcDbMText
 10
-18.65180557794732
 20
-10.48299314986483
 30
0.0
 40
1.9
 41
0.0
 71
     5
 72
     1
  1
36
1001
ACAD
1000
MTEXTBEGIN
1070
    73
1070
     1
1070
    44
1040
1.0
1070
    74
1070
     0
1000
MTEXTEND
  0
POINT
  5
2CCB
330
223F
100
AcDbEntity
  8
DEFPOINTS
 62
     0
100
AcDbPoint
 10
-36.64846385102647
 20
-1.333334604898732
 30
0.0
  0
POINT
  5
2CCC
330
223F
100
AcDbEntity
  8
DEFPOINTS
 62
     0
100
AcDbPoint
 10
-0.6551473048681871
 20
-1.79999999801338
 30
0.0
  0
POINT
  5
2CCD
330
223F
100
AcDbEntity
  8
DEFPOINTS
 62
     0
100
AcDbPoint
 10
-0.6551473048681878
 20
-12.18299314986483
 30
0.0
  0
ENDBLK
  5
224A
330
223F
100
AcDbEntity
  8
0
100
AcDbBlockEnd
  0
BLOCK
  5
2264
330
225A
100
AcDbEntity
  8
0
100
AcDbBlockBegin
  2
*D8
 70
     1
 10
0.0
 20
0.0
 30
0.0
  3
*D8
  1

  0
LINE
  5
2CB3
330
225A
100
AcDbEntity
  8
AM_5
 62
     3
100
AcDbLine
 10
-86.71711792606071
 20
-2.081641194163466
 30
0.0
 11
-86.71711792606071
 21
-19.91473432486124
 31
0.0
  0
LINE
  5
2CB4
330
225A
100
AcDbEntity
  8
AM_5
 62
     3
100
AcDbLine
 10
-0.6487577036915897
 20
-2.199999992387384
 30
0.0
 11
-0.6487577036915909
 21
-19.91473432486124
 31
0.0
  0
LINE
  5
2CB5
330
225A
100
AcDbEntity
  8
AM_5
 62
     3
100
AcDbLine
 10
-85.46711792606071
 20
-19.41473432486124
 30
0.0
 11
-1.89875770369159
 21
-19.41473432486124
 31
0.0
  0
INSERT
  5
2CB6
330
225A
100
AcDbEntity
  8
AM_5
 62
     3
100
AcDbBlockReference
  2
_OPEN30
 10
-86.71711792606071
 20
-19.41473432486124
 30
0.0
 41
1.25
 42
1.25
 43
1.25
 50
180.0
  0
INSERT
  5
2CB7
330
225A
100
AcDbEntity
  8
AM_5
 62
     3
100
AcDbBlockReference
  2
_OPEN30
 10
-0.6487577036915909
 20
-19.41473432486124
 30
0.0
 41
1.25
 42
1.25
 43
1.25
  0
MTEXT
  5
2CB8
330
225A
100
AcDbEntity
  8
AM_5
 62
     2
100
AcDbMText
 10
-43.68293781487614
 20
-17.71473432486124
 30
0.0
 40
1.9
 41
0.0
 71
     5
 72
     1
  1
86
1001
ACAD
1000
MTEXTBEGIN
1070
    73
1070
     1
1070
    44
1040
1.0
1070
    74
1070
     0
1000
MTEXTEND
  0
POINT
  5
2CB9
330
225A
100
AcDbEntity
  8
DEFPOINTS
 62
     0
100
AcDbPoint
 10
-86.71711792606071
 20
-1.681641194163466
 30
0.0
  0
POINT
  5
2CBA
330
225A
100
AcDbEntity
  8
DEFPOINTS
 62
     0
100
AcDbPoint
 10
-0.6487577036915897
 20
-1.799999992387384
 30
0.0
  0
POINT
  5
2CBB
330
225A
100
AcDbEntity
  8
DEFPOINTS
 62
     0
100
AcDbPoint
 10
-0.6487577036915909
 20
-19.41473432486124
 30
0.0
  0
ENDBLK
  5
2265
330
225A
100
AcDbEntity
  8
0
100
AcDbBlockEnd
  0
BLOCK
  5
2650
330
2644
100
AcDbEntity
  8
0
100
AcDbBlockBegin
  2
*D11
 70
     1
 10
0.0
 20
0.0
 30
0.0
  3
*D11
  1

  0
LINE
  5
2CBC
330
2644
100
AcDbEntity
  8
AM_5
 62
     3
100
AcDbLine
 10
-86.79161484654875
 20
-2.000001416532698
 30
0.0
 11
-92.90241605610317
 21
-2.000001416532704
 31
0.0
  0
LINE
  5
2CBD
330
2644
100
AcDbEntity
  8
AM_5
 62
     3
100
AcDbLine
 10
-86.79161484654873
 20
1.999998583467302
 30
0.0
 11
-92.90241605610317
 21
1.999998583467295
 31
0.0
  0
LINE
  5
2CBE
330
2644
100
AcDbEntity
  8
AM_5
 62
     3
100
AcDbLine
 10
-92.40241605610316
 20
-0.7500014165327041
 30
0.0
 11
-92.40241605610316
 21
0.7499985834672965
 31
0.0
  0
INSERT
  5
2CBF
330
2644
100
AcDbEntity
  8
AM_5
 62
     3
100
AcDbBlockReference
  2
_OPEN30
 10
-92.40241605610316
 20
-2.000001416532704
 30
0.0
 41
1.25
 42
1.25
 43
1.25
 50
270.0
  0
INSERT
  5
2CC0
330
2644
100
AcDbEntity
  8
AM_5
 62
     3
100
AcDbBlockReference
  2
_OPEN30
 10
-92.40241605610316
 20
1.999998583467296
 30
0.0
 41
1.25
 42
1.25
 43
1.25
 50
90.00000000000005
  0
MTEXT
  5
2CC1
330
2644
100
AcDbEntity
  8
AM_5
 62
     2
100
AcDbMText
 10
-94.10241605610316
 20
-0.000001416532702
 30
0.0
 40
1.9
 41
0.0
 71
     5
 72
     1
  1
%%c4
 11
-0.0000000000000011
 21
1.0
 31
0.0
1001
ACAD
1000
MTEXTBEGIN
1070
    73
1070
     1
1070
    44
1040
1.0
1070
    74
1070
     0
1000
MTEXTEND
  0
POINT
  5
2CC2
330
2644
100
AcDbEntity
  8
DEFPOINTS
 62
     0
100
AcDbPoint
 10
-86.39161484654874
 20
-2.000001416532582
 30
0.0
  0
POINT
  5
2CC3
330
2644
100
AcDbEntity
  8
DEFPOINTS
 62
     0
100
AcDbPoint
 10
-86.39161484654872
 20
1.999998583467417
 30
0.0
  0
POINT
  5
2CC4
330
2644
100
AcDbEntity
  8
DEFPOINTS
 62
     0
100
AcDbPoint
 10
-92.40241605610316
 20
1.999998583467419
 30
0.0
  0
ENDBLK
  5
2651
330
2644
100
AcDbEntity
  8
0
100
AcDbBlockEnd
  0
BLOCK
  5
2872
330
2866
100
AcDbEntity
  8
0
100
AcDbBlockBegin
  2
*D12
 70
     1
 10
0.0
 20
0.0
 30
0.0
  3
*D12
  1

  0
LINE
  5
2CD9
330
2866
100
AcDbEntity
  8
AM_5
 62
     3
100
AcDbLine
 10
-0.2642463954982873
 20
-1.999999816415606
 30
0.0
 11
10.71787137596891
 21
-1.999999816415609
 31
0.0
  0
LINE
  5
2CDA
330
2866
100
AcDbEntity
  8
AM_5
 62
     3
100
AcDbLine
 10
-0.3271110813760906
 20
1.997718073726438
 30
0.0
 11
10.71787137596891
 21
1.997718073726435
 31
0.0
  0
LINE
  5
2CDB
330
2866
100
AcDbEntity
  8
AM_5
 62
     3
100
AcDbLine
 10
10.21787137596891
 20
-3.24999981641561
 30
0.0
 11
10.2178713759689
 21
-4.49999981641561
 31
0.0
  0
LINE
  5
2CDC
330
2866
100
AcDbEntity
  8
AM_5
 62
     3
100
AcDbLine
 10
10.21787137596891
 20
3.247718073726435
 30
0.0
 11
10.21787137596891
 21
4.497718073726434
 31
0.0
  0
LINE
  5
2CDD
330
2866
100
AcDbEntity
  8
AM_5
 62
     3
100
AcDbLine
 10
10.21787137596891
 20
-1.999999816415609
 30
0.0
 11
10.21787137596891
 21
1.997718073726435
 31
0.0
  0
INSERT
  5
2CDE
330
2866
100
AcDbEntity
  8
AM_5
 62
     3
100
AcDbBlockReference
  2
_OPEN30
 10
10.21787137596891
 20
-1.999999816415609
 30
0.0
 41
1.25
 42
1.25
 43
1.25
 50
90.0
  0
INSERT
  5
2CDF
330
2866
100
AcDbEntity
  8
AM_5
 62
     3
100
AcDbBlockReference
  2
_OPEN30
 10
10.21787137596891
 20
1.997718073726435
 30
0.0
 41
1.25
 42
1.25
 43
1.25
 50
270.0
  0
MTEXT
  5
2CE0
330
2866
100
AcDbEntity
  8
AM_5
 62
     2
100
AcDbMText
 10
8.517871375968912
 20
-0.0011408713445854
 30
0.0
 40
1.9
 41
0.0
 71
     5
 72
     1
  1
%%c4
 11
0.0000000000000001
 21
1.0
 31
0.0
1001
ACAD
1000
MTEXTBEGIN
1070
    73
1070
     1
1070
    44
1040
1.0
1070
    74
1070
     0
1000
MTEXTEND
  0
POINT
  5
2CE1
330
2866
100
AcDbEntity
  8
DEFPOINTS
 62
     0
100
AcDbPoint
 10
-0.6642463954982874
 20
-1.999999816415606
 30
0.0
  0
POINT
  5
2CE2
330
2866
100
AcDbEntity
  8
DEFPOINTS
 62
     0
100
AcDbPoint
 10
-0.7271110813760906
 20
1.997718073726438
 30
0.0
  0
POINT
  5
2CE3
330
2866
100
AcDbEntity
  8
DEFPOINTS
 62
     0
100
AcDbPoint
 10
10.21787137596891
 20
1.997718073726435
 30
0.0
  0
ENDBLK
  5
2873
330
2866
100
AcDbEntity
  8
0
100
AcDbBlockEnd
  0
ENDSEC
  0
SECTION
  2
ENTITIES
  0
DIMENSION
  5
11B2
330
1F
100
AcDbEntity
  8
AM_5
100
AcDbDimension
  2
*D5
 10
-0.2669166178298541
 20
-0.7333362757450219
 30
0.0
 11
17.02103443627282
 21
-0.000006336479084
 31
0.0
 70
    34
  1
<>
  3
AM_JIS$2
100
AcDb2LineAngularDimension
 13
-0.0000028859371874
 23
-0.0000014165326875
 33
0.0
 14
-0.2669121673498531
 24
0.7333258132849833
 34
0.0
 15
-0.0000035217198566
 25
-0.0000001449670176
 35
0.0
 16
17.05222604858183
 26
7.355604571974099
 36
0.0
1001
ACAD
1000
DSTYLE
1002
{
1070
   179
1070
     3
1002
}
1001
GENIUS_GENDTOL_13
1000

1000
h7
1000

1040
0.0
  0
TEXT
  5
19BD
330
1F
100
AcDbEntity
  8
AM_6
100
AcDbText
 10
-56.65912829106662
 20
-30.66473432486128
 30
0.0
 40
2.5
  1
MDW0400LDLH
 50
0.0000000000001527
 72
     4
 11
-43.68293781487615
 21
-29.41473432486125
 31
0.0
100
AcDbText
  0
LINE
  5
2215
330
1F
100
AcDbEntity
  8
AM_0
 48
0.5
100
AcDbLine
 10
-86.64875770369159
 20
-1.750001416532582
 30
0.0
 11
-86.64875770369157
 21
1.749998583467417
 31
0.0
  0
LINE
  5
2216
330
1F
100
AcDbEntity
  8
AM_0
100
AcDbLine
 10
-86.39161484654872
 20
1.999998583467413
 30
0.0
 11
-86.39161484654874
 21
-2.000001416532586
 31
0.0
  0
LINE
  5
222A
330
1F
100
AcDbEntity
  8
AM_0
100
AcDbLine
 10
-86.39161484654872
 20
1.999998583467417
 30
0.0
 11
-35.98618512471722
 21
1.999998583467364
 31
0.0
1001
GENIUS_GENODEF_13
1002
{
1000
HIER
1070
     0
1002
}
1002
{
1000
MANEDIT
1070
     0
1002
}
1002
{
1000
NOSEL
1070
     0
1002
}
1002
{
1000
BEHIND
1070
     0
1002
}
1002
{
1000
REACTOR
1002
}
1001
GENIUS_GENOBJ-N-CEN_13
1002
{
1000
OWNER
1000
GEN
1002
}
  0
LINE
  5
222B
330
1F
100
AcDbEntity
  8
AM_0
100
AcDbLine
 10
-86.39161484654874
 20
-2.000001416532582
 30
0.0
 11
-35.94723681383666
 21
-2.000001416532634
 31
0.0
1001
GENIUS_GENODEF_13
1002
{
1000
HIER
1070
     0
1002
}
1002
{
1000
MANEDIT
1070
     0
1002
}
1002
{
1000
NOSEL
1070
     0
1002
}
1002
{
1000
BEHIND
1070
     0
1002
}
1002
{
1000
REACTOR
1002
}
1001
GENIUS_GENOBJ-N-CEN_13
1002
{
1000
OWNER
1000
GEN
1002
}
  0
DIMENSION
  5
223E
330
1F
100
AcDbEntity
  8
AM_5
100
AcDbDimension
  2
*D6
 10
-0.6551473048681878
 20
-12.18299314986483
 30
0.0
 11
-18.65180557794732
 21
-10.48299314986483
 31
0.0
 70
    32
  1
<>
  3
AM_JIS$0
100
AcDbAlignedDimension
 13
-36.64846385102647
 23
-1.333334604898732
 33
0.0
 14
-0.6551473048681871
 24
-1.79999999801338
 34
0.0
 50
0.0000000000000384
100
AcDbRotatedDimension
1001
GENIUS_GENDTOL_13
1000

1000
h7
1000

1040
0.0
1001
ACAD
1000
DSTYLE
1002
{
1070
   271
1070
     0
1002
}
  0
LINE
  5
224B
330
1F
100
AcDbEntity
  8
AM_7
100
AcDbLine
 10
-89.81404957700126
 20
-0.0000014165325885
 30
0.0
 11
1.028571149194164
 21
-0.00000141653268
 31
0.0
1001
GENIUS_GENODEF_13
1002
{
1000
HIER
1070
     0
1002
}
1002
{
1000
MANEDIT
1070
     0
1002
}
1002
{
1000
NOSEL
1070
     0
1002
}
1002
{
1000
BEHIND
1070
     0
1002
}
1002
{
1000
REACTOR
1002
}
1001
GENIUS_GENOBJ-N-CEN_13
1002
{
1000
OWNER
1000
GEN
1002
}
  0
DIMENSION
  5
2259
330
1F
100
AcDbEntity
  8
AM_5
100
AcDbDimension
  2
*D8
 10
-0.6487577036915909
 20
-19.41473432486124
 30
0.0
 11
-43.68293781487614
 21
-17.71473432486124
 31
0.0
 70
    32
  1
<>
  3
AM_JIS$0
100
AcDbAlignedDimension
 13
-86.71711792606071
 23
-1.681641194163466
 33
0.0
 14
-0.6487577036915897
 24
-1.799999992387384
 34
0.0
100
AcDbRotatedDimension
1001
GENIUS_GENDTOL_13
1000

1000
h7
1000

1040
0.0
1001
ACAD
1000
DSTYLE
1002
{
1070
   271
1070
     0
1002
}
  0
LINE
  5
237B
330
1F
100
AcDbEntity
  8
AM_0
100
AcDbLine
 10
-86.64875770369157
 20
1.749998583467417
 30
0.0
 11
-86.39875770369156
 21
1.999998583467417
 31
0.0
1001
GENIUS_GENFIL_13
1070
     0
1040
0.25
1040
0.25
1040
20.0
1040
0.0
1002
{
1002
}
1001
GENIUS_GENODEF_13
1002
{
1000
HIER
1070
     0
1002
}
1002
{
1000
MANEDIT
1070
     0
1002
}
1002
{
1000
NOSEL
1070
     0
1002
}
1002
{
1000
BEHIND
1070
     0
1002
}
1002
{
1000
REACTOR
1002
}
1001
GENIUS_GENOBJ-N-CHA_13
1002
{
1000
OWNER
1000
GEN
1002
}
  0
LINE
  5
237E
330
1F
100
AcDbEntity
  8
AM_0
100
AcDbLine
 10
-86.64875770369159
 20
-1.750001416532582
 30
0.0
 11
-86.39875770369158
 21
-2.000001416532582
 31
0.0
1001
GENIUS_GENFIL_13
1070
     0
1040
0.25
1040
0.25
1040
20.0
1040
0.0
1002
{
1002
}
1001
GENIUS_GENODEF_13
1002
{
1000
HIER
1070
     0
1002
}
1002
{
1000
MANEDIT
1070
     0
1002
}
1002
{
1000
NOSEL
1070
     0
1002
}
1002
{
1000
BEHIND
1070
     0
1002
}
1002
{
1000
REACTOR
1002
}
1001
GENIUS_GENOBJ-N-CHA_13
1002
{
1000
OWNER
1000
GEN
1002
}
  0
DIMENSION
  5
2643
330
1F
100
AcDbEntity
  8
AM_5
100
AcDbDimension
  2
*D11
 10
-92.40241605610316
 20
1.999998583467419
 30
0.0
 11
-92.40241605610316
 21
-0.0000014165325956
 31
0.0
 70
   160
  1
%%c<>
 51
359.9999999999999
  3
AM_JIS$0
100
AcDbAlignedDimension
 13
-86.39161484654874
 23
-2.000001416532582
 33
0.0
 14
-86.39161484654872
 24
1.999998583467417
 34
0.0
 50
269.9999999999999
100
AcDbRotatedDimension
1001
ACAD
1000
DSTYLE
1002
{
1070
   271
1070
     0
1002
}
1001
GENIUS_GENDTOL_13
1000

1000
h7
1000

1040
0.0
  0
DIMENSION
  5
2865
330
1F
100
AcDbEntity
  8
AM_5
100
AcDbDimension
  2
*D12
 10
10.21787137596891
 20
1.997718073726435
 30
0.0
 11
10.21787137596891
 21
-0.0011408713445856
 31
0.0
 70
   160
  1
%%c<>
  3
AM_JIS$0
100
AcDbAlignedDimension
 13
-0.6642463954982874
 23
-1.999999816415606
 33
0.0
 14
-0.7271110813760906
 24
1.997718073726438
 34
0.0
 50
89.9999999999998
100
AcDbRotatedDimension
1001
GENIUS_GENDTOL_13
1000

1000
h7
1000

1040
0.0
1001
ACAD
1000
DSTYLE
1002
{
1070
    78
1070
     9
1002
}
  0
LINE
  5
2874
330
1F
100
AcDbEntity
  8
AM_0
 48
0.5
100
AcDbLine
 10
0.0
 20
0.0
 30
0.0
 11
-1.280562835485727
 21
0.7679379781086735
 31
0.0
  0
ELLIPSE
  5
2875
330
1F
100
AcDbEntity
  8
AM_0
 48
0.5
100
AcDbEllipse
 10
-4.552824698807486
 20
3.804218849553124
 30
0.0
 11
6.603028931997081
 21
0.0000000000009168
 31
0.0
210
0.0
220
0.0
230
0.9999999999999998
 40
0.7954545454545357
 41
-0.9323698858256243
 42
-0.8099906707996822
  0
LINE
  5
2879
330
1F
100
AcDbEntity
  8
AM_0
 48
0.5
100
AcDbLine
 10
-2.316900987690174
 20
1.999998728434341
 30
0.0
 11
-0.7208450512323214
 21
2.000000133749699
 31
0.0
  0
LINE
  5
287A
330
1F
100
AcDbEntity
  8
AM_0
 48
0.5
100
AcDbLine
 10
-2.316900987690202
 20
-2.000001271565658
 30
0.0
 11
-0.7279410689585129
 21
-1.999999872498291
 31
0.0
  0
SPLINE
  5
288C
330
1F
100
AcDbEntity
  8
AM_0
 48
0.5
100
AcDbSpline
210
0.0
220
0.0
230
1.0
 70
     8
 71
     3
 72
    10
 73
     6
 74
     0
 42
0.0000000001
 43
0.0000000001
 40
0.0
 40
0.0
 40
0.0
 40
0.0
 40
2.69986029516136
 40
4.147722969032201
 40
6.285750005020438
 40
6.285750005020438
 40
6.285750005020438
 40
6.285750005020438
 10
-2.565218185170593
 20
0.3620945643741773
 30
0.0
 10
-2.452410332200862
 20
0.236450754703383
 30
0.0
 10
-2.046112590613683
 20
-0.0000014165326769
 30
0.0
 10
-0.9504006242972785
 20
0.0289100264825154
 30
0.0
 10
-1.156755058302157
 20
0.4943743573846627
 30
0.0
 10
-1.293100883767496
 20
0.7780892029850547
 30
0.0
  0
ELLIPSE
  5
288F
330
1F
100
AcDbEntity
  8
AM_0
 48
0.5
100
AcDbEllipse
 10
-0.794010478947442
 20
-0.5212300618490025
 30
0.0
 11
-0.3720631764790043
 21
0.1501910429616269
 31
0.0
210
0.0
220
0.0
230
1.0
 40
0.433829942793854
 41
4.376168839883118
 42
7.519609181212628
  0
ELLIPSE
  5
2890
330
1F
100
AcDbEntity
  8
AM_0
 48
0.5
100
AcDbEllipse
 10
-0.794010478947442
 20
-0.5212300618490025
 30
0.0
 11
-0.0887276171546633
 21
0.3249868517500769
 31
0.0
210
0.0
220
0.0
230
1.0
 40
0.6153959638440203
 41
1.727336528273235
 42
4.862678417985211
  0
ELLIPSE
  5
289E
330
1F
100
AcDbEntity
  8
AM_0
 48
0.5
100
AcDbEllipse
 10
-4.39725348024947
 20
3.356723785400345
 30
0.0
 11
-6.062209247406618
 21
0.0000000000016709
 31
0.0
210
0.0
220
0.0
230
1.0
 40
0.7954545454545952
 41
2.081379652023567
 42
2.169874429703077
  0
ELLIPSE
  5
289F
330
1F
100
AcDbEntity
  8
AM_0
 48
0.5
100
AcDbEllipse
 10
2.530684009264604
 20
-0.2616396065481848
 30
0.0
 11
3.962739455553119
 21
0.6070674745937916
 31
0.0
210
0.0
220
0.0
230
1.0
 40
0.6177386368954748
 41
3.134145981434474
 42
3.658964763605597
  0
LINE
  5
2953
330
1F
100
AcDbEntity
  8
AM_0
100
AcDbLine
 10
-0.7271110813760906
 20
1.997718073726438
 30
0.0
 11
-0.0000006518484369
 21
-0.0000014128507371
 31
0.0
  0
LINE
  5
2954
330
1F
100
AcDbEntity
  8
AM_0
100
AcDbLine
 10
-0.7279406193058382
 20
-2.000000036158481
 30
0.0
 11
-0.0000006518484369
 21
-0.000001412850735
 31
0.0
  0
SPLINE
  5
2C0B
330
1F
100
AcDbEntity
  8
AM_0
100
AcDbSpline
210
0.0
220
0.0
230
1.0
 70
     8
 71
     3
 72
    46
 73
    42
 74
     0
 42
0.0000000001
 43
0.0000000001
 40
0.0
 40
0.0
 40
0.0
 40
0.0
 40
0.8427075293422856
 40
1.265518104770559
 40
1.68994884956506
 40
2.116467290673827
 40
2.54548530610122
 40
2.977344090263341
 40
3.412310401731622
 40
3.850575907619845
 40
4.292228523283339
 40
4.737291192035371
 40
5.185695533383685
 40
5.63729472003792
 40
6.091866727153825
 40
6.549120869352286
 40
7.008706717250554
 40
7.470222077277051
 40
7.933222198716569
 40
8.397230145652669
 40
8.861746885649248
 40
9.326263625646204
 40
9.790271572582303
 40
10.25327169402144
 40
10.71478705404793
 40
11.17437290194659
 40
11.6316270441445
 40
12.08619905126056
 40
12.53780120194721
 40
12.98620554329551
 40
13.43126821204755
 40
13.87292082771091
 40
14.3111802250952
 40
14.74614653656348
 40
15.17800532072561
 40
15.60702303167234
 40
16.03354172596774
 40
16.45797877828845
 40
16.88078920975347
 40
17.30249350532345
 40
17.72363667810562
 40
17.72363667810562
 40
17.72363667810562
 40
17.72363667810562
 10
-1.031779693358988
 20
-2.000001271565664
 30
0.0
 10
-1.289645627496601
 20
-1.995445116963835
 30
0.0
 10
-1.676890308352149
 20
-1.988603008716326
 30
0.0
 10
-2.191826447543572
 20
-1.946477405198584
 30
0.0
 10
-2.578476330428607
 20
-1.904003590945421
 30
0.0
 10
-2.965093163953022
 20
-1.849474428296334
 30
0.0
 10
-3.351675929635698
 20
-1.783615011278023
 30
0.0
 10
-3.738222641525156
 20
-1.706740204010831
 30
0.0
 10
-4.124732652213731
 20
-1.619350797064266
 30
0.0
 10
-4.511204241595356
 20
-1.521983374333387
 30
0.0
 10
-4.89763818213405
 20
-1.415241844682044
 30
0.0
 10
-5.284033434440015
 20
-1.299784413862142
 30
0.0
 10
-5.6703962061597
 20
-1.176328285551719
 30
0.0
 10
-6.056728375093421
 20
-1.045632410402109
 30
0.0
 10
-6.44303349392578
 20
-0.9085027249181575
 30
0.0
 10
-6.829315855522981
 20
-0.7657852320643427
 30
0.0
 10
-7.215578845283211
 20
-0.61835756623595
 30
0.0
 10
-7.601826222519934
 20
-0.4671264851838059
 30
0.0
 10
-7.988062082556415
 20
-0.3130227275964957
 30
0.0
 10
-8.374289953682492
 20
-0.156993923257743
 30
0.0
 10
-8.760514578108876
 20
-0.0000012715973799
 30
0.0
 10
-9.146739202450412
 20
0.1569913802537609
 30
0.0
 10
-9.532967073830992
 20
0.31302018402046
 30
0.0
 10
-9.919202932937229
 20
0.4671239436983721
 30
0.0
 10
-10.30545031362336
 20
0.6183550169972306
 30
0.0
 10
-10.69171329059349
 20
0.7657827115740301
 30
0.0
 10
-11.07799569955678
 20
0.9085000979623709
 30
0.0
 10
-11.46430148299358
 20
1.045630475377192
 30
0.0
 10
-11.85063515302773
 20
1.176325163088525
 30
0.0
 10
-12.2369986139594
 20
1.299781924439695
 30
0.0
 10
-12.62339385726897
 20
1.415239389614328
 30
0.0
 10
-13.00982621038094
 20
1.521979938402232
 30
0.0
 10
-13.39629522478184
 20
1.619348867324663
 30
0.0
 10
-13.78280365776247
 20
1.70673863126652
 30
0.0
 10
-14.16935014593899
 20
1.783608408980233
 30
0.0
 10
-14.55593319504049
 20
1.849486927824743
 30
0.0
 10
-14.94255249598338
 20
1.903938222130354
 30
0.0
 10
-15.32920038655959
 20
1.946711044123347
 30
0.0
 10
-15.71587219885263
 20
1.977227200364501
 30
0.0
 10
-16.10255804704483
 20
1.996429847560191
 30
0.0
 10
-16.36041149086567
 20
1.998809629586905
 30
0.0
 10
-16.48925238025676
 20
1.999998728434435
 30
0.0
  0
ELLIPSE
  5
2C0C
330
1F
100
AcDbEntity
  8
AM_0
 48
0.5
100
AcDbEllipse
 10
1.423672149804404
 20
2.401121775309309
 30
0.0
 11
-4.62415058491651
 21
0.0000000000000906
 31
0.0
210
0.0
220
0.0
230
0.9999999999999998
 40
0.8717037728521818
 41
0.5303675532341097
 42
0.938488483429003
  0
SPLINE
  5
2C0D
330
1F
100
AcDbEntity
  8
AM_0
 48
0.5
100
AcDbSpline
210
0.0
220
0.0
230
1.0
 70
     8
 71
     3
 72
    17
 73
    13
 74
     0
 42
0.0000000001
 43
0.0000000001
 40
0.0
 40
0.0
 40
0.0
 40
0.0
 40
1.010743614677189
 40
2.022833924044153
 40
3.037578959561199
 40
4.056212747067873
 40
5.079857613375832
 40
6.109500119648989
 40
7.14596120163808
 40
8.18989512056258
 40
9.241717674284874
 40
9.693948937866434
 40
9.693948937866434
 40
9.693948937866434
 40
9.693948937866434
 10
-2.114238207316786
 20
1.999998728434342
 30
0.0
 10
-2.243079097236472
 20
1.998809634424251
 30
0.0
 10
-2.500932542115103
 20
1.99642986207888
 30
0.0
 10
-2.887618382357792
 20
1.977227142135498
 30
0.0
 10
-3.274288302968893
 20
1.946711415151366
 30
0.0
 10
-3.660934176001605
 20
1.903937851996236
 30
0.0
 10
-4.047551396615604
 20
1.849486560367189
 30
0.0
 10
-4.434135242663714
 20
1.783609995939532
 30
0.0
 10
-4.820680525541008
 20
1.706732227944639
 30
0.0
 10
-5.207202244756097
 20
1.619370817315754
 30
0.0
 10
-5.519212655554103
 20
1.540671392024806
 30
0.0
 10
-5.702443462281963
 20
1.491472933745406
 30
0.0
 10
-5.757439520007357
 20
1.476413615015017
 30
0.0
  0
SPLINE
  5
2C0E
330
1F
100
AcDbEntity
  8
AM_0
100
AcDbSpline
210
0.0
220
0.0
230
1.0
 70
     8
 71
     3
 72
    11
 73
     7
 74
     0
 42
0.0000000001
 43
0.0000000001
 40
11.27226913003534
 40
11.27226913003534
 40
11.27226913003534
 40
11.2722691300354
 40
12.28301561507924
 40
13.29510212255852
 40
14.30984805882082
 40
15.18258238371378
 40
15.18258238371378
 40
15.18258238371378
 40
15.18258238371378
 10
-9.398409838009897
 20
-2.000001271565611
 30
0.0
 10
-9.526760786384661
 20
-1.990212690369405
 30
0.0
 10
-9.783220588838759
 20
-1.96651496130984
 30
0.0
 10
-10.16658598191102
 20
-1.918710780177313
 30
0.0
 10
-10.53040649972111
 20
-1.861613927338548
 30
0.0
 10
-10.76570425480472
 20
-1.817721877250039
 30
0.0
 10
-10.8741361604447
 20
-1.796040416848425
 30
0.0
  0
LINE
  5
2C0F
330
1F
100
AcDbEntity
  8
AM_0
 48
0.5
100
AcDbLine
 10
-15.8801894614841
 20
-2.00000127156561
 30
0.0
 11
-9.398409838009911
 21
-2.00000127156561
 31
0.0
  0
SPLINE
  5
2C10
330
1F
100
AcDbEntity
  8
AM_0
100
AcDbSpline
210
0.0
220
0.0
230
1.0
 70
     8
 71
     3
 72
    22
 73
    18
 74
     0
 42
0.0000000001
 43
0.0000000001
 40
17.17441611292
 40
17.17441611292
 40
17.17441611292
 40
17.17441611292
 40
17.38177636558528
 40
18.41823744757437
 40
19.46215659509824
 40
20.51397914882054
 40
21.57394542641293
 40
22.64209583141747
 40
23.71826625065247
 40
24.80210429862395
 40
25.8930771157021
 40
26.99048705697709
 40
28.09349309193389
 40
29.20112995599786
 40
30.31233024745139
 40
31.42594771747373
 40
32.5407895042663
 40
32.54078950426994
 40
32.54078950426994
 40
32.54078950426994
 10
-10.87430527163323
 20
-1.796015746863718
 30
0.0
 10
-10.90019832801752
 20
-1.791385943027257
 30
0.0
 10
-11.05541306001967
 20
-1.763185301809345
 30
0.0
 10
-11.33975770273227
 20
-1.706639345772254
 30
0.0
 10
-11.72626610640972
 20
-1.619249714643484
 30
0.0
 10
-12.11273512569215
 20
-1.521880742851539
 30
0.0
 10
-12.49916748902919
 20
-1.415140231661284
 30
0.0
 10
-12.88556268597055
 20
-1.299682658224141
 30
0.0
 10
-13.27192547259305
 20
-1.176226568371931
 30
0.0
 10
-13.658257637865
 20
-1.045530683510803
 30
0.0
 10
-14.04456275627761
 20
-0.9084009980013883
 30
0.0
 10
-14.43084512329886
 20
-0.765683515143889
 30
0.0
 10
-14.81710809162664
 20
-0.6182558090562795
 30
0.0
 10
-15.20335554962223
 20
-0.4670248798986999
 30
0.0
 10
-15.58959092103316
 20
-0.3129206267019007
 30
0.0
 10
-15.97581992760057
 20
-0.156893956002688
 30
0.0
 10
-16.23325539055969
 20
-0.0522501776222372
 30
0.0
 10
-16.36204384141435
 20
0.000100453695107
 30
0.0
  0
LINE
  5
2C11
330
1F
100
AcDbEntity
  8
AM_11
 48
0.2
100
AcDbLine
 10
-22.22018077392209
 20
2.000282864730708
 30
0.0
 11
-17.57170170297391
 21
1.999998728434442
 31
0.0
  0
SPLINE
  5
2C12
330
1F
100
AcDbEntity
  8
AM_0
100
AcDbSpline
210
0.0
220
0.0
230
1.0
 70
     8
 71
     3
 72
    11
 73
     7
 74
     0
 42
0.0000000001
 43
0.0000000001
 40
11.27226913003534
 40
11.27226913003534
 40
11.27226913003534
 40
11.2722691300354
 40
12.28301561507924
 40
13.29510212255852
 40
14.30984805882082
 40
15.18258238371378
 40
15.18258238371378
 40
15.18258238371378
 40
15.18258238371378
 10
-23.16436109217718
 20
-2.000001271565563
 30
0.0
 10
-23.29271204055194
 20
-1.990212690369358
 30
0.0
 10
-23.54917184300604
 20
-1.966514961309792
 30
0.0
 10
-23.9325372360783
 20
-1.918710780177265
 30
0.0
 10
-24.29635775388839
 20
-1.8616139273385
 30
0.0
 10
-24.531655508972
 20
-1.817721877249992
 30
0.0
 10
-24.64008741461197
 20
-1.796040416848377
 30
0.0
  0
SPLINE
  5
2C13
330
1F
100
AcDbEntity
  8
AM_0
100
AcDbSpline
210
0.0
220
0.0
230
1.0
 70
     8
 71
     3
 72
    17
 73
    13
 74
     0
 42
0.0000000001
 43
0.0000000001
 40
1.580019955310467
 40
1.580019955310467
 40
1.580019955310467
 40
1.580019955310467
 40
2.030549285115227
 40
3.082371838836284
 40
4.126290986361125
 40
5.162752068350215
 40
6.192395305374981
 40
7.216039564037012
 40
8.234688489606833
 40
9.249433870634691
 40
10.26152376260694
 40
11.27226744710342
 40
11.27226744710342
 40
11.27226744710342
 40
11.27226744710352
 10
-19.52199112347776
 20
-1.476060164746307
 30
0.0
 10
-19.57670076158905
 20
-1.491262345128008
 30
0.0
 10
-19.75944933325096
 20
-1.541089521870475
 30
0.0
 10
-20.07144646482703
 20
-1.619245231438354
 30
0.0
 10
-20.457901067419
 20
-1.706769258090291
 30
0.0
 10
-20.84446206060126
 20
-1.783603732781674
 30
0.0
 10
-21.23104076587327
 20
-1.849490628077698
 30
0.0
 10
-21.61766158820239
 20
-1.903950679520115
 30
0.0
 10
-22.0043091210547
 20
-1.946673107608901
 30
0.0
 10
-22.3909807296775
 20
-1.977381056714944
 30
0.0
 10
-22.77766688748369
 20
-1.995876856203675
 30
0.0
 10
-23.03552022740477
 20
-2.00000128300967
 30
0.0
 10
-23.16436109217716
 20
-2.000001271565563
 30
0.0
  0
LINE
  5
2C14
330
1F
100
AcDbEntity
  8
AM_0
 48
0.5
100
AcDbLine
 10
-17.57170797678809
 20
1.999998728434442
 30
0.0
 11
-9.398409838009884
 21
1.99999872843439
 31
0.0
  0
SPLINE
  5
2C15
330
1F
100
AcDbEntity
  8
AM_0
100
AcDbSpline
210
0.0
220
0.0
230
1.0
 70
     8
 71
     3
 72
    23
 73
    19
 74
     0
 42
0.0000000001
 43
0.0000000001
 40
16.03460024169435
 40
16.03460024169435
 40
16.03460024169435
 40
16.03460024169435
 40
16.35212704903564
 40
17.38177054169784
 40
18.41822485651776
 40
19.46214173629503
 40
20.51396345435107
 40
21.57393551351153
 40
22.64208202342361
 40
23.7182574881101
 40
24.80209208578934
 40
25.89306333925047
 40
26.99048218457928
 40
28.09348763352352
 40
29.20111863782268
 40
30.31232390128032
 40
31.42594612798585
 40
32.5407912310448
 40
32.5407912310486
 40
32.5407912310486
 40
32.5407912310486
 10
-22.22018077392209
 20
2.000282864730709
 30
0.0
 10
-22.18045352255083
 20
1.993531216929939
 30
0.0
 10
-22.01207197445666
 20
1.964129691050469
 30
0.0
 10
-21.71546606414378
 20
1.906521888328179
 30
0.0
 10
-21.33136063381956
 20
1.820859715672929
 30
0.0
 10
-20.94761197868611
 20
1.724675374219688
 30
0.0
 10
-20.56419742272938
 20
1.618525529877663
 30
0.0
 10
-20.18110335788729
 20
1.503001970405438
 30
0.0
 10
-19.79830764224105
 20
1.378765077186761
 30
0.0
 10
-19.41578361935195
 20
1.246537877777107
 30
0.0
 10
-19.03350955283115
 20
1.107069167097401
 30
0.0
 10
-18.65145479438055
 20
0.9611704810781491
 30
0.0
 10
-18.26958838273439
 20
0.8096898459177786
 30
0.0
 10
-17.88788487522278
 20
0.6534982117637115
 30
0.0
 10
-17.50631233517683
 20
0.4935038115789796
 30
0.0
 10
-17.12483542089821
 20
0.3306408952796353
 30
0.0
 10
-16.7434230693975
 20
0.1658532093639113
 30
0.0
 10
-16.48921646654674
 20
0.0553720764549559
 30
0.0
 10
-16.36204384141264
 20
0.0001004536943884
 30
0.0
  0
LINE
  5
2C16
330
1F
100
AcDbEntity
  8
AM_11
 48
0.2
100
AcDbLine
 10
-23.16436109217626
 20
-2.000001271565563
 30
0.0
 11
-15.8801894614841
 21
-2.00028540786184
 31
0.0
  0
ELLIPSE
  5
2C17
330
1F
100
AcDbEntity
  8
AM_0
 48
0.5
100
AcDbEllipse
 10
-36.12267180658451
 20
-1.353646596272454
 30
0.0
 11
-0.5259204429874488
 21
0.0000000000001633
 31
0.0
210
0.0
220
0.0
230
1.0
 40
0.9507141368374952
 41
4.317028824483378
 42
6.283185307179904
  0
ELLIPSE
  5
2C18
330
1F
100
AcDbEntity
  8
AM_0
 48
0.5
100
AcDbEllipse
 10
-35.94723659370986
 20
-1.333334604898787
 30
0.0
 11
-0.7012272573166031
 21
0.0000000000000547
 31
0.0
210
0.0
220
0.0
230
1.0
 40
0.9507141368374785
 41
0.0000000000000715
 42
1.570796012878479
  0
SPLINE
  5
2C1B
330
1F
100
AcDbEntity
  8
AM_0
100
AcDbSpline
210
0.0
220
0.0
230
1.0
 70
     8
 71
     3
 72
    13
 73
     9
 74
     0
 42
0.0000000001
 43
0.0000000001
 40
16.03460056234195
 40
16.03460056234195
 40
16.03460056234195
 40
16.03460056234195
 40
16.35212717791071
 40
17.38177067057215
 40
18.41822498539278
 40
19.46214186516937
 40
20.5139635832251
 40
21.34083983469381
 40
21.34083983469381
 40
21.34083983469381
 40
21.34083983469381
 10
-35.88346032397687
 20
-2.000183162750972
 30
0.0
 10
-35.84703464395672
 20
-1.993431713792387
 30
0.0
 10
-35.6926465408229
 20
-1.964030994595991
 30
0.0
 10
-35.42069060779228
 20
-1.906422519289082
 30
0.0
 10
-35.06850672627687
 20
-1.820760584154517
 30
0.0
 10
-34.71665002599873
 20
-1.724576178376654
 30
0.0
 10
-34.39106682819629
 20
-1.626267082866127
 30
0.0
 10
-34.18335048148737
 20
-1.558574274311921
 30
0.0
 10
-34.09222656511758
 20
-1.527976508028434
 30
0.0
  0
SPLINE
  5
2C1C
330
1F
100
AcDbEntity
  8
AM_0
 48
0.5
100
AcDbSpline
210
0.0
220
0.0
230
1.0
 70
     8
 71
     3
 72
    26
 73
    22
 74
     0
 42
0.0000000001
 43
0.0000000001
 40
0.0
 40
0.0
 40
0.0
 40
0.0
 40
0.4211432018735474
 40
0.8428473235286537
 40
1.265657898956934
 40
1.690088643751428
 40
2.116607084860617
 40
2.545625100287603
 40
2.977483884449724
 40
3.412450195918404
 40
3.850709593302191
 40
4.292362208965671
 40
4.737427885281768
 40
5.185826256336565
 40
5.637431371058531
 40
6.092003378174421
 40
6.549257520372505
 40
7.008843368271169
 40
7.470358728297647
 40
7.933358849736796
 40
8.383035712276667
 40
8.383035712276667
 40
8.383035712276667
 40
8.383035712276667
 10
-29.92729485557899
 20
-2.000001271565495
 30
0.0
 10
-30.04542823033711
 20
-1.998811320070311
 30
0.0
 10
-30.28185232145701
 20
-1.996429832185943
 30
0.0
 10
-30.63640241864713
 20
-1.977232364665954
 30
0.0
 10
-30.99093738245961
 20
-1.946713410462159
 30
0.0
 10
-31.3454504001578
 20
-1.903939920068048
 30
0.0
 10
-31.69993795273281
 20
-1.849491623535568
 30
0.0
 10
-32.05439297741748
 20
-1.783610390296061
 30
0.0
 10
-32.40881523840865
 20
-1.70674133952339
 30
0.0
 10
-32.76320231855429
 20
-1.619351335117585
 30
0.0
 10
-33.11755338004907
 20
-1.521982617454758
 30
0.0
 10
-33.47187133921543
 20
-1.415241217532445
 30
0.0
 10
-33.82615472787549
 20
-1.299786229088796
 30
0.0
 10
-34.18040756015977
 20
-1.176325881652706
 30
0.0
 10
-34.53463457267288
 20
-1.045633763535942
 30
0.0
 10
-34.88883653076615
 20
-0.9085026868067945
 30
0.0
 10
-35.24301607482921
 20
-0.765784615455141
 30
0.0
 10
-35.59717970895259
 20
-0.61836008916819
 30
0.0
 10
-35.95132158018909
 20
-0.4671169591084761
 30
0.0
 10
-36.30182564499209
 20
-0.3146485017265471
 30
0.0
 10
-36.53404777525858
 20
-0.2122191225540134
 30
0.0
 10
-36.64846385102647
 20
-0.1617520650224408
 30
0.0
  0
SPLINE
  5
2C1D
330
1F
100
AcDbEntity
  8
AM_0
 48
0.5
100
AcDbSpline
210
0.0
220
0.0
230
1.0
 70
     8
 71
     3
 72
    22
 73
    18
 74
     0
 42
0.0000000001
 43
0.0000000001
 40
0.0
 40
0.0
 40
0.0
 40
0.0
 40
1.010743684496582
 40
2.022833993863546
 40
3.037578683882831
 40
4.056212471389632
 40
5.079857945358201
 40
6.109499720892564
 40
7.145961650132166
 40
8.189873411961459
 40
9.241710626092514
 40
10.30166235592959
 40
11.36982472628033
 40
12.44598212828784
 40
13.52983440361964
 40
14.62080578343036
 40
14.90544694398022
 40
14.90544694398022
 40
14.90544694398022
 40
14.90544694398022
 10
-30.9197942137055
 20
-2.000001271565486
 30
0.0
 10
-31.03792761102267
 20
-1.998811675518886
 30
0.0
 10
-31.27435179607489
 20
-1.996430898513868
 30
0.0
 10
-31.62890152197681
 20
-1.97722808409831
 30
0.0
 10
-31.98343686861814
 20
-1.946714264894257
 30
0.0
 10
-32.33795007788863
 20
-1.903940746253373
 30
0.0
 10
-32.69243665343064
 20
-1.84948732787071
 30
0.0
 10
-33.04689289713414
 20
-1.783611790853293
 30
0.0
 10
-33.40131361495708
 20
-1.706739946738333
 30
0.0
 10
-33.75570124402
 20
-1.619348677104428
 30
0.0
 10
-34.11005259254074
 20
-1.521983638429332
 30
0.0
 10
-34.46436951232463
 20
-1.415237405305954
 30
0.0
 10
-34.81865428741393
 20
-1.299789252820632
 30
0.0
 10
-35.17290665169924
 20
-1.176325515352599
 30
0.0
 10
-35.52713324168125
 20
-1.045632712808152
 30
0.0
 10
-35.79335927897508
 20
-0.9425672975636157
 30
0.0
 10
-35.94170971727776
 20
-0.8836584191584899
 30
0.0
 10
-35.97238365489114
 20
-0.8714176785763935
 30
0.0
  0
LINE
  5
2C1E
330
1F
100
AcDbEntity
  8
AM_11
 48
0.2
100
AcDbLine
 10
-36.2707861577762
 20
-2.000001271565471
 30
0.0
 11
-31.24992503167021
 21
-2.00000127156551
 31
0.0
  0
LINE
  5
2C1F
330
1F
100
AcDbEntity
  8
AM_0
 48
0.5
100
AcDbLine
 10
-32.34902980339452
 20
0.933499563635328
 30
0.0
 11
-36.64846117605661
 21
-0.1617507934567708
 31
0.0
  0
SPLINE
  5
2C20
330
1F
100
AcDbEntity
  8
AM_0
100
AcDbSpline
210
0.0
220
0.0
230
1.0
 70
     8
 71
     3
 72
    23
 73
    19
 74
     0
 42
0.0000000001
 43
0.0000000001
 40
16.03460024169435
 40
16.03460024169435
 40
16.03460024169435
 40
16.03460024169435
 40
16.35212704903564
 40
17.38177054169784
 40
18.41822485651776
 40
19.46214173629503
 40
20.51396345435107
 40
21.57393551351153
 40
22.64208202342361
 40
23.7182574881101
 40
24.80209208578934
 40
25.89306333925047
 40
26.99048218457928
 40
28.09348763352352
 40
29.20111863782268
 40
30.31232390128032
 40
31.42594612798585
 40
32.5407912310448
 40
32.5407912310486
 40
32.5407912310486
 40
32.5407912310486
 10
-35.98618512471722
 20
2.000282864730755
 30
0.0
 10
-35.94645787334597
 20
1.993531216929985
 30
0.0
 10
-35.7780763252518
 20
1.964129691050515
 30
0.0
 10
-35.48147041493893
 20
1.906521888328225
 30
0.0
 10
-35.0973649846147
 20
1.820859715672975
 30
0.0
 10
-34.71361632948127
 20
1.724675374219734
 30
0.0
 10
-34.33020177352452
 20
1.618525529877709
 30
0.0
 10
-33.94710770868243
 20
1.503001970405484
 30
0.0
 10
-33.56431199303621
 20
1.378765077186806
 30
0.0
 10
-33.18178797014711
 20
1.246537877777154
 30
0.0
 10
-32.7995139036263
 20
1.107069167097448
 30
0.0
 10
-32.41745914517571
 20
0.9611704810781954
 30
0.0
 10
-32.03559273352954
 20
0.8096898459178248
 30
0.0
 10
-31.65388922601794
 20
0.6534982117637579
 30
0.0
 10
-31.27231668597199
 20
0.4935038115790257
 30
0.0
 10
-30.89083977169337
 20
0.3306408952796815
 30
0.0
 10
-30.50942742019266
 20
0.1658532093639574
 30
0.0
 10
-30.2552208173419
 20
0.055372076455002
 30
0.0
 10
-30.1280481922078
 20
0.0001004536944345
 30
0.0
  0
LINE
  5
2C21
330
1F
100
AcDbEntity
  8
AM_11
 48
0.2
100
AcDbLine
 10
-35.98618512471722
 20
2.000282864730754
 30
0.0
 11
-31.33771232758324
 21
1.99999872843449
 31
0.0
  0
LINE
  5
2C22
330
1F
100
AcDbEntity
  8
AM_0
 48
0.5
100
AcDbLine
 10
-31.33771524502312
 20
-2.000001271565483
 30
0.0
 11
-23.16436109334636
 21
-2.000001271565517
 31
0.0
  0
SPLINE
  5
2C23
330
1F
100
AcDbEntity
  8
AM_0
100
AcDbSpline
210
0.0
220
0.0
230
1.0
 70
     8
 71
     3
 72
    22
 73
    18
 74
     0
 42
0.0000000001
 43
0.0000000001
 40
17.17441611292
 40
17.17441611292
 40
17.17441611292
 40
17.17441611292
 40
17.38177636558528
 40
18.41823744757437
 40
19.46215659509824
 40
20.51397914882054
 40
21.57394542641293
 40
22.64209583141747
 40
23.71826625065247
 40
24.80210429862395
 40
25.8930771157021
 40
26.99048705697709
 40
28.09349309193389
 40
29.20112995599786
 40
30.31233024745139
 40
31.42594771747373
 40
32.5407895042663
 40
32.54078950426994
 40
32.54078950426994
 40
32.54078950426994
 10
-24.64025652580052
 20
-1.796015746863671
 30
0.0
 10
-24.66614958218481
 20
-1.79138594302721
 30
0.0
 10
-24.82136431418695
 20
-1.763185301809297
 30
0.0
 10
-25.10570895689955
 20
-1.706639345772207
 30
0.0
 10
-25.492217360577
 20
-1.619249714643437
 30
0.0
 10
-25.87868637985943
 20
-1.521880742851492
 30
0.0
 10
-26.26511874319647
 20
-1.415140231661236
 30
0.0
 10
-26.65151394013784
 20
-1.299682658224093
 30
0.0
 10
-27.03787672676034
 20
-1.176226568371883
 30
0.0
 10
-27.42420889203229
 20
-1.045530683510755
 30
0.0
 10
-27.8105140104449
 20
-0.908400998001341
 30
0.0
 10
-28.19679637746616
 20
-0.7656835151438417
 30
0.0
 10
-28.58305934579393
 20
-0.6182558090562321
 30
0.0
 10
-28.96930680378953
 20
-0.4670248798986525
 30
0.0
 10
-29.35554217520046
 20
-0.3129206267018533
 30
0.0
 10
-29.74177118176786
 20
-0.1568939560026405
 30
0.0
 10
-29.99920664472698
 20
-0.0522501776221898
 30
0.0
 10
-30.12799509558165
 20
0.0001004536951544
 30
0.0
  0
SPLINE
  5
2C24
330
1F
100
AcDbEntity
  8
AM_0
100
AcDbSpline
210
0.0
220
0.0
230
1.0
 70
     8
 71
     3
 72
    46
 73
    42
 74
     0
 42
0.0000000001
 43
0.0000000001
 40
0.0
 40
0.0
 40
0.0
 40
0.0
 40
0.8427075293422831
 40
1.265518104770557
 40
1.689948849565058
 40
2.116467290673825
 40
2.545485306101222
 40
2.97734409026334
 40
3.412310401731621
 40
3.850575907619841
 40
4.292228523283341
 40
4.737291192035375
 40
5.185695533383689
 40
5.637294720037917
 40
6.09186672715383
 40
6.549120869352283
 40
7.008706717250553
 40
7.470222077277046
 40
7.933222198716568
 40
8.397230145652669
 40
8.861746885649248
 40
9.326263625646204
 40
9.790271572582303
 40
10.25327169402144
 40
10.71478705404793
 40
11.17437290194658
 40
11.6316270441445
 40
12.08619905126055
 40
12.5378012019472
 40
12.98620554329551
 40
13.43126821204755
 40
13.87292082771092
 40
14.31118022509521
 40
14.74614653656349
 40
15.17800532072561
 40
15.60702303167235
 40
16.03354172596773
 40
16.45797877828844
 40
16.88078920975347
 40
17.30249350532346
 40
17.72363667810562
 40
17.72363667810562
 40
17.72363667810562
 40
17.72363667810562
 10
-14.79773094752627
 20
-2.000001271565617
 30
0.0
 10
-15.05559688166389
 20
-1.995445116963787
 30
0.0
 10
-15.44284156251944
 20
-1.988603008716278
 30
0.0
 10
-15.95777770171085
 20
-1.946477405198537
 30
0.0
 10
-16.34442758459588
 20
-1.904003590945373
 30
0.0
 10
-16.7310444181203
 20
-1.849474428296287
 30
0.0
 10
-17.11762718380298
 20
-1.783615011277976
 30
0.0
 10
-17.50417389569244
 20
-1.706740204010784
 30
0.0
 10
-17.89068390638101
 20
-1.61935079706422
 30
0.0
 10
-18.27715549576264
 20
-1.521983374333337
 30
0.0
 10
-18.66358943630133
 20
-1.415241844681998
 30
0.0
 10
-19.0499846886073
 20
-1.299784413862093
 30
0.0
 10
-19.43634746032699
 20
-1.176328285551673
 30
0.0
 10
-19.8226796292607
 20
-1.045632410402057
 30
0.0
 10
-20.20898474809306
 20
-0.9085027249181138
 30
0.0
 10
-20.59526710969027
 20
-0.7657852320642929
 30
0.0
 10
-20.98153009945049
 20
-0.6183575662359047
 30
0.0
 10
-21.36777747668721
 20
-0.4671264851837563
 30
0.0
 10
-21.75401333672371
 20
-0.3130227275964494
 30
0.0
 10
-22.14024120784977
 20
-0.1569939232576955
 30
0.0
 10
-22.52646583227616
 20
-0.0000012715973325
 30
0.0
 10
-22.9126904566177
 20
0.1569913802538082
 30
0.0
 10
-23.29891832799828
 20
0.3130201840205075
 30
0.0
 10
-23.68515418710452
 20
0.4671239436984197
 30
0.0
 10
-24.07140156779064
 20
0.6183550169972769
 30
0.0
 10
-24.45766454476079
 20
0.7657827115740789
 30
0.0
 10
-24.84394695372407
 20
0.9085000979624183
 30
0.0
 10
-25.23025273716087
 20
1.045630475377239
 30
0.0
 10
-25.61658640719503
 20
1.176325163088574
 30
0.0
 10
-26.00294986812668
 20
1.299781924439741
 30
0.0
 10
-26.38934511143628
 20
1.415239389614376
 30
0.0
 10
-26.77577746454824
 20
1.521979938402279
 30
0.0
 10
-27.16224647894913
 20
1.61934886732471
 30
0.0
 10
-27.54875491192978
 20
1.706738631266567
 30
0.0
 10
-27.9353014001063
 20
1.783608408980281
 30
0.0
 10
-28.32188444920779
 20
1.84948692782479
 30
0.0
 10
-28.70850375015066
 20
1.903938222130402
 30
0.0
 10
-29.09515164072688
 20
1.946711044123395
 30
0.0
 10
-29.48182345301992
 20
1.977227200364549
 30
0.0
 10
-29.86850930121212
 20
1.996429847560237
 30
0.0
 10
-30.12636274503295
 20
1.998809629586953
 30
0.0
 10
-30.25520363442403
 20
1.999998728434483
 30
0.0
  0
SPLINE
  5
2C25
330
1F
100
AcDbEntity
  8
AM_0
100
AcDbSpline
210
0.0
220
0.0
230
1.0
 70
     8
 71
     3
 72
    55
 73
    51
 74
     0
 42
0.0000000001
 43
0.0000000001
 40
0.0
 40
0.0
 40
0.0
 40
0.0
 40
1.010743684496582
 40
2.022833576467832
 40
3.037578957496688
 40
4.056212745003489
 40
5.079857003664532
 40
6.109500240690281
 40
7.145961322679372
 40
8.189895241603872
 40
9.241717795325891
 40
10.30168407291828
 40
11.36983447792315
 40
12.44600489715814
 40
13.52984294512926
 40
14.62081576220742
 40
15.7182257034828
 40
16.82123173843959
 40
17.92886860250316
 40
19.0400688939571
 40
20.15368796660465
 40
21.26852814259644
 40
22.38336992938901
 40
23.49698739941135
 40
24.6081876908653
 40
25.71582455492886
 40
26.81883757994213
 40
27.91624752121713
 40
29.00722033829659
 40
30.09105838626677
 40
31.16722880550176
 40
32.23537921050758
 40
33.29534548809967
 40
34.347168041821
 40
35.39108718934584
 40
36.42754827133493
 40
37.45720575381954
 40
38.48085062012849
 40
39.49948440763516
 40
40.51422944315121
 40
41.52631975251916
 40
42.53706336719636
 40
43.54780698187354
 40
44.55989729124051
 40
45.57464232675757
 40
46.59327611426424
 40
47.6169209805722
 40
48.64656348684535
 40
49.68302456883444
 40
50.58557219878025
 40
50.58557219878025
 40
50.58557219878025
 40
50.58557219878025
 10
-15.8801894614841
 20
-2.00000127156561
 30
0.0
 10
-16.00903032795629
 20
-1.998811320018571
 30
0.0
 10
-16.26688366379084
 20
-1.996429832030433
 30
0.0
 10
-16.65356982979885
 20
-1.977232365290207
 30
0.0
 10
-17.04023948963243
 20
-1.946713408111055
 30
0.0
 10
-17.42688521841027
 20
-1.903939928901135
 30
0.0
 10
-17.81350315801665
 20
-1.849491590311576
 30
0.0
 10
-18.20008568134404
 20
-1.783610515427152
 30
0.0
 10
-18.58663408149383
 20
-1.70674050265029
 30
0.0
 10
-18.97314493056293
 20
-1.619352267159755
 30
0.0
 10
-19.35961559570802
 20
-1.521982367420144
 30
0.0
 10
-19.74604800327172
 20
-1.415241984226867
 30
0.0
 10
-20.13244318819709
 20
-1.299784376042705
 30
0.0
 10
-20.51880597818244
 20
-1.176328295806839
 30
0.0
 10
-20.90513814214058
 20
-1.045632407583565
 30
0.0
 10
-21.29144326242836
 20
-0.9085027258416287
 30
0.0
 10
-21.67772562322185
 20
-0.7657852312076415
 30
0.0
 10
-22.0639886147413
 20
-0.6183575687489949
 30
0.0
 10
-22.45023598571305
 20
-0.4671264759405858
 30
0.0
 10
-22.8364718691481
 20
-0.3130227621914984
 30
0.0
 10
-23.22269965270281
 20
-0.1569937938027849
 30
0.0
 10
-23.60892479051174
 20
-0.0000016796382113
 30
0.0
 10
-23.99514819449297
 20
0.1569932604822561
 30
0.0
 10
-24.38137727259903
 20
0.3130197990872255
 30
0.0
 10
-24.76761267922071
 20
0.4671239792994811
 30
0.0
 10
-25.15386073886725
 20
0.6183556482309475
 30
0.0
 10
-25.54012533279087
 20
0.7657820525160349
 30
0.0
 10
-25.92640830323999
 20
0.9085002709262937
 30
0.0
 10
-26.31271347929738
 20
1.045629841470196
 30
0.0
 10
-26.69904562919811
 20
1.176325757178325
 30
0.0
 10
-27.08540842017279
 20
1.299781837594782
 30
0.0
 10
-27.47180361493994
 20
1.415239418171288
 30
0.0
 10
-27.85823598261961
 20
1.521979910356316
 30
0.0
 10
-28.24470498685575
 20
1.619348950320962
 30
0.0
 10
-28.63121344580168
 20
1.706738330379352
 30
0.0
 10
-29.01776170256207
 20
1.783609888915466
 30
0.0
 10
-29.40434698621825
 20
1.849483439266611
 30
0.0
 10
-29.79096620310103
 20
1.903948630767983
 30
0.0
 10
-30.17761204649797
 20
1.946671407539185
 30
0.0
 10
-30.56428197500137
 20
1.977375695227744
 30
0.0
 10
-30.95096781314561
 20
1.995877298247797
 30
0.0
 10
-31.33766214847663
 20
2.002058071616308
 30
0.0
 10
-31.72435648323867
 20
1.99587729823811
 30
0.0
 10
-32.11104232309312
 20
1.977375695266624
 30
0.0
 10
-32.4977122453
 20
1.946671407392677
 30
0.0
 10
-32.88435811230411
 20
1.90394863131855
 30
0.0
 10
-33.27097535559621
 20
1.849483702722951
 30
0.0
 10
-33.65755911625351
 20
1.783610562436929
 30
0.0
 10
-34.02653186265533
 20
1.710227812460096
 30
0.0
 10
-34.2659255825019
 20
1.656562313665479
 30
0.0
 10
-34.37699031563557
 20
1.630408498142173
 30
0.0
  0
LINE
  5
2C26
330
1F
100
AcDbEntity
  8
AM_0
100
AcDbLine
 10
-31.33771232758324
 20
1.99999872843449
 30
0.0
 11
-22.22018077392209
 21
2.000282864730708
 31
0.0
  0
LINE
  5
2C27
330
1F
100
AcDbEntity
  8
AM_11
 48
0.2
100
AcDbLine
 10
-9.398409838009911
 20
-2.00000127156561
 30
0.0
 11
-2.114238207316813
 21
-2.000001271565657
 31
0.0
  0
SPLINE
  5
2C28
330
1F
100
AcDbEntity
  8
AM_0
 48
0.5
100
AcDbSpline
210
0.0
220
0.0
230
1.0
 70
     8
 71
     3
 72
    25
 73
    21
 74
     0
 42
0.0000000001
 43
0.0000000001
 40
6.846175049578289
 40
6.846175049578289
 40
6.846175049578289
 40
6.846175049578289
 40
7.604337694224321
 40
8.711974558287883
 40
9.814980593243754
 40
10.91239053451967
 40
12.0033633515982
 40
13.08720139956839
 40
14.16337181880432
 40
15.23152222380919
 40
16.29148850140128
 40
17.34331105512262
 40
18.38723020264746
 40
19.42369128463655
 40
20.45333379090873
 40
21.47697865721768
 40
22.49561244472435
 40
23.5103574802404
 40
24.52244778960836
 40
25.53320666051913
 40
25.53320666051913
 40
25.53320666051913
 40
25.53320666051913
 10
-2.56521160358711
 20
0.3620118221360224
 30
0.0
 10
-2.653053463806845
 20
0.397128265149118
 30
0.0
 10
-2.869412658265848
 20
0.483196634800965
 30
0.0
 10
-3.214610719735409
 20
0.6183549582823781
 30
0.0
 10
-3.600873666953575
 20
0.7657827060289378
 30
0.0
 10
-3.987156039586221
 20
0.9085001777933397
 30
0.0
 10
-4.373461156518835
 20
1.045629866299936
 30
0.0
 10
-4.759793322143745
 20
1.176325750180791
 30
0.0
 10
-5.146156108819992
 20
1.299781840974792
 30
0.0
 10
-5.53255130520379
 20
1.415239411645252
 30
0.0
 10
-5.918983670692711
 20
1.521979932856964
 30
0.0
 10
-6.30545268201121
 20
1.619348867723461
 30
0.0
 10
-6.691961115085097
 20
1.706738635110653
 30
0.0
 10
-7.078507605908334
 20
1.783608393373278
 30
0.0
 10
-7.465090644434973
 20
1.849486985890924
 30
0.0
 10
-7.851708079512104
 20
1.903937738795437
 30
0.0
 10
-8.238353895527669
 20
1.946711445547895
 30
0.0
 10
-8.625023831252383
 20
1.977227133086925
 30
0.0
 10
-9.011711609868013
 20
1.996429964440826
 30
0.0
 10
-9.269567002065208
 20
1.99880966254196
 30
0.0
 10
-9.398409838009882
 20
1.999998728434389
 30
0.0
  0
SPLINE
  5
2C29
330
1F
100
AcDbEntity
  8
AM_0
100
AcDbSpline
210
0.0
220
0.0
230
1.0
 70
     8
 71
     3
 72
    55
 73
    51
 74
     0
 42
0.0000000001
 43
0.0000000001
 40
0.0
 40
0.0
 40
0.0
 40
0.0
 40
1.010743684496582
 40
2.022833576467832
 40
3.037578957496688
 40
4.056212745003489
 40
5.079857003664532
 40
6.109500240690281
 40
7.145961322679372
 40
8.189895241603872
 40
9.241717795325891
 40
10.30168407291828
 40
11.36983447792315
 40
12.44600489715814
 40
13.52984294512926
 40
14.62081576220742
 40
15.7182257034828
 40
16.82123173843959
 40
17.92886860250316
 40
19.0400688939571
 40
20.15368796660465
 40
21.26852814259644
 40
22.38336992938901
 40
23.49698739941135
 40
24.6081876908653
 40
25.71582455492886
 40
26.81883757994213
 40
27.91624752121713
 40
29.00722033829659
 40
30.09105838626677
 40
31.16722880550176
 40
32.23537921050758
 40
33.29534548809967
 40
34.347168041821
 40
35.39108718934584
 40
36.42754827133493
 40
37.45720575381954
 40
38.48085062012849
 40
39.49948440763516
 40
40.51422944315121
 40
41.52631975251916
 40
42.53706336719636
 40
43.54780698187354
 40
44.55989729124051
 40
45.57464232675757
 40
46.59327611426424
 40
47.6169209805722
 40
48.64656348684535
 40
49.68302456883444
 40
50.58557219878025
 40
50.58557219878025
 40
50.58557219878025
 40
50.58557219878025
 10
-2.114238207316814
 20
-2.000001271565657
 30
0.0
 10
-2.243079073789
 20
-1.998811320018619
 30
0.0
 10
-2.500932409623555
 20
-1.996429832030481
 30
0.0
 10
-2.887618575631573
 20
-1.977232365290255
 30
0.0
 10
-3.274288235465148
 20
-1.946713408111103
 30
0.0
 10
-3.660933964242989
 20
-1.903939928901183
 30
0.0
 10
-4.04755190384937
 20
-1.849491590311623
 30
0.0
 10
-4.434134427176756
 20
-1.783610515427199
 30
0.0
 10
-4.820682827326553
 20
-1.706740502650337
 30
0.0
 10
-5.207193676395648
 20
-1.619352267159803
 30
0.0
 10
-5.59366434154074
 20
-1.521982367420191
 30
0.0
 10
-5.980096749104443
 20
-1.415241984226915
 30
0.0
 10
-6.366491934029808
 20
-1.299784376042753
 30
0.0
 10
-6.752854724015162
 20
-1.176328295806887
 30
0.0
 10
-7.139186887973288
 20
-1.045632407583612
 30
0.0
 10
-7.52549200826107
 20
-0.908502725841676
 30
0.0
 10
-7.911774369054564
 20
-0.7657852312076891
 30
0.0
 10
-8.298037360574017
 20
-0.6183575687490421
 30
0.0
 10
-8.684284731545769
 20
-0.4671264759406333
 30
0.0
 10
-9.070520614980814
 20
-0.3130227621915459
 30
0.0
 10
-9.456748398535529
 20
-0.1569937938028324
 30
0.0
 10
-9.842973536344461
 20
-0.0000016796382587
 30
0.0
 10
-10.22919694032568
 20
0.1569932604822086
 30
0.0
 10
-10.61542601843174
 20
0.313019799087178
 30
0.0
 10
-11.00166142505341
 20
0.4671239792994336
 30
0.0
 10
-11.38790948469995
 20
0.6183556482309002
 30
0.0
 10
-11.77417407862358
 20
0.7657820525159872
 30
0.0
 10
-12.1604570490727
 20
0.9085002709262468
 30
0.0
 10
-12.54676222513009
 20
1.045629841470149
 30
0.0
 10
-12.93309437503082
 20
1.176325757178277
 30
0.0
 10
-13.3194571660055
 20
1.299781837594735
 30
0.0
 10
-13.70585236077265
 20
1.415239418171241
 30
0.0
 10
-14.09228472845231
 20
1.52197991035627
 30
0.0
 10
-14.47875373268845
 20
1.619348950320914
 30
0.0
 10
-14.86526219163437
 20
1.706738330379304
 30
0.0
 10
-15.25181044839477
 20
1.783609888915419
 30
0.0
 10
-15.63839573205095
 20
1.849483439266564
 30
0.0
 10
-16.02501494893375
 20
1.903948630767935
 30
0.0
 10
-16.41166079233069
 20
1.946671407539137
 30
0.0
 10
-16.79833072083409
 20
1.977375695227696
 30
0.0
 10
-17.18501655897832
 20
1.995877298247749
 30
0.0
 10
-17.57171089430934
 20
2.00205807161626
 30
0.0
 10
-17.95840522907139
 20
1.995877298238062
 30
0.0
 10
-18.34509106892583
 20
1.977375695266577
 30
0.0
 10
-18.73176099113272
 20
1.946671407392629
 30
0.0
 10
-19.11840685813682
 20
1.903948631318503
 30
0.0
 10
-19.50502410142893
 20
1.849483702722903
 30
0.0
 10
-19.89160786208622
 20
1.78361056243688
 30
0.0
 10
-20.26058060848803
 20
1.710227812460049
 30
0.0
 10
-20.49997432833461
 20
1.656562313665431
 30
0.0
 10
-20.61103906146827
 20
1.630408498142125
 30
0.0
  0
SPLINE
  5
2C2A
330
1F
100
AcDbEntity
  8
AM_0
100
AcDbSpline
210
0.0
220
0.0
230
1.0
 70
     8
 71
     3
 72
    17
 73
    13
 74
     0
 42
0.0000000001
 43
0.0000000001
 40
1.580019955310467
 40
1.580019955310467
 40
1.580019955310467
 40
1.580019955310467
 40
2.030549285115227
 40
3.082371838836284
 40
4.126290986361125
 40
5.162752068350215
 40
6.192395305374981
 40
7.216039564037012
 40
8.234688489606833
 40
9.249433870634691
 40
10.26152376260694
 40
11.27226744710342
 40
11.27226744710342
 40
11.27226744710342
 40
11.27226744710352
 10
-5.75603986931047
 20
-1.476060164746354
 30
0.0
 10
-5.810749507421775
 20
-1.491262345128055
 30
0.0
 10
-5.993498079083678
 20
-1.541089521870522
 30
0.0
 10
-6.30549521065975
 20
-1.619245231438402
 30
0.0
 10
-6.691949813251726
 20
-1.706769258090338
 30
0.0
 10
-7.078510806433977
 20
-1.783603732781721
 30
0.0
 10
-7.465089511705991
 20
-1.849490628077746
 30
0.0
 10
-7.851710334035108
 20
-1.903950679520163
 30
0.0
 10
-8.238357866887426
 20
-1.946673107608949
 30
0.0
 10
-8.625029475510222
 20
-1.977381056714992
 30
0.0
 10
-9.011715633316413
 20
-1.995876856203722
 30
0.0
 10
-9.269568973237484
 20
-2.000001283009717
 30
0.0
 10
-9.398409838009879
 20
-2.000001271565611
 30
0.0
  0
LINE
  5
2C2B
330
1F
100
AcDbEntity
  8
AM_11
 48
0.2
100
AcDbLine
 10
-9.398409838009884
 20
1.99999872843439
 30
0.0
 11
-2.114238207316786
 21
1.999998728434342
 31
0.0
  0
VIEWPORT
  5
110
330
101
100
AcDbEntity
 67
     1
  8
0
100
AcDbViewport
 10
420.5
 20
297.0
 30
0.0
 40
948.9782706766916
 41
628.452
 68
     1
 69
     1
1001
ACAD
1000
MVIEW
1002
{
1070
    16
1010
0.0
1020
0.0
1030
0.0
1010
0.0
1020
0.0
1030
1.0
1040
0.0
1040
628.452
1040
420.5
1040
297.0
1040
50.0
1040
0.0
1040
0.0
1070
     0
1070
   100
1070
     1
1070
     1
1070
     0
1070
     0
1070
     0
1070
     0
1040
0.0
1040
0.0
1040
0.0
1040
10.0
1040
10.0
1040
10.0
1040
10.0
1070
     0
1002
{
1002
}
1002
}
  0
ENDSEC
  0
SECTION
  2
OBJECTS
  0
DICTIONARY
  5
C
330
0
100
AcDbDictionary
  3
ACAD_GROUP
350
D
  3
ACAD_LAYOUT
350
1A
  3
ACAD_MLINESTYLE
350
17
  3
ACAD_PLOTSETTINGS
350
19
  3
ACAD_PLOTSTYLENAME
350
E
  3
ACDBVARIABLEDICTIONARY
350
34
  3
ACMDICTIONARY
350
43
  3
AMG
350
2B
  3
AMGSNAPSETTINGS
350
6E
  3
DWGPROPS
350
2CF3
  3
ACDBHEADERROUNDTRIPXREC
350
2D00
  0
DICTIONARY
  5
74
330
1F
100
AcDbDictionary
280
     1
  3
ACAD_INDEX
360
2CF5
  3
ACAD_LAYOUTSELFREF
360
2D23
  0
DICTIONARY
  5
2D28
330
101
100
AcDbDictionary
280
     1
  3
ACAD_LAYOUTSELFREF
360
2D29
  0
DICTIONARY
  5
D
102
{ACAD_REACTORS
330
C
102
}
330
C
100
AcDbDictionary
  0
DICTIONARY
  5
1A
102
{ACAD_REACTORS
330
C
102
}
330
C
100
AcDbDictionary
  0
DICTIONARY
  5
17
102
{ACAD_REACTORS
330
C
102
}
330
C
100
AcDbDictionary
  3
STANDARD
350
18
  0
DICTIONARY
  5
19
102
{ACAD_REACTORS
330
C
102
}
330
C
100
AcDbDictionary
  0
ACDBDICTIONARYWDFLT
  5
E
102
{ACAD_REACTORS
330
C
102
}
330
C
100
AcDbDictionary
281
     1
  3
Normal
350
F
100
AcDbDictionaryWithDefault
340
F
  0
DICTIONARY
  5
34
102
{ACAD_REACTORS
330
C
102
}
330
C
100
AcDbDictionary
  3
INDEXCTL
350
35
  3
SORTENTS
350
B5E
  0
DICTIONARY
  5
43
102
{ACAD_REACTORS
330
C
102
}
330
C
100
AcDbDictionary
  3
ACMSTDDICTIONARY
350
260
  0
DICTIONARY
  5
2B
102
{ACAD_REACTORS
330
C
102
}
330
C
100
AcDbDictionary
  3
ACMGSETTINGS
350
2C
  0
DICTIONARY
  5
6E
102
{ACAD_REACTORS
330
C
102
}
330
C
100
AcDbDictionary
  0
XRECORD
  5
2CF3
102
{ACAD_REACTORS
330
C
102
}
330
C
100
AcDbXrecord
  1
DWGPROPS COOKIE
  2

  3

  4

  6

  7

  8

  9

300
AmdtFileType=82
301
=
302
=
303
=
304
=
305
=
306
=
307
=
308
=
309
=
 40
0.1066329398148148
 41
2452800.443498622
 42
2452982.544506261
  1

 90
        1
  0
DICTIONARY
  5
2D00
102
{ACAD_REACTORS
330
C
102
}
330
C
100
AcDbDictionary
  3
TSTACKALIGN
350
2D01
  3
TSTACKSIZE
350
2D02
  3
HYPERLINKBASE
350
2D03
  3
STYLESHEET
350
2D04
  3
LAYOUTDICT
350
2D05
  3
PLOTSETDICT
350
2D06
  3
PLOTSTYLNAMDICT
350
2D07
  3
LWETCUNION
350
2D08
  3
INSUNITS
350
2D09
  3
CEPSNTYPE
350
2D0A
  3
FINGERPRINTGUID
350
2D0B
  3
VERSIONGUID
350
2D0C
  3
PSVPSCALE
350
2D0D
  3
DIMSTYLEDATA
350
2D0E
  3
PUCSORTHOREF
350
2D0F
  3
PUCSORTHOVIEW
350
2D10
  3
PUCSBASE
350
2D11
  3
PUCSORGTOP
350
2D12
  3
PUCSORGBOTTOM
350
2D13
  3
PUCSORGLEFT
350
2D14
  3
PUCSORGRIGHT
350
2D15
  3
PUCSORGFRONT
350
2D16
  3
PUCSORGBACK
350
2D17
  3
UCSORTHOREF
350
2D18
  3
UCSORTHOVIEW
350
2D19
  3
UCSBASE
350
2D1A
  3
UCSORGTOP
350
2D1B
  3
UCSORGBOTTOM
350
2D1C
  3
UCSORGLEFT
350
2D1D
  3
UCSORGRIGHT
350
2D1E
  3
UCSORGFRONT
350
2D1F
  3
UCSORGBACK
350
2D20
  0
DICTIONARY
  5
2CF5
102
{ACAD_REACTORS
330
74
102
}
330
74
100
AcDbDictionary
  3
*A1
350
2CF6
  0
XRECORD
  5
2D23
102
{ACAD_REACTORS
330
74
102
}
330
74
100
AcDbXrecord
340
1F
  0
XRECORD
  5
2D29
102
{ACAD_REACTORS
330
2D28
102
}
330
2D28
100
AcDbXrecord
340
101
  0
MLINESTYLE
  5
18
102
{ACAD_REACTORS
330
17
102
}
330
17
100
AcDbMlineStyle
  2
STANDARD
 70
     0
  3

 62
   256
 51
90.0
 52
90.0
 71
     2
 49
0.5
 62
   256
  6
BYLAYER
 49
-0.5
 62
   256
  6
BYLAYER
  0
ACDBPLACEHOLDER
  5
F
102
{ACAD_REACTORS
330
E
102
}
330
E
100
AcDbPlaceHolder
280
     0
  0
DICTIONARYVAR
  5
35
102
{ACAD_REACTORS
330
34
102
}
330
34
100
DictionaryVariables
280
     0
  1
1
  0
DICTIONARYVAR
  5
B5E
102
{ACAD_REACTORS
330
34
102
}
330
34
100
DictionaryVariables
280
     0
  1
96
  0
DICTIONARY
  5
260
102
{ACAD_REACTORS
330
43
102
}
330
43
100
AcDbDictionary
  0
DICTIONARY
  5
2C
102
{ACAD_REACTORS
330
2B
102
}
330
2B
100
AcDbDictionary
  3
DWGSETTINGS
350
2D
  0
XRECORD
  5
2D01
102
{ACAD_REACTORS
330
2D00
102
}
330
2D00
100
AcDbXrecord
 90
        1
  0
XRECORD
  5
2D02
102
{ACAD_REACTORS
330
2D00
102
}
330
2D00
100
AcDbXrecord
 90
       70
  0
XRECORD
  5
2D03
102
{ACAD_REACTORS
330
2D00
102
}
330
2D00
100
AcDbXrecord
  1

  0
XRECORD
  5
2D04
102
{ACAD_REACTORS
330
2D00
102
}
330
2D00
100
AcDbXrecord
  1
ASAMI.ctb
  0
XRECORD
  5
2D05
102
{ACAD_REACTORS
330
2D00
102
}
330
2D00
100
AcDbXrecord
340
1A
  0
XRECORD
  5
2D06
102
{ACAD_REACTORS
330
2D00
102
}
330
2D00
100
AcDbXrecord
340
19
  0
XRECORD
  5
2D07
102
{ACAD_REACTORS
330
2D00
102
}
330
2D00
100
AcDbXrecord
340
E
  0
XRECORD
  5
2D08
102
{ACAD_REACTORS
330
2D00
102
}
330
2D00
100
AcDbXrecord
 90
    10781
  0
XRECORD
  5
2D09
102
{ACAD_REACTORS
330
2D00
102
}
330
2D00
100
AcDbXrecord
 90
        4
  0
XRECORD
  5
2D0A
102
{ACAD_REACTORS
330
2D00
102
}
330
2D00
100
AcDbXrecord
 90
        0
  0
XRECORD
  5
2D0B
102
{ACAD_REACTORS
330
2D00
102
}
330
2D00
100
AcDbXrecord
  1
{AFB28963-8C59-40AE-9337-C84526B81ACE}
  0
XRECORD
  5
2D0C
102
{ACAD_REACTORS
330
2D00
102
}
330
2D00
100
AcDbXrecord
  1
{276C7B20-F4BE-4C6F-87D2-C58FCF0068B7}
  0
XRECORD
  5
2D0D
102
{ACAD_REACTORS
330
2D00
102
}
330
2D00
100
AcDbXrecord
 40
0.0
  0
XRECORD
  5
2D0E
102
{ACAD_REACTORS
330
2D00
102
}
330
2D00
100
AcDbXrecord
1000
DSTYLE
1002
{
1070
    79
 70
     2
1070
   341
340
59
1070
   342
340
59
1070
   371
 70
    -1
1070
   372
 70
    -1
1002
}
  0
XRECORD
  5
2D0F
102
{ACAD_REACTORS
330
2D00
102
}
330
2D00
100
AcDbXrecord
340
0
  0
XRECORD
  5
2D10
102
{ACAD_REACTORS
330
2D00
102
}
330
2D00
100
AcDbXrecord
 70
     0
  0
XRECORD
  5
2D11
102
{ACAD_REACTORS
330
2D00
102
}
330
2D00
100
AcDbXrecord
340
0
  0
XRECORD
  5
2D12
102
{ACAD_REACTORS
330
2D00
102
}
330
2D00
100
AcDbXrecord
 10
0.0
 20
0.0
 30
0.0
  0
XRECORD
  5
2D13
102
{ACAD_REACTORS
330
2D00
102
}
330
2D00
100
AcDbXrecord
 10
0.0
 20
0.0
 30
0.0
  0
XRECORD
  5
2D14
102
{ACAD_REACTORS
330
2D00
102
}
330
2D00
100
AcDbXrecord
 10
0.0
 20
0.0
 30
0.0
  0
XRECORD
  5
2D15
102
{ACAD_REACTORS
330
2D00
102
}
330
2D00
100
AcDbXrecord
 10
0.0
 20
0.0
 30
0.0
  0
XRECORD
  5
2D16
102
{ACAD_REACTORS
330
2D00
102
}
330
2D00
100
AcDbXrecord
 10
0.0
 20
0.0
 30
0.0
  0
XRECORD
  5
2D17
102
{ACAD_REACTORS
330
2D00
102
}
330
2D00
100
AcDbXrecord
 10
0.0
 20
0.0
 30
0.0
  0
XRECORD
  5
2D18
102
{ACAD_REACTORS
330
2D00
102
}
330
2D00
100
AcDbXrecord
340
0
  0
XRECORD
  5
2D19
102
{ACAD_REACTORS
330
2D00
102
}
330
2D00
100
AcDbXrecord
 70
     0
  0
XRECORD
  5
2D1A
102
{ACAD_REACTORS
330
2D00
102
}
330
2D00
100
AcDbXrecord
340
0
  0
XRECORD
  5
2D1B
102
{ACAD_REACTORS
330
2D00
102
}
330
2D00
100
AcDbXrecord
 10
0.0
 20
0.0
 30
0.0
  0
XRECORD
  5
2D1C
102
{ACAD_REACTORS
330
2D00
102
}
330
2D00
100
AcDbXrecord
 10
0.0
 20
0.0
 30
0.0
  0
XRECORD
  5
2D1D
102
{ACAD_REACTORS
330
2D00
102
}
330
2D00
100
AcDbXrecord
 10
0.0
 20
0.0
 30
0.0
  0
XRECORD
  5
2D1E
102
{ACAD_REACTORS
330
2D00
102
}
330
2D00
100
AcDbXrecord
 10
0.0
 20
0.0
 30
0.0
  0
XRECORD
  5
2D1F
102
{ACAD_REACTORS
330
2D00
102
}
330
2D00
100
AcDbXrecord
 10
0.0
 20
0.0
 30
0.0
  0
XRECORD
  5
2D20
102
{ACAD_REACTORS
330
2D00
102
}
330
2D00
100
AcDbXrecord
 10
0.0
 20
0.0
 30
0.0
  0
LAYER_INDEX
  5
2CF6
102
{ACAD_REACTORS
330
2CF5
102
}
330
2CF5
100
AcDbIndex
 40
2453151.583732083
100
AcDbLayerIndex
  8
0
360
2CF7
 90
        0
  8
AM_0
360
2CF8
 90
       42
  8
AM_7
360
2CF9
 90
        1
  8
AM_11
360
2CFA
 90
        6
  8
AM_5
360
2CFB
 90
        5
  8
Defpoints
360
2CFC
 90
        0
  8
AM_6
360
2CFD
 90
        1
  8
AM_CL
360
2CFE
 90
        0
  0
XRECORD
  5
2D
102
{ACAD_REACTORS
330
2C
102
}
330
2C
100
AcDbXrecord
  1
VERSION
140
15.0
  1
PRODUCT
  2
AutoCAD Mechanical 2000
  0
IDBUFFER
  5
2CF7
330
0
100
AcDbIdBuffer
  0
IDBUFFER
  5
2CF8
330
0
100
AcDbIdBuffer
330
2954
330
2C0B
330
2C0C
330
2C0D
330
2C0E
330
2C0F
330
2C10
330
2C12
330
2C13
330
2C14
330
2C15
330
2C17
330
2C18
330
2C1B
330
2C1C
330
2C1D
330
2C1F
330
2C20
330
2C22
330
2C23
330
2C24
330
2C25
330
2C26
330
2C28
330
2C29
330
2C2A
330
2215
330
2216
330
222A
330
222B
330
237B
330
237E
330
2874
330
2875
330
2879
330
287A
330
288C
330
288F
330
2890
330
289E
330
289F
330
2953
  0
IDBUFFER
  5
2CF9
330
0
100
AcDbIdBuffer
330
224B
  0
IDBUFFER
  5
2CFA
330
0
100
AcDbIdBuffer
330
2C11
330
2C16
330
2C1E
330
2C21
330
2C27
330
2C2B
  0
IDBUFFER
  5
2CFB
330
0
100
AcDbIdBuffer
330
11B2
330
223E
330
2259
330
2643
330
2865
  0
IDBUFFER
  5
2CFC
330
0
100
AcDbIdBuffer
  0
IDBUFFER
  5
2CFD
330
0
100
AcDbIdBuffer
330
19BD
  0
IDBUFFER
  5
2CFE
330
0
100
AcDbIdBuffer
  0
ENDSEC
  0
EOF
