  0
SECTION
  2
HEADER
  9
$ACADVER
  1
AC1014
  9
$ACADMAINTVER
 70
     9
  9
$DWGCODEPAGE
  3
ANSI_932
  9
$INSBASE
 10
0.0
 20
0.0
 30
0.0
  9
$EXTMIN
 10
-91.9000009999999
 20
-25.75000099999998
 30
-0.00000001
  9
$EXTMAX
 10
15.31866414182032
 20
14.89710932908359
 30
0.00000001
  9
$LIMMIN
 10
-115.2743125114289
 20
-61.81965462428931
  9
$LIMMAX
 10
34.68289694917223
 20
37.20838581210049
  9
$ORTHOMODE
 70
     0
  9
$REGENMODE
 70
     1
  9
$FILLMODE
 70
     1
  9
$QTEXTMODE
 70
     0
  9
$MIRRTEXT
 70
     0
  9
$DRAGMODE
 70
     2
  9
$LTSCALE
 40
1.0
  9
$OSMODE
 70
    55
  9
$ATTMODE
 70
     1
  9
$TEXTSIZE
 40
2.5
  9
$TRACEWID
 40
1.0
  9
$TEXTSTYLE
  7
STANDARD
  9
$CLAYER
  8
AM_0
  9
$CELTYPE
  6
BYLAYER
  9
$CECOLOR
 62
   256
  9
$CELTSCALE
 40
1.0
  9
$DELOBJ
 70
     1
  9
$DISPSILH
 70
     0
  9
$DIMSCALE
 40
0.5
  9
$DIMASZ
 40
2.5
  9
$DIMEXO
 40
1.0
  9
$DIMDLI
 40
12.0
  9
$DIMRND
 40
0.0
  9
$DIMDLE
 40
0.0
  9
$DIMEXE
 40
1.0
  9
$DIMTP
 40
0.1
  9
$DIMTM
 40
0.1
  9
$DIMTXT
 40
3.2
  9
$DIMCEN
 40
0.0
  9
$DIMTSZ
 40
0.0
  9
$DIMTOL
 70
     0
  9
$DIMLIM
 70
     0
  9
$DIMTIH
 70
     0
  9
$DIMTOH
 70
     0
  9
$DIMSE1
 70
     0
  9
$DIMSE2
 70
     0
  9
$DIMTAD
 70
     3
  9
$DIMZIN
 70
     8
  9
$DIMBLK
  1
OPEN30
  9
$DIMASO
 70
     1
  9
$DIMSHO
 70
     1
  9
$DIMPOST
  1

  9
$DIMAPOST
  1
"
  9
$DIMALT
 70
     0
  9
$DIMALTD
 70
     2
  9
$DIMALTF
 40
0.0393701
  9
$DIMLFAC
 40
1.0
  9
$DIMTOFL
 70
     1
  9
$DIMTVP
 40
0.0
  9
$DIMTIX
 70
     0
  9
$DIMSOXD
 70
     0
  9
$DIMSAH
 70
     0
  9
$DIMBLK1
  1

  9
$DIMBLK2
  1

  9
$DIMSTYLE
  2
AM_JIS
  9
$DIMCLRD
 70
   256
  9
$DIMCLRE
 70
   256
  9
$DIMCLRT
 70
     2
  9
$DIMTFAC
 40
0.71
  9
$DIMGAP
 40
1.5
  9
$DIMJUST
 70
     0
  9
$DIMSD1
 70
     0
  9
$DIMSD2
 70
     0
  9
$DIMTOLJ
 70
     0
  9
$DIMTZIN
 70
     0
  9
$DIMALTZ
 70
     0
  9
$DIMALTTZ
 70
     0
  9
$DIMFIT
 70
     3
  9
$DIMUPT
 70
     0
  9
$DIMUNIT
 70
     2
  9
$DIMDEC
 70
     3
  9
$DIMTDEC
 70
     3
  9
$DIMALTU
 70
     2
  9
$DIMALTTD
 70
     2
  9
$DIMTXSTY
  7
ASAMI
  9
$DIMAUNIT
 70
     0
  9
$LUNITS
 70
     2
  9
$LUPREC
 70
     2
  9
$SKETCHINC
 40
1.0
  9
$FILLETRAD
 40
2.5
  9
$AUNITS
 70
     0
  9
$AUPREC
 70
     0
  9
$MENU
  1
.
  9
$ELEVATION
 40
0.0
  9
$PELEVATION
 40
0.0
  9
$THICKNESS
 40
0.0
  9
$LIMCHECK
 70
     0
  9
$BLIPMODE
 70
     0
  9
$CHAMFERA
 40
0.25
  9
$CHAMFERB
 40
0.25
  9
$CHAMFERC
 40
20.0
  9
$CHAMFERD
 40
0.0
  9
$SKPOLY
 70
     0
  9
$TDCREATE
 40
2452800.443498622
  9
$TDUPDATE
 40
2453151.577781377
  9
$TDINDWG
 40
0.0430074421
  9
$TDUSRTIMER
 40
0.0430074421
  9
$USRTIMER
 70
     1
  9
$ANGBASE
 50
0.0
  9
$ANGDIR
 70
     0
  9
$PDMODE
 70
     3
  9
$PDSIZE
 40
0.0
  9
$PLINEWID
 40
0.0
  9
$COORDS
 70
     1
  9
$SPLFRAME
 70
     0
  9
$SPLINETYPE
 70
     6
  9
$SPLINESEGS
 70
     8
  9
$ATTDIA
 70
     1
  9
$ATTREQ
 70
     1
  9
$HANDLING
 70
 12289
  9
$HANDSEED
  5
2A62
  9
$SURFTAB1
 70
     6
  9
$SURFTAB2
 70
     6
  9
$SURFTYPE
 70
     6
  9
$SURFU
 70
     6
  9
$SURFV
 70
     6
  9
$UCSNAME
  2

  9
$UCSORG
 10
0.0
 20
0.0
 30
0.0
  9
$UCSXDIR
 10
1.0
 20
0.000000000000002
 30
0.0
  9
$UCSYDIR
 10
-0.000000000000002
 20
1.0
 30
0.0
  9
$PUCSNAME
  2

  9
$PUCSORG
 10
0.0
 20
0.0
 30
0.0
  9
$PUCSXDIR
 10
1.0
 20
0.0
 30
0.0
  9
$PUCSYDIR
 10
0.0
 20
1.0
 30
0.0
  9
$USERI1
 70
     0
  9
$USERI2
 70
     0
  9
$USERI3
 70
     0
  9
$USERI4
 70
     0
  9
$USERI5
 70
     0
  9
$USERR1
 40
0.0
  9
$USERR2
 40
0.0
  9
$USERR3
 40
0.0
  9
$USERR4
 40
0.0
  9
$USERR5
 40
0.0
  9
$WORLDVIEW
 70
     1
  9
$SHADEDGE
 70
     3
  9
$SHADEDIF
 70
    70
  9
$TILEMODE
 70
     1
  9
$MAXACTVP
 70
    64
  9
$PINSBASE
 10
0.0
 20
0.0
 30
0.0
  9
$PLIMCHECK
 70
     0
  9
$PEXTMIN
 10
1.000000000000000E+20
 20
1.000000000000000E+20
 30
1.000000000000000E+20
  9
$PEXTMAX
 10
-1.000000000000000E+20
 20
-1.000000000000000E+20
 30
-1.000000000000000E+20
  9
$PLIMMIN
 10
0.0
 20
0.0
  9
$PLIMMAX
 10
841.0
 20
594.0
  9
$UNITMODE
 70
     0
  9
$VISRETAIN
 70
     1
  9
$PLINEGEN
 70
     0
  9
$PSLTSCALE
 70
     0
  9
$TREEDEPTH
 70
  3020
  9
$PICKSTYLE
 70
     0
  9
$CMLSTYLE
  2
STANDARD
  9
$CMLJUST
 70
     0
  9
$CMLSCALE
 40
20.0
  9
$PROXYGRAPHICS
 70
     1
  9
$MEASUREMENT
 70
     1
  0
ENDSEC
  0
SECTION
  2
CLASSES
  0
CLASS
  1
ACDBDICTIONARYWDFLT
  2
AcDbDictionaryWithDefault
  3
AutoCAD 2000
 90
        0
280
     0
281
     0
  0
CLASS
  1
ACDBPLACEHOLDER
  2
AcDbPlaceHolder
  3
AutoCAD 2000
 90
        0
280
     0
281
     0
  0
CLASS
  1
LAYOUT
  2
AcDbLayout
  3
AutoCAD 2000
 90
        0
280
     0
281
     0
  0
CLASS
  1
AMGSETTINGSOBJ
  2
AmgSettingsObj
  3
"AcadM|Product Description: AutoCAD Mechanical 2000|Company: Autodesk"
 90
        0
280
     0
281
     0
  0
CLASS
  1
ACME_DOCUMENT
  2
AcMeDbDoc
  3
AcMeServices
 90
        0
280
     0
281
     0
  0
CLASS
  1
ACMESCOPE
  2
AcMeScope
  3
AcMeServices
 90
        0
280
     0
281
     0
  0
CLASS
  1
ACMECOMMANDHISTORY
  2
AcMeCommandHistory
  3
AcMeServices
 90
        0
280
     0
281
     0
  0
CLASS
  1
DICTIONARYVAR
  2
AcDbDictionaryVar
  3
AutoCAD 2000
 90
        0
280
     0
281
     0
  0
CLASS
  1
ACIMSYSVARMAN
  2
AcImSysVarManager
  3
AcMeServices
 90
        0
280
     0
281
     0
  0
CLASS
  1
ACIMREALSYSVAR
  2
AcImRealSysVar
  3
AcMeServices
 90
        0
280
     0
281
     0
  0
CLASS
  1
ACIMINTSYSVAR
  2
AcImIntSysVar
  3
AcMeServices
 90
        0
280
     0
281
     0
  0
CLASS
  1
ACMEDRAWINGMAN
  2
AcMeDrawingMan
  3
AcMeServices
 90
        0
280
     0
281
     0
  0
CLASS
  1
ACMEVIEW
  2
AcMeView
  3
AcMeServices
 90
        0
280
     0
281
     0
  0
CLASS
  1
ACDBENTITYCACHE
  2
AcMeEntityCache
  3
AcMeServices
 90
        0
280
     0
281
     0
  0
CLASS
  1
GSMANAGER
  2
AcMeGSManager
  3
AcMeServices
 90
        0
280
     0
281
     0
  0
CLASS
  1
AmdtInternalReactor
  2
AmdtInternalReactor
  3
AcMeServices
 90
        0
280
     0
281
     0
  0
CLASS
  1
ACMESTATEMGR
  2
AcMeStateMgr
  3
AcMeServices
 90
        0
280
     0
281
     0
  0
CLASS
  1
ACME_DATABASE
  2
AcMeDbDatabase
  3
AcMeServices
 90
        0
280
     0
281
     0
  0
CLASS
  1
ACRFINSADJUSTERMGR
  2
AcRfInsAdjusterMgr
  3
AcMeServices
 90
        0
280
     0
281
     0
  0
CLASS
  1
ACMDATADICTIONARY
  2
AcmDataDictionary
  3
"AcmSymBB|Product Description: AutoCAD Mechanical 2000|Company: Autodesk"
 90
        0
280
     0
281
     0
  0
CLASS
  1
ACMDATAENTRYBLOCK
  2
AcmDataEntryBlock
  3
"AcmSymBB|Product Description: AutoCAD Mechanical 2000|Company: Autodesk"
 90
        0
280
     0
281
     0
  0
CLASS
  1
AMGOBJPROPCFG
  2
AmgObjPropCfg
  3
"AmgLay|Product Description: AutoCAD Mechanical 2000|Company: Autodesk"
 90
        1
280
     0
281
     0
  0
CLASS
  1
ACAMGFILTERDAT
  2
AcAmgFilterDat
  3
"AcadM|Product Description: AutoCAD Mechanical 2000|Company: Autodesk"
 90
        0
280
     0
281
     0
  0
CLASS
  1
LAYER_INDEX
  2
AcDbLayerIndex
  3
AutoCAD 2000
 90
        0
280
     0
281
     0
  0
CLASS
  1
IDBUFFER
  2
AcDbIdBuffer
  3
AutoCAD 2000
 90
        0
280
     0
281
     0
  0
CLASS
  1
ACIMSTRSYSVAR
  2
AcImStrSysVar
  3
AcMeServices
 90
        0
280
     0
281
     0
  0
CLASS
  1
ACMSTANDARDJIS
  2
AcmStandardJIS
  3
"AcmSymBB|Product Description: AutoCAD Mechanical 2000|Company: Autodesk"
 90
        0
280
     0
281
     0
  0
CLASS
  1
ACMSURFSTANDARDJIS
  2
AcmSurfTextStdJIS
  3
"AcmSymBB|Product Description: AutoCAD Mechanical 2000|Company: Autodesk"
 90
        0
280
     0
281
     0
  0
CLASS
  1
ACMFCFSTANDARDJIS
  2
AcmFCFStdJIS
  3
"AcmSymBB|Product Description: AutoCAD Mechanical 2000|Company: Autodesk"
 90
        0
280
     0
281
     0
  0
CLASS
  1
ACMWELDSTANDARDJIS
  2
AcmWeldingStdJIS
  3
"AcmSymBB|Product Description: AutoCAD Mechanical 2000|Company: Autodesk"
 90
        0
280
     0
281
     0
  0
CLASS
  1
ACMIDSTANDARDJIS
  2
AcmIdStdJIS
  3
"AcmSymBB|Product Description: AutoCAD Mechanical 2000|Company: Autodesk"
 90
        0
280
     0
281
     0
  0
CLASS
  1
ACMDATUMSTANDARDJIS
  2
AcmDatumStdJIS
  3
"AcmSymBB|Product Description: AutoCAD Mechanical 2000|Company: Autodesk"
 90
        0
280
     0
281
     0
  0
CLASS
  1
ACMBOMSTANDARDJIS
  2
AcmBOMStdJIS
  3
"AcmSymBB|Product Description: AutoCAD Mechanical 2000|Company: Autodesk"
 90
        0
280
     0
281
     0
  0
CLASS
  1
ACMSTANDARDANSI
  2
AcmStandardANSI
  3
"AcmSymBB|Product Description: AutoCAD Mechanical 2000|Company: Autodesk"
 90
        0
280
     0
281
     0
  0
CLASS
  1
ACMSURFSTANDARDANSI
  2
AcmSurfTextStdANSI
  3
"AcmSymBB|Product Description: AutoCAD Mechanical 2000|Company: Autodesk"
 90
        0
280
     0
281
     0
  0
CLASS
  1
ACMFCFSTANDARDANSI
  2
AcmFCFStdANSI
  3
"AcmSymBB|Product Description: AutoCAD Mechanical 2000|Company: Autodesk"
 90
        0
280
     0
281
     0
  0
CLASS
  1
ACMWELDSTANDARDANSI
  2
AcmWeldingStdANSI
  3
"AcmSymBB|Product Description: AutoCAD Mechanical 2000|Company: Autodesk"
 90
        0
280
     0
281
     0
  0
CLASS
  1
ACMIDSTANDARDANSI
  2
AcmIdStdANSI
  3
"AcmSymBB|Product Description: AutoCAD Mechanical 2000|Company: Autodesk"
 90
        0
280
     0
281
     0
  0
CLASS
  1
ACMDATUMSTANDARDANSI
  2
AcmDatumStdANSI
  3
"AcmSymBB|Product Description: AutoCAD Mechanical 2000|Company: Autodesk"
 90
        0
280
     0
281
     0
  0
CLASS
  1
ACMBOMSTANDARDANSI
  2
AcmBOMStdANSI
  3
"AcmSymBB|Product Description: AutoCAD Mechanical 2000|Company: Autodesk"
 90
        0
280
     0
281
     0
  0
CLASS
  1
ACMSTANDARDBSI
  2
AcmStandardBSI
  3
"AcmSymBB|Product Description: AutoCAD Mechanical 2000|Company: Autodesk"
 90
        0
280
     0
281
     0
  0
CLASS
  1
ACMSURFSTANDARDBSI
  2
AcmSurfTextStdBSI
  3
"AcmSymBB|Product Description: AutoCAD Mechanical 2000|Company: Autodesk"
 90
        0
280
     0
281
     0
  0
CLASS
  1
ACMFCFSTANDARDBSI
  2
AcmFCFStdBSI
  3
"AcmSymBB|Product Description: AutoCAD Mechanical 2000|Company: Autodesk"
 90
        0
280
     0
281
     0
  0
CLASS
  1
ACMWELDSTANDARDBSI
  2
AcmWeldingStdBSI
  3
"AcmSymBB|Product Description: AutoCAD Mechanical 2000|Company: Autodesk"
 90
        0
280
     0
281
     0
  0
CLASS
  1
ACMIDSTANDARDBSI
  2
AcmIdStdBSI
  3
"AcmSymBB|Product Description: AutoCAD Mechanical 2000|Company: Autodesk"
 90
        0
280
     0
281
     0
  0
CLASS
  1
ACMDATUMSTANDARDBSI
  2
AcmDatumStdBSI
  3
"AcmSymBB|Product Description: AutoCAD Mechanical 2000|Company: Autodesk"
 90
        0
280
     0
281
     0
  0
CLASS
  1
ACMBOMSTANDARDBSI
  2
AcmBOMStdBSI
  3
"AcmSymBB|Product Description: AutoCAD Mechanical 2000|Company: Autodesk"
 90
        0
280
     0
281
     0
  0
CLASS
  1
LONG_TRANSACTION
  2
AcDbLongTransaction
  3
AutoCAD 2000
 90
        0
280
     0
281
     0
  0
CLASS
  1
LWPOLYLINE
  2
AcDbPolyline
  3
AutoCAD 2000
 90
        0
280
     0
281
     1
  0
CLASS
  1
HATCH
  2
AcDbHatch
  3
AutoCAD 2000
 90
        0
280
     0
281
     1
  0
CLASS
  1
XRECORD
  2
AcDbXrecord
  3
AutoCAD 2000
 90
        0
280
     0
281
     0
  0
ENDSEC
  0
SECTION
  2
TABLES
  0
TABLE
  2
VPORT
  5
8
330
0
100
AcDbSymbolTable
 70
     3
  0
VPORT
  5
2A37
330
8
100
AcDbSymbolTableRecord
100
AcDbViewportTableRecord
  2
*ACTIVE
 70
     0
 10
0.0
 20
0.0
 11
1.0
 21
1.0
 12
-36.28302752480518
 22
-5.426588237241062
 13
0.0
 23
0.0
 14
2.5
 24
2.5
 15
10.0
 25
10.0
 16
0.0
 26
0.0
 36
1.0
 17
0.0
 27
0.0
 37
0.0
 40
71.39129664011901
 41
1.56570841889117
 42
50.0
 43
0.0
 44
0.0
 50
0.0
 51
0.0
 71
     0
 72
   100
 73
     1
 74
     1
 75
     0
 76
     0
 77
     0
 78
     0
  0
ENDTAB
  0
TABLE
  2
LTYPE
  5
5
330
0
100
AcDbSymbolTable
 70
    10
  0
LTYPE
  5
14
330
5
100
AcDbSymbolTableRecord
100
AcDbLinetypeTableRecord
  2
BYBLOCK
 70
     0
  3

 72
    65
 73
     0
 40
0.0
  0
LTYPE
  5
15
330
5
100
AcDbSymbolTableRecord
100
AcDbLinetypeTableRecord
  2
BYLAYER
 70
     0
  3

 72
    65
 73
     0
 40
0.0
  0
LTYPE
  5
16
330
5
100
AcDbSymbolTableRecord
100
AcDbLinetypeTableRecord
  2
CONTINUOUS
 70
     0
  3
Solid line
 72
    65
 73
     0
 40
0.0
  0
LTYPE
  5
4B
330
5
100
AcDbSymbolTableRecord
100
AcDbLinetypeTableRecord
  2
AM_ISO02W050
 70
     0
  3
__ __ __ __ __ __ __ __ __ __ __ __ __ __ __
 72
    65
 73
     2
 40
7.5
 49
6.0
 74
     0
 49
-1.5
 74
     0
  0
LTYPE
  5
4C
330
5
100
AcDbSymbolTableRecord
100
AcDbLinetypeTableRecord
  2
AM_ISO08W050
 70
     0
  3
____ . ____ . ____ . ____ . ____ . ____ . ____
 72
    65
 73
     4
 40
18.0
 49
12.0
 74
     0
 49
-1.5
 74
     0
 49
3.0
 74
     0
 49
-1.5
 74
     0
  0
LTYPE
  5
4D
330
5
100
AcDbSymbolTableRecord
100
AcDbLinetypeTableRecord
  2
AM_ISO09W050
 70
     0
  3
_____ . . _____ . . _____ . . ____ .. ____
 72
    65
 73
     6
 40
22.5
 49
12.0
 74
     0
 49
-1.5
 74
     0
 49
3.0
 74
     0
 49
-1.5
 74
     0
 49
3.0
 74
     0
 49
-1.5
 74
     0
  0
LTYPE
  5
4E
330
5
100
AcDbSymbolTableRecord
100
AcDbLinetypeTableRecord
  2
AMCONSTR
 70
     0
  3
_______________________
 72
    65
 73
     2
 40
9999.0
 49
9999.0
 74
     0
 49
0.0
 74
     0
  0
LTYPE
  5
4F
330
5
100
AcDbSymbolTableRecord
100
AcDbLinetypeTableRecord
  2
AM_ISO02W050X2
 70
     0
  3
 _ _ _ _ _ _ _ _ _ _ _ _
 72
    65
 73
     2
 40
3.75
 49
3.0
 74
     0
 49
-0.75
 74
     0
  0
LTYPE
  5
50
330
5
100
AcDbSymbolTableRecord
100
AcDbLinetypeTableRecord
  2
AM_ISO08W050X2
 70
     0
  3
__ . __ . __ . __ . __ . __
 72
    65
 73
     4
 40
9.0
 49
6.0
 74
     0
 49
-0.75
 74
     0
 49
1.5
 74
     0
 49
-0.75
 74
     0
  0
LTYPE
  5
53
330
5
100
AcDbSymbolTableRecord
100
AcDbLinetypeTableRecord
  2
AMZIGZAG
 70
     0
  3
/\/-/\/-/\/-/\/-/\/-/\/
 72
    65
 73
     2
 40
11.00009999999999
 49
0.0001
 74
     4
 75
   135
340
52
 46
0.04
 50
0.0
 44
0.0
 45
0.0
 49
-11.0
 74
     0
  0
LTYPE
  5
166
330
5
100
AcDbSymbolTableRecord
100
AcDbLinetypeTableRecord
  2
ACJISTGL
 70
     0
  3
_ _ _ _ _
 72
    65
 73
     2
 40
3.0
 49
2.0
 74
     0
 49
-1.0
 74
     0
  0
LTYPE
  5
26A
330
5
100
AcDbSymbolTableRecord
100
AcDbLinetypeTableRecord
  2
ACJISTGB
 70
     0
  3
__ . . __ . .
 72
    65
 73
     6
 40
9.0
 49
4.0
 74
     0
 49
-1.0
 74
     0
 49
1.0
 74
     0
 49
-1.0
 74
     0
 49
1.0
 74
     0
 49
-1.0
 74
     0
  0
ENDTAB
  0
TABLE
  2
LAYER
  5
2
330
0
100
AcDbSymbolTable
 70
     7
  0
LAYER
  5
10
330
2
100
AcDbSymbolTableRecord
100
AcDbLayerTableRecord
  2
0
 70
     0
 62
     7
  6
CONTINUOUS
  0
LAYER
  5
3F9
330
2
100
AcDbSymbolTableRecord
100
AcDbLayerTableRecord
  2
AM_0
 70
     0
 62
     7
  6
CONTINUOUS
  0
LAYER
  5
C7C
330
2
100
AcDbSymbolTableRecord
100
AcDbLayerTableRecord
  2
AM_7
 70
     0
 62
     4
  6
AM_ISO08W050
  0
LAYER
  5
C97
330
2
100
AcDbSymbolTableRecord
100
AcDbLayerTableRecord
  2
AM_11
 70
     0
 62
     3
  6
AM_ISO09W050
  0
LAYER
  5
CC5
330
2
100
AcDbSymbolTableRecord
100
AcDbLayerTableRecord
  2
AM_5
 70
     0
 62
     3
  6
CONTINUOUS
  0
LAYER
  5
CC7
330
2
100
AcDbSymbolTableRecord
100
AcDbLayerTableRecord
  2
DEFPOINTS
 70
     0
 62
     7
  6
CONTINUOUS
  0
LAYER
  5
19BC
330
2
100
AcDbSymbolTableRecord
100
AcDbLayerTableRecord
  2
AM_6
 70
     0
 62
     2
  6
CONTINUOUS
  0
ENDTAB
  0
TABLE
  2
STYLE
  5
3
330
0
100
AcDbSymbolTable
 70
     5
  0
STYLE
  5
11
330
3
100
AcDbSymbolTableRecord
100
AcDbTextStyleTableRecord
  2
STANDARD
 70
     0
 40
0.0
 41
1.0
 50
0.0
 71
     0
 42
2.5
  3
simplex.shx
  4
EXTFONT.SHX
  0
STYLE
  5
52
330
3
100
AcDbSymbolTableRecord
100
AcDbTextStyleTableRecord
  2

 70
     1
 40
0.0
 41
1.0
 50
0.0
 71
     0
 42
2.5
  3
ltypeshp.shx
  4

  0
STYLE
  5
6B
330
3
100
AcDbSymbolTableRecord
100
AcDbTextStyleTableRecord
  2
ASAMI
 70
     0
 40
0.0
 41
1.0
 50
0.0
 71
     0
 42
2.5
  3
simplex.shx
  4
EXTFONT.SHX
  0
STYLE
  5
262
330
3
100
AcDbSymbolTableRecord
100
AcDbTextStyleTableRecord
  2
ACJISTS
 70
     0
 40
1.0
 41
1.0
 50
0.0
 71
     0
 42
2.5
  3
simplex.shx
  4
bigfont.shx
  0
STYLE
  5
269
330
3
100
AcDbSymbolTableRecord
100
AcDbTextStyleTableRecord
  2
ACJISGDT
 70
     0
 40
0.0
 41
1.0
 50
0.0
 71
     0
 42
2.5
  3
amgdtans.shx
  4

  0
ENDTAB
  0
TABLE
  2
VIEW
  5
6
330
0
100
AcDbSymbolTable
 70
     0
  0
ENDTAB
  0
TABLE
  2
UCS
  5
7
330
0
100
AcDbSymbolTable
 70
     0
  0
ENDTAB
  0
TABLE
  2
APPID
  5
9
330
0
100
AcDbSymbolTable
 70
    16
  0
APPID
  5
12
330
9
100
AcDbSymbolTableRecord
100
AcDbRegAppTableRecord
  2
ACAD
 70
     0
  0
APPID
  5
30
330
9
100
AcDbSymbolTableRecord
100
AcDbRegAppTableRecord
  2
MCAD_NO_VIS
 70
     0
  0
APPID
  5
31
330
9
100
AcDbSymbolTableRecord
100
AcDbRegAppTableRecord
  2
ACAD_TEMP_GRAPHIC
 70
     0
  0
APPID
  5
2C2
330
9
100
AcDbSymbolTableRecord
100
AcDbRegAppTableRecord
  2
GENIUS_GENDTOL_13
 70
     0
  0
APPID
  5
339
330
9
100
AcDbSymbolTableRecord
100
AcDbRegAppTableRecord
  2
GENIUS_GENODEF_13
 70
     0
  0
APPID
  5
33A
330
9
100
AcDbSymbolTableRecord
100
AcDbRegAppTableRecord
  2
GENIUS_GENOBJ-N-RSBK_13
 70
     0
  0
APPID
  5
33B
330
9
100
AcDbSymbolTableRecord
100
AcDbRegAppTableRecord
  2
GENIUS_GENOBJ-N-LIB_13
 70
     0
  0
APPID
  5
33C
330
9
100
AcDbSymbolTableRecord
100
AcDbRegAppTableRecord
  2
GENIUS_GENSCALE_13
 70
     0
  0
APPID
  5
378
330
9
100
AcDbSymbolTableRecord
100
AcDbRegAppTableRecord
  2
GENIUS_GENDIMSH_14
 70
     0
  0
APPID
  5
C82
330
9
100
AcDbSymbolTableRecord
100
AcDbRegAppTableRecord
  2
GENIUS_GENOBJ-N-CRS_13
 70
     0
  0
APPID
  5
C83
330
9
100
AcDbSymbolTableRecord
100
AcDbRegAppTableRecord
  2
GENIUS_GENOENT_13
 70
     0
  0
APPID
  5
C84
330
9
100
AcDbSymbolTableRecord
100
AcDbRegAppTableRecord
  2
GENIUS_GENOREF_13
 70
     0
  0
APPID
  5
C85
330
9
100
AcDbSymbolTableRecord
100
AcDbRegAppTableRecord
  2
GENIUS_GENOLIS_13
 70
     0
  0
APPID
  5
CA0
330
9
100
AcDbSymbolTableRecord
100
AcDbRegAppTableRecord
  2
GENIUS_GENOBJ-N-CEN_13
 70
     0
  0
APPID
  5
1CFA
330
9
100
AcDbSymbolTableRecord
100
AcDbRegAppTableRecord
  2
GENIUS_GENFIL_13
 70
     0
  0
APPID
  5
1CFB
330
9
100
AcDbSymbolTableRecord
100
AcDbRegAppTableRecord
  2
GENIUS_GENOBJ-N-CHA_13
 70
     0
  0
ENDTAB
  0
TABLE
  2
DIMSTYLE
  5
A
330
0
100
AcDbSymbolTable
 70
     9
  0
DIMSTYLE
105
58
330
A
100
AcDbSymbolTableRecord
100
AcDbDimStyleTableRecord
  2
AM_JIS
 70
     0
  3

  4
"
  5
OPEN30
  6

  7

 40
0.5
 41
2.5
 42
1.0
 43
12.0
 44
1.0
 45
0.0
 46
0.0
 47
0.1
 48
0.1
140
3.2
141
0.0
142
0.0
143
0.0393701
144
1.0
145
0.0
146
0.71
147
1.5
 71
     0
 72
     0
 73
     0
 74
     0
 75
     0
 76
     0
 77
     3
 78
     8
170
     0
171
     2
172
     1
173
     0
174
     0
175
     0
176
   256
177
   256
178
     2
270
     2
271
     3
272
     3
273
     2
274
     2
340
6B
275
     0
280
     0
281
     0
282
     0
283
     0
284
     0
285
     0
286
     0
287
     3
288
     0
  0
DIMSTYLE
105
5F
330
A
100
AcDbSymbolTableRecord
100
AcDbDimStyleTableRecord
  2
AM_JIS$3
 70
     0
  3

  4
"
  5
OPEN30
  6

  7

 40
0.5
 41
2.5
 42
1.0
 43
10.0
 44
1.0
 45
0.0
 46
0.0
 47
0.1
 48
0.1
140
3.2
141
0.0
142
0.0
143
0.0393701
144
1.0
145
0.0
146
0.71
147
1.5
 71
     0
 72
     0
 73
     0
 74
     1
 75
     0
 76
     0
 77
     3
 78
     8
170
     0
171
     2
172
     0
173
     0
174
     0
175
     0
176
   256
177
   256
178
     2
270
     2
271
     2
272
     3
273
     2
274
     2
340
6B
275
     0
280
     0
281
     0
282
     0
283
     0
284
     0
285
     0
286
     0
287
     0
288
     1
  0
DIMSTYLE
105
60
330
A
100
AcDbSymbolTableRecord
100
AcDbDimStyleTableRecord
  2
AM_JIS$4
 70
     0
  3

  4
"
  5
OPEN30
  6

  7

 40
0.5
 41
2.5
 42
1.0
 43
10.0
 44
1.0
 45
0.0
 46
0.0
 47
0.1
 48
0.1
140
3.2
141
0.0
142
0.0
143
0.0393701
144
1.0
145
0.0
146
0.71
147
1.5
 71
     0
 72
     0
 73
     0
 74
     1
 75
     0
 76
     0
 77
     3
 78
     8
170
     0
171
     2
172
     0
173
     0
174
     0
175
     0
176
   256
177
   256
178
     2
270
     2
271
     2
272
     3
273
     2
274
     2
340
6B
275
     0
280
     0
281
     0
282
     0
283
     0
284
     0
285
     0
286
     0
287
     0
288
     1
  0
DIMSTYLE
105
61
330
A
100
AcDbSymbolTableRecord
100
AcDbDimStyleTableRecord
  2
AM_JIS$6
 70
     0
  3

  4
"
  5
OPEN30
  6

  7

 40
0.5
 41
2.5
 42
1.0
 43
10.0
 44
1.0
 45
0.0
 46
0.0
 47
0.1
 48
0.1
140
3.2
141
0.0
142
0.0
143
0.0393701
144
1.0
145
0.0
146
0.71
147
1.5
 71
     0
 72
     0
 73
     0
 74
     0
 75
     0
 76
     0
 77
     0
 78
     8
170
     0
171
     2
172
     1
173
     0
174
     0
175
     0
176
   256
177
   256
178
     2
270
     2
271
     2
272
     2
273
     2
274
     2
340
6B
275
     0
280
     0
281
     0
282
     0
283
     0
284
     0
285
     0
286
     0
287
     3
288
     0
  0
DIMSTYLE
105
62
330
A
100
AcDbSymbolTableRecord
100
AcDbDimStyleTableRecord
  2
AM_JIS$7
 70
     0
  3

  4
"
  5
OPEN30
  6

  7

 40
0.5
 41
2.5
 42
1.0
 43
10.0
 44
1.0
 45
0.0
 46
0.0
 47
0.1
 48
0.1
140
3.2
141
0.0
142
0.0
143
0.0393701
144
1.0
145
0.0
146
0.71
147
1.5
 71
     0
 72
     0
 73
     0
 74
     0
 75
     0
 76
     0
 77
     3
 78
     8
170
     0
171
     2
172
     1
173
     0
174
     0
175
     0
176
   256
177
   256
178
     2
270
     2
271
     2
272
     3
273
     2
274
     2
340
6B
275
     0
280
     0
281
     0
282
     0
283
     0
284
     0
285
     0
286
     0
287
     3
288
     0
  0
DIMSTYLE
105
63
330
A
100
AcDbSymbolTableRecord
100
AcDbDimStyleTableRecord
  2
AM_JIS$SF
 70
     0
  3

  4
"
  5
OPEN30
  6

  7

 40
0.5
 41
2.5
 42
1.0
 43
10.0
 44
1.0
 45
0.0
 46
0.0
 47
0.1
 48
0.1
140
3.2
141
0.0
142
0.0
143
0.0393701
144
1.0
145
0.0
146
0.71
147
1.5
 71
     0
 72
     0
 73
     0
 74
     0
 75
     1
 76
     1
 77
     3
 78
     8
170
     0
171
     2
172
     1
173
     0
174
     0
175
     0
176
   256
177
   256
178
     2
270
     2
271
     2
272
     2
273
     2
274
     2
340
6B
275
     0
280
     0
281
     0
282
     0
283
     0
284
     0
285
     0
286
     0
287
     3
288
     0
  0
DIMSTYLE
105
68
330
A
100
AcDbSymbolTableRecord
100
AcDbDimStyleTableRecord
  2
AM_JIS$SH
 70
     0
  3

  4
"
  5

  6
GENAXEH
  7
OPEN30
 40
0.5
 41
2.5
 42
1.0
 43
10.0
 44
1.0
 45
0.0
 46
0.0
 47
0.1
 48
0.1
140
3.2
141
0.0
142
0.0
143
0.0393701
144
2.0
145
0.0
146
0.71
147
1.5
 71
     0
 72
     0
 73
     0
 74
     0
 75
     1
 76
     1
 77
     3
 78
     8
170
     0
171
     2
172
     1
173
     1
174
     0
175
     0
176
   256
177
   256
178
     2
270
     2
271
     2
272
     2
273
     2
274
     2
340
6B
275
     0
280
     0
281
     0
282
     0
283
     0
284
     0
285
     0
286
     0
287
     3
288
     0
  0
DIMSTYLE
105
B34
102
{ACAD_REACTORS
330
260B
102
}
330
A
100
AcDbSymbolTableRecord
100
AcDbDimStyleTableRecord
  2
AM_JIS$2
 70
     0
  3

  4
"
  5
OPEN30
  6

  7

 40
0.5
 41
2.5
 42
1.0
 43
12.0
 44
1.0
 45
0.0
 46
0.0
 47
0.1
 48
0.1
140
3.2
141
0.0
142
0.0
143
0.0393701
144
1.0
145
0.0
146
0.71
147
1.5
 71
     0
 72
     0
 73
     0
 74
     0
 75
     0
 76
     0
 77
     3
 78
     8
170
     0
171
     2
172
     1
173
     0
174
     0
175
     0
176
   256
177
   256
178
     2
270
     2
271
     3
272
     3
273
     2
274
     2
340
6B
275
     0
280
     0
281
     0
282
     0
283
     0
284
     0
285
     0
286
     0
287
     3
288
     0
  0
DIMSTYLE
105
BA5
102
{ACAD_REACTORS
330
CC6
330
DF5
330
218E
330
245D
102
}
330
A
100
AcDbSymbolTableRecord
100
AcDbDimStyleTableRecord
  2
AM_JIS$0
 70
     0
  3

  4
"
  5
OPEN30
  6

  7

 40
0.5
 41
2.5
 42
0.0
 43
10.0
 44
1.0
 45
0.0
 46
0.0
 47
0.1
 48
0.1000000001
140
3.799999999999999
141
0.0
142
0.0
143
0.0393701
144
1.0
145
0.0
146
0.71
147
1.5
 71
     0
 72
     0
 73
     0
 74
     0
 75
     0
 76
     0
 77
     3
 78
     1
170
     0
171
     2
172
     1
173
     0
174
     0
175
     0
176
     3
177
     3
178
     2
270
     2
271
     2
272
     2
273
     2
274
     2
340
11
275
     1
280
     0
281
     0
282
     0
283
     0
284
     8
285
     0
286
     0
287
     0
288
     0
  0
ENDTAB
  0
TABLE
  2
BLOCK_RECORD
  5
1
330
0
100
AcDbSymbolTable
 70
    10
  0
BLOCK_RECORD
  5
1F
102
{ACAD_XDICTIONARY
360
74
102
}
330
1
100
AcDbSymbolTableRecord
100
AcDbBlockTableRecord
  2
*MODEL_SPACE
  0
BLOCK_RECORD
  5
101
102
{ACAD_XDICTIONARY
360
2A60
102
}
330
1
100
AcDbSymbolTableRecord
100
AcDbBlockTableRecord
  2
*PAPER_SPACE
  0
BLOCK_RECORD
  5
59
330
1
100
AcDbSymbolTableRecord
100
AcDbBlockTableRecord
  2
_OPEN30
  0
BLOCK_RECORD
  5
64
330
1
100
AcDbSymbolTableRecord
100
AcDbBlockTableRecord
  2
GENAXEH
  0
BLOCK_RECORD
  5
CC8
330
1
100
AcDbSymbolTableRecord
100
AcDbBlockTableRecord
  2
*D5
  0
BLOCK_RECORD
  5
DF6
330
1
100
AcDbSymbolTableRecord
100
AcDbBlockTableRecord
  2
*D6
  0
BLOCK_RECORD
  5
218F
330
1
100
AcDbSymbolTableRecord
100
AcDbBlockTableRecord
  2
*D7
  0
BLOCK_RECORD
  5
245E
330
1
100
AcDbSymbolTableRecord
100
AcDbBlockTableRecord
  2
*D8
  0
BLOCK_RECORD
  5
260C
330
1
100
AcDbSymbolTableRecord
100
AcDbBlockTableRecord
  2
*D9
  0
ENDTAB
  0
ENDSEC
  0
SECTION
  2
BLOCKS
  0
BLOCK
  5
20
330
1F
100
AcDbEntity
  8
0
100
AcDbBlockBegin
  2
*MODEL_SPACE
 70
     0
 10
0.0
 20
0.0
 30
0.0
  3
*MODEL_SPACE
  1

  0
ENDBLK
  5
21
330
1F
100
AcDbEntity
  8
0
100
AcDbBlockEnd
  0
BLOCK
  5
103
330
101
100
AcDbEntity
 67
     1
  8
0
100
AcDbBlockBegin
  2
*PAPER_SPACE
 70
     0
 10
0.0
 20
0.0
 30
0.0
  3
*PAPER_SPACE
  1

  0
ENDBLK
  5
104
330
101
100
AcDbEntity
 67
     1
  8
0
100
AcDbBlockEnd
  0
BLOCK
  5
5D
330
59
100
AcDbEntity
  8
0
100
AcDbBlockBegin
  2
_OPEN30
 70
     0
 10
0.0
 20
0.0
 30
0.0
  3
_OPEN30
  1

  0
LINE
  5
5A
330
59
100
AcDbEntity
  8
0
 62
     0
100
AcDbLine
 10
-1.0
 20
0.26794919
 30
0.0
 11
0.0
 21
0.0
 31
0.0
  0
LINE
  5
5B
330
59
100
AcDbEntity
  8
0
 62
     0
100
AcDbLine
 10
0.0
 20
0.0
 30
0.0
 11
-1.0
 21
-0.26794919
 31
0.0
  0
LINE
  5
5C
330
59
100
AcDbEntity
  8
0
 62
     0
100
AcDbLine
 10
0.0
 20
0.0
 30
0.0
 11
-1.0
 21
0.0
 31
0.0
  0
ENDBLK
  5
5E
330
59
100
AcDbEntity
  8
0
100
AcDbBlockEnd
  0
BLOCK
  5
66
330
64
100
AcDbEntity
  8
0
100
AcDbBlockBegin
  2
GENAXEH
 70
     0
 10
0.0
 20
0.0
 30
0.0
  3
GENAXEH
  1

  0
LINE
  5
65
330
64
100
AcDbEntity
  8
0
100
AcDbLine
 10
-1.0
 20
0.0
 30
0.0
 11
1.0
 21
0.0
 31
0.0
  0
ENDBLK
  5
67
330
64
100
AcDbEntity
  8
0
100
AcDbBlockEnd
  0
BLOCK
  5
CD2
330
CC8
100
AcDbEntity
  8
0
100
AcDbBlockBegin
  2
*D5
 70
     1
 10
0.0
 20
0.0
 30
0.0
  3
*D5
  1

  0
LINE
  5
29E1
330
CC8
100
AcDbEntity
  8
AM_5
 62
     3
100
AcDbLine
 10
-80.99999999999992
 20
-2.352702618522132
 30
0.0
 11
-80.99999999999992
 21
-15.00000099999994
 31
0.0
  0
LINE
  5
29E2
330
CC8
100
AcDbEntity
  8
AM_5
 62
     3
100
AcDbLine
 10
-0.9999999999998978
 20
-2.050000375134245
 30
0.0
 11
-0.9999999999998985
 21
-15.00000099999995
 31
0.0
  0
LINE
  5
29E3
330
CC8
100
AcDbEntity
  8
AM_5
 62
     3
100
AcDbLine
 10
-79.74999999999991
 20
-14.50000099999995
 30
0.0
 11
-2.249999999999898
 21
-14.50000099999995
 31
0.0
  0
INSERT
  5
29E4
330
CC8
100
AcDbEntity
  8
AM_5
 62
     3
100
AcDbBlockReference
  2
_OPEN30
 10
-80.99999999999992
 20
-14.50000099999995
 30
0.0
 41
1.25
 42
1.25
 43
1.25
 50
180.0
  0
INSERT
  5
29E5
330
CC8
100
AcDbEntity
  8
AM_5
 62
     3
100
AcDbBlockReference
  2
_OPEN30
 10
-0.9999999999998985
 20
-14.50000099999995
 30
0.0
 41
1.25
 42
1.25
 43
1.25
  0
MTEXT
  5
29E6
330
CC8
100
AcDbEntity
  8
AM_5
 62
     2
100
AcDbMText
 10
-40.9999999999999
 20
-12.80000099999995
 30
0.0
 40
1.9
 41
0.0
 71
     5
 72
     1
  1
80
1001
ACAD
1000
MTEXTBEGIN
1070
    73
1070
     1
1070
    44
1040
1.0
1070
    74
1070
     0
1000
MTEXTEND
  0
POINT
  5
29E7
330
CC8
100
AcDbEntity
  8
DEFPOINTS
 62
     0
100
AcDbPoint
 10
-80.99999999999992
 20
-2.352702618522132
 30
0.0
  0
POINT
  5
29E8
330
CC8
100
AcDbEntity
  8
DEFPOINTS
 62
     0
100
AcDbPoint
 10
-0.9999999999998978
 20
-2.050000375134245
 30
0.0
  0
POINT
  5
29E9
330
CC8
100
AcDbEntity
  8
DEFPOINTS
 62
     0
100
AcDbPoint
 10
-0.9999999999998985
 20
-14.50000099999995
 30
0.0
  0
ENDBLK
  5
CD3
330
CC8
100
AcDbEntity
  8
0
100
AcDbBlockEnd
  0
BLOCK
  5
E00
330
DF6
100
AcDbEntity
  8
0
100
AcDbBlockBegin
  2
*D6
 70
     1
 10
0.0
 20
0.0
 30
0.0
  3
*D6
  1

  0
LINE
  5
2A0B
330
DF6
100
AcDbEntity
  8
AM_5
 62
     3
100
AcDbLine
 10
-30.99999999999991
 20
-2.500000000000035
 30
0.0
 11
-30.99999999999991
 21
-10.00000099999991
 31
0.0
  0
LINE
  5
2A0C
330
DF6
100
AcDbEntity
  8
AM_5
 62
     3
100
AcDbLine
 10
-0.9999999999998978
 20
-2.050000375134245
 30
0.0
 11
-0.9999999999998983
 21
-10.00000099999991
 31
0.0
  0
LINE
  5
2A0D
330
DF6
100
AcDbEntity
  8
AM_5
 62
     3
100
AcDbLine
 10
-29.74999999999991
 20
-9.500000999999915
 30
0.0
 11
-2.249999999999898
 21
-9.500000999999915
 31
0.0
  0
INSERT
  5
2A0E
330
DF6
100
AcDbEntity
  8
AM_5
 62
     3
100
AcDbBlockReference
  2
_OPEN30
 10
-30.99999999999991
 20
-9.500000999999915
 30
0.0
 41
1.25
 42
1.25
 43
1.25
 50
180.0
  0
INSERT
  5
2A0F
330
DF6
100
AcDbEntity
  8
AM_5
 62
     3
100
AcDbBlockReference
  2
_OPEN30
 10
-0.9999999999998983
 20
-9.500000999999915
 30
0.0
 41
1.25
 42
1.25
 43
1.25
  0
MTEXT
  5
2A10
330
DF6
100
AcDbEntity
  8
AM_5
 62
     2
100
AcDbMText
 10
-15.9999999999999
 20
-7.800000999999915
 30
0.0
 40
1.9
 41
0.0
 71
     5
 72
     1
  1
30
1001
ACAD
1000
MTEXTBEGIN
1070
    73
1070
     1
1070
    44
1040
1.0
1070
    74
1070
     0
1000
MTEXTEND
  0
POINT
  5
2A11
330
DF6
100
AcDbEntity
  8
DEFPOINTS
 62
     0
100
AcDbPoint
 10
-30.99999999999991
 20
-2.500000000000035
 30
0.0
  0
POINT
  5
2A12
330
DF6
100
AcDbEntity
  8
DEFPOINTS
 62
     0
100
AcDbPoint
 10
-0.9999999999998978
 20
-2.050000375134245
 30
0.0
  0
POINT
  5
2A13
330
DF6
100
AcDbEntity
  8
DEFPOINTS
 62
     0
100
AcDbPoint
 10
-0.9999999999998983
 20
-9.500000999999915
 30
0.0
  0
ENDBLK
  5
E01
330
DF6
100
AcDbEntity
  8
0
100
AcDbBlockEnd
  0
BLOCK
  5
219B
330
218F
100
AcDbEntity
  8
0
100
AcDbBlockBegin
  2
*D7
 70
     1
 10
0.0
 20
0.0
 30
0.0
  3
*D7
  1

  0
LINE
  5
29EA
330
218F
100
AcDbEntity
  8
AM_5
 62
     3
100
AcDbLine
 10
-80.74999999999988
 20
2.499999999999766
 30
0.0
 11
-89.75000099999988
 21
2.499999999999749
 31
0.0
  0
LINE
  5
29EB
330
218F
100
AcDbEntity
  8
AM_5
 62
     3
100
AcDbLine
 10
-80.7499999999997
 20
-2.500000000000233
 30
0.0
 11
-89.75000099999988
 21
-2.50000000000025
 31
0.0
  0
LINE
  5
29EC
330
218F
100
AcDbEntity
  8
AM_5
 62
     3
100
AcDbLine
 10
-89.25000099999989
 20
3.749999999999749
 30
0.0
 11
-89.25000099999989
 21
4.99999999999975
 31
0.0
  0
LINE
  5
29ED
330
218F
100
AcDbEntity
  8
AM_5
 62
     3
100
AcDbLine
 10
-89.25000099999987
 20
-3.75000000000025
 30
0.0
 11
-89.25000099999987
 21
-5.000000000000249
 31
0.0
  0
LINE
  5
29EE
330
218F
100
AcDbEntity
  8
AM_5
 62
     3
100
AcDbLine
 10
-89.25000099999989
 20
2.499999999999749
 30
0.0
 11
-89.25000099999989
 21
-2.50000000000025
 31
0.0
  0
INSERT
  5
29EF
330
218F
100
AcDbEntity
  8
AM_5
 62
     3
100
AcDbBlockReference
  2
_OPEN30
 10
-89.25000099999989
 20
2.499999999999749
 30
0.0
 41
1.25
 42
1.25
 43
1.25
 50
270.0000000000001
  0
INSERT
  5
29F0
330
218F
100
AcDbEntity
  8
AM_5
 62
     3
100
AcDbBlockReference
  2
_OPEN30
 10
-89.25000099999989
 20
-2.50000000000025
 30
0.0
 41
1.25
 42
1.25
 43
1.25
 50
90.0000000000001
  0
MTEXT
  5
29F1
330
218F
100
AcDbEntity
  8
AM_5
 62
     2
100
AcDbMText
 10
-90.95000099999989
 20
-0.0000000000002428
 30
0.0
 40
1.9
 41
0.0
 71
     5
 72
     1
  1
%%c5
 11
-0.000000000000002
 21
1.0
 31
0.0
1001
ACAD
1000
MTEXTBEGIN
1070
    73
1070
     1
1070
    44
1040
1.0
1070
    74
1070
     0
1000
MTEXTEND
  0
POINT
  5
29F2
330
218F
100
AcDbEntity
  8
DEFPOINTS
 62
     0
100
AcDbPoint
 10
-80.74999999999988
 20
2.499999999999945
 30
0.0
  0
POINT
  5
29F3
330
218F
100
AcDbEntity
  8
DEFPOINTS
 62
     0
100
AcDbPoint
 10
-80.7499999999997
 20
-2.500000000000054
 30
0.0
  0
POINT
  5
29F4
330
218F
100
AcDbEntity
  8
DEFPOINTS
 62
     0
100
AcDbPoint
 10
-89.25000099999989
 20
-2.500000000000051
 30
0.0
  0
ENDBLK
  5
219C
330
218F
100
AcDbEntity
  8
0
100
AcDbBlockEnd
  0
BLOCK
  5
246A
330
245E
100
AcDbEntity
  8
0
100
AcDbBlockBegin
  2
*D8
 70
     1
 10
0.0
 20
0.0
 30
0.0
  3
*D8
  1

  0
LINE
  5
2A00
330
245E
100
AcDbEntity
  8
AM_5
 62
     3
100
AcDbLine
 10
-0.9999999999999385
 20
-2.049999624865755
 30
0.0
 11
8.704574799195889
 21
-2.049999624865757
 31
0.0
  0
LINE
  5
2A01
330
245E
100
AcDbEntity
  8
AM_5
 62
     3
100
AcDbLine
 10
-0.9999999999999005
 20
2.050000375134243
 30
0.0
 11
8.704574799195889
 21
2.050000375134241
 31
0.0
  0
LINE
  5
2A02
330
245E
100
AcDbEntity
  8
AM_5
 62
     3
100
AcDbLine
 10
8.204574799195889
 20
-3.299999624865757
 30
0.0
 11
8.204574799195887
 21
-4.549999624865757
 31
0.0
  0
LINE
  5
2A03
330
245E
100
AcDbEntity
  8
AM_5
 62
     3
100
AcDbLine
 10
8.204574799195889
 20
3.300000375134241
 30
0.0
 11
8.20457479919589
 21
10.93571466084852
 31
0.0
  0
LINE
  5
2A04
330
245E
100
AcDbEntity
  8
AM_5
 62
     3
100
AcDbLine
 10
8.204574799195889
 20
-2.049999624865757
 30
0.0
 11
8.204574799195889
 21
2.050000375134241
 31
0.0
  0
INSERT
  5
2A05
330
245E
100
AcDbEntity
  8
AM_5
 62
     3
100
AcDbBlockReference
  2
_OPEN30
 10
8.204574799195889
 20
-2.049999624865757
 30
0.0
 41
1.25
 42
1.25
 43
1.25
 50
90.0
  0
INSERT
  5
2A06
330
245E
100
AcDbEntity
  8
AM_5
 62
     3
100
AcDbBlockReference
  2
_OPEN30
 10
8.204574799195889
 20
2.050000375134241
 30
0.0
 41
1.25
 42
1.25
 43
1.25
 50
270.0
  0
MTEXT
  5
2A07
330
245E
100
AcDbEntity
  8
AM_5
 62
     2
100
AcDbMText
 10
6.504574799195889
 20
7.742857517991386
 30
0.0
 40
1.9
 41
0.0
 71
     5
 72
     1
  1
%%c4.1
 11
0.0000000000000001
 21
1.0
 31
0.0
1001
ACAD
1000
MTEXTBEGIN
1070
    73
1070
     1
1070
    44
1040
1.0
1070
    74
1070
     0
1000
MTEXTEND
  0
POINT
  5
2A08
330
245E
100
AcDbEntity
  8
DEFPOINTS
 62
     0
100
AcDbPoint
 10
-0.9999999999999385
 20
-2.049999624865755
 30
0.0
  0
POINT
  5
2A09
330
245E
100
AcDbEntity
  8
DEFPOINTS
 62
     0
100
AcDbPoint
 10
-0.9999999999999005
 20
2.050000375134243
 30
0.0
  0
POINT
  5
2A0A
330
245E
100
AcDbEntity
  8
DEFPOINTS
 62
     0
100
AcDbPoint
 10
8.204574799195889
 20
2.050000375134241
 30
0.0
  0
ENDBLK
  5
246B
330
245E
100
AcDbEntity
  8
0
100
AcDbBlockEnd
  0
BLOCK
  5
261C
330
260C
100
AcDbEntity
  8
0
100
AcDbBlockBegin
  2
*D9
 70
     1
 10
0.0
 20
0.0
 30
0.0
  3
*D9
  1

  0
LINE
  5
29F5
330
260C
100
AcDbEntity
  8
AM_5
100
AcDbLine
 10
0.1710100704081408
 20
-0.4698463108496862
 30
0.0
 11
5.422109646484566
 21
-14.89712394330939
 31
0.0
  0
LINE
  5
29F6
330
260C
100
AcDbEntity
  8
AM_5
100
AcDbLine
 10
0.1710113367807697
 20
0.4698458499257564
 30
0.0
 11
5.422149798571753
 21
14.89710932908359
 31
0.0
  0
ARC
  5
29F7
330
260C
100
AcDbEntity
  8
AM_5
100
AcDbCircle
 10
0.0000000000000699
 20
-0.0000000000000265
 30
0.0
 40
15.353188158879
100
AcDbArc
 50
294.6661004141936
 51
65.33374515691979
  0
INSERT
  5
29F8
330
260C
100
AcDbEntity
  8
AM_5
100
AcDbBlockReference
  2
_OPEN30
 10
5.251099576076498
 20
-14.42727763245973
 30
0.0
 41
1.25
 42
1.25
 43
1.25
 50
202.33305013059
  0
INSERT
  5
29F9
330
260C
100
AcDbEntity
  8
AM_5
100
AcDbBlockReference
  2
_OPEN30
 10
5.251138461791055
 20
14.42726347915781
 30
0.0
 41
1.25
 42
1.25
 43
1.25
 50
157.6667954405233
  0
MTEXT
  5
29FA
330
260C
100
AcDbEntity
  8
AM_5
 62
     2
100
AcDbMText
 10
13.80318815886653
 20
-0.0000186018149914
 30
0.0
 40
1.6
 41
0.0
 71
     5
 72
     1
  1
140°
  7
ASAMI
 11
0.0000013476462646
 21
0.9999999999990919
 31
0.0
1001
ACAD
1000
MTEXTBEGIN
1070
    73
1070
     1
1070
    44
1040
1.0
1070
    74
1070
     0
1000
MTEXTEND
  0
POINT
  5
29FB
330
260C
100
AcDbEntity
  8
DEFPOINTS
 62
     0
100
AcDbPoint
 10
14.09753919059091
 20
-6.081099852140065
 30
0.0
  0
POINT
  5
29FC
330
260C
100
AcDbEntity
  8
DEFPOINTS
 62
     0
100
AcDbPoint
 10
0.000000000000071
 20
-0.0000000000000234
 30
0.0
  0
POINT
  5
29FD
330
260C
100
AcDbEntity
  8
DEFPOINTS
 62
     0
100
AcDbPoint
 10
0.0000000000000727
 20
-0.0000000000000344
 30
0.0
  0
POINT
  5
29FE
330
260C
100
AcDbEntity
  8
DEFPOINTS
 62
     0
100
AcDbPoint
 10
-0.2203534757973607
 20
0.6054162040824024
 30
0.0
  0
POINT
  5
29FF
330
260C
100
AcDbEntity
  8
DEFPOINTS
 62
     0
100
AcDbPoint
 10
-0.2203570834776433
 20
-0.6054210388784097
 30
0.0
  0
ENDBLK
  5
261D
330
260C
100
AcDbEntity
  8
0
100
AcDbBlockEnd
  0
ENDSEC
  0
SECTION
  2
ENTITIES
  0
LINE
  5
C1D
330
1F
100
AcDbEntity
  8
AM_0
 48
0.5
100
AcDbLine
 10
0.0000000000000727
 20
-0.0000000000000344
 30
0.0
 11
-0.2203534757973608
 21
0.6054162040824024
 31
0.0
  0
LINE
  5
C20
330
1F
100
AcDbEntity
  8
AM_0
 48
0.5
100
AcDbLine
 10
0.000000000000071
 20
-0.0000000000000234
 30
0.0
 11
-0.2203570834776434
 21
-0.6054210388784098
 31
0.0
  0
LINE
  5
C30
330
1F
100
AcDbEntity
  8
AM_0
 48
0.5
100
AcDbLine
 10
-80.99999999999992
 20
-2.250000000000054
 30
0.0
 11
-80.99999999999988
 21
2.249999999999945
 31
0.0
  0
LINE
  5
C9F
330
1F
100
AcDbEntity
  8
AM_7
100
AcDbLine
 10
-82.2499999999999
 20
-0.0000000000000553
 30
0.0
 11
1.204573799195893
 21
0.0000000000000008
 31
0.0
1001
GENIUS_GENODEF_13
1002
{
1000
HIER
1070
     0
1002
}
1002
{
1000
MANEDIT
1070
     0
1002
}
1002
{
1000
NOSEL
1070
     0
1002
}
1002
{
1000
BEHIND
1070
     0
1002
}
1002
{
1000
REACTOR
1002
}
1001
GENIUS_GENOBJ-N-CEN_13
1002
{
1000
OWNER
1000
GEN
1002
}
  0
DIMENSION
  5
CC6
330
1F
100
AcDbEntity
  8
AM_5
100
AcDbDimension
  2
*D5
 10
-0.9999999999998985
 20
-14.50000099999995
 30
0.0
 11
-40.9999999999999
 21
-12.80000099999995
 31
0.0
 70
    32
  1
<>
  3
AM_JIS$0
100
AcDbAlignedDimension
 13
-80.99999999999992
 23
-2.352702618522132
 33
0.0
 14
-0.9999999999998978
 24
-2.050000375134245
 34
0.0
 50
0.0000000000001132
100
AcDbRotatedDimension
1001
GENIUS_GENDTOL_13
1000

1000
h7
1000

1040
0.0
1001
ACAD
1000
DSTYLE
1002
{
1070
   271
1070
     0
1002
}
  0
DIMENSION
  5
DF5
330
1F
100
AcDbEntity
  8
AM_5
100
AcDbDimension
  2
*D6
 10
-0.9999999999998983
 20
-9.500000999999915
 30
0.0
 11
-15.9999999999999
 21
-7.800000999999915
 31
0.0
 70
    32
  1
<>
  3
AM_JIS$0
100
AcDbAlignedDimension
 13
-30.99999999999991
 23
-2.500000000000035
 33
0.0
 14
-0.9999999999998978
 24
-2.050000375134245
 34
0.0
 50
0.0000000000001527
100
AcDbRotatedDimension
1001
GENIUS_GENDTOL_13
1000

1000
h7
1000

1040
0.0
1001
ACAD
1000
DSTYLE
1002
{
1070
   271
1070
     0
1002
}
  0
ARC
  5
144A
330
1F
100
AcDbEntity
  8
AM_11
 48
0.5
100
AcDbCircle
 10
-40.36613718668319
 20
-11.04241155161759
 30
0.0
 40
12.20908006032291
100
AcDbArc
 50
64.74833051131179
 51
115.2516644797366
  0
ARC
  5
144B
330
1F
100
AcDbEntity
  8
AM_11
 48
0.5
100
AcDbCircle
 10
-40.36613718668318
 20
11.0424190503924
 30
0.0
 40
12.20908006032291
100
AcDbArc
 50
244.7482808787518
 51
295.2516148471758
  0
ARC
  5
144E
330
1F
100
AcDbEntity
  8
AM_11
 48
0.5
100
AcDbCircle
 10
-29.94947052001652
 20
-11.04241155161759
 30
0.0
 40
12.20908006032291
100
AcDbArc
 50
64.74833051131179
 51
115.2516644797366
  0
ARC
  5
144F
330
1F
100
AcDbEntity
  8
AM_11
 48
0.5
100
AcDbCircle
 10
-29.94947052001652
 20
11.0424190503924
 30
0.0
 40
12.20908006032291
100
AcDbArc
 50
244.7482808787518
 51
295.2516148471758
  0
ARC
  5
1450
330
1F
100
AcDbEntity
  8
AM_11
 48
0.5
100
AcDbCircle
 10
-19.53280385335277
 20
11.0424190503924
 30
0.0
 40
12.20908006032291
100
AcDbArc
 50
244.7482808787518
 51
295.2516148471758
  0
ARC
  5
1451
330
1F
100
AcDbEntity
  8
AM_11
 48
0.5
100
AcDbCircle
 10
-19.53280385335277
 20
-11.04241155161759
 30
0.0
 40
12.20908006032291
100
AcDbArc
 50
64.74833051131179
 51
115.2516644797366
  0
ARC
  5
1452
330
1F
100
AcDbEntity
  8
AM_11
 48
0.5
100
AcDbCircle
 10
-9.116137186686112
 20
-11.04241155161759
 30
0.0
 40
12.20908006032291
100
AcDbArc
 50
64.74833051131179
 51
115.2516644797366
  0
ARC
  5
1453
330
1F
100
AcDbEntity
  8
AM_11
 48
0.5
100
AcDbCircle
 10
-9.116137186686112
 20
11.0424190503924
 30
0.0
 40
12.20908006032291
100
AcDbArc
 50
244.7482808787518
 51
295.2516148471758
  0
ARC
  5
1454
330
1F
100
AcDbEntity
  8
AM_11
 48
0.5
100
AcDbCircle
 10
1.300529479980567
 20
11.0424190503924
 30
0.0
 40
12.20908006032291
100
AcDbArc
 50
244.7482808787518
 51
254.0147302238188
  0
TEXT
  5
19BD
330
1F
100
AcDbEntity
  8
AM_6
100
AcDbText
 10
-52.01190476190464
 20
-25.75000099999998
 30
0.0
 40
2.5
  1
MDW041MHK
 50
0.0000000000001527
 72
     4
 11
-40.99999999999988
 21
-24.50000099999995
 31
0.0
100
AcDbText
  0
LINE
  5
1CF0
330
1F
100
AcDbEntity
  8
AM_0
100
AcDbLine
 10
-80.74999999999988
 20
2.499999999999945
 30
0.0
 11
-30.99999999999989
 21
2.499999999999963
 31
0.0
1001
GENIUS_GENODEF_13
1002
{
1000
HIER
1070
     0
1002
}
1002
{
1000
MANEDIT
1070
     0
1002
}
1002
{
1000
NOSEL
1070
     0
1002
}
1002
{
1000
BEHIND
1070
     0
1002
}
1002
{
1000
REACTOR
1002
}
1001
GENIUS_GENOBJ-N-CEN_13
1002
{
1000
OWNER
1000
GEN
1002
}
  0
LINE
  5
1CF4
330
1F
100
AcDbEntity
  8
AM_0
100
AcDbLine
 10
-80.74999999999992
 20
-2.500000000000054
 30
0.0
 11
-30.99999999999991
 21
-2.500000000000035
 31
0.0
1001
GENIUS_GENODEF_13
1002
{
1000
HIER
1070
     0
1002
}
1002
{
1000
MANEDIT
1070
     0
1002
}
1002
{
1000
NOSEL
1070
     0
1002
}
1002
{
1000
BEHIND
1070
     0
1002
}
1002
{
1000
REACTOR
1002
}
1001
GENIUS_GENOBJ-N-CEN_13
1002
{
1000
OWNER
1000
GEN
1002
}
  0
LINE
  5
1CFE
330
1F
100
AcDbEntity
  8
AM_0
100
AcDbLine
 10
-80.74999999999992
 20
-2.500000000000054
 30
0.0
 11
-80.7499999999999
 21
2.499999999999945
 31
0.0
  0
ARC
  5
1DAB
330
1F
100
AcDbEntity
  8
AM_11
 48
0.5
100
AcDbCircle
 10
-50.78278106749326
 20
-11.04241155161762
 30
0.0
 40
12.20908006032291
100
AcDbArc
 50
64.74833051131179
 51
115.2516644797366
  0
ARC
  5
1DAC
330
1F
100
AcDbEntity
  8
AM_11
 48
0.5
100
AcDbCircle
 10
-50.78278106749325
 20
11.04241905039237
 30
0.0
 40
12.20908006032291
100
AcDbArc
 50
244.7482808787518
 51
295.2516148471758
  0
ARC
  5
1DAD
330
1F
100
AcDbEntity
  8
AM_11
 48
0.5
100
AcDbCircle
 10
-61.19942494830334
 20
-11.04241155161765
 30
0.0
 40
12.20908006032291
100
AcDbArc
 50
64.74833051131179
 51
115.2516644797366
  0
ARC
  5
1DAE
330
1F
100
AcDbEntity
  8
AM_11
 48
0.5
100
AcDbCircle
 10
-61.19942494830333
 20
11.04241905039234
 30
0.0
 40
12.20908006032291
100
AcDbArc
 50
244.7482808787518
 51
295.2516148471758
  0
ARC
  5
1DAF
330
1F
100
AcDbEntity
  8
AM_11
 48
0.5
100
AcDbCircle
 10
-71.61606882911342
 20
-11.04241155161768
 30
0.0
 40
12.20908006032291
100
AcDbArc
 50
64.74833051131179
 51
115.2516644797366
  0
ARC
  5
1DB0
330
1F
100
AcDbEntity
  8
AM_11
 48
0.5
100
AcDbCircle
 10
-71.6160688291134
 20
11.04241905039231
 30
0.0
 40
12.20908006032291
100
AcDbArc
 50
244.7482808787518
 51
295.2516148471758
  0
LINE
  5
1EB2
330
1F
100
AcDbEntity
  8
AM_0
100
AcDbLine
 10
-80.99999999999988
 20
2.249999999999945
 30
0.0
 11
-80.74999999999988
 21
2.499999999999945
 31
0.0
1001
GENIUS_GENFIL_13
1070
     0
1040
0.25
1040
0.25
1040
20.0
1040
0.0
1002
{
1002
}
1001
GENIUS_GENODEF_13
1002
{
1000
HIER
1070
     0
1002
}
1002
{
1000
MANEDIT
1070
     0
1002
}
1002
{
1000
NOSEL
1070
     0
1002
}
1002
{
1000
BEHIND
1070
     0
1002
}
1002
{
1000
REACTOR
1002
}
1001
GENIUS_GENOBJ-N-CHA_13
1002
{
1000
OWNER
1000
GEN
1002
}
  0
LINE
  5
1EB5
330
1F
100
AcDbEntity
  8
AM_0
100
AcDbLine
 10
-80.99999999999992
 20
-2.250000000000054
 30
0.0
 11
-80.74999999999992
 21
-2.500000000000054
 31
0.0
1001
GENIUS_GENFIL_13
1070
     0
1040
0.25
1040
0.25
1040
20.0
1040
0.0
1002
{
1002
}
1001
GENIUS_GENODEF_13
1002
{
1000
HIER
1070
     0
1002
}
1002
{
1000
MANEDIT
1070
     0
1002
}
1002
{
1000
NOSEL
1070
     0
1002
}
1002
{
1000
BEHIND
1070
     0
1002
}
1002
{
1000
REACTOR
1002
}
1001
GENIUS_GENOBJ-N-CHA_13
1002
{
1000
OWNER
1000
GEN
1002
}
  0
ARC
  5
1EBF
330
1F
100
AcDbEntity
  8
AM_11
 48
0.5
100
AcDbCircle
 10
-82.03270196212006
 20
11.04241905039229
 30
0.0
 40
12.20908006032291
100
AcDbArc
 50
274.8521466974949
 51
295.2516148471758
  0
ARC
  5
1EC0
330
1F
100
AcDbEntity
  8
AM_11
 48
0.5
100
AcDbCircle
 10
-82.03270196212008
 20
-11.04241155161771
 30
0.0
 40
12.20908006032291
100
AcDbArc
 50
64.74833051131179
 51
85.14785330250502
  0
LINE
  5
1ED3
330
1F
100
AcDbEntity
  8
AM_0
 48
0.5
100
AcDbLine
 10
-30.99999999999992
 20
-2.49999999999998
 30
0.0
 11
-30.99999999999989
 21
2.500000000000019
 31
0.0
  0
LINE
  5
1FDE
330
1F
100
AcDbEntity
  8
AM_0
100
AcDbLine
 10
-30.99999999999992
 20
-2.49999999999998
 30
0.0
 11
-30.22057648684159
 21
-2.049999624865288
 31
0.0
  0
LINE
  5
1FDF
330
1F
100
AcDbEntity
  8
AM_0
100
AcDbLine
 10
-30.99999999999989
 20
2.500000000000019
 30
0.0
 11
-30.22057778634528
 21
2.050000375134171
 31
0.0
  0
DIMENSION
  5
218E
330
1F
100
AcDbEntity
  8
AM_5
100
AcDbDimension
  2
*D7
 10
-89.25000099999989
 20
-2.500000000000051
 30
0.0
 11
-89.25000099999989
 21
-0.0000000000000592
 31
0.0
 70
   160
  1
%%c<>
 51
359.9999999999998
  3
AM_JIS$0
100
AcDbAlignedDimension
 13
-80.74999999999988
 23
2.499999999999945
 33
0.0
 14
-80.7499999999997
 24
-2.500000000000054
 34
0.0
 50
270.0000000000001
100
AcDbRotatedDimension
1001
ACAD
1000
DSTYLE
1002
{
1070
   271
1070
     0
1002
}
1001
GENIUS_GENDTOL_13
1000

1000
h7
1000

1040
0.0
  0
DIMENSION
  5
245D
330
1F
100
AcDbEntity
  8
AM_5
100
AcDbDimension
  2
*D8
 10
8.204574799195889
 20
2.050000375134241
 30
0.0
 11
8.204574799195889
 21
7.742857517991385
 31
0.0
 70
   160
  1
%%c<>
  3
AM_JIS$0
100
AcDbAlignedDimension
 13
-0.9999999999999385
 23
-2.049999624865755
 33
0.0
 14
-0.9999999999999005
 24
2.050000375134243
 34
0.0
 50
89.99999999999955
100
AcDbRotatedDimension
1001
ACAD
1000
DSTYLE
1002
{
1070
   271
1070
     1
1002
}
1001
GENIUS_GENDTOL_13
1000

1000
h7
1000

1040
0.0
  0
ELLIPSE
  5
246E
330
1F
100
AcDbEntity
  8
AM_0
 48
0.5
100
AcDbEllipse
 10
-4.526953197740504
 20
3.899325999280996
 30
0.0
 11
6.565556832463073
 21
0.0001788287698801
 31
0.0
210
0.0
220
0.0
230
1.0
 40
0.8199978845351122
 41
-0.9323973194104432
 42
-0.8100198008015663
  0
LINE
  5
246F
330
1F
100
AcDbEntity
  8
AM_0
 48
0.5
100
AcDbLine
 10
0.0000000000000652
 20
-0.0000000000000394
 30
0.0
 11
-1.326334064583663
 21
0.7871381060504201
 31
0.0
  0
LINE
  5
2470
330
1F
100
AcDbEntity
  8
AM_0
 48
0.5
100
AcDbLine
 10
-0.8204763147684905
 20
1.778250638941667
 30
0.0
 11
-0.9999999999999005
 21
2.050000375134243
 31
0.0
  0
LINE
  5
2471
330
1F
100
AcDbEntity
  8
AM_0
 48
0.5
100
AcDbLine
 10
-2.564712361648979
 20
2.050000375134256
 30
0.0
 11
-0.9999999999999005
 21
2.050000375134243
 31
0.0
  0
LINE
  5
2472
330
1F
100
AcDbEntity
  8
AM_11
 48
0.5
100
AcDbLine
 10
-10.28621292114239
 20
2.050000375134327
 30
0.0
 11
-2.349163055419898
 21
2.050000375134256
 31
0.0
  0
LINE
  5
2474
330
1F
100
AcDbEntity
  8
AM_0
 48
0.5
100
AcDbLine
 10
-2.564717635138444
 20
-2.049999624865742
 30
0.0
 11
-0.9999999999999005
 21
-2.049999624865755
 31
0.0
  0
LINE
  5
2475
330
1F
100
AcDbEntity
  8
AM_11
 48
0.5
100
AcDbLine
 10
-10.28621292114243
 20
-2.049999624865672
 30
0.0
 11
-2.564717635138444
 21
-2.049999624865742
 31
0.0
  0
ELLIPSE
  5
247F
330
1F
100
AcDbEntity
  8
AM_0
 48
0.5
100
AcDbEllipse
 10
2.495680491129666
 20
-0.4556863848143912
 30
0.0
 11
-4.000001766291674
 21
0.0000437166678881
 31
0.0
210
0.0
220
0.0
230
0.9999999999999998
 40
0.8200075155898275
 41
0.1271946033161433
 42
0.5075963745796637
  0
ELLIPSE
  5
2480
330
1F
100
AcDbEntity
  8
AM_0
 48
0.5
100
AcDbEllipse
 10
2.593069485254159
 20
-8.987260583694578
 30
0.0
 11
6.418210353712835
 21
6.418210353712834
 31
0.0
210
0.0
220
0.0
230
1.0
 40
0.9999999999999962
 41
1.189053017004392
 42
1.249766031468917
  0
ELLIPSE
  5
2481
330
1F
100
AcDbEntity
  8
AM_0
 48
0.5
100
AcDbEllipse
 10
1.505849202474288
 20
2.461151498181086
 30
0.0
 11
-5.596799290740313
 21
1.183579968552885
 31
0.0
210
0.0
220
0.0
230
0.9999999999999998
 40
0.7355618711144766
 41
0.7896705216902529
 42
1.171524721540429
  0
ELLIPSE
  5
248E
330
1F
100
AcDbEntity
  8
AM_0
 48
0.5
100
AcDbEllipse
 10
-0.7894958768569564
 20
-0.5342591349061991
 30
0.0
 11
-0.0853410758302545
 21
0.3338853951268097
 31
0.0
210
0.0
220
0.0
230
1.0
 40
0.5993469366399342
 41
1.741785430751166
 42
4.87712732046314
  0
ELLIPSE
  5
248F
330
1F
100
AcDbEntity
  8
AM_0
 48
0.5
100
AcDbEllipse
 10
-0.7894958768569564
 20
-0.5342591349061991
 30
0.0
 11
-0.3691698774954726
 21
0.1558614778160901
 31
0.0
210
0.0
220
0.0
230
1.0
 40
0.4432757268593173
 41
4.387810812811864
 42
7.531251154141374
  0
SPLINE
  5
2493
330
1F
100
AcDbEntity
  8
AM_0
 48
0.5
100
AcDbSpline
210
0.0
220
0.0
230
1.0
 70
     8
 71
     3
 72
    10
 73
     6
 74
     0
 42
0.0000000001
 43
0.0000000001
 40
0.0
 40
0.0
 40
0.0
 40
0.0
 40
2.69986029516136
 40
4.147722969032201
 40
6.285750005020438
 40
6.285750005020438
 40
6.285750005020438
 40
6.285750005020438
 10
-3.052970457218521
 20
0.371063750068064
 30
0.0
 10
-2.540610149151465
 20
0.1805802816682812
 30
0.0
 10
-2.079913228781351
 20
-0.112017027707696
 30
0.0
 10
-0.9904268986371976
 20
0.0296344556336305
 30
0.0
 10
-1.195608864267046
 20
0.5067353948083323
 30
0.0
 10
-1.33117999754224
 20
0.797543111548734
 30
0.0
  0
ELLIPSE
  5
249A
330
1F
100
AcDbEntity
  8
AM_0
 48
0.5
100
AcDbEllipse
 10
3.523070560951273
 20
2.657755208328008
 30
0.0
 11
4.371574835756645
 21
0.7378633995847778
 31
0.0
210
0.0
220
0.0
230
1.0
 40
0.7605565264725771
 41
3.184410165628205
 42
3.569980850929193
  0
LINE
  5
24A9
330
1F
100
AcDbEntity
  8
AM_0
100
AcDbLine
 10
-30.22057648684251
 20
-2.049999624865826
 30
0.0
 11
-30.22057778634715
 21
2.050000375134173
 31
0.0
  0
ELLIPSE
  5
25FC
330
1F
100
AcDbEntity
  8
AM_0
 48
0.5
100
AcDbEllipse
 10
3.523070560951277
 20
-2.657755208328004
 30
0.0
 11
4.371574835756646
 21
-0.7378633995847719
 31
0.0
210
0.0
220
0.0
230
-1.0
 40
0.7605565264725771
 41
3.184410165628205
 42
3.569980850929193
  0
LINE
  5
25FD
330
1F
100
AcDbEntity
  8
AM_0
 48
0.5
100
AcDbLine
 10
-0.8204763147684881
 20
-1.778250638941668
 30
0.0
 11
-0.9999999999998978
 21
-2.050000375134245
 31
0.0
  0
DIMENSION
  5
260B
330
1F
100
AcDbEntity
  8
AM_5
100
AcDbDimension
  2
*D9
 10
-0.2203570834776434
 20
-0.6054210388784098
 30
0.0
 11
13.80318815886653
 21
-0.0000186018150216
 31
0.0
 70
    34
  1
<>
 51
359.9999999999998
  3
AM_JIS$2
100
AcDb2LineAngularDimension
 13
0.0000000000000727
 23
-0.0000000000000344
 33
0.0
 14
-0.2203534757973608
 24
0.6054162040824024
 34
0.0
 15
0.000000000000071
 25
-0.0000000000000234
 35
0.0
 16
14.09753919059091
 26
-6.081099852140065
 36
0.0
1001
ACAD
1000
DSTYLE
1002
{
1070
   179
1070
     3
1002
}
1001
GENIUS_GENDTOL_13
1000

1000
h7
1000

1040
0.0
  0
SPLINE
  5
28AD
330
1F
100
AcDbEntity
  8
AM_0
100
AcDbSpline
210
0.0
220
0.0
230
1.0
 70
     8
 71
     3
 72
    17
 73
    13
 74
     0
 42
0.0000000001
 43
0.0000000001
 40
1.580019955310467
 40
1.580019955310467
 40
1.580019955310467
 40
1.580019955310467
 40
2.030549285115227
 40
3.082371838836284
 40
4.126290986361125
 40
5.162752068350215
 40
6.192395305374981
 40
7.216039564037012
 40
8.234688489606833
 40
9.249433870634691
 40
10.26152376260694
 40
11.27226744710342
 40
11.27226744710342
 40
11.27226744710342
 40
11.27226744710352
 10
-6.507603801881764
 20
-1.512960036486298
 30
0.0
 10
-6.566836616798212
 20
-1.528542271377535
 30
0.0
 10
-6.764694118605724
 20
-1.579615127538563
 30
0.0
 10
-7.10248594079821
 20
-1.659724729845628
 30
0.0
 10
-7.520891083642879
 20
-1.749436857163857
 30
0.0
 10
-7.939411413031642
 20
-1.828192193722514
 30
0.0
 10
-8.357950918875815
 20
-1.89572626140093
 30
0.0
 10
-8.776536023849011
 20
-1.951547814129398
 30
0.0
 10
-9.195150047665997
 20
-1.995338302920398
 30
0.0
 10
-9.613790137743059
 20
-2.026813950754085
 30
0.0
 10
-10.03244597987253
 20
-2.045772145230028
 30
0.0
 10
-10.31161761555509
 20
-2.049999682706161
 30
0.0
 10
-10.45111053417414
 20
-2.04999967097595
 30
0.0
  0
SPLINE
  5
28AE
330
1F
100
AcDbEntity
  8
AM_0
 48
0.5
100
AcDbSpline
210
0.0
220
0.0
230
1.0
 70
     8
 71
     3
 72
    25
 73
    21
 74
     0
 42
0.0000000001
 43
0.0000000001
 40
6.846175049578289
 40
6.846175049578289
 40
6.846175049578289
 40
6.846175049578289
 40
7.604337694224321
 40
8.711974558287883
 40
9.814980593243754
 40
10.91239053451967
 40
12.0033633515982
 40
13.08720139956839
 40
14.16337181880432
 40
15.23152222380919
 40
16.29148850140128
 40
17.34331105512262
 40
18.38723020264746
 40
19.42369128463655
 40
20.45333379090873
 40
21.47697865721768
 40
22.49561244472435
 40
23.5103574802404
 40
24.52244778960836
 40
25.53320666051913
 40
25.53320666051913
 40
25.53320666051913
 40
25.53320666051913
 10
-3.052970457218521
 20
0.371063750068064
 30
0.0
 10
-3.148074735512714
 20
0.4070581041564907
 30
0.0
 10
-3.382321653666124
 20
0.495278183049642
 30
0.0
 10
-3.75605932750971
 20
0.6338154646180954
 30
0.0
 10
-4.174256969671219
 20
0.7849289060583225
 30
0.0
 10
-4.592475643263753
 20
0.9312143146168523
 30
0.0
 10
-5.010718941565123
 20
1.071772245336116
 30
0.0
 10
-5.428991524837861
 20
1.205735526314001
 30
0.0
 10
-5.84729726078951
 20
1.332278019377863
 30
0.0
 10
-6.265638085955337
 20
1.450622029315098
 30
0.0
 10
-6.684019153221107
 20
1.560031063557104
 30
0.0
 10
-7.102439896048899
 20
1.659834221795275
 30
0.0
 10
-7.520903319867151
 20
1.749408733367157
 30
0.0
 10
-7.939407947899141
 20
1.828200235586351
 30
0.0
 10
-8.357952145254309
 20
1.895725792916948
 30
0.0
 10
-8.776533582930888
 20
1.951537814644087
 30
0.0
 10
-9.195145747969839
 20
1.995380864065364
 30
0.0
 10
-9.6137840268402
 20
2.026659443792876
 30
0.0
 10
-10.03244162378124
 20
2.046342345930632
 30
0.0
 10
-10.311615481414
 20
2.048781536484305
 30
0.0
 10
-10.45111053417408
 20
2.050000329024047
 30
0.0
  0
SPLINE
  5
28AF
330
1F
100
AcDbEntity
  8
AM_0
100
AcDbSpline
210
0.0
220
0.0
230
1.0
 70
     8
 71
     3
 72
    55
 73
    51
 74
     0
 42
0.0000000001
 43
0.0000000001
 40
0.0
 40
0.0
 40
0.0
 40
0.0
 40
1.010743684496582
 40
2.022833576467832
 40
3.037578957496688
 40
4.056212745003489
 40
5.079857003664532
 40
6.109500240690281
 40
7.145961322679372
 40
8.189895241603872
 40
9.241717795325891
 40
10.30168407291828
 40
11.36983447792315
 40
12.44600489715814
 40
13.52984294512926
 40
14.62081576220742
 40
15.7182257034828
 40
16.82123173843959
 40
17.92886860250316
 40
19.0400688939571
 40
20.15368796660465
 40
21.26852814259644
 40
22.38336992938901
 40
23.49698739941135
 40
24.6081876908653
 40
25.71582455492886
 40
26.81883757994213
 40
27.91624752121713
 40
29.00722033829659
 40
30.09105838626677
 40
31.16722880550176
 40
32.23537921050758
 40
33.29534548809967
 40
34.347168041821
 40
35.39108718934584
 40
36.42754827133493
 40
37.45720575381954
 40
38.48085062012849
 40
39.49948440763516
 40
40.51422944315121
 40
41.52631975251916
 40
42.53706336719636
 40
43.54780698187354
 40
44.55989729124051
 40
45.57464232675757
 40
46.59327611426424
 40
47.6169209805722
 40
48.64656348684535
 40
49.68302456883444
 40
50.58557219878025
 40
50.58557219878025
 40
50.58557219878025
 40
50.58557219878025
 10
-2.564712361649064
 20
-2.049999670976159
 30
0.0
 10
-2.704205282108446
 20
-2.048779970640438
 30
0.0
 10
-2.983376913366626
 20
-2.0463389454526
 30
0.0
 10
-3.402032764376031
 20
-2.026661542043854
 30
0.0
 10
-3.820670744545687
 20
-1.995379610935216
 30
0.0
 10
-4.239282815134423
 20
-1.951536794745042
 30
0.0
 10
-4.657864799052759
 20
-1.895727247690736
 30
0.0
 10
-5.076408438614045
 20
-1.828199145934188
 30
0.0
 10
-5.494915133828165
 20
-1.749407382837894
 30
0.0
 10
-5.91338117338654
 20
-1.659834441460091
 30
0.0
 10
-6.331803706772781
 20
-1.560030294226979
 30
0.0
 10
-6.750184819591908
 20
-1.450621401453858
 30
0.0
 10
-7.168525632351951
 20
-1.332277353065091
 30
0.0
 10
-7.586831371886319
 20
-1.20573487082332
 30
0.0
 10
-8.005103953354456
 20
-1.071771585394461
 30
0.0
 10
-8.423347255288398
 20
-0.931213661608961
 30
0.0
 10
-8.841565916062954
 20
-0.7849282296091218
 30
0.0
 10
-9.259763606188386
 20
-0.6338148755889961
 30
0.0
 10
-9.677944384320937
 20
-0.478803005460371
 30
0.0
 10
-10.09611272517258
 20
-0.3208466988675411
 30
0.0
 10
-10.51427229647782
 20
-0.1609170062691021
 30
0.0
 10
-10.93242900329745
 20
-0.0000000892504062
 30
0.0
 10
-11.35058383294335
 20
0.1609197243730734
 30
0.0
 10
-11.7687448058283
 20
0.3208469264431848
 30
0.0
 10
-12.18691263044556
 20
0.478803711160758
 30
0.0
 10
-12.60509415418981
 20
0.6338161718155178
 30
0.0
 10
-13.02329357919986
 20
0.7849282362077368
 30
0.0
 10
-13.44151290003397
 20
0.9312144100782617
 30
0.0
 10
-13.85975626234832
 20
1.071772219885765
 30
0.0
 10
-14.27802882859686
 20
1.20573553348661
 30
0.0
 10
-14.69633456920232
 20
1.332278015913491
 30
0.0
 10
-15.11467539261786
 20
1.450622036004418
 30
0.0
 10
-15.53305646225548
 20
1.560031040494081
 30
0.0
 10
-15.95147719741538
 20
1.659834306457849
 30
0.0
 10
-16.36994064924465
 20
1.749408421017708
 30
0.0
 10
-16.78844718921451
 20
1.828201768517232
 30
0.0
 10
-17.20699381731764
 20
1.895722157627165
 30
0.0
 10
-17.62557718411257
 20
1.951548978916083
 30
0.0
 10
-18.04418937879667
 20
1.995339825106572
 30
0.0
 10
-18.46282764984869
 20
2.02681171998735
 30
0.0
 10
-18.88148314588782
 20
2.045775863082916
 30
0.0
 10
-19.30014784162758
 20
2.052111155785645
 30
0.0
 10
-19.71881253675135
 20
2.045775863073004
 30
0.0
 10
-20.13746803464208
 20
2.026811720027239
 30
0.0
 10
-20.55610629887703
 20
1.995339824956452
 30
0.0
 10
-20.97471851912006
 20
1.951548979480481
 30
0.0
 10
-21.39329974915559
 20
1.895722427670001
 30
0.0
 10
-21.81184472834433
 20
1.828202458876841
 30
0.0
 10
-22.21132268417306
 20
1.752985140150595
 30
0.0
 10
-22.47050853129901
 20
1.697978003886117
 30
0.0
 10
-22.59075565792169
 20
1.671170342974725
 30
0.0
  0
LINE
  5
28B0
330
1F
100
AcDbEntity
  8
AM_11
 48
0.5
100
AcDbLine
 10
-10.45111053417408
 20
2.050000329024044
 30
0.0
 11
-2.564712361648979
 21
2.050000329023834
 31
0.0
  0
LINE
  5
28B1
330
1F
100
AcDbEntity
  8
AM_11
 48
0.5
100
AcDbLine
 10
-10.45111053417419
 20
-2.04999967097595
 30
0.0
 11
-2.564712361649064
 21
-2.049999670976166
 31
0.0
  0
ELLIPSE
  5
28B2
330
1F
100
AcDbEntity
  8
AM_0
 48
0.5
100
AcDbEllipse
 10
-25.1720370985929
 20
-1.366771808542633
 30
0.0
 11
-0.828015268681443
 21
0.0000000000000738
 31
0.0
210
0.0
220
0.0
230
1.0
 40
0.8252665852665888
 41
0.0112467747892329
 42
1.570796012878446
  0
SPLINE
  5
28B3
330
1F
100
AcDbEntity
  8
AM_0
100
AcDbSpline
210
0.0
220
0.0
230
1.0
 70
     8
 71
     3
 72
    13
 73
     9
 74
     0
 42
0.0000000001
 43
0.0000000001
 40
16.03460056234195
 40
16.03460056234195
 40
16.03460056234195
 40
16.03460056234195
 40
16.35212717791071
 40
17.38177067057215
 40
18.41822498539278
 40
19.46214186516937
 40
20.5139635832251
 40
21.34083983469381
 40
21.34083983469381
 40
21.34083983469381
 40
21.34083983469381
 10
-25.17203735852062
 20
-2.050105141875935
 30
0.0
 10
-25.05351062495926
 20
-2.043371345158579
 30
0.0
 10
-24.87120780463424
 20
-2.013235607982274
 30
0.0
 10
-24.55007986414377
 20
-1.954186920792697
 30
0.0
 10
-24.13421806151765
 20
-1.866383437279779
 30
0.0
 10
-23.71874259735349
 20
-1.767794421357475
 30
0.0
 10
-23.33429111433758
 20
-1.667027598459196
 30
0.0
 10
-23.08901783832734
 20
-1.597642469691141
 30
0.0
 10
-22.98141792216753
 20
-1.566279759250566
 30
0.0
  0
ELLIPSE
  5
28B4
330
1F
100
AcDbEntity
  8
AM_0
 48
0.5
100
AcDbEllipse
 10
-25.37919252988694
 20
-1.387591599700638
 30
0.0
 11
-0.6210114515111021
 21
0.0000000000000534
 31
0.0
210
0.0
220
0.0
230
1.0
 40
0.8252665852665662
 41
4.317028824483155
 42
6.257553905069441
  0
SPLINE
  5
28B5
330
1F
100
AcDbEntity
  8
AM_0
 48
0.5
100
AcDbSpline
210
0.0
220
0.0
230
1.0
 70
     8
 71
     3
 72
    22
 73
    18
 74
     0
 42
0.0000000001
 43
0.0000000001
 40
0.0
 40
0.0
 40
0.0
 40
0.0
 40
1.010743684496582
 40
2.022833993863546
 40
3.037578683882831
 40
4.056212471389632
 40
5.079857945358201
 40
6.109499720892564
 40
7.145961650132166
 40
8.189873411961459
 40
9.241710626092514
 40
10.30166235592959
 40
11.36982472628033
 40
12.44598212828784
 40
13.52983440361964
 40
14.62080578343036
 40
14.90544694398022
 40
14.90544694398022
 40
14.90544694398022
 40
14.90544694398022
 10
-19.22080438759559
 20
-2.05010514187612
 30
0.0
 10
-19.3748750464868
 20
-2.04888580592835
 30
0.0
 10
-19.65404678869477
 20
-2.046445509498198
 30
0.0
 10
-20.07270220103146
 20
-2.026762624722241
 30
0.0
 10
-20.4913406342117
 20
-1.995485960038081
 30
0.0
 10
-20.90995292739111
 20
-1.951643103431166
 30
0.0
 10
-21.3285337712314
 20
-1.895828349588931
 30
0.0
 10
-21.74707879897187
 20
-1.828305924146071
 30
0.0
 10
-22.1655818774424
 20
-1.749512283928225
 30
0.0
 10
-22.58404588441613
 20
-1.659936232553469
 30
0.0
 10
-23.00246705100888
 20
-1.560137067911487
 30
0.0
 10
-23.42084756384847
 20
-1.450722178960017
 30
0.0
 10
-23.83919011995204
 20
-1.332387822662553
 30
0.0
 10
-24.25749440509519
 20
-1.205837491757812
 30
0.0
 10
-24.67576825571598
 20
-1.071877369149746
 30
0.0
 10
-24.99013028528599
 20
-0.9662353185240917
 30
0.0
 10
-25.16530377825638
 20
-0.9058537181588341
 30
0.0
 10
-25.14001581522645
 20
-0.9146269189991329
 30
0.0
  0
SPLINE
  5
28B6
330
1F
100
AcDbEntity
  8
AM_0
 48
0.5
100
AcDbSpline
210
0.0
220
0.0
230
1.0
 70
     8
 71
     3
 72
    26
 73
    22
 74
     0
 42
0.0000000001
 43
0.0000000001
 40
0.0
 40
0.0
 40
0.0
 40
0.0
 40
0.2526859211241313
 40
0.5057083941171959
 40
0.7593947393741639
 40
1.01405318625086
 40
1.26996425091637
 40
1.527375060172565
 40
1.786490330669834
 40
2.047470117551047
 40
2.310425755981314
 40
2.575417325379407
 40
2.842456731169063
 40
3.111495753801943
 40
3.382458822635121
 40
3.655202026904655
 40
3.929554512223505
 40
4.205306020962704
 40
4.482215236978595
 40
4.76001530984208
 40
5.029821427366006
 40
5.029821427366006
 40
5.029821427366006
 40
5.029821427366006
 10
-18.06343019061475
 20
-2.050105141876152
 30
0.0
 10
-18.20292311109092
 20
-2.048885441593586
 30
0.0
 10
-18.48209474238283
 20
-2.046444416512102
 30
0.0
 10
-18.90075059313984
 20
-2.026767012304109
 30
0.0
 10
-19.31938857427244
 20
-1.995485084245206
 30
0.0
 10
-19.7380006412416
 20
-1.951642256591238
 30
0.0
 10
-20.15658263877096
 20
-1.895832752645425
 30
0.0
 10
-20.5751262270834
 20
-1.828304488574929
 30
0.0
 10
-20.99363112774043
 20
-1.749513711532934
 30
0.0
 10
-21.41209448654787
 20
-1.659938957016979
 30
0.0
 10
-21.83051531421781
 20
-1.56013602141256
 30
0.0
 10
-22.24889705436932
 20
-1.450726086492196
 30
0.0
 10
-22.66723797336513
 20
-1.332384723337444
 30
0.0
 10
-23.08554281112557
 20
-1.205837867215446
 30
0.0
 10
-23.50381716067475
 20
-1.071878446145753
 30
0.0
 10
-23.92206192574625
 20
-0.9313190924983665
 30
0.0
 10
-24.34028022413508
 20
-0.7850330693629175
 30
0.0
 10
-24.75847973592825
 20
-0.6339229299187821
 30
0.0
 10
-25.17665354991457
 20
-0.4788987216075747
 30
0.0
 10
-25.59053181029822
 20
-0.3226185527910843
 30
0.0
 10
-25.86474172952211
 20
-0.2176284391392258
 30
0.0
 10
-25.9999999999999
 20
-0.1658984018145481
 30
0.0
  0
SPLINE
  5
28B7
330
1F
100
AcDbEntity
  8
AM_0
100
AcDbSpline
210
0.0
220
0.0
230
1.0
 70
     8
 71
     3
 72
    23
 73
    19
 74
     0
 42
0.0000000001
 43
0.0000000001
 40
16.03460024169435
 40
16.03460024169435
 40
16.03460024169435
 40
16.03460024169435
 40
16.35212704903564
 40
17.38177054169784
 40
18.41822485651776
 40
19.46214173629503
 40
20.51396345435107
 40
21.57393551351153
 40
22.64208202342361
 40
23.7182574881101
 40
24.80209208578934
 40
25.89306333925047
 40
26.99048218457928
 40
28.09348763352352
 40
29.20111863782268
 40
30.31232390128032
 40
31.42594612798585
 40
32.5407912310448
 40
32.5407912310486
 40
32.5407912310486
 40
32.5407912310486
 10
-24.33293485190949
 20
2.050291568728063
 30
0.0
 10
-24.28992310829631
 20
2.043371129732275
 30
0.0
 10
-24.10762043882305
 20
2.013234565705818
 30
0.0
 10
-23.78649232328069
 20
1.954186567915463
 30
0.0
 10
-23.37063057298886
 20
1.866382840943817
 30
0.0
 10
-22.95515509465156
 20
1.767793890954234
 30
0.0
 10
-22.54004133749136
 20
1.65899030050366
 30
0.0
 10
-22.1252745683854
 20
1.540578652044619
 30
0.0
 10
-21.71083081480846
 20
1.413235836495463
 30
0.0
 10
-21.29668121647281
 20
1.277702957100554
 30
0.0
 10
-20.88280223991078
 20
1.134747528653853
 30
0.0
 10
-20.46916070294407
 20
0.9852013754841095
 30
0.0
 10
-20.05572308455169
 20
0.8299337244447251
 30
0.0
 10
-19.64246183856436
 20
0.6698372994367965
 30
0.0
 10
-19.2293423879155
 20
0.5058430392474343
 30
0.0
 10
-18.81632646899468
 20
0.3389085500406033
 30
0.0
 10
-18.40338045064731
 20
0.1700011719769741
 30
0.0
 10
-18.12815704985337
 20
0.0567580107452877
 30
0.0
 10
-17.99047029433723
 20
0.0001045974157101
 30
0.0
  0
SPLINE
  5
28B8
330
1F
100
AcDbEntity
  8
AM_0
100
AcDbSpline
210
0.0
220
0.0
230
1.0
 70
     8
 71
     3
 72
    22
 73
    18
 74
     0
 42
0.0000000001
 43
0.0000000001
 40
17.17441611292
 40
17.17441611292
 40
17.17441611292
 40
17.17441611292
 40
17.38177636558528
 40
18.41823744757437
 40
19.46215659509824
 40
20.51397914882054
 40
21.57394542641293
 40
22.64209583141747
 40
23.71826625065247
 40
24.80210429862395
 40
25.8930771157021
 40
26.99048705697709
 40
28.09349309193389
 40
29.20112995599786
 40
30.31233024745139
 40
31.42594771747373
 40
32.5407895042663
 40
32.54078950426994
 40
32.54078950426994
 40
32.54078950426994
 10
-12.04902717324953
 20
-1.840914508156473
 30
0.0
 10
-12.07706096527191
 20
-1.836168959224103
 30
0.0
 10
-12.24510823830056
 20
-1.807263301975737
 30
0.0
 10
-12.55296137306293
 20
-1.749303697037714
 30
0.0
 10
-12.97142476505434
 20
-1.659729325130719
 30
0.0
 10
-13.3898455165045
 20
-1.559926129043969
 30
0.0
 10
-13.80822658144047
 20
-1.450517105073942
 30
0.0
 10
-14.22656740720997
 20
-1.332173092300866
 30
0.0
 10
-14.64487314310343
 20
-1.205630600202344
 30
0.0
 10
-15.06314572599402
 20
-1.071667318219677
 30
0.0
 10
-15.48138902589776
 20
-0.9311093905725194
 30
0.0
 10
-15.89960769341497
 20
-0.784823970643572
 30
0.0
 10
-16.31780535843132
 20
-0.6337105719037624
 30
0.0
 10
-16.73598623078249
 20
-0.4786988695172348
 30
0.0
 10
-17.15415401727791
 20
-0.3207420099905107
 30
0.0
 10
-17.5723149127097
 20
-0.1608146725238093
 30
0.0
 10
-17.85103412301348
 20
-0.053554799683841
 30
0.0
 10
-17.99047029433909
 20
0.000104597416442
 30
0.0
  0
SPLINE
  5
28B9
330
1F
100
AcDbEntity
  8
AM_0
100
AcDbSpline
210
0.0
220
0.0
230
1.0
 70
     8
 71
     3
 72
    11
 73
     7
 74
     0
 42
0.0000000001
 43
0.0000000001
 40
11.27226913003534
 40
11.27226913003534
 40
11.27226913003534
 40
11.2722691300354
 40
12.28301561507924
 40
13.29510212255852
 40
14.30984805882082
 40
15.18258238371378
 40
15.18258238371378
 40
15.18258238371378
 40
15.18258238371378
 10
-10.45111053417417
 20
-2.04999967097595
 30
0.0
 10
-10.59007303204276
 20
-2.039966375249836
 30
0.0
 10
-10.86773591808429
 20
-2.015676202963778
 30
0.0
 10
-11.2827964477669
 20
-1.96667691730293
 30
0.0
 10
-11.67669620909247
 20
-1.908152643143189
 30
0.0
 10
-11.93144745326573
 20
-1.863163291802461
 30
0.0
 10
-12.04884408061583
 20
-1.8409397948908
 30
0.0
  0
LINE
  5
28BA
330
1F
100
AcDbEntity
  8
AM_0
 48
0.5
100
AcDbLine
 10
-19.30014468289721
 20
2.050000329024285
 30
0.0
 11
-10.45111053417408
 21
2.050000329024044
 31
0.0
  0
LINE
  5
28BB
330
1F
100
AcDbEntity
  8
AM_0
 48
0.5
100
AcDbLine
 10
-19.45353092798918
 20
-2.050009397866283
 30
0.0
 11
-10.45111053417419
 21
-2.04999967097595
 31
0.0
  0
LINE
  5
28BC
330
1F
100
AcDbEntity
  8
AM_0
 48
0.5
100
AcDbLine
 10
-20.25791614608811
 20
0.9827445585412881
 30
0.0
 11
-25.9999999999999
 21
-0.1658984018145517
 31
0.0
  0
LINE
  5
28BD
330
1F
100
AcDbEntity
  8
AM_11
 48
0.5
100
AcDbLine
 10
-25.17203735852062
 20
-2.050105141875935
 30
0.0
 11
-19.45701857604635
 21
-2.049978849878563
 31
0.0
  0
LINE
  5
28BE
330
1F
100
AcDbEntity
  8
AM_11
 48
0.5
100
AcDbLine
 10
-24.33293485190949
 20
2.050291568728066
 30
0.0
 11
-19.30013789038886
 21
2.050000329024285
 31
0.0
  0
SPLINE
  5
28BF
330
1F
100
AcDbEntity
  8
AM_0
 48
0.5
100
AcDbSpline
210
0.0
220
0.0
230
1.0
 70
     8
 71
     3
 72
    17
 73
    13
 74
     0
 42
0.0000000001
 43
0.0000000001
 40
0.0
 40
0.0
 40
0.0
 40
0.0
 40
1.010743614677189
 40
2.022833924044153
 40
3.037578959561199
 40
4.056212747067873
 40
5.079857613375832
 40
6.109500119648989
 40
7.14596120163808
 40
8.18989512056258
 40
9.241717674284874
 40
9.693948937866434
 40
9.693948937866434
 40
9.693948937866434
 40
9.693948937866434
 10
-2.564712361648979
 20
2.050000329023834
 30
0.0
 10
-2.704205307494412
 20
2.048781507663495
 30
0.0
 10
-2.983377056811974
 20
2.046342241009494
 30
0.0
 10
-3.402032555123099
 20
2.026659453067537
 30
0.0
 10
-3.820670817630315
 20
1.995380832908807
 30
0.0
 10
-4.239283044400366
 20
1.951537930674813
 30
0.0
 10
-4.657864249882855
 20
1.895725356755043
 30
0.0
 10
-5.076409321522177
 20
1.828201878216702
 30
0.0
 10
-5.494912641740036
 20
1.749402166021948
 30
0.0
 10
-5.913390450145143
 20
1.659856720127343
 30
0.0
 10
-6.251196649433168
 20
1.579189809204141
 30
0.0
 10
-6.449576255597314
 20
1.528761389467756
 30
0.0
 10
-6.509119170170329
 20
1.513325587769106
 30
0.0
  0
SPLINE
  5
28C0
330
1F
100
AcDbEntity
  8
AM_0
100
AcDbSpline
210
0.0
220
0.0
230
1.0
 70
     8
 71
     3
 72
    46
 73
    42
 74
     0
 42
0.0000000001
 43
0.0000000001
 40
0.0
 40
0.0
 40
0.0
 40
0.0
 40
0.5056245176053715
 40
0.759310862862336
 40
1.013969309739036
 40
1.269880374404297
 40
1.527291183660732
 40
1.786406454158005
 40
2.047386241038974
 40
2.310345544571907
 40
2.575337113970003
 40
2.842374715221223
 40
3.111417320030211
 40
3.382376832022752
 40
3.655120036292296
 40
3.929472521611371
 40
4.205224030350333
 40
4.482133246366229
 40
4.759933319229942
 40
5.038338087391601
 40
5.317048131389549
 40
5.595758175387723
 40
5.874162943549383
 40
6.151963016412869
 40
6.428872232428759
 40
6.704623741167955
 40
6.978976226486705
 40
7.251719430756336
 40
7.522680721168327
 40
7.791723325977311
 40
8.058760927228529
 40
8.32375249662655
 40
8.586708135057122
 40
8.84768792193809
 40
9.106803192435362
 40
9.364213819003406
 40
9.620125035580644
 40
9.87478726697307
 40
10.12847352585208
 40
10.38149610319407
 40
10.63418200686337
 40
10.63418200686337
 40
10.63418200686337
 40
10.63418200686337
 10
-1.392760452891124
 20
-2.049999670976195
 30
0.0
 10
-1.671945724030294
 20
-2.045329612509316
 30
0.0
 10
-2.091206265688995
 20
-2.038316451555612
 30
0.0
 10
-2.648715291145606
 20
-1.995137707949911
 30
0.0
 10
-3.06733185928671
 20
-1.951602048340408
 30
0.0
 10
-3.485912645676592
 20
-1.895709656625086
 30
0.0
 10
-3.904456547630132
 20
-1.828203754181316
 30
0.0
 10
-4.322961415005217
 20
-1.749407076732428
 30
0.0
 10
-4.741426546869092
 20
-1.659832934612186
 30
0.0
 10
-5.159850080904078
 20
-1.560031326313033
 30
0.0
 10
-5.578232853438514
 20
-1.450621258420397
 30
0.0
 10
-5.996573739149937
 20
-1.332277391829993
 30
0.0
 10
-6.414879458908494
 20
-1.205734860311796
 30
0.0
 10
-6.833152045763597
 20
-1.071771588283436
 30
0.0
 10
-7.251395346121768
 20
-0.9312136606623866
 30
0.0
 10
-7.669614007766497
 20
-0.7849282304872105
 30
0.0
 10
-8.087811695987262
 20
-0.6338148730131046
 30
0.0
 10
-8.505992480902733
 20
-0.4788030149346377
 30
0.0
 10
-8.924160796421347
 20
-0.3208466634076394
 30
0.0
 10
-9.34232046253799
 20
-0.1609171389604107
 30
0.0
 10
-9.760476613530606
 20
0.0000003289914688
 30
0.0
 10
-10.17863276443139
 20
0.1609177971388967
 30
0.0
 10
-10.59679243082359
 20
0.3208473209997749
 30
0.0
 10
-11.01496074533502
 20
0.4788036746696421
 30
0.0
 10
-11.43314153398509
 20
0.6338155248009763
 30
0.0
 10
-11.85133920835835
 20
0.7849289117422096
 30
0.0
 10
-12.26955792128517
 20
0.9312142327902641
 30
0.0
 10
-12.68780194119468
 20
1.071772869640465
 30
0.0
 10
-13.10607615325527
 20
1.205734924544593
 30
0.0
 10
-13.52438261920711
 20
1.33227810492955
 30
0.0
 10
-13.94272349517837
 20
1.450622006733553
 30
0.0
 10
-14.3611045490439
 20
1.560031069241166
 30
0.0
 10
-14.77952529520893
 20
1.659834221386667
 30
0.0
 10
-15.19798871892621
 20
1.749408729427081
 30
0.0
 10
-15.61649334409266
 20
1.828200251583641
 30
0.0
 10
-16.03503755289697
 20
1.895725733399274
 30
0.0
 10
-16.45362101070173
 20
1.951538310062534
 30
0.0
 10
-16.87223542181779
 20
1.995380452605363
 30
0.0
 10
-17.29087573240375
 20
2.026659512752555
 30
0.0
 10
-17.70953123932159
 20
2.046342226128139
 30
0.0
 10
-17.98870298749393
 20
2.048781502705537
 30
0.0
 10
-18.12819593276706
 20
2.050000329024257
 30
0.0
  0
LINE
  5
28E1
330
1F
100
AcDbEntity
  8
AM_0
100
AcDbLine
 10
-30.22057778634715
 20
2.050000375134173
 30
0.0
 11
-24.33293485190949
 21
2.050291568728066
 31
0.0
  0
LINE
  5
28E2
330
1F
100
AcDbEntity
  8
AM_0
100
AcDbLine
 10
-25.17203735852062
 20
-2.050105141875935
 30
0.0
 11
-30.22057648684251
 21
-2.049999624865826
 31
0.0
  0
VIEWPORT
  5
110
330
101
100
AcDbEntity
 67
     1
  8
0
100
AcDbViewport
 10
420.5
 20
297.0
 30
0.0
 40
948.9782706766916
 41
628.452
 68
     1
 69
     1
1001
ACAD
1000
MVIEW
1002
{
1070
    16
1010
0.0
1020
0.0
1030
0.0
1010
0.0
1020
0.0
1030
1.0
1040
0.0
1040
628.452
1040
420.5
1040
297.0
1040
50.0
1040
0.0
1040
0.0
1070
     0
1070
   100
1070
     1
1070
     1
1070
     0
1070
     0
1070
     0
1070
     0
1040
0.0
1040
0.0
1040
0.0
1040
10.0
1040
10.0
1040
10.0
1040
10.0
1070
     0
1002
{
1002
}
1002
}
  0
ENDSEC
  0
SECTION
  2
OBJECTS
  0
DICTIONARY
  5
C
330
0
100
AcDbDictionary
  3
ACAD_GROUP
350
D
  3
ACAD_LAYOUT
350
1A
  3
ACAD_MLINESTYLE
350
17
  3
ACAD_PLOTSETTINGS
350
19
  3
ACAD_PLOTSTYLENAME
350
E
  3
ACDBVARIABLEDICTIONARY
350
34
  3
ACMDICTIONARY
350
43
  3
AMG
350
2B
  3
AMGSNAPSETTINGS
350
6E
  3
DWGPROPS
350
2A2C
  3
ACDBHEADERROUNDTRIPXREC
350
2A38
  0
DICTIONARY
  5
74
330
1F
100
AcDbDictionary
280
     1
  3
ACAD_INDEX
360
2A2E
  3
ACAD_LAYOUTSELFREF
360
2A5B
  0
DICTIONARY
  5
2A60
330
101
100
AcDbDictionary
280
     1
  3
ACAD_LAYOUTSELFREF
360
2A61
  0
DICTIONARY
  5
D
102
{ACAD_REACTORS
330
C
102
}
330
C
100
AcDbDictionary
  0
DICTIONARY
  5
1A
102
{ACAD_REACTORS
330
C
102
}
330
C
100
AcDbDictionary
  0
DICTIONARY
  5
17
102
{ACAD_REACTORS
330
C
102
}
330
C
100
AcDbDictionary
  3
STANDARD
350
18
  0
DICTIONARY
  5
19
102
{ACAD_REACTORS
330
C
102
}
330
C
100
AcDbDictionary
  0
ACDBDICTIONARYWDFLT
  5
E
102
{ACAD_REACTORS
330
C
102
}
330
C
100
AcDbDictionary
281
     1
  3
Normal
350
F
100
AcDbDictionaryWithDefault
340
F
  0
DICTIONARY
  5
34
102
{ACAD_REACTORS
330
C
102
}
330
C
100
AcDbDictionary
  3
INDEXCTL
350
35
  3
SORTENTS
350
B5E
  0
DICTIONARY
  5
43
102
{ACAD_REACTORS
330
C
102
}
330
C
100
AcDbDictionary
  3
ACMSTDDICTIONARY
350
260
  0
DICTIONARY
  5
2B
102
{ACAD_REACTORS
330
C
102
}
330
C
100
AcDbDictionary
  3
ACMGSETTINGS
350
2C
  0
DICTIONARY
  5
6E
102
{ACAD_REACTORS
330
C
102
}
330
C
100
AcDbDictionary
  0
XRECORD
  5
2A2C
102
{ACAD_REACTORS
330
C
102
}
330
C
100
AcDbXrecord
  1
DWGPROPS COOKIE
  2

  3

  4

  6

  7

  8

  9

300
AmdtFileType=82
301
=
302
=
303
=
304
=
305
=
306
=
307
=
308
=
309
=
 40
0.0429155787037037
 41
2452800.443498622
 42
2452946.602551354
  1

 90
        1
  0
DICTIONARY
  5
2A38
102
{ACAD_REACTORS
330
C
102
}
330
C
100
AcDbDictionary
  3
TSTACKALIGN
350
2A39
  3
TSTACKSIZE
350
2A3A
  3
HYPERLINKBASE
350
2A3B
  3
STYLESHEET
350
2A3C
  3
LAYOUTDICT
350
2A3D
  3
PLOTSETDICT
350
2A3E
  3
PLOTSTYLNAMDICT
350
2A3F
  3
LWETCUNION
350
2A40
  3
INSUNITS
350
2A41
  3
CEPSNTYPE
350
2A42
  3
FINGERPRINTGUID
350
2A43
  3
VERSIONGUID
350
2A44
  3
PSVPSCALE
350
2A45
  3
DIMSTYLEDATA
350
2A46
  3
PUCSORTHOREF
350
2A47
  3
PUCSORTHOVIEW
350
2A48
  3
PUCSBASE
350
2A49
  3
PUCSORGTOP
350
2A4A
  3
PUCSORGBOTTOM
350
2A4B
  3
PUCSORGLEFT
350
2A4C
  3
PUCSORGRIGHT
350
2A4D
  3
PUCSORGFRONT
350
2A4E
  3
PUCSORGBACK
350
2A4F
  3
UCSORTHOREF
350
2A50
  3
UCSORTHOVIEW
350
2A51
  3
UCSBASE
350
2A52
  3
UCSORGTOP
350
2A53
  3
UCSORGBOTTOM
350
2A54
  3
UCSORGLEFT
350
2A55
  3
UCSORGRIGHT
350
2A56
  3
UCSORGFRONT
350
2A57
  3
UCSORGBACK
350
2A58
  0
DICTIONARY
  5
2A2E
102
{ACAD_REACTORS
330
74
102
}
330
74
100
AcDbDictionary
  3
*A1
350
2A2F
  0
XRECORD
  5
2A5B
102
{ACAD_REACTORS
330
74
102
}
330
74
100
AcDbXrecord
340
1F
  0
XRECORD
  5
2A61
102
{ACAD_REACTORS
330
2A60
102
}
330
2A60
100
AcDbXrecord
340
101
  0
MLINESTYLE
  5
18
102
{ACAD_REACTORS
330
17
102
}
330
17
100
AcDbMlineStyle
  2
STANDARD
 70
     0
  3

 62
   256
 51
90.0
 52
90.0
 71
     2
 49
0.5
 62
   256
  6
BYLAYER
 49
-0.5
 62
   256
  6
BYLAYER
  0
ACDBPLACEHOLDER
  5
F
102
{ACAD_REACTORS
330
E
102
}
330
E
100
AcDbPlaceHolder
280
     0
  0
DICTIONARYVAR
  5
35
102
{ACAD_REACTORS
330
34
102
}
330
34
100
DictionaryVariables
280
     0
  1
1
  0
DICTIONARYVAR
  5
B5E
102
{ACAD_REACTORS
330
34
102
}
330
34
100
DictionaryVariables
280
     0
  1
96
  0
DICTIONARY
  5
260
102
{ACAD_REACTORS
330
43
102
}
330
43
100
AcDbDictionary
  0
DICTIONARY
  5
2C
102
{ACAD_REACTORS
330
2B
102
}
330
2B
100
AcDbDictionary
  3
DWGSETTINGS
350
2D
  0
XRECORD
  5
2A39
102
{ACAD_REACTORS
330
2A38
102
}
330
2A38
100
AcDbXrecord
 90
        1
  0
XRECORD
  5
2A3A
102
{ACAD_REACTORS
330
2A38
102
}
330
2A38
100
AcDbXrecord
 90
       70
  0
XRECORD
  5
2A3B
102
{ACAD_REACTORS
330
2A38
102
}
330
2A38
100
AcDbXrecord
  1

  0
XRECORD
  5
2A3C
102
{ACAD_REACTORS
330
2A38
102
}
330
2A38
100
AcDbXrecord
  1
ASAMI.ctb
  0
XRECORD
  5
2A3D
102
{ACAD_REACTORS
330
2A38
102
}
330
2A38
100
AcDbXrecord
340
1A
  0
XRECORD
  5
2A3E
102
{ACAD_REACTORS
330
2A38
102
}
330
2A38
100
AcDbXrecord
340
19
  0
XRECORD
  5
2A3F
102
{ACAD_REACTORS
330
2A38
102
}
330
2A38
100
AcDbXrecord
340
E
  0
XRECORD
  5
2A40
102
{ACAD_REACTORS
330
2A38
102
}
330
2A38
100
AcDbXrecord
 90
    10781
  0
XRECORD
  5
2A41
102
{ACAD_REACTORS
330
2A38
102
}
330
2A38
100
AcDbXrecord
 90
        4
  0
XRECORD
  5
2A42
102
{ACAD_REACTORS
330
2A38
102
}
330
2A38
100
AcDbXrecord
 90
        0
  0
XRECORD
  5
2A43
102
{ACAD_REACTORS
330
2A38
102
}
330
2A38
100
AcDbXrecord
  1
{AFB28963-8C59-40AE-9337-C84526B81ACE}
  0
XRECORD
  5
2A44
102
{ACAD_REACTORS
330
2A38
102
}
330
2A38
100
AcDbXrecord
  1
{A3D7A7E3-F639-481D-A7CF-B599E8402B3B}
  0
XRECORD
  5
2A45
102
{ACAD_REACTORS
330
2A38
102
}
330
2A38
100
AcDbXrecord
 40
0.0
  0
XRECORD
  5
2A46
102
{ACAD_REACTORS
330
2A38
102
}
330
2A38
100
AcDbXrecord
1000
DSTYLE
1002
{
1070
    79
 70
     2
1070
   341
340
59
1070
   342
340
59
1070
   371
 70
    -1
1070
   372
 70
    -1
1002
}
  0
XRECORD
  5
2A47
102
{ACAD_REACTORS
330
2A38
102
}
330
2A38
100
AcDbXrecord
340
0
  0
XRECORD
  5
2A48
102
{ACAD_REACTORS
330
2A38
102
}
330
2A38
100
AcDbXrecord
 70
     0
  0
XRECORD
  5
2A49
102
{ACAD_REACTORS
330
2A38
102
}
330
2A38
100
AcDbXrecord
340
0
  0
XRECORD
  5
2A4A
102
{ACAD_REACTORS
330
2A38
102
}
330
2A38
100
AcDbXrecord
 10
0.0
 20
0.0
 30
0.0
  0
XRECORD
  5
2A4B
102
{ACAD_REACTORS
330
2A38
102
}
330
2A38
100
AcDbXrecord
 10
0.0
 20
0.0
 30
0.0
  0
XRECORD
  5
2A4C
102
{ACAD_REACTORS
330
2A38
102
}
330
2A38
100
AcDbXrecord
 10
0.0
 20
0.0
 30
0.0
  0
XRECORD
  5
2A4D
102
{ACAD_REACTORS
330
2A38
102
}
330
2A38
100
AcDbXrecord
 10
0.0
 20
0.0
 30
0.0
  0
XRECORD
  5
2A4E
102
{ACAD_REACTORS
330
2A38
102
}
330
2A38
100
AcDbXrecord
 10
0.0
 20
0.0
 30
0.0
  0
XRECORD
  5
2A4F
102
{ACAD_REACTORS
330
2A38
102
}
330
2A38
100
AcDbXrecord
 10
0.0
 20
0.0
 30
0.0
  0
XRECORD
  5
2A50
102
{ACAD_REACTORS
330
2A38
102
}
330
2A38
100
AcDbXrecord
340
0
  0
XRECORD
  5
2A51
102
{ACAD_REACTORS
330
2A38
102
}
330
2A38
100
AcDbXrecord
 70
     0
  0
XRECORD
  5
2A52
102
{ACAD_REACTORS
330
2A38
102
}
330
2A38
100
AcDbXrecord
340
0
  0
XRECORD
  5
2A53
102
{ACAD_REACTORS
330
2A38
102
}
330
2A38
100
AcDbXrecord
 10
0.0
 20
0.0
 30
0.0
  0
XRECORD
  5
2A54
102
{ACAD_REACTORS
330
2A38
102
}
330
2A38
100
AcDbXrecord
 10
0.0
 20
0.0
 30
0.0
  0
XRECORD
  5
2A55
102
{ACAD_REACTORS
330
2A38
102
}
330
2A38
100
AcDbXrecord
 10
0.0
 20
0.0
 30
0.0
  0
XRECORD
  5
2A56
102
{ACAD_REACTORS
330
2A38
102
}
330
2A38
100
AcDbXrecord
 10
0.0
 20
0.0
 30
0.0
  0
XRECORD
  5
2A57
102
{ACAD_REACTORS
330
2A38
102
}
330
2A38
100
AcDbXrecord
 10
0.0
 20
0.0
 30
0.0
  0
XRECORD
  5
2A58
102
{ACAD_REACTORS
330
2A38
102
}
330
2A38
100
AcDbXrecord
 10
0.0
 20
0.0
 30
0.0
  0
LAYER_INDEX
  5
2A2F
102
{ACAD_REACTORS
330
2A2E
102
}
330
2A2E
100
AcDbIndex
 40
2453151.577781377
100
AcDbLayerIndex
  8
0
360
2A30
 90
        0
  8
AM_0
360
2A31
 90
       44
  8
AM_7
360
2A32
 90
        1
  8
AM_11
360
2A33
 90
       23
  8
AM_5
360
2A34
 90
        5
  8
Defpoints
360
2A35
 90
        0
  8
AM_6
360
2A36
 90
        1
  0
XRECORD
  5
2D
102
{ACAD_REACTORS
330
2C
102
}
330
2C
100
AcDbXrecord
  1
VERSION
140
15.0
  1
PRODUCT
  2
AutoCAD Mechanical 2000
  0
IDBUFFER
  5
2A30
330
0
100
AcDbIdBuffer
  0
IDBUFFER
  5
2A31
330
0
100
AcDbIdBuffer
330
247F
330
2480
330
2481
330
248E
330
248F
330
2493
330
249A
330
24A9
330
25FC
330
25FD
330
28AD
330
28AE
330
28AF
330
28B2
330
28B3
330
28B4
330
28B5
330
28B6
330
28B7
330
28B8
330
28B9
330
28BA
330
28BB
330
28BC
330
28BF
330
28C0
330
28E1
330
28E2
330
C1D
330
C20
330
C30
330
1CF0
330
1CF4
330
1CFE
330
1EB2
330
1EB5
330
1ED3
330
1FDE
330
1FDF
330
246E
330
246F
330
2470
330
2471
330
2474
  0
IDBUFFER
  5
2A32
330
0
100
AcDbIdBuffer
330
C9F
  0
IDBUFFER
  5
2A33
330
0
100
AcDbIdBuffer
330
1EC0
330
2472
330
2475
330
28B0
330
28B1
330
28BD
330
28BE
330
144A
330
144B
330
144E
330
144F
330
1450
330
1451
330
1452
330
1453
330
1454
330
1DAB
330
1DAC
330
1DAD
330
1DAE
330
1DAF
330
1DB0
330
1EBF
  0
IDBUFFER
  5
2A34
330
0
100
AcDbIdBuffer
330
CC6
330
DF5
330
218E
330
245D
330
260B
  0
IDBUFFER
  5
2A35
330
0
100
AcDbIdBuffer
  0
IDBUFFER
  5
2A36
330
0
100
AcDbIdBuffer
330
19BD
  0
ENDSEC
  0
EOF
