  0
SECTION
  2
HEADER
  9
$ACADVER
  1
AC1014
  9
$ACADMAINTVER
 70
     9
  9
$DWGCODEPAGE
  3
ANSI_932
  9
$INSBASE
 10
0.0
 20
0.0
 30
0.0
  9
$EXTMIN
 10
-95.54897802178542
 20
-48.42855170325258
 30
-0.00000001
  9
$EXTMAX
 10
27.60339580202654
 20
26.40854920198099
 30
0.00000001
  9
$LIMMIN
 10
-112.09769303573
 20
-69.67737275500994
  9
$LIMMAX
 10
43.17094681986185
 20
44.3314343346924
  9
$ORTHOMODE
 70
     0
  9
$REGENMODE
 70
     1
  9
$FILLMODE
 70
     1
  9
$QTEXTMODE
 70
     0
  9
$MIRRTEXT
 70
     0
  9
$DRAGMODE
 70
     2
  9
$LTSCALE
 40
0.5
  9
$OSMODE
 70
    55
  9
$ATTMODE
 70
     1
  9
$TEXTSIZE
 40
2.5
  9
$TRACEWID
 40
1.0
  9
$TEXTSTYLE
  7
STANDARD
  9
$CLAYER
  8
AM_0
  9
$CELTYPE
  6
BYLAYER
  9
$CECOLOR
 62
   256
  9
$CELTSCALE
 40
1.0
  9
$DELOBJ
 70
     1
  9
$DISPSILH
 70
     0
  9
$DIMSCALE
 40
1.0
  9
$DIMASZ
 40
2.5
  9
$DIMEXO
 40
1.0
  9
$DIMDLI
 40
12.0
  9
$DIMRND
 40
0.0
  9
$DIMDLE
 40
0.0
  9
$DIMEXE
 40
1.0
  9
$DIMTP
 40
0.1
  9
$DIMTM
 40
0.1
  9
$DIMTXT
 40
3.2
  9
$DIMCEN
 40
0.0
  9
$DIMTSZ
 40
0.0
  9
$DIMTOL
 70
     0
  9
$DIMLIM
 70
     0
  9
$DIMTIH
 70
     0
  9
$DIMTOH
 70
     0
  9
$DIMSE1
 70
     0
  9
$DIMSE2
 70
     0
  9
$DIMTAD
 70
     3
  9
$DIMZIN
 70
     8
  9
$DIMBLK
  1
OPEN30
  9
$DIMASO
 70
     1
  9
$DIMSHO
 70
     1
  9
$DIMPOST
  1

  9
$DIMAPOST
  1
"
  9
$DIMALT
 70
     0
  9
$DIMALTD
 70
     2
  9
$DIMALTF
 40
0.0393701
  9
$DIMLFAC
 40
1.0
  9
$DIMTOFL
 70
     1
  9
$DIMTVP
 40
0.0
  9
$DIMTIX
 70
     0
  9
$DIMSOXD
 70
     0
  9
$DIMSAH
 70
     0
  9
$DIMBLK1
  1

  9
$DIMBLK2
  1

  9
$DIMSTYLE
  2
AM_JIS
  9
$DIMCLRD
 70
   256
  9
$DIMCLRE
 70
   256
  9
$DIMCLRT
 70
     2
  9
$DIMTFAC
 40
0.71
  9
$DIMGAP
 40
1.5
  9
$DIMJUST
 70
     0
  9
$DIMSD1
 70
     0
  9
$DIMSD2
 70
     0
  9
$DIMTOLJ
 70
     0
  9
$DIMTZIN
 70
     0
  9
$DIMALTZ
 70
     0
  9
$DIMALTTZ
 70
     0
  9
$DIMFIT
 70
     3
  9
$DIMUPT
 70
     0
  9
$DIMUNIT
 70
     2
  9
$DIMDEC
 70
     3
  9
$DIMTDEC
 70
     3
  9
$DIMALTU
 70
     2
  9
$DIMALTTD
 70
     2
  9
$DIMTXSTY
  7
ASAMI
  9
$DIMAUNIT
 70
     0
  9
$LUNITS
 70
     2
  9
$LUPREC
 70
     2
  9
$SKETCHINC
 40
1.0
  9
$FILLETRAD
 40
2.5
  9
$AUNITS
 70
     0
  9
$AUPREC
 70
     0
  9
$MENU
  1
.
  9
$ELEVATION
 40
0.0
  9
$PELEVATION
 40
0.0
  9
$THICKNESS
 40
0.0
  9
$LIMCHECK
 70
     0
  9
$BLIPMODE
 70
     0
  9
$CHAMFERA
 40
2.5
  9
$CHAMFERB
 40
2.5
  9
$CHAMFERC
 40
20.0
  9
$CHAMFERD
 40
0.0
  9
$SKPOLY
 70
     0
  9
$TDCREATE
 40
2452800.443498622
  9
$TDUPDATE
 40
2453151.587874514
  9
$TDINDWG
 40
0.2150218287
  9
$TDUSRTIMER
 40
0.2150218287
  9
$USRTIMER
 70
     1
  9
$ANGBASE
 50
0.0
  9
$ANGDIR
 70
     0
  9
$PDMODE
 70
     0
  9
$PDSIZE
 40
0.0
  9
$PLINEWID
 40
0.0
  9
$COORDS
 70
     1
  9
$SPLFRAME
 70
     0
  9
$SPLINETYPE
 70
     6
  9
$SPLINESEGS
 70
     8
  9
$ATTDIA
 70
     1
  9
$ATTREQ
 70
     1
  9
$HANDLING
 70
 12289
  9
$HANDSEED
  5
36FD
  9
$SURFTAB1
 70
     6
  9
$SURFTAB2
 70
     6
  9
$SURFTYPE
 70
     6
  9
$SURFU
 70
     6
  9
$SURFV
 70
     6
  9
$UCSNAME
  2

  9
$UCSORG
 10
0.0
 20
0.0
 30
0.0
  9
$UCSXDIR
 10
1.0
 20
0.0000000000000027
 30
0.0
  9
$UCSYDIR
 10
-0.0000000000000027
 20
1.0
 30
0.0
  9
$PUCSNAME
  2

  9
$PUCSORG
 10
0.0
 20
0.0
 30
0.0
  9
$PUCSXDIR
 10
1.0
 20
0.0
 30
0.0
  9
$PUCSYDIR
 10
0.0
 20
1.0
 30
0.0
  9
$USERI1
 70
     0
  9
$USERI2
 70
     0
  9
$USERI3
 70
     0
  9
$USERI4
 70
     0
  9
$USERI5
 70
     0
  9
$USERR1
 40
0.0
  9
$USERR2
 40
0.0
  9
$USERR3
 40
0.0
  9
$USERR4
 40
0.0
  9
$USERR5
 40
0.0
  9
$WORLDVIEW
 70
     1
  9
$SHADEDGE
 70
     3
  9
$SHADEDIF
 70
    70
  9
$TILEMODE
 70
     1
  9
$MAXACTVP
 70
    64
  9
$PINSBASE
 10
0.0
 20
0.0
 30
0.0
  9
$PLIMCHECK
 70
     0
  9
$PEXTMIN
 10
1.000000000000000E+20
 20
1.000000000000000E+20
 30
1.000000000000000E+20
  9
$PEXTMAX
 10
-1.000000000000000E+20
 20
-1.000000000000000E+20
 30
-1.000000000000000E+20
  9
$PLIMMIN
 10
0.0
 20
0.0
  9
$PLIMMAX
 10
841.0
 20
594.0
  9
$UNITMODE
 70
     0
  9
$VISRETAIN
 70
     1
  9
$PLINEGEN
 70
     0
  9
$PSLTSCALE
 70
     0
  9
$TREEDEPTH
 70
  3020
  9
$PICKSTYLE
 70
     0
  9
$CMLSTYLE
  2
STANDARD
  9
$CMLJUST
 70
     0
  9
$CMLSCALE
 40
20.0
  9
$PROXYGRAPHICS
 70
     1
  9
$MEASUREMENT
 70
     1
  0
ENDSEC
  0
SECTION
  2
CLASSES
  0
CLASS
  1
ACDBDICTIONARYWDFLT
  2
AcDbDictionaryWithDefault
  3
AutoCAD 2000
 90
        0
280
     0
281
     0
  0
CLASS
  1
ACDBPLACEHOLDER
  2
AcDbPlaceHolder
  3
AutoCAD 2000
 90
        0
280
     0
281
     0
  0
CLASS
  1
LAYOUT
  2
AcDbLayout
  3
AutoCAD 2000
 90
        0
280
     0
281
     0
  0
CLASS
  1
AMGSETTINGSOBJ
  2
AmgSettingsObj
  3
"AcadM|Product Description: AutoCAD Mechanical 2000|Company: Autodesk"
 90
        0
280
     0
281
     0
  0
CLASS
  1
ACME_DOCUMENT
  2
AcMeDbDoc
  3
AcMeServices
 90
        0
280
     0
281
     0
  0
CLASS
  1
ACMESCOPE
  2
AcMeScope
  3
AcMeServices
 90
        0
280
     0
281
     0
  0
CLASS
  1
ACMECOMMANDHISTORY
  2
AcMeCommandHistory
  3
AcMeServices
 90
        0
280
     0
281
     0
  0
CLASS
  1
DICTIONARYVAR
  2
AcDbDictionaryVar
  3
AutoCAD 2000
 90
        0
280
     0
281
     0
  0
CLASS
  1
ACIMSYSVARMAN
  2
AcImSysVarManager
  3
AcMeServices
 90
        0
280
     0
281
     0
  0
CLASS
  1
ACIMREALSYSVAR
  2
AcImRealSysVar
  3
AcMeServices
 90
        0
280
     0
281
     0
  0
CLASS
  1
ACIMINTSYSVAR
  2
AcImIntSysVar
  3
AcMeServices
 90
        0
280
     0
281
     0
  0
CLASS
  1
ACMEDRAWINGMAN
  2
AcMeDrawingMan
  3
AcMeServices
 90
        0
280
     0
281
     0
  0
CLASS
  1
ACMEVIEW
  2
AcMeView
  3
AcMeServices
 90
        0
280
     0
281
     0
  0
CLASS
  1
ACDBENTITYCACHE
  2
AcMeEntityCache
  3
AcMeServices
 90
        0
280
     0
281
     0
  0
CLASS
  1
GSMANAGER
  2
AcMeGSManager
  3
AcMeServices
 90
        0
280
     0
281
     0
  0
CLASS
  1
AmdtInternalReactor
  2
AmdtInternalReactor
  3
AcMeServices
 90
        0
280
     0
281
     0
  0
CLASS
  1
ACMESTATEMGR
  2
AcMeStateMgr
  3
AcMeServices
 90
        0
280
     0
281
     0
  0
CLASS
  1
ACME_DATABASE
  2
AcMeDbDatabase
  3
AcMeServices
 90
        0
280
     0
281
     0
  0
CLASS
  1
ACRFINSADJUSTERMGR
  2
AcRfInsAdjusterMgr
  3
AcMeServices
 90
        0
280
     0
281
     0
  0
CLASS
  1
ACMDATADICTIONARY
  2
AcmDataDictionary
  3
"AcmSymBB|Product Description: AutoCAD Mechanical 2000|Company: Autodesk"
 90
        0
280
     0
281
     0
  0
CLASS
  1
ACMDATAENTRYBLOCK
  2
AcmDataEntryBlock
  3
"AcmSymBB|Product Description: AutoCAD Mechanical 2000|Company: Autodesk"
 90
        0
280
     0
281
     0
  0
CLASS
  1
AMGOBJPROPCFG
  2
AmgObjPropCfg
  3
"AmgLay|Product Description: AutoCAD Mechanical 2000|Company: Autodesk"
 90
        1
280
     0
281
     0
  0
CLASS
  1
ACAMGFILTERDAT
  2
AcAmgFilterDat
  3
"AcadM|Product Description: AutoCAD Mechanical 2000|Company: Autodesk"
 90
        0
280
     0
281
     0
  0
CLASS
  1
LAYER_INDEX
  2
AcDbLayerIndex
  3
AutoCAD 2000
 90
        0
280
     0
281
     0
  0
CLASS
  1
IDBUFFER
  2
AcDbIdBuffer
  3
AutoCAD 2000
 90
        0
280
     0
281
     0
  0
CLASS
  1
ACIMSTRSYSVAR
  2
AcImStrSysVar
  3
AcMeServices
 90
        0
280
     0
281
     0
  0
CLASS
  1
ACMSTANDARDJIS
  2
AcmStandardJIS
  3
"AcmSymBB|Product Description: AutoCAD Mechanical 2000|Company: Autodesk"
 90
        0
280
     0
281
     0
  0
CLASS
  1
ACMSURFSTANDARDJIS
  2
AcmSurfTextStdJIS
  3
"AcmSymBB|Product Description: AutoCAD Mechanical 2000|Company: Autodesk"
 90
        0
280
     0
281
     0
  0
CLASS
  1
ACMFCFSTANDARDJIS
  2
AcmFCFStdJIS
  3
"AcmSymBB|Product Description: AutoCAD Mechanical 2000|Company: Autodesk"
 90
        0
280
     0
281
     0
  0
CLASS
  1
ACMWELDSTANDARDJIS
  2
AcmWeldingStdJIS
  3
"AcmSymBB|Product Description: AutoCAD Mechanical 2000|Company: Autodesk"
 90
        0
280
     0
281
     0
  0
CLASS
  1
ACMIDSTANDARDJIS
  2
AcmIdStdJIS
  3
"AcmSymBB|Product Description: AutoCAD Mechanical 2000|Company: Autodesk"
 90
        0
280
     0
281
     0
  0
CLASS
  1
ACMDATUMSTANDARDJIS
  2
AcmDatumStdJIS
  3
"AcmSymBB|Product Description: AutoCAD Mechanical 2000|Company: Autodesk"
 90
        0
280
     0
281
     0
  0
CLASS
  1
ACMBOMSTANDARDJIS
  2
AcmBOMStdJIS
  3
"AcmSymBB|Product Description: AutoCAD Mechanical 2000|Company: Autodesk"
 90
        0
280
     0
281
     0
  0
CLASS
  1
ACMSTANDARDANSI
  2
AcmStandardANSI
  3
"AcmSymBB|Product Description: AutoCAD Mechanical 2000|Company: Autodesk"
 90
        0
280
     0
281
     0
  0
CLASS
  1
ACMSURFSTANDARDANSI
  2
AcmSurfTextStdANSI
  3
"AcmSymBB|Product Description: AutoCAD Mechanical 2000|Company: Autodesk"
 90
        0
280
     0
281
     0
  0
CLASS
  1
ACMFCFSTANDARDANSI
  2
AcmFCFStdANSI
  3
"AcmSymBB|Product Description: AutoCAD Mechanical 2000|Company: Autodesk"
 90
        0
280
     0
281
     0
  0
CLASS
  1
ACMWELDSTANDARDANSI
  2
AcmWeldingStdANSI
  3
"AcmSymBB|Product Description: AutoCAD Mechanical 2000|Company: Autodesk"
 90
        0
280
     0
281
     0
  0
CLASS
  1
ACMIDSTANDARDANSI
  2
AcmIdStdANSI
  3
"AcmSymBB|Product Description: AutoCAD Mechanical 2000|Company: Autodesk"
 90
        0
280
     0
281
     0
  0
CLASS
  1
ACMDATUMSTANDARDANSI
  2
AcmDatumStdANSI
  3
"AcmSymBB|Product Description: AutoCAD Mechanical 2000|Company: Autodesk"
 90
        0
280
     0
281
     0
  0
CLASS
  1
ACMBOMSTANDARDANSI
  2
AcmBOMStdANSI
  3
"AcmSymBB|Product Description: AutoCAD Mechanical 2000|Company: Autodesk"
 90
        0
280
     0
281
     0
  0
CLASS
  1
ACMSTANDARDBSI
  2
AcmStandardBSI
  3
"AcmSymBB|Product Description: AutoCAD Mechanical 2000|Company: Autodesk"
 90
        0
280
     0
281
     0
  0
CLASS
  1
ACMSURFSTANDARDBSI
  2
AcmSurfTextStdBSI
  3
"AcmSymBB|Product Description: AutoCAD Mechanical 2000|Company: Autodesk"
 90
        0
280
     0
281
     0
  0
CLASS
  1
ACMFCFSTANDARDBSI
  2
AcmFCFStdBSI
  3
"AcmSymBB|Product Description: AutoCAD Mechanical 2000|Company: Autodesk"
 90
        0
280
     0
281
     0
  0
CLASS
  1
ACMWELDSTANDARDBSI
  2
AcmWeldingStdBSI
  3
"AcmSymBB|Product Description: AutoCAD Mechanical 2000|Company: Autodesk"
 90
        0
280
     0
281
     0
  0
CLASS
  1
ACMIDSTANDARDBSI
  2
AcmIdStdBSI
  3
"AcmSymBB|Product Description: AutoCAD Mechanical 2000|Company: Autodesk"
 90
        0
280
     0
281
     0
  0
CLASS
  1
ACMDATUMSTANDARDBSI
  2
AcmDatumStdBSI
  3
"AcmSymBB|Product Description: AutoCAD Mechanical 2000|Company: Autodesk"
 90
        0
280
     0
281
     0
  0
CLASS
  1
ACMBOMSTANDARDBSI
  2
AcmBOMStdBSI
  3
"AcmSymBB|Product Description: AutoCAD Mechanical 2000|Company: Autodesk"
 90
        0
280
     0
281
     0
  0
CLASS
  1
LONG_TRANSACTION
  2
AcDbLongTransaction
  3
AutoCAD 2000
 90
        0
280
     0
281
     0
  0
CLASS
  1
LWPOLYLINE
  2
AcDbPolyline
  3
AutoCAD 2000
 90
        0
280
     0
281
     1
  0
CLASS
  1
HATCH
  2
AcDbHatch
  3
AutoCAD 2000
 90
        0
280
     0
281
     1
  0
CLASS
  1
XRECORD
  2
AcDbXrecord
  3
AutoCAD 2000
 90
        0
280
     0
281
     0
  0
ENDSEC
  0
SECTION
  2
TABLES
  0
TABLE
  2
VPORT
  5
8
330
0
100
AcDbSymbolTable
 70
     3
  0
VPORT
  5
36D2
330
8
100
AcDbSymbolTableRecord
100
AcDbViewportTableRecord
  2
*ACTIVE
 70
     0
 10
0.0
 20
0.0
 11
1.0
 21
1.0
 12
-33.40842395741848
 22
-6.433841878836105
 13
0.0
 23
0.0
 14
2.5
 24
2.5
 15
10.0
 25
10.0
 16
0.0
 26
0.0
 36
1.0
 17
0.0
 27
0.0
 37
0.0
 40
121.245701528386
 41
1.56570841889117
 42
50.0
 43
0.0
 44
0.0
 50
0.0
 51
0.0
 71
     0
 72
   100
 73
     1
 74
     1
 75
     0
 76
     0
 77
     0
 78
     0
  0
ENDTAB
  0
TABLE
  2
LTYPE
  5
5
330
0
100
AcDbSymbolTable
 70
    10
  0
LTYPE
  5
14
330
5
100
AcDbSymbolTableRecord
100
AcDbLinetypeTableRecord
  2
BYBLOCK
 70
     0
  3

 72
    65
 73
     0
 40
0.0
  0
LTYPE
  5
15
330
5
100
AcDbSymbolTableRecord
100
AcDbLinetypeTableRecord
  2
BYLAYER
 70
     0
  3

 72
    65
 73
     0
 40
0.0
  0
LTYPE
  5
16
330
5
100
AcDbSymbolTableRecord
100
AcDbLinetypeTableRecord
  2
CONTINUOUS
 70
     0
  3
Solid line
 72
    65
 73
     0
 40
0.0
  0
LTYPE
  5
4B
330
5
100
AcDbSymbolTableRecord
100
AcDbLinetypeTableRecord
  2
AM_ISO02W050
 70
     0
  3
__ __ __ __ __ __ __ __ __ __ __ __ __ __ __
 72
    65
 73
     2
 40
7.5
 49
6.0
 74
     0
 49
-1.5
 74
     0
  0
LTYPE
  5
4C
330
5
100
AcDbSymbolTableRecord
100
AcDbLinetypeTableRecord
  2
AM_ISO08W050
 70
     0
  3
____ . ____ . ____ . ____ . ____ . ____ . ____
 72
    65
 73
     4
 40
18.0
 49
12.0
 74
     0
 49
-1.5
 74
     0
 49
3.0
 74
     0
 49
-1.5
 74
     0
  0
LTYPE
  5
4D
330
5
100
AcDbSymbolTableRecord
100
AcDbLinetypeTableRecord
  2
AM_ISO09W050
 70
     0
  3
_____ . . _____ . . _____ . . ____ .. ____
 72
    65
 73
     6
 40
22.5
 49
12.0
 74
     0
 49
-1.5
 74
     0
 49
3.0
 74
     0
 49
-1.5
 74
     0
 49
3.0
 74
     0
 49
-1.5
 74
     0
  0
LTYPE
  5
4E
330
5
100
AcDbSymbolTableRecord
100
AcDbLinetypeTableRecord
  2
AMCONSTR
 70
     0
  3
_______________________
 72
    65
 73
     2
 40
9999.0
 49
9999.0
 74
     0
 49
0.0
 74
     0
  0
LTYPE
  5
4F
330
5
100
AcDbSymbolTableRecord
100
AcDbLinetypeTableRecord
  2
AM_ISO02W050X2
 70
     0
  3
 _ _ _ _ _ _ _ _ _ _ _ _
 72
    65
 73
     2
 40
3.75
 49
3.0
 74
     0
 49
-0.75
 74
     0
  0
LTYPE
  5
50
330
5
100
AcDbSymbolTableRecord
100
AcDbLinetypeTableRecord
  2
AM_ISO08W050X2
 70
     0
  3
__ . __ . __ . __ . __ . __
 72
    65
 73
     4
 40
9.0
 49
6.0
 74
     0
 49
-0.75
 74
     0
 49
1.5
 74
     0
 49
-0.75
 74
     0
  0
LTYPE
  5
53
330
5
100
AcDbSymbolTableRecord
100
AcDbLinetypeTableRecord
  2
AMZIGZAG
 70
     0
  3
/\/-/\/-/\/-/\/-/\/-/\/
 72
    65
 73
     2
 40
11.00009999999999
 49
0.0001
 74
     4
 75
   135
340
52
 46
0.04
 50
0.0
 44
0.0
 45
0.0
 49
-11.0
 74
     0
  0
LTYPE
  5
166
330
5
100
AcDbSymbolTableRecord
100
AcDbLinetypeTableRecord
  2
ACJISTGL
 70
     0
  3
_ _ _ _ _
 72
    65
 73
     2
 40
3.0
 49
2.0
 74
     0
 49
-1.0
 74
     0
  0
LTYPE
  5
26A
330
5
100
AcDbSymbolTableRecord
100
AcDbLinetypeTableRecord
  2
ACJISTGB
 70
     0
  3
__ . . __ . .
 72
    65
 73
     6
 40
9.0
 49
4.0
 74
     0
 49
-1.0
 74
     0
 49
1.0
 74
     0
 49
-1.0
 74
     0
 49
1.0
 74
     0
 49
-1.0
 74
     0
  0
ENDTAB
  0
TABLE
  2
LAYER
  5
2
330
0
100
AcDbSymbolTable
 70
    10
  0
LAYER
  5
10
330
2
100
AcDbSymbolTableRecord
100
AcDbLayerTableRecord
  2
0
 70
     0
 62
     7
  6
CONTINUOUS
  0
LAYER
  5
3F9
330
2
100
AcDbSymbolTableRecord
100
AcDbLayerTableRecord
  2
AM_0
 70
     0
 62
     7
  6
CONTINUOUS
  0
LAYER
  5
BA4
330
2
100
AcDbSymbolTableRecord
100
AcDbLayerTableRecord
  2
PV0001_1
 70
     0
 62
     7
  6
CONTINUOUS
  0
LAYER
  5
C6C
330
2
100
AcDbSymbolTableRecord
100
AcDbLayerTableRecord
  2
AM_CL
 70
     0
 62
     1
  6
AMCONSTR
  0
LAYER
  5
C7C
330
2
100
AcDbSymbolTableRecord
100
AcDbLayerTableRecord
  2
AM_7
 70
     0
 62
     4
  6
AM_ISO08W050
  0
LAYER
  5
C97
330
2
100
AcDbSymbolTableRecord
100
AcDbLayerTableRecord
  2
AM_11
 70
     0
 62
     3
  6
AM_ISO09W050
  0
LAYER
  5
CC5
330
2
100
AcDbSymbolTableRecord
100
AcDbLayerTableRecord
  2
AM_5
 70
     0
 62
     3
  6
CONTINUOUS
  0
LAYER
  5
CC7
330
2
100
AcDbSymbolTableRecord
100
AcDbLayerTableRecord
  2
DEFPOINTS
 70
     0
 62
     7
  6
CONTINUOUS
  0
LAYER
  5
19BC
330
2
100
AcDbSymbolTableRecord
100
AcDbLayerTableRecord
  2
AM_6
 70
     0
 62
     2
  6
CONTINUOUS
  0
LAYER
  5
1F8E
330
2
100
AcDbSymbolTableRecord
100
AcDbLayerTableRecord
  2
AM_4
 70
     0
 62
     3
  6
CONTINUOUS
  0
ENDTAB
  0
TABLE
  2
STYLE
  5
3
330
0
100
AcDbSymbolTable
 70
     5
  0
STYLE
  5
11
330
3
100
AcDbSymbolTableRecord
100
AcDbTextStyleTableRecord
  2
STANDARD
 70
     0
 40
0.0
 41
1.0
 50
0.0
 71
     0
 42
2.5
  3
simplex.shx
  4
EXTFONT.SHX
  0
STYLE
  5
52
330
3
100
AcDbSymbolTableRecord
100
AcDbTextStyleTableRecord
  2

 70
     1
 40
0.0
 41
1.0
 50
0.0
 71
     0
 42
2.5
  3
ltypeshp.shx
  4

  0
STYLE
  5
6B
330
3
100
AcDbSymbolTableRecord
100
AcDbTextStyleTableRecord
  2
ASAMI
 70
     0
 40
0.0
 41
1.0
 50
0.0
 71
     0
 42
2.5
  3
simplex.shx
  4
EXTFONT.SHX
  0
STYLE
  5
262
330
3
100
AcDbSymbolTableRecord
100
AcDbTextStyleTableRecord
  2
ACJISTS
 70
     0
 40
1.0
 41
1.0
 50
0.0
 71
     0
 42
2.5
  3
simplex.shx
  4
bigfont.shx
  0
STYLE
  5
269
330
3
100
AcDbSymbolTableRecord
100
AcDbTextStyleTableRecord
  2
ACJISGDT
 70
     0
 40
0.0
 41
1.0
 50
0.0
 71
     0
 42
2.5
  3
amgdtans.shx
  4

  0
ENDTAB
  0
TABLE
  2
VIEW
  5
6
330
0
100
AcDbSymbolTable
 70
     0
  0
ENDTAB
  0
TABLE
  2
UCS
  5
7
330
0
100
AcDbSymbolTable
 70
     0
  0
ENDTAB
  0
TABLE
  2
APPID
  5
9
330
0
100
AcDbSymbolTable
 70
    16
  0
APPID
  5
12
330
9
100
AcDbSymbolTableRecord
100
AcDbRegAppTableRecord
  2
ACAD
 70
     0
  0
APPID
  5
30
330
9
100
AcDbSymbolTableRecord
100
AcDbRegAppTableRecord
  2
MCAD_NO_VIS
 70
     0
  0
APPID
  5
31
330
9
100
AcDbSymbolTableRecord
100
AcDbRegAppTableRecord
  2
ACAD_TEMP_GRAPHIC
 70
     0
  0
APPID
  5
2C2
330
9
100
AcDbSymbolTableRecord
100
AcDbRegAppTableRecord
  2
GENIUS_GENDTOL_13
 70
     0
  0
APPID
  5
339
330
9
100
AcDbSymbolTableRecord
100
AcDbRegAppTableRecord
  2
GENIUS_GENODEF_13
 70
     0
  0
APPID
  5
33A
330
9
100
AcDbSymbolTableRecord
100
AcDbRegAppTableRecord
  2
GENIUS_GENOBJ-N-RSBK_13
 70
     0
  0
APPID
  5
33B
330
9
100
AcDbSymbolTableRecord
100
AcDbRegAppTableRecord
  2
GENIUS_GENOBJ-N-LIB_13
 70
     0
  0
APPID
  5
33C
330
9
100
AcDbSymbolTableRecord
100
AcDbRegAppTableRecord
  2
GENIUS_GENSCALE_13
 70
     0
  0
APPID
  5
378
330
9
100
AcDbSymbolTableRecord
100
AcDbRegAppTableRecord
  2
GENIUS_GENDIMSH_14
 70
     0
  0
APPID
  5
C82
330
9
100
AcDbSymbolTableRecord
100
AcDbRegAppTableRecord
  2
GENIUS_GENOBJ-N-CRS_13
 70
     0
  0
APPID
  5
C83
330
9
100
AcDbSymbolTableRecord
100
AcDbRegAppTableRecord
  2
GENIUS_GENOENT_13
 70
     0
  0
APPID
  5
C84
330
9
100
AcDbSymbolTableRecord
100
AcDbRegAppTableRecord
  2
GENIUS_GENOREF_13
 70
     0
  0
APPID
  5
C85
330
9
100
AcDbSymbolTableRecord
100
AcDbRegAppTableRecord
  2
GENIUS_GENOLIS_13
 70
     0
  0
APPID
  5
CA0
330
9
100
AcDbSymbolTableRecord
100
AcDbRegAppTableRecord
  2
GENIUS_GENOBJ-N-CEN_13
 70
     0
  0
APPID
  5
31AE
330
9
100
AcDbSymbolTableRecord
100
AcDbRegAppTableRecord
  2
GENIUS_GENFIL_13
 70
     0
  0
APPID
  5
31AF
330
9
100
AcDbSymbolTableRecord
100
AcDbRegAppTableRecord
  2
GENIUS_GENOBJ-N-CHA_13
 70
     0
  0
ENDTAB
  0
TABLE
  2
DIMSTYLE
  5
A
330
0
100
AcDbSymbolTable
 70
    10
  0
DIMSTYLE
105
58
330
A
100
AcDbSymbolTableRecord
100
AcDbDimStyleTableRecord
  2
AM_JIS
 70
     0
  3

  4
"
  5
OPEN30
  6

  7

 40
0.5
 41
2.5
 42
1.0
 43
12.0
 44
1.0
 45
0.0
 46
0.0
 47
0.1
 48
0.1
140
3.2
141
0.0
142
0.0
143
0.0393701
144
1.0
145
0.0
146
0.71
147
1.5
 71
     0
 72
     0
 73
     0
 74
     0
 75
     0
 76
     0
 77
     3
 78
     8
170
     0
171
     2
172
     1
173
     0
174
     0
175
     0
176
   256
177
   256
178
     2
270
     2
271
     3
272
     3
273
     2
274
     2
340
6B
275
     0
280
     0
281
     0
282
     0
283
     0
284
     0
285
     0
286
     0
287
     3
288
     0
  0
DIMSTYLE
105
5F
330
A
100
AcDbSymbolTableRecord
100
AcDbDimStyleTableRecord
  2
AM_JIS$3
 70
     0
  3

  4
"
  5
OPEN30
  6

  7

 40
0.5
 41
2.5
 42
1.0
 43
10.0
 44
1.0
 45
0.0
 46
0.0
 47
0.1
 48
0.1
140
3.2
141
0.0
142
0.0
143
0.0393701
144
1.0
145
0.0
146
0.71
147
1.5
 71
     0
 72
     0
 73
     0
 74
     1
 75
     0
 76
     0
 77
     3
 78
     8
170
     0
171
     2
172
     0
173
     0
174
     0
175
     0
176
   256
177
   256
178
     2
270
     2
271
     2
272
     3
273
     2
274
     2
340
6B
275
     0
280
     0
281
     0
282
     0
283
     0
284
     0
285
     0
286
     0
287
     0
288
     1
  0
DIMSTYLE
105
60
330
A
100
AcDbSymbolTableRecord
100
AcDbDimStyleTableRecord
  2
AM_JIS$4
 70
     0
  3

  4
"
  5
OPEN30
  6

  7

 40
0.5
 41
2.5
 42
1.0
 43
10.0
 44
1.0
 45
0.0
 46
0.0
 47
0.1
 48
0.1
140
3.2
141
0.0
142
0.0
143
0.0393701
144
1.0
145
0.0
146
0.71
147
1.5
 71
     0
 72
     0
 73
     0
 74
     1
 75
     0
 76
     0
 77
     3
 78
     8
170
     0
171
     2
172
     0
173
     0
174
     0
175
     0
176
   256
177
   256
178
     2
270
     2
271
     2
272
     3
273
     2
274
     2
340
6B
275
     0
280
     0
281
     0
282
     0
283
     0
284
     0
285
     0
286
     0
287
     0
288
     1
  0
DIMSTYLE
105
61
330
A
100
AcDbSymbolTableRecord
100
AcDbDimStyleTableRecord
  2
AM_JIS$6
 70
     0
  3

  4
"
  5
OPEN30
  6

  7

 40
0.5
 41
2.5
 42
1.0
 43
10.0
 44
1.0
 45
0.0
 46
0.0
 47
0.1
 48
0.1
140
3.2
141
0.0
142
0.0
143
0.0393701
144
1.0
145
0.0
146
0.71
147
1.5
 71
     0
 72
     0
 73
     0
 74
     0
 75
     0
 76
     0
 77
     0
 78
     8
170
     0
171
     2
172
     1
173
     0
174
     0
175
     0
176
   256
177
   256
178
     2
270
     2
271
     2
272
     2
273
     2
274
     2
340
6B
275
     0
280
     0
281
     0
282
     0
283
     0
284
     0
285
     0
286
     0
287
     3
288
     0
  0
DIMSTYLE
105
62
330
A
100
AcDbSymbolTableRecord
100
AcDbDimStyleTableRecord
  2
AM_JIS$7
 70
     0
  3

  4
"
  5
OPEN30
  6

  7

 40
0.5
 41
2.5
 42
1.0
 43
10.0
 44
1.0
 45
0.0
 46
0.0
 47
0.1
 48
0.1
140
3.2
141
0.0
142
0.0
143
0.0393701
144
1.0
145
0.0
146
0.71
147
1.5
 71
     0
 72
     0
 73
     0
 74
     0
 75
     0
 76
     0
 77
     3
 78
     8
170
     0
171
     2
172
     1
173
     0
174
     0
175
     0
176
   256
177
   256
178
     2
270
     2
271
     2
272
     3
273
     2
274
     2
340
6B
275
     0
280
     0
281
     0
282
     0
283
     0
284
     0
285
     0
286
     0
287
     3
288
     0
  0
DIMSTYLE
105
63
330
A
100
AcDbSymbolTableRecord
100
AcDbDimStyleTableRecord
  2
AM_JIS$SF
 70
     0
  3

  4
"
  5
OPEN30
  6

  7

 40
0.5
 41
2.5
 42
1.0
 43
10.0
 44
1.0
 45
0.0
 46
0.0
 47
0.1
 48
0.1
140
3.2
141
0.0
142
0.0
143
0.0393701
144
1.0
145
0.0
146
0.71
147
1.5
 71
     0
 72
     0
 73
     0
 74
     0
 75
     1
 76
     1
 77
     3
 78
     8
170
     0
171
     2
172
     1
173
     0
174
     0
175
     0
176
   256
177
   256
178
     2
270
     2
271
     2
272
     2
273
     2
274
     2
340
6B
275
     0
280
     0
281
     0
282
     0
283
     0
284
     0
285
     0
286
     0
287
     3
288
     0
  0
DIMSTYLE
105
68
330
A
100
AcDbSymbolTableRecord
100
AcDbDimStyleTableRecord
  2
AM_JIS$SH
 70
     0
  3

  4
"
  5

  6
GENAXEH
  7
OPEN30
 40
0.5
 41
2.5
 42
1.0
 43
10.0
 44
1.0
 45
0.0
 46
0.0
 47
0.1
 48
0.1
140
3.2
141
0.0
142
0.0
143
0.0393701
144
2.0
145
0.0
146
0.71
147
1.5
 71
     0
 72
     0
 73
     0
 74
     0
 75
     1
 76
     1
 77
     3
 78
     8
170
     0
171
     2
172
     1
173
     1
174
     0
175
     0
176
   256
177
   256
178
     2
270
     2
271
     2
272
     2
273
     2
274
     2
340
6B
275
     0
280
     0
281
     0
282
     0
283
     0
284
     0
285
     0
286
     0
287
     3
288
     0
  0
DIMSTYLE
105
B34
102
{ACAD_REACTORS
330
31FC
330
3203
102
}
330
A
100
AcDbSymbolTableRecord
100
AcDbDimStyleTableRecord
  2
AM_JIS$2
 70
     0
  3

  4
"
  5
OPEN30
  6

  7

 40
0.5
 41
2.5
 42
1.0
 43
12.0
 44
1.0
 45
0.0
 46
0.0
 47
0.1
 48
0.1
140
3.2
141
0.0
142
0.0
143
0.0393701
144
1.0
145
0.0
146
0.71
147
1.5
 71
     0
 72
     0
 73
     0
 74
     0
 75
     0
 76
     0
 77
     3
 78
     8
170
     0
171
     2
172
     1
173
     0
174
     0
175
     0
176
   256
177
   256
178
     2
270
     2
271
     3
272
     3
273
     2
274
     2
340
6B
275
     0
280
     0
281
     0
282
     0
283
     0
284
     0
285
     0
286
     0
287
     3
288
     0
  0
DIMSTYLE
105
BA5
102
{ACAD_REACTORS
330
31FD
330
31FE
330
3202
330
320B
330
323E
102
}
330
A
100
AcDbSymbolTableRecord
100
AcDbDimStyleTableRecord
  2
AM_JIS$0
 70
     0
  3

  4
"
  5
OPEN30
  6

  7

 40
0.5
 41
2.5
 42
0.8
 43
10.0
 44
1.0
 45
0.0
 46
0.0
 47
0.1
 48
0.1000000001
140
3.799999999999999
141
0.0
142
0.0
143
0.0393701
144
1.0
145
0.0
146
0.71
147
1.5
 71
     0
 72
     0
 73
     0
 74
     0
 75
     0
 76
     0
 77
     3
 78
     9
170
     0
171
     2
172
     1
173
     0
174
     0
175
     0
176
     3
177
     3
178
     2
270
     2
271
     2
272
     2
273
     2
274
     2
340
11
275
     1
280
     0
281
     0
282
     0
283
     0
284
     8
285
     0
286
     0
287
     0
288
     0
  0
DIMSTYLE
105
BA6
330
A
100
AcDbSymbolTableRecord
100
AcDbDimStyleTableRecord
  2
AM_JISORG-1P0$2
 70
     0
  3

  4
"
  5
OPEN30
  6

  7

 40
1.0
 41
2.5
 42
0.0
 43
10.0
 44
1.0
 45
0.0
 46
0.0
 47
0.1
 48
0.1000000001
140
3.799999999999999
141
0.0
142
0.0
143
0.0393701
144
-0.999999980146674
145
0.0
146
0.71
147
1.5
 71
     0
 72
     0
 73
     0
 74
     0
 75
     0
 76
     0
 77
     3
 78
     1
170
     0
171
     2
172
     1
173
     0
174
     0
175
     0
176
     3
177
     3
178
     2
270
     2
271
     2
272
     2
273
     2
274
     2
340
11
275
     1
280
     0
281
     0
282
     0
283
     0
284
     8
285
     0
286
     0
287
     0
288
     0
  0
ENDTAB
  0
TABLE
  2
BLOCK_RECORD
  5
1
330
0
100
AcDbSymbolTable
 70
    15
  0
BLOCK_RECORD
  5
1F
102
{ACAD_XDICTIONARY
360
74
102
}
330
1
100
AcDbSymbolTableRecord
100
AcDbBlockTableRecord
  2
*MODEL_SPACE
  0
BLOCK_RECORD
  5
101
102
{ACAD_XDICTIONARY
360
36FB
102
}
330
1
100
AcDbSymbolTableRecord
100
AcDbBlockTableRecord
  2
*PAPER_SPACE
  0
BLOCK_RECORD
  5
59
330
1
100
AcDbSymbolTableRecord
100
AcDbBlockTableRecord
  2
_OPEN30
  0
BLOCK_RECORD
  5
64
330
1
100
AcDbSymbolTableRecord
100
AcDbBlockTableRecord
  2
GENAXEH
  0
BLOCK_RECORD
  5
C31
330
1
100
AcDbSymbolTableRecord
100
AcDbBlockTableRecord
  2
A$C36D02A34
  0
BLOCK_RECORD
  5
2453
330
1
100
AcDbSymbolTableRecord
100
AcDbBlockTableRecord
  2
*D6
  0
BLOCK_RECORD
  5
245F
330
1
100
AcDbSymbolTableRecord
100
AcDbBlockTableRecord
  2
A$C4FFC6CC0
  0
BLOCK_RECORD
  5
3244
330
1
100
AcDbSymbolTableRecord
100
AcDbBlockTableRecord
  2
*D8
  0
BLOCK_RECORD
  5
3252
330
1
100
AcDbSymbolTableRecord
100
AcDbBlockTableRecord
  2
*D9
  0
BLOCK_RECORD
  5
3260
330
1
100
AcDbSymbolTableRecord
100
AcDbBlockTableRecord
  2
*D10
  0
BLOCK_RECORD
  5
326E
330
1
100
AcDbSymbolTableRecord
100
AcDbBlockTableRecord
  2
*D11
  0
BLOCK_RECORD
  5
327A
330
1
100
AcDbSymbolTableRecord
100
AcDbBlockTableRecord
  2
*D12
  0
BLOCK_RECORD
  5
3288
330
1
100
AcDbSymbolTableRecord
100
AcDbBlockTableRecord
  2
*D13
  0
BLOCK_RECORD
  5
3294
330
1
100
AcDbSymbolTableRecord
100
AcDbBlockTableRecord
  2
*D14
  0
ENDTAB
  0
ENDSEC
  0
SECTION
  2
BLOCKS
  0
BLOCK
  5
20
330
1F
100
AcDbEntity
  8
0
100
AcDbBlockBegin
  2
*MODEL_SPACE
 70
     0
 10
0.0
 20
0.0
 30
0.0
  3
*MODEL_SPACE
  1

  0
ENDBLK
  5
21
330
1F
100
AcDbEntity
  8
0
100
AcDbBlockEnd
  0
BLOCK
  5
103
330
101
100
AcDbEntity
 67
     1
  8
0
100
AcDbBlockBegin
  2
*PAPER_SPACE
 70
     0
 10
0.0
 20
0.0
 30
0.0
  3
*PAPER_SPACE
  1

  0
ENDBLK
  5
104
330
101
100
AcDbEntity
 67
     1
  8
0
100
AcDbBlockEnd
  0
BLOCK
  5
5D
330
59
100
AcDbEntity
  8
0
100
AcDbBlockBegin
  2
_OPEN30
 70
     0
 10
0.0
 20
0.0
 30
0.0
  3
_OPEN30
  1

  0
LINE
  5
5A
330
59
100
AcDbEntity
  8
0
 62
     0
100
AcDbLine
 10
-1.0
 20
0.26794919
 30
0.0
 11
0.0
 21
0.0
 31
0.0
  0
LINE
  5
5B
330
59
100
AcDbEntity
  8
0
 62
     0
100
AcDbLine
 10
0.0
 20
0.0
 30
0.0
 11
-1.0
 21
-0.26794919
 31
0.0
  0
LINE
  5
5C
330
59
100
AcDbEntity
  8
0
 62
     0
100
AcDbLine
 10
0.0
 20
0.0
 30
0.0
 11
-1.0
 21
0.0
 31
0.0
  0
ENDBLK
  5
5E
330
59
100
AcDbEntity
  8
0
100
AcDbBlockEnd
  0
BLOCK
  5
66
330
64
100
AcDbEntity
  8
0
100
AcDbBlockBegin
  2
GENAXEH
 70
     0
 10
0.0
 20
0.0
 30
0.0
  3
GENAXEH
  1

  0
LINE
  5
65
330
64
100
AcDbEntity
  8
0
100
AcDbLine
 10
-1.0
 20
0.0
 30
0.0
 11
1.0
 21
0.0
 31
0.0
  0
ENDBLK
  5
67
330
64
100
AcDbEntity
  8
0
100
AcDbBlockEnd
  0
BLOCK
  5
C4B
330
C31
100
AcDbEntity
  8
0
100
AcDbBlockBegin
  2
A$C36D02A34
 70
     0
 10
0.0
 20
0.0
 30
0.0
  3
A$C36D02A34
  1

  0
ARC
  5
C32
330
C31
100
AcDbEntity
  8
PV0001_1
  6
CONTINUOUS
 48
0.5
100
AcDbCircle
 10
18.06811523436999
 20
-11.83651161193799
 30
0.0
 40
21.600000381469
100
AcDbArc
 50
123.2290435713209
 51
126.6341524197568
  0
ARC
  5
C33
330
C31
100
AcDbEntity
  8
PV0001_1
  6
CONTINUOUS
 48
0.5
100
AcDbCircle
 10
18.06811523436999
 20
-11.83651161193799
 30
0.0
 40
21.600000381469
100
AcDbArc
 50
135.0736707620117
 51
146.7709980930592
  0
ARC
  5
C34
330
C31
100
AcDbEntity
  8
PV0001_1
  6
CONTINUOUS
 48
0.5
100
AcDbCircle
 10
-18.0680770874
 20
11.8365631103514
 30
0.0
 40
21.600000381469
100
AcDbArc
 50
315.0734847530392
 51
326.770781348241
  0
ARC
  5
C35
330
C31
100
AcDbEntity
  8
PV0001_1
  6
CONTINUOUS
 48
0.5
100
AcDbCircle
 10
-18.0680770874
 20
11.8365631103514
 30
0.0
 40
21.600000381469
100
AcDbArc
 50
303.2288882981993
 51
306.633986901359
  0
ARC
  5
C36
330
C31
100
AcDbEntity
  8
PV0001_1
  6
CONTINUOUS
 48
0.5
100
AcDbCircle
 10
-0.6269836425800009
 20
-2.044216156005997
 30
0.0
 40
2.0
100
AcDbArc
 50
337.4067997351092
 51
43.42231293132884
  0
ARC
  5
C37
330
C31
100
AcDbEntity
  8
PV0001_1
  6
CONTINUOUS
 48
0.5
100
AcDbCircle
 10
0.626953125
 20
2.044223785401001
 30
0.0
 40
2.0
100
AcDbArc
 50
157.4068184044407
 51
223.4222769591536
  0
CIRCLE
  5
C38
330
C31
100
AcDbEntity
  8
PV0001_1
  6
CONTINUOUS
 48
0.5
100
AcDbCircle
 10
3.856727600100001
 20
4.596265792847002
 30
0.0
 40
1.6000000238419
  0
CIRCLE
  5
C39
330
C31
100
AcDbEntity
  8
PV0001_1
  6
CONTINUOUS
 48
0.5
100
AcDbCircle
 10
-3.856727600100001
 20
-4.596265792845997
 30
0.0
 40
1.6000000238419
  0
ARC
  5
C3A
330
C31
100
AcDbEntity
  8
PV0001_1
  6
CONTINUOUS
 48
0.5
100
AcDbCircle
 10
-5.58123779297
 20
5.092639923096001
 30
0.0
 40
5.019082546234099
100
AcDbArc
 50
240.2658959250867
 51
321.5156269706421
  0
ARC
  5
C3B
330
C31
100
AcDbEntity
  8
PV0001_1
  6
CONTINUOUS
 48
0.5
100
AcDbCircle
 10
5.486755371089998
 20
-4.601703643798998
 30
0.0
 40
4.651036739349399
100
AcDbArc
 50
56.25271400417071
 51
145.528859890601
  0
ARC
  5
C3C
330
C31
100
AcDbEntity
  8
PV0001_1
  6
CONTINUOUS
 48
0.5
100
AcDbCircle
 10
-2.11590576172
 20
-3.453323364257997
 30
0.0
 40
4.050000190734899
100
AcDbArc
 50
43.42230610113921
 51
58.50391703385149
  0
ARC
  5
C3D
330
C31
100
AcDbEntity
  8
PV0001_1
  6
CONTINUOUS
 48
0.5
100
AcDbCircle
 10
2.115875244139999
 20
3.453330993653001
 30
0.0
 40
4.050000190734899
100
AcDbArc
 50
223.4222942619974
 51
238.5038164022482
  0
ARC
  5
C3E
330
C31
100
AcDbEntity
  8
PV0001_1
  6
CONTINUOUS
 48
0.5
100
AcDbCircle
 10
-6.70369720459
 20
5.094657897949002
 30
0.0
 40
5.940000057220499
100
AcDbArc
 50
328.2536768887549
 51
31.74641873389623
  0
ARC
  5
C3F
330
C31
100
AcDbEntity
  8
PV0001_1
  6
CONTINUOUS
 48
0.5
100
AcDbCircle
 10
6.703674316410001
 20
-5.094650268553998
 30
0.0
 40
5.940000057220499
100
AcDbArc
 50
148.2533403882529
 51
211.7466423089037
  0
ARC
  5
C40
330
C31
100
AcDbEntity
  8
PV0001_1
  6
CONTINUOUS
 48
0.5
100
AcDbCircle
 10
0.0
 20
0.0
 30
0.0
 40
8.812800407409699
100
AcDbArc
 50
175.2198288164333
 51
272.8622597568298
  0
ARC
  5
C41
330
C31
100
AcDbEntity
  8
PV0001_1
  6
CONTINUOUS
 48
0.5
100
AcDbCircle
 10
0.0
 20
0.0
 30
0.0
 40
9.1800003051758
100
AcDbArc
 50
272.7511362215027
 51
280.3697477877874
  0
ARC
  5
C42
330
C31
100
AcDbEntity
  8
PV0001_1
  6
CONTINUOUS
 48
0.5
100
AcDbCircle
 10
0.0
 20
0.0
 30
0.0
 40
8.812800407409699
100
AcDbArc
 50
355.2198199654955
 51
92.86229572901076
  0
ARC
  5
C43
330
C31
100
AcDbEntity
  8
PV0001_1
  6
CONTINUOUS
 48
0.5
100
AcDbCircle
 10
0.0
 20
0.0
 30
0.0
 40
9.1800003051758
100
AcDbArc
 50
92.75115489083434
 51
100.3697664571193
  0
CIRCLE
  5
C44
330
C31
100
AcDbEntity
  8
PV0001_1
  6
CONTINUOUS
100
AcDbCircle
 10
0.0
 20
0.0
 30
0.0
 40
9.1800003051758
  0
LINE
  5
C45
330
C31
100
AcDbEntity
  8
PV0001_1
  6
CONTINUOUS
 48
0.5
100
AcDbLine
 10
-1.652404785160001
 20
9.030059814453
 30
0.0
 11
-1.652404785160001
 21
8.220062255860002
 31
0.0
  0
LINE
  5
C46
330
C31
100
AcDbEntity
  8
PV0001_1
  6
CONTINUOUS
 48
0.5
100
AcDbLine
 10
1.652404785160001
 20
-8.220058441161999
 30
0.0
 11
1.652404785160001
 21
-9.030055999755997
 31
0.0
  0
LINE
  5
C47
330
C31
100
AcDbEntity
  8
PV0001_1
  6
CONTINUOUS
 48
0.5
100
AcDbLine
 10
-8.78217315674
 20
0.7343807220460015
 30
0.0
 11
-8.070594787600001
 21
0.7343997955320028
 31
0.0
  0
LINE
  5
C48
330
C31
100
AcDbEntity
  8
PV0001_1
  6
CONTINUOUS
 48
0.5
100
AcDbLine
 10
8.07057952881
 20
-0.7343864440919994
 30
0.0
 11
8.78215789795
 21
-0.7343654632569994
 31
0.0
  0
LINE
  5
C49
330
C31
100
AcDbEntity
  8
PV0001_1
  6
CONTINUOUS
 48
0.5
100
AcDbLine
 10
0.4406127929700006
 20
-9.169414520263
 30
0.0
 11
0.4406127929700006
 21
-8.812801361083998
 31
0.0
  0
LINE
  5
C4A
330
C31
100
AcDbEntity
  8
PV0001_1
  6
CONTINUOUS
 48
0.5
100
AcDbLine
 10
-0.4406127929700006
 20
9.169418334961001
 30
0.0
 11
-0.4406127929700006
 21
8.812805175781001
 31
0.0
  0
ENDBLK
  5
C4C
330
C31
100
AcDbEntity
  8
0
100
AcDbBlockEnd
  0
BLOCK
  5
245D
330
2453
100
AcDbEntity
  8
0
100
AcDbBlockBegin
  2
*D6
 70
     1
 10
0.0
 20
0.0
 30
0.0
  3
*D6
  1

  0
LINE
  5
2454
330
2453
100
AcDbEntity
  8
AM_5
 62
     3
100
AcDbLine
 10
-137.574381722344
 20
-5.00000294019065
 30
0.0
 11
-152.8199008769066
 21
-5.000002940190694
 31
0.0
  0
LINE
  5
2455
330
2453
100
AcDbEntity
  8
AM_5
 62
     3
100
AcDbLine
 10
-137.5743817223442
 20
5.00002461040103
 30
0.0
 11
-152.8199008769066
 21
5.000024610400987
 31
0.0
  0
LINE
  5
2456
330
2453
100
AcDbEntity
  8
AM_5
 62
     3
100
AcDbLine
 10
-151.8199008769066
 20
-2.500002940190691
 30
0.0
 11
-151.8199008769066
 21
2.50002461040099
 31
0.0
  0
INSERT
  5
2457
330
2453
100
AcDbEntity
  8
AM_5
 62
     3
100
AcDbBlockReference
  2
_OPEN30
 10
-151.8199008769066
 20
-5.00000294019069
 30
0.0
 41
2.5
 42
2.5
 43
2.5
 50
270.0000000000001
  0
INSERT
  5
2458
330
2453
100
AcDbEntity
  8
AM_5
 62
     3
100
AcDbBlockReference
  2
_OPEN30
 10
-151.8199008769066
 20
5.00002461040099
 30
0.0
 41
2.5
 42
2.5
 43
2.5
 50
90.00000000000015
  0
MTEXT
  5
2459
330
2453
100
AcDbEntity
  8
AM_5
 62
     2
100
AcDbMText
 10
-155.2199008769066
 20
0.000010835105146
 30
0.0
 40
3.799999999999999
 41
0.0
 71
     5
 72
     1
  1
%%c10
 11
-0.0000000000000028
 21
1.0
 31
0.0
1001
ACAD
1000
MTEXTBEGIN
1070
    73
1070
     1
1070
    44
1040
1.0
1070
    74
1070
     0
1000
MTEXTEND
  0
POINT
  5
245A
330
2453
100
AcDbEntity
  8
DEFPOINTS
 62
     0
100
AcDbPoint
 10
-137.5743817223441
 20
-5.000002940190223
 30
0.0
  0
POINT
  5
245B
330
2453
100
AcDbEntity
  8
DEFPOINTS
 62
     0
100
AcDbPoint
 10
-137.5743817223441
 20
5.000024610401458
 30
0.0
  0
POINT
  5
245C
330
2453
100
AcDbEntity
  8
DEFPOINTS
 62
     0
100
AcDbPoint
 10
-151.8199008769066
 20
5.000024610401462
 30
0.0
  0
ENDBLK
  5
245E
330
2453
100
AcDbEntity
  8
0
100
AcDbBlockEnd
  0
BLOCK
  5
246B
330
245F
100
AcDbEntity
  8
0
100
AcDbBlockBegin
  2
A$C4FFC6CC0
 70
     0
 10
0.0
 20
0.0
 30
0.0
  3
A$C4FFC6CC0
  1

  0
DIMENSION
  5
2460
330
245F
100
AcDbEntity
  8
AM_5
100
AcDbDimension
  2
*D6
 10
-70.00000100000002
 20
5.000008477104842
 30
0.0
 11
-70.00000100000002
 21
-0.0000052981910228
 31
0.0
 12
81.81989987690661
 22
-0.0000161332966199
 32
0.0
 70
   128
  1
%%c<>
 51
359.9999999999998
  3
AM_JIS$0
100
AcDbAlignedDimension
 13
-55.75448184543748
 23
-5.000019073486843
 33
0.0
 14
-55.75448184543756
 24
5.000008477104838
 34
0.0
 50
270.0
100
AcDbRotatedDimension
1001
ACAD
1000
DSTYLE
1002
{
1070
   271
1070
     0
1002
}
1001
GENIUS_GENDTOL_13
1000

1000
h7
1000

1040
0.0
  0
LINE
  5
2461
330
245F
100
AcDbEntity
  8
AM_0
 48
0.5
100
AcDbLine
 10
-56.0
 20
-4.754495620727796
 30
0.0
 11
-56.00000000000003
 21
4.754485024345811
 31
0.0
  0
LINE
  5
2462
330
245F
100
AcDbEntity
  8
AM_0
 48
0.5
100
AcDbLine
 10
-55.75448184543751
 20
-5.000019073486843
 30
0.0
 11
-55.75448184543754
 21
5.000008477104838
 31
0.0
  0
LINE
  5
2463
330
245F
100
AcDbEntity
  8
AM_0
100
AcDbLine
 10
-0.0000000000000142
 20
4.999995231627903
 30
0.0
 11
-55.75448184543754
 21
4.999995231627746
 31
0.0
  0
LINE
  5
2464
330
245F
100
AcDbEntity
  8
AM_0
 48
0.5
100
AcDbLine
 10
-55.99996821086117
 20
4.754439989725671
 30
0.0
 11
-55.75443945990975
 21
4.999963442484006
 31
0.0
  0
LINE
  5
2465
330
245F
100
AcDbEntity
  8
AM_0
100
AcDbLine
 10
-55.75448184543751
 20
-5.000008477105588
 30
0.0
 11
0.0000000000000142
 21
-5.00000847710543
 31
0.0
  0
LINE
  5
2466
330
245F
100
AcDbEntity
  8
AM_0
 48
0.5
100
AcDbLine
 10
-55.99996821086114
 20
-4.754474427965309
 30
0.0
 11
-55.75443945990972
 21
-4.999997880724334
 31
0.0
  0
LINE
  5
2467
330
245F
100
AcDbEntity
  8
AM_0
100
AcDbLine
 10
0.7794201296714505
 20
4.549985867772141
 30
0.0
 11
0.7794201296714789
 21
-4.550003370497427
 31
0.0
  0
LINE
  5
2468
330
245F
100
AcDbEntity
  8
AM_0
 48
0.5
100
AcDbLine
 10
0.0000000000000142
 20
-5.00000847710543
 30
0.0
 11
-0.0000000000000142
 21
5.000008477104995
 31
0.0
  0
LINE
  5
2469
330
245F
100
AcDbEntity
  8
AM_0
 48
0.5
100
AcDbLine
 10
0.7794201296714647
 20
-4.550003370497435
 30
0.0
 11
-0.0000105963812445
 21
-5.00000847710543
 31
0.0
  0
LINE
  5
246A
330
245F
100
AcDbEntity
  8
AM_0
 48
0.5
100
AcDbLine
 10
0.7794201296714647
 20
4.549985867772141
 30
0.0
 11
-0.0000000000000142
 21
4.999984635246652
 31
0.0
  0
ENDBLK
  5
246C
330
245F
100
AcDbEntity
  8
0
100
AcDbBlockEnd
  0
BLOCK
  5
3250
330
3244
100
AcDbEntity
  8
0
100
AcDbBlockBegin
  2
*D8
 70
     1
 10
0.0
 20
0.0
 30
0.0
  3
*D8
  1

  0
LINE
  5
3537
330
3244
100
AcDbEntity
  8
AM_5
100
AcDbLine
 10
0.1710100704080519
 20
-0.46984631084965
 30
0.0
 11
9.611927001088011
 21
-26.40855261237381
 31
0.0
  0
LINE
  5
3538
330
3244
100
AcDbEntity
  8
AM_5
100
AcDbLine
 10
0.1710098052266613
 20
0.4698478148157159
 30
0.0
 11
9.611945285898373
 21
26.40854920198099
 31
0.0
  0
ARC
  5
3539
330
3244
100
AcDbEntity
  8
AM_5
100
AcDbCircle
 10
-0.0000005904945895
 20
0.000001622370506
 30
0.0
 40
27.60339639252271
100
AcDbArc
 50
292.594819857225
 51
67.40514047219765
  0
INSERT
  5
353A
330
3244
100
AcDbEntity
  8
AM_5
100
AcDbBlockReference
  2
_OPEN30
 10
9.440916930679938
 20
-25.93870630152416
 30
0.0
 41
1.25
 42
1.25
 43
1.25
 50
201.2974098521061
  0
INSERT
  5
353B
330
3244
100
AcDbEntity
  8
AM_5
100
AcDbBlockReference
  2
_OPEN30
 10
9.440934890177123
 20
25.93870300953578
 30
0.0
 41
1.25
 42
1.25
 43
1.25
 50
158.7025504773165
  0
MTEXT
  5
353C
330
3244
100
AcDbEntity
  8
AM_5
 62
     2
100
AcDbMText
 10
26.05339580202647
 20
-0.000007933679533
 30
0.0
 40
1.6
 41
0.0
 71
     5
 72
     1
  1
140°
  7
ASAMI
 11
0.0000000000000001
 21
1.0
 31
0.0
1001
ACAD
1000
MTEXTBEGIN
1070
    73
1070
     1
1070
    44
1040
1.0
1070
    74
1070
     0
1000
MTEXTEND
  0
POINT
  5
353D
330
3244
100
AcDbEntity
  8
DEFPOINTS
 62
     0
100
AcDbPoint
 10
25.34588761859608
 20
10.93313673060979
 30
0.0
  0
POINT
  5
353E
330
3244
100
AcDbEntity
  8
DEFPOINTS
 62
     0
100
AcDbPoint
 10
-0.0000000000000213
 20
0.0
 30
0.0
  0
POINT
  5
353F
330
3244
100
AcDbEntity
  8
DEFPOINTS
 62
     0
100
AcDbPoint
 10
-0.0000006834663893
 20
0.0000013669331338
 30
0.0
  0
POINT
  5
3540
330
3244
100
AcDbEntity
  8
DEFPOINTS
 62
     0
100
AcDbPoint
 10
-0.286932261784635
 20
-0.7883349736532637
 30
0.0
  0
POINT
  5
3541
330
3244
100
AcDbEntity
  8
DEFPOINTS
 62
     0
100
AcDbPoint
 10
-0.2869274775186525
 20
0.7883267720540062
 30
0.0
  0
ENDBLK
  5
3251
330
3244
100
AcDbEntity
  8
0
100
AcDbBlockEnd
  0
BLOCK
  5
325E
330
3252
100
AcDbEntity
  8
0
100
AcDbBlockBegin
  2
*D9
 70
     1
 10
0.0
 20
0.0
 30
0.0
  3
*D9
  1

  0
LINE
  5
359A
330
3252
100
AcDbEntity
  8
AM_5
 62
     3
100
AcDbLine
 10
-0.7825315308051302
 20
-2.549999999999977
 30
0.0
 11
-0.7825315308051312
 21
-18.07820495491972
 31
0.0
  0
LINE
  5
359B
330
3252
100
AcDbEntity
  8
AM_5
 62
     3
100
AcDbLine
 10
-15.78253153080501
 20
-3.900164365276318
 30
0.0
 11
-15.78253153080501
 21
-18.07820495491972
 31
0.0
  0
LINE
  5
359C
330
3252
100
AcDbEntity
  8
AM_5
 62
     3
100
AcDbLine
 10
-2.032531530805131
 20
-17.57820495491972
 30
0.0
 11
-14.53253153080501
 21
-17.57820495491972
 31
0.0
  0
INSERT
  5
359D
330
3252
100
AcDbEntity
  8
AM_5
 62
     3
100
AcDbBlockReference
  2
_OPEN30
 10
-0.7825315308051312
 20
-17.57820495491972
 30
0.0
 41
1.25
 42
1.25
 43
1.25
  0
INSERT
  5
359E
330
3252
100
AcDbEntity
  8
AM_5
 62
     3
100
AcDbBlockReference
  2
_OPEN30
 10
-15.78253153080501
 20
-17.57820495491972
 30
0.0
 41
1.25
 42
1.25
 43
1.25
 50
180.0
  0
MTEXT
  5
359F
330
3252
100
AcDbEntity
  8
AM_5
 62
     2
100
AcDbMText
 10
-8.282531530805069
 20
-15.87820495491972
 30
0.0
 40
1.9
 41
0.0
 71
     5
 72
     1
  1
15
1001
ACAD
1000
MTEXTBEGIN
1070
    73
1070
     1
1070
    44
1040
1.0
1070
    74
1070
     0
1000
MTEXTEND
  0
POINT
  5
35A0
330
3252
100
AcDbEntity
  8
DEFPOINTS
 62
     0
100
AcDbPoint
 10
-0.7825315308051302
 20
-2.149999999999977
 30
0.0
  0
POINT
  5
35A1
330
3252
100
AcDbEntity
  8
DEFPOINTS
 62
     0
100
AcDbPoint
 10
-15.78253153080501
 20
-3.500164365276318
 30
0.0
  0
POINT
  5
35A2
330
3252
100
AcDbEntity
  8
DEFPOINTS
 62
     0
100
AcDbPoint
 10
-15.78253153080501
 20
-17.57820495491972
 30
0.0
  0
ENDBLK
  5
325F
330
3252
100
AcDbEntity
  8
0
100
AcDbBlockEnd
  0
BLOCK
  5
326C
330
3260
100
AcDbEntity
  8
0
100
AcDbBlockBegin
  2
*D10
 70
     1
 10
0.0
 20
0.0
 30
0.0
  3
*D10
  1

  0
LINE
  5
352C
330
3260
100
AcDbEntity
  8
AM_5
 62
     3
100
AcDbLine
 10
-0.382537810007689
 20
-2.149999999999977
 30
0.0
 11
14.82627734269679
 21
-2.149999999999981
 31
0.0
  0
LINE
  5
352D
330
3260
100
AcDbEntity
  8
AM_5
 62
     3
100
AcDbLine
 10
-0.3825323422749547
 20
2.150000000000034
 30
0.0
 11
14.82627734269679
 21
2.15000000000003
 31
0.0
  0
LINE
  5
352E
330
3260
100
AcDbEntity
  8
AM_5
 62
     3
100
AcDbLine
 10
14.32627734269679
 20
-3.399999999999981
 30
0.0
 11
14.32627734269679
 21
-4.649999999999981
 31
0.0
  0
LINE
  5
352F
330
3260
100
AcDbEntity
  8
AM_5
 62
     3
100
AcDbLine
 10
14.32627734269679
 20
3.40000000000003
 30
0.0
 11
14.32627734269679
 21
11.85000000000002
 31
0.0
  0
LINE
  5
3530
330
3260
100
AcDbEntity
  8
AM_5
 62
     3
100
AcDbLine
 10
14.32627734269679
 20
-2.149999999999981
 30
0.0
 11
14.32627734269679
 21
2.15000000000003
 31
0.0
  0
INSERT
  5
3531
330
3260
100
AcDbEntity
  8
AM_5
 62
     3
100
AcDbBlockReference
  2
_OPEN30
 10
14.32627734269679
 20
-2.149999999999981
 30
0.0
 41
1.25
 42
1.25
 43
1.25
 50
90.0
  0
INSERT
  5
3532
330
3260
100
AcDbEntity
  8
AM_5
 62
     3
100
AcDbBlockReference
  2
_OPEN30
 10
14.32627734269679
 20
2.15000000000003
 30
0.0
 41
1.25
 42
1.25
 43
1.25
 50
270.0
  0
MTEXT
  5
3533
330
3260
100
AcDbEntity
  8
AM_5
 62
     2
100
AcDbMText
 10
12.62627734269679
 20
8.250000000000031
 30
0.0
 40
1.9
 41
0.0
 71
     5
 72
     1
  1
%%C4.3
 11
0.0000000000000001
 21
1.0
 31
0.0
1001
ACAD
1000
MTEXTBEGIN
1070
    73
1070
     1
1070
    44
1040
1.0
1070
    74
1070
     0
1000
MTEXTEND
  0
POINT
  5
3534
330
3260
100
AcDbEntity
  8
DEFPOINTS
 62
     0
100
AcDbPoint
 10
-0.782537810007689
 20
-2.149999999999977
 30
0.0
  0
POINT
  5
3535
330
3260
100
AcDbEntity
  8
DEFPOINTS
 62
     0
100
AcDbPoint
 10
-0.7825323422749549
 20
2.150000000000034
 30
0.0
  0
POINT
  5
3536
330
3260
100
AcDbEntity
  8
DEFPOINTS
 62
     0
100
AcDbPoint
 10
14.32627734269679
 20
2.15000000000003
 30
0.0
  0
ENDBLK
  5
326D
330
3260
100
AcDbEntity
  8
0
100
AcDbBlockEnd
  0
BLOCK
  5
3278
330
326E
100
AcDbEntity
  8
0
100
AcDbBlockBegin
  2
*D11
 70
     1
 10
0.0
 20
0.0
 30
0.0
  3
*D11
  1

  0
LINE
  5
369F
330
326E
100
AcDbEntity
  8
AM_5
 62
     3
100
AcDbLine
 10
-0.7825315308051302
 20
-2.549999999999977
 30
0.0
 11
-0.7825315308051324
 21
-37.67855170325253
 31
0.0
  0
LINE
  5
36A0
330
326E
100
AcDbEntity
  8
AM_5
 62
     3
100
AcDbLine
 10
-83.78253644307456
 20
-3.608486237723676
 30
0.0
 11
-83.78253644307456
 21
-37.67855170325253
 31
0.0
  0
LINE
  5
36A1
330
326E
100
AcDbEntity
  8
AM_5
 62
     3
100
AcDbLine
 10
-2.032531530805132
 20
-37.17855170325254
 30
0.0
 11
-82.53253644307456
 21
-37.17855170325254
 31
0.0
  0
INSERT
  5
36A2
330
326E
100
AcDbEntity
  8
AM_5
 62
     3
100
AcDbBlockReference
  2
_OPEN30
 10
-0.7825315308051323
 20
-37.17855170325254
 30
0.0
 41
1.25
 42
1.25
 43
1.25
  0
INSERT
  5
36A3
330
326E
100
AcDbEntity
  8
AM_5
 62
     3
100
AcDbBlockReference
  2
_OPEN30
 10
-83.78253644307456
 20
-37.17855170325254
 30
0.0
 41
1.25
 42
1.25
 43
1.25
 50
180.0
  0
MTEXT
  5
36A4
330
326E
100
AcDbEntity
  8
AM_5
 62
     2
100
AcDbMText
 10
-42.28253398693984
 20
-35.47855170325253
 30
0.0
 40
1.9
 41
0.0
 71
     5
 72
     1
  1
83
1001
ACAD
1000
MTEXTBEGIN
1070
    73
1070
     1
1070
    44
1040
1.0
1070
    74
1070
     0
1000
MTEXTEND
  0
POINT
  5
36A5
330
326E
100
AcDbEntity
  8
DEFPOINTS
 62
     0
100
AcDbPoint
 10
-0.7825315308051302
 20
-2.149999999999977
 30
0.0
  0
POINT
  5
36A6
330
326E
100
AcDbEntity
  8
DEFPOINTS
 62
     0
100
AcDbPoint
 10
-83.78253644307456
 20
-3.208486237723676
 30
0.0
  0
POINT
  5
36A7
330
326E
100
AcDbEntity
  8
DEFPOINTS
 62
     0
100
AcDbPoint
 10
-83.78253644307456
 20
-37.17855170325254
 30
0.0
  0
ENDBLK
  5
3279
330
326E
100
AcDbEntity
  8
0
100
AcDbBlockEnd
  0
BLOCK
  5
3286
330
327A
100
AcDbEntity
  8
0
100
AcDbBlockBegin
  2
*D12
 70
     1
 10
0.0
 20
0.0
 30
0.0
  3
*D12
  1

  0
LINE
  5
3574
330
327A
100
AcDbEntity
  8
AM_5
100
AcDbLine
 10
-16.13608492139861
 20
3.853717755870333
 30
0.0
 11
-32.65836579757065
 21
20.37599863204516
 31
0.0
  0
LINE
  5
3575
330
327A
100
AcDbEntity
  8
AM_5
100
AcDbLine
 10
-16.13608492139828
 20
-3.853717755869594
 30
0.0
 11
-32.65836579757225
 21
-20.37599863204375
 31
0.0
  0
ARC
  5
3576
330
327A
100
AcDbEntity
  8
AM_5
100
AcDbCircle
 10
-12.28236716552882
 20
-0.0000000000000976
 30
0.0
 40
28.31601361233161
100
AcDbArc
 50
137.5295065193553
 51
222.4704934806401
  0
INSERT
  5
3577
330
327A
100
AcDbEntity
  8
AM_5
100
AcDbBlockReference
  2
_OPEN30
 10
-32.30481240697741
 20
20.02244524145186
 30
0.0
 41
1.25
 42
1.25
 43
1.25
 50
46.26475325967529
  0
INSERT
  5
3578
330
327A
100
AcDbEntity
  8
AM_5
100
AcDbBlockReference
  2
_OPEN30
 10
-32.30481240697899
 20
-20.02244524145047
 30
0.0
 41
1.25
 42
1.25
 43
1.25
 50
313.7352467403203
  0
MTEXT
  5
3579
330
327A
100
AcDbEntity
  8
AM_5
 62
     2
100
AcDbMText
 10
-42.14838077786043
 20
0.0000000000010043
 30
0.0
 40
1.6
 41
0.0
 71
     5
 72
     1
  1
90°
  7
ASAMI
 11
0.0000000000000001
 21
1.0
 31
0.0
1001
ACAD
1000
MTEXTBEGIN
1070
    73
1070
     1
1070
    44
1040
1.0
1070
    74
1070
     0
1000
MTEXTEND
  0
POINT
  5
357A
330
327A
100
AcDbEntity
  8
DEFPOINTS
 62
     0
100
AcDbPoint
 10
-39.63353601123235
 20
7.328723604255031
 30
0.0
  0
POINT
  5
357B
330
327A
100
AcDbEntity
  8
DEFPOINTS
 62
     0
100
AcDbPoint
 10
-14.43236716552863
 20
2.150000000000077
 30
0.0
  0
POINT
  5
357C
330
327A
100
AcDbEntity
  8
DEFPOINTS
 62
     0
100
AcDbPoint
 10
-14.43236716552869
 20
-2.14999999999999
 30
0.0
  0
POINT
  5
357D
330
327A
100
AcDbEntity
  8
DEFPOINTS
 62
     0
100
AcDbPoint
 10
-15.78253153080501
 20
-3.500164365276318
 30
0.0
  0
POINT
  5
357E
330
327A
100
AcDbEntity
  8
DEFPOINTS
 62
     0
100
AcDbPoint
 10
-15.78253153080536
 20
3.50016436527703
 30
0.0
  0
ENDBLK
  5
3287
330
327A
100
AcDbEntity
  8
0
100
AcDbBlockEnd
  0
BLOCK
  5
3292
330
3288
100
AcDbEntity
  8
0
100
AcDbBlockBegin
  2
*D13
 70
     1
 10
0.0
 20
0.0
 30
0.0
  3
*D13
  1

  0
LINE
  5
357F
330
3288
100
AcDbEntity
  8
AM_5
 62
     3
100
AcDbLine
 10
-0.7825315308051302
 20
-2.549999999999977
 30
0.0
 11
-0.7825315308051318
 21
-27.87837854341593
 31
0.0
  0
LINE
  5
3580
330
3288
100
AcDbEntity
  8
AM_5
 62
     3
100
AcDbLine
 10
-30.7819847673337
 20
-2.88093078958445
 30
0.0
 11
-30.7819847673337
 21
-27.87837854341592
 31
0.0
  0
LINE
  5
3581
330
3288
100
AcDbEntity
  8
AM_5
 62
     3
100
AcDbLine
 10
-2.032531530805131
 20
-27.37837854341593
 30
0.0
 11
-29.53198476733371
 21
-27.37837854341593
 31
0.0
  0
INSERT
  5
3582
330
3288
100
AcDbEntity
  8
AM_5
 62
     3
100
AcDbBlockReference
  2
_OPEN30
 10
-0.7825315308051318
 20
-27.37837854341593
 30
0.0
 41
1.25
 42
1.25
 43
1.25
  0
INSERT
  5
3583
330
3288
100
AcDbEntity
  8
AM_5
 62
     3
100
AcDbBlockReference
  2
_OPEN30
 10
-30.7819847673337
 20
-27.37837854341593
 30
0.0
 41
1.25
 42
1.25
 43
1.25
 50
180.0
  0
MTEXT
  5
3584
330
3288
100
AcDbEntity
  8
AM_5
 62
     2
100
AcDbMText
 10
-15.78225814906942
 20
-25.67837854341593
 30
0.0
 40
1.9
 41
0.0
 71
     5
 72
     1
  1
30
1001
ACAD
1000
MTEXTBEGIN
1070
    73
1070
     1
1070
    44
1040
1.0
1070
    74
1070
     0
1000
MTEXTEND
  0
POINT
  5
3585
330
3288
100
AcDbEntity
  8
DEFPOINTS
 62
     0
100
AcDbPoint
 10
-0.7825315308051302
 20
-2.149999999999977
 30
0.0
  0
POINT
  5
3586
330
3288
100
AcDbEntity
  8
DEFPOINTS
 62
     0
100
AcDbPoint
 10
-30.7819847673337
 20
-2.48093078958445
 30
0.0
  0
POINT
  5
3587
330
3288
100
AcDbEntity
  8
DEFPOINTS
 62
     0
100
AcDbPoint
 10
-30.7819847673337
 20
-27.37837854341593
 30
0.0
  0
ENDBLK
  5
3293
330
3288
100
AcDbEntity
  8
0
100
AcDbBlockEnd
  0
BLOCK
  5
32A0
330
3294
100
AcDbEntity
  8
0
100
AcDbBlockBegin
  2
*D14
 70
     1
 10
0.0
 20
0.0
 30
0.0
  3
*D14
  1

  0
LINE
  5
3696
330
3294
100
AcDbEntity
  8
AM_5
 62
     3
100
AcDbLine
 10
-83.94364755418569
 20
3.500164365276448
 30
0.0
 11
-93.39897802178542
 21
3.500164365276451
 31
0.0
  0
LINE
  5
3697
330
3294
100
AcDbEntity
  8
AM_5
 62
     3
100
AcDbLine
 10
-83.94364742007851
 20
-3.500166744732949
 30
0.0
 11
-93.39897802178542
 21
-3.500166744732946
 31
0.0
  0
LINE
  5
3698
330
3294
100
AcDbEntity
  8
AM_5
 62
     3
100
AcDbLine
 10
-92.89897802178542
 20
2.25016436527645
 30
0.0
 11
-92.89897802178542
 21
-2.250166744732947
 31
0.0
  0
INSERT
  5
3699
330
3294
100
AcDbEntity
  8
AM_5
 62
     3
100
AcDbBlockReference
  2
_OPEN30
 10
-92.89897802178542
 20
3.50016436527645
 30
0.0
 41
1.25
 42
1.25
 43
1.25
 50
90.0
  0
INSERT
  5
369A
330
3294
100
AcDbEntity
  8
AM_5
 62
     3
100
AcDbBlockReference
  2
_OPEN30
 10
-92.89897802178542
 20
-3.500166744732947
 30
0.0
 41
1.25
 42
1.25
 43
1.25
 50
270.0
  0
MTEXT
  5
369B
330
3294
100
AcDbEntity
  8
AM_5
 62
     2
100
AcDbMText
 10
-94.59897802178543
 20
-0.0000011897282629
 30
0.0
 40
1.9
 41
0.0
 71
     5
 72
     1
  1
%%C7
 11
0.0000000000000001
 21
1.0
 31
0.0
1001
ACAD
1000
MTEXTBEGIN
1070
    73
1070
     1
1070
    44
1040
1.0
1070
    74
1070
     0
1000
MTEXTEND
  0
POINT
  5
369C
330
3294
100
AcDbEntity
  8
DEFPOINTS
 62
     0
100
AcDbPoint
 10
-83.54364755418568
 20
3.500164365276448
 30
0.0
  0
POINT
  5
369D
330
3294
100
AcDbEntity
  8
DEFPOINTS
 62
     0
100
AcDbPoint
 10
-83.54364742007851
 20
-3.500166744732949
 30
0.0
  0
POINT
  5
369E
330
3294
100
AcDbEntity
  8
DEFPOINTS
 62
     0
100
AcDbPoint
 10
-92.89897802178542
 20
-3.500166744732947
 30
0.0
  0
ENDBLK
  5
32A1
330
3294
100
AcDbEntity
  8
0
100
AcDbBlockEnd
  0
ENDSEC
  0
SECTION
  2
ENTITIES
  0
TEXT
  5
19BD
330
1F
100
AcDbEntity
  8
AM_6
100
AcDbText
 10
-51.98491493932078
 20
-48.42855170325258
 30
0.0
 40
2.5
  1
MDW043S3HK
 50
0.0000000000001527
 72
     4
 11
-39.78253398693983
 21
-47.17855170325253
 31
0.0
100
AcDbText
  0
DIMENSION
  5
31FC
330
1F
100
AcDbEntity
  8
AM_5
100
AcDbDimension
  2
*D8
 10
-0.2869274775186525
 20
0.7883267720540062
 30
0.0
 11
26.05339580202647
 21
-0.0000079336795372
 31
0.0
 70
    34
  1
<>
  3
AM_JIS$2
100
AcDb2LineAngularDimension
 13
-0.0000006834663893
 23
0.0000013669331338
 33
0.0
 14
-0.286932261784635
 24
-0.7883349736532637
 34
0.0
 15
-0.0000000000000213
 25
0.0
 35
0.0
 16
25.34588761859608
 26
10.93313673060979
 36
0.0
1001
ACAD
1000
DSTYLE
1002
{
1070
   179
1070
     3
1002
}
1001
GENIUS_GENDTOL_13
1000

1000
h7
1000

1040
0.0
  0
DIMENSION
  5
31FD
330
1F
100
AcDbEntity
  8
AM_5
100
AcDbDimension
  2
*D9
 10
-15.78253153080501
 20
-17.57820495491972
 30
0.0
 11
-8.282531530805069
 21
-17.57820495491972
 31
0.0
 70
   160
  1
<>
  3
AM_JIS$0
100
AcDbAlignedDimension
 13
-0.7825315308051302
 23
-2.149999999999977
 33
0.0
 14
-15.78253153080501
 24
-3.500164365276318
 34
0.0
 50
180.0
100
AcDbRotatedDimension
1001
ACAD
1000
DSTYLE
1002
{
1070
   271
1070
     1
1002
}
1001
GENIUS_GENDTOL_13
1000

1000
h7
1000

1040
0.0
  0
DIMENSION
  5
31FE
330
1F
100
AcDbEntity
  8
AM_5
100
AcDbDimension
  2
*D10
 10
14.32627734269679
 20
2.15000000000003
 30
0.0
 11
14.32627734269679
 21
8.250000000000031
 31
0.0
 70
   160
  1
%%C<>
  3
AM_JIS$0
100
AcDbAlignedDimension
 13
-0.782537810007689
 23
-2.149999999999977
 33
0.0
 14
-0.7825323422749549
 24
2.150000000000034
 34
0.0
 50
90.0
100
AcDbRotatedDimension
1001
ACAD
1000
DSTYLE
1002
{
1070
   271
1070
     1
1002
}
1001
GENIUS_GENDTOL_13
1000

1000
h7
1000

1040
0.0
  0
LINE
  5
31FF
330
1F
100
AcDbEntity
  8
AM_0
100
AcDbLine
 10
-29.48692456347725
 20
3.500164365276542
 30
0.0
 11
-83.54364755418568
 21
3.500164365276437
 31
0.0
  0
LINE
  5
3200
330
1F
100
AcDbEntity
  8
AM_0
100
AcDbLine
 10
-27.8802971461284
 20
-3.50016492183411
 30
0.0
 11
-83.54364755418567
 21
-3.500166744732954
 31
0.0
  0
LINE
  5
3201
330
1F
100
AcDbEntity
  8
AM_7
100
AcDbLine
 10
3.226237378435541
 20
0.0
 30
0.0
 11
-86.63155648966755
 21
-0.0000000000002177
 31
0.0
  0
DIMENSION
  5
3202
330
1F
100
AcDbEntity
  8
AM_5
100
AcDbDimension
  2
*D11
 10
-83.78253644307456
 20
-37.17855170325254
 30
0.0
 11
-42.28253398693984
 21
-35.47855170325253
 31
0.0
 70
    32
  1
<>
  3
AM_JIS$0
100
AcDbAlignedDimension
 13
-0.7825315308051302
 23
-2.149999999999977
 33
0.0
 14
-83.78253644307456
 24
-3.208486237723676
 34
0.0
 50
180.0
100
AcDbRotatedDimension
1001
GENIUS_GENDTOL_13
1000

1000
h7
1000

1040
0.0
1001
ACAD
1000
DSTYLE
1002
{
1070
   271
1070
     1
1002
}
  0
DIMENSION
  5
3203
330
1F
100
AcDbEntity
  8
AM_5
100
AcDbDimension
  2
*D12
 10
-15.78253153080536
 20
3.50016436527703
 30
0.0
 11
-42.14838077786043
 21
0.0000000000010111
 31
0.0
 70
    34
  1
<>
  3
AM_JIS$2
100
AcDb2LineAngularDimension
 13
-14.43236716552869
 23
-2.14999999999999
 33
0.0
 14
-15.78253153080501
 24
-3.500164365276318
 34
0.0
 15
-14.43236716552863
 25
2.150000000000077
 35
0.0
 16
-39.63353601123235
 26
7.328723604255031
 36
0.0
1001
ACAD
1000
DSTYLE
1002
{
1070
   179
1070
     3
1002
}
1001
GENIUS_GENDTOL_13
1000

1000
h7
1000

1040
0.0
  0
ELLIPSE
  5
3205
330
1F
100
AcDbEntity
  8
AM_0
100
AcDbEllipse
 10
-9.946093310504629
 20
-5.960665345983369
 30
0.0
 11
17.42258171537449
 21
-2.314009257553401
 31
0.0
210
0.0
220
0.0
230
1.0
 40
0.2582985359049393
 41
1.887394388832707
 42
1.987878996353903
  0
SPLINE
  5
3206
330
1F
100
AcDbEntity
  8
AM_0
100
AcDbSpline
210
0.0
220
0.0
230
1.0
 70
     8
 71
     3
 72
    13
 73
     9
 74
     0
 42
0.0000000001
 43
0.0000000001
 40
16.03460024169435
 40
16.03460024169435
 40
16.03460024169435
 40
16.03460024169435
 40
16.35212704903564
 40
17.38177054169784
 40
18.41822485651776
 40
19.46214173629503
 40
20.51396345435107
 40
21.27054030077571
 40
21.27054030077571
 40
21.27054030077571
 40
21.27054030077571
 10
-16.47142900489367
 20
3.500164365276634
 30
0.0
 10
-16.44593072177988
 20
3.472876664968441
 30
0.0
 10
-16.33818550666971
 20
3.355936287242786
 30
0.0
 10
-16.15081920624894
 20
3.140437848938222
 30
0.0
 10
-15.91279608274692
 20
2.843290683759664
 30
0.0
 10
-15.67941951429853
 20
2.529092242694093
 30
0.0
 10
-15.47245534358771
 20
2.230503367521282
 30
0.0
 10
-15.34411077449693
 20
2.035033123377149
 30
0.0
 10
-14.71054370439272
 20
1.351149785297374
 30
0.0
  0
ELLIPSE
  5
3207
330
1F
100
AcDbEntity
  8
AM_0
100
AcDbEllipse
 10
-9.213648549524684
 20
-0.0000000000004947
 30
0.0
 11
-0.0000000000003401
 21
-8.070698981931849
 31
0.0
210
0.0
220
0.0
230
1.0
 40
0.9032857142857233
 41
-1.459008725831112
 42
-1.122214747494195
  0
LINE
  5
3208
330
1F
100
AcDbEntity
  8
AM_0
 48
0.5
100
AcDbLine
 10
-17.02410377173936
 20
3.500164365276634
 30
0.0
 11
-15.78722994580752
 21
3.500164365276634
 31
0.0
  0
ELLIPSE
  5
3209
330
1F
100
AcDbEntity
  8
AM_0
100
AcDbEllipse
 10
-9.213648549524684
 20
-0.0000000000004947
 30
0.0
 11
-0.0000000000165543
 21
-8.070698981935725
 31
0.0
210
0.0
220
0.0
230
1.0
 40
0.9032857142853746
 41
4.26380740108599
 42
4.338183022772901
  0
LINE
  5
320A
330
1F
100
AcDbEntity
  8
AM_0
 48
0.5
100
AcDbLine
 10
-16.83031489127452
 20
-3.5001643652766
 30
0.0
 11
-15.78722994580752
 21
-3.5001643652766
 31
0.0
  0
DIMENSION
  5
320B
330
1F
100
AcDbEntity
  8
AM_5
100
AcDbDimension
  2
*D13
 10
-30.7819847673337
 20
-27.37837854341593
 30
0.0
 11
-15.78225814906942
 21
-25.67837854341593
 31
0.0
 70
    32
  1
<>
  3
AM_JIS$0
100
AcDbAlignedDimension
 13
-0.7825315308051302
 23
-2.149999999999977
 33
0.0
 14
-30.7819847673337
 24
-2.48093078958445
 34
0.0
 50
180.0
100
AcDbRotatedDimension
1001
GENIUS_GENDTOL_13
1000

1000
h7
1000

1040
0.0
1001
ACAD
1000
DSTYLE
1002
{
1070
   271
1070
     1
1002
}
  0
ELLIPSE
  5
3225
330
1F
100
AcDbEntity
  8
AM_0
100
AcDbEllipse
 10
-9.94223501188194
 20
0.2301992724972761
 30
0.0
 11
0.0000000000012792
 21
-5.511358859739296
 31
0.0
210
0.0
220
0.0
230
1.0
 40
0.9032857142856434
 41
-1.352446422541615
 42
-1.124229503791887
  0
LINE
  5
3226
330
1F
100
AcDbEntity
  8
AM_0
100
AcDbLine
 10
-14.43236716552863
 20
2.150000000000079
 30
0.0
 11
-15.78253153080535
 21
3.500164365277032
 31
0.0
  0
ELLIPSE
  5
3227
330
1F
100
AcDbEntity
  8
AM_0
100
AcDbEllipse
 10
-9.942235011881898
 20
-0.2301992724971855
 30
0.0
 11
-0.0000000000003703
 21
-5.511358859738848
 31
0.0
210
0.0
220
0.0
230
1.0
 40
0.9032857142857174
 41
4.265822157381497
 42
4.421332929005448
  0
LINE
  5
3228
330
1F
100
AcDbEntity
  8
AM_0
100
AcDbLine
 10
-14.43236716552869
 20
-2.149999999999988
 30
0.0
 11
-15.78253153080501
 21
-3.500164365276316
 31
0.0
  0
SPLINE
  5
322C
330
1F
100
AcDbEntity
  8
AM_0
100
AcDbSpline
210
0.0
220
0.0
230
1.0
 70
     8
 71
     3
 72
    23
 73
    19
 74
     0
 42
0.0000000001
 43
0.0000000001
 40
16.03905285852473
 40
16.03905285852473
 40
16.03905285852473
 40
16.03905285852473
 40
16.35212704903564
 40
17.38177054169784
 40
18.41822485651776
 40
19.46214173629503
 40
20.51396345435107
 40
21.57393551351153
 40
22.64208202342361
 40
23.7182574881101
 40
24.80209208578934
 40
25.89306333925047
 40
26.99048218457928
 40
28.09348763352352
 40
29.20111863782268
 40
30.31232390128032
 40
31.42594612798585
 40
32.5407912310448
 40
32.5407912310486
 40
32.5407912310486
 40
32.5407912310486
 10
-29.42415123917335
 20
3.50016436527652
 30
0.0
 10
-29.38872150966044
 20
3.488505493418119
 30
0.0
 10
-29.23692037444487
 20
3.437202273035654
 30
0.0
 10
-28.9691315452687
 20
3.336572212917263
 30
0.0
 10
-28.62169529866477
 20
3.186656370827239
 30
0.0
 10
-28.27458176718898
 20
3.018325868601169
 30
0.0
 10
-27.92777043962592
 20
2.832554917328326
 30
0.0
 10
-27.58124900702699
 20
2.630379194220966
 30
0.0
 10
-27.23499744128385
 20
2.41295442097267
 30
0.0
 10
-26.88899163075357
 20
2.181545955225618
 30
0.0
 10
-26.54321191414319
 20
1.937464249629459
 30
0.0
 10
-26.19763056903905
 20
1.682129558756929
 30
0.0
 10
-25.85221958993765
 20
1.417025998148079
 30
0.0
 10
-25.50695596309058
 20
1.143677802137818
 30
0.0
 10
-25.16181080070955
 20
0.8636744530526412
 30
0.0
 10
-24.81675213504282
 20
0.5786509650246386
 30
0.0
 10
-24.47175186857453
 20
0.290258971985355
 30
0.0
 10
-24.24181346889644
 20
0.0969079097636891
 30
0.0
 10
-22.54607428099149
 20
-1.057935543528214
 30
0.0
  0
SPLINE
  5
322D
330
1F
100
AcDbEntity
  8
AM_0
 48
0.5
100
AcDbSpline
210
0.0
220
0.0
230
1.0
 70
     8
 71
     3
 72
    16
 73
    12
 74
     0
 42
0.0000000001
 43
0.0000000001
 40
0.0
 40
0.0
 40
0.0
 40
0.0
 40
1.010743614677189
 40
2.022833924044153
 40
3.037578959561199
 40
4.056212747067873
 40
5.079857613375832
 40
6.109500119648989
 40
7.14596120163808
 40
8.18989512056258
 40
8.545190612624931
 40
8.545190612624931
 40
8.545190612624931
 40
8.545190612624931
 10
-23.34680862508901
 20
3.500164365276549
 30
0.0
 10
-23.46334305309314
 20
3.500148590519034
 30
0.0
 10
-23.69658963422878
 20
3.494762067267759
 30
0.0
 10
-24.04635612405233
 20
3.470468259494185
 30
0.0
 10
-24.39611308025228
 20
3.430169536038834
 30
0.0
 10
-24.74584691063659
 20
3.374092415123658
 30
0.0
 10
-25.09555543746555
 20
3.302604660340835
 30
0.0
 10
-25.44523269487171
 20
3.216139647808705
 30
0.0
 10
-25.79487881242556
 20
3.115242000582628
 30
0.0
 10
-26.0667448744059
 20
3.026043472990198
 30
0.0
 10
-26.22213795687522
 20
2.971184169974224
 30
0.0
 10
-27.55897858370212
 20
2.614289630057856
 30
0.0
  0
SPLINE
  5
322E
330
1F
100
AcDbEntity
  8
AM_0
 48
0.5
100
AcDbSpline
210
0.0
220
0.0
230
1.0
 70
     8
 71
     3
 72
    15
 73
    11
 74
     0
 42
0.0000000001
 43
0.0000000001
 40
0.0
 40
0.0
 40
0.0
 40
0.0
 40
1.010743684496582
 40
2.022833993863546
 40
3.037578683882831
 40
4.056212471389632
 40
5.079857945358201
 40
6.109499720892564
 40
7.145961650132166
 40
7.907745354493536
 40
7.907745354493536
 40
7.907745354493536
 40
7.907745354493536
 10
-23.15301976320592
 20
-3.500164446083187
 30
0.0
 10
-23.34340273959973
 20
-3.472537882379339
 30
0.0
 10
-23.5751482245512
 20
-3.454805669939202
 30
0.0
 10
-23.9249184666584
 20
-3.421199166574052
 30
0.0
 10
-24.27467452334364
 20
-3.367797475260869
 30
0.0
 10
-24.62440874107941
 20
-3.292940302398602
 30
0.0
 10
-24.97411668412091
 20
-3.197642345103401
 30
0.0
 10
-25.32379470421015
 20
-3.082354741497437
 30
0.0
 10
-25.64171947724632
 20
-2.960026901167208
 30
0.0
 10
-25.84263242875497
 20
-2.873579437876668
 30
0.0
 10
-25.92751336943217
 20
-2.835493818959645
 30
0.0
  0
SPLINE
  5
322F
330
1F
100
AcDbEntity
  8
AM_0
100
AcDbSpline
210
0.0
220
0.0
230
1.0
 70
     8
 71
     3
 72
    23
 73
    19
 74
     0
 42
0.0000000001
 43
0.0000000001
 40
16.03905285852473
 40
16.03905285852473
 40
16.03905285852473
 40
16.03905285852473
 40
16.35212704903564
 40
17.38177054169784
 40
18.41822485651776
 40
19.46214173629503
 40
20.51396345435107
 40
21.57393551351153
 40
22.64208202342361
 40
23.7182574881101
 40
24.80209208578934
 40
25.89306333925047
 40
26.99048218457928
 40
28.09348763352352
 40
29.20111863782268
 40
30.31232390128032
 40
31.42594612798585
 40
32.5407912310448
 40
32.5407912310486
 40
32.5407912310486
 40
32.5407912310486
 10
-23.10144636724194
 20
3.500164365276549
 30
0.0
 10
-23.06601663772904
 20
3.488505493418148
 30
0.0
 10
-22.91421550251346
 20
3.437202273035683
 30
0.0
 10
-22.64642667333729
 20
3.336572212917263
 30
0.0
 10
-22.29899042673334
 20
3.186656370827239
 30
0.0
 10
-21.95187689525756
 20
3.018325868601169
 30
0.0
 10
-21.6050655676945
 20
2.832554917328326
 30
0.0
 10
-21.25854413509555
 20
2.630379194220966
 30
0.0
 10
-20.91229256935243
 20
2.41295442097267
 30
0.0
 10
-20.56628675882215
 20
2.181545955225618
 30
0.0
 10
-20.22050704221175
 20
1.937464249629459
 30
0.0
 10
-19.87492569710763
 20
1.682129558756929
 30
0.0
 10
-19.52951471800623
 20
1.417025998148079
 30
0.0
 10
-19.18425109115916
 20
1.143677802137818
 30
0.0
 10
-18.83910592877814
 20
0.8636744530526412
 30
0.0
 10
-18.49404726311141
 20
0.578650965024667
 30
0.0
 10
-18.1490469966431
 20
0.2902589719853834
 30
0.0
 10
-17.91910859696501
 20
0.0969079097637176
 30
0.0
 10
-16.45376295275972
 20
-0.9088282339096283
 30
0.0
  0
SPLINE
  5
3230
330
1F
100
AcDbEntity
  8
AM_0
 48
0.5
100
AcDbSpline
210
0.0
220
0.0
230
1.0
 70
     8
 71
     3
 72
    15
 73
    11
 74
     0
 42
0.0000000001
 43
0.0000000001
 40
7.907745354493536
 40
7.907745354493536
 40
7.907745354493536
 40
7.907745354493536
 40
8.189873411961459
 40
9.241710626092514
 40
10.30166235592959
 40
11.36982472628033
 40
12.44598212828784
 40
13.52983440361964
 40
14.62080578343036
 40
14.90544694398022
 40
14.90544694398022
 40
14.90544694398022
 40
14.90544694398022
 10
-19.60480849750073
 20
-2.835493818959645
 30
0.0
 10
-19.63624431684449
 20
-2.82138873687266
 30
0.0
 10
-19.78473015853628
 20
-2.753747132734912
 30
0.0
 10
-20.04991767473442
 20
-2.624483973463765
 30
0.0
 10
-20.39945824905085
 20
-2.437669292810807
 30
0.0
 10
-20.74896711199708
 20
-2.235625538127732
 30
0.0
 10
-21.09844400105098
 20
-2.019553850982998
 30
0.0
 10
-21.44789546325035
 20
-1.790830705850948
 30
0.0
 10
-21.71053265830847
 20
-1.610457758985188
 30
0.0
 10
-21.85688326847981
 20
-1.507362380489195
 30
0.0
 10
-22.54607428100303
 20
-1.093996615059478
 30
0.0
  0
SPLINE
  5
3231
330
1F
100
AcDbEntity
  8
AM_0
 48
0.5
100
AcDbSpline
210
0.0
220
0.0
230
1.0
 70
     8
 71
     3
 72
    16
 73
    12
 74
     0
 42
0.0000000001
 43
0.0000000001
 40
0.0
 40
0.0
 40
0.0
 40
0.0
 40
1.010743614677189
 40
2.022833924044153
 40
3.037578959561199
 40
4.056212747067873
 40
5.079857613375832
 40
6.109500119648989
 40
7.14596120163808
 40
8.18989512056258
 40
8.545190612624931
 40
8.545190612624931
 40
8.545190612624931
 40
8.545190612624931
 10
-17.02410375315759
 20
3.500164365276577
 30
0.0
 10
-17.14063818116174
 20
3.500148590519063
 30
0.0
 10
-17.37388476229737
 20
3.494762067267788
 30
0.0
 10
-17.72365125212091
 20
3.470468259494214
 30
0.0
 10
-18.07340820832084
 20
3.430169536038863
 30
0.0
 10
-18.42314203870517
 20
3.374092415123686
 30
0.0
 10
-18.77285056553414
 20
3.302604660340835
 30
0.0
 10
-19.1225278229403
 20
3.216139647808705
 30
0.0
 10
-19.47217394049415
 20
3.115242000582628
 30
0.0
 10
-19.74404000247449
 20
3.026043472990198
 30
0.0
 10
-19.8994330849438
 20
2.971184169974224
 30
0.0
 10
-21.23627371177068
 20
2.614289630057856
 30
0.0
  0
LINE
  5
3232
330
1F
100
AcDbEntity
  8
AM_0
100
AcDbLine
 10
-21.11952887693821
 20
-3.19857626614343
 30
0.0
 11
-20.17129309891932
 21
-2.55874583559692
 31
0.0
  0
SPLINE
  5
3233
330
1F
100
AcDbEntity
  8
AM_0
 48
0.5
100
AcDbSpline
210
0.0
220
0.0
230
1.0
 70
     8
 71
     3
 72
    15
 73
    11
 74
     0
 42
0.0000000001
 43
0.0000000001
 40
0.0
 40
0.0
 40
0.0
 40
0.0
 40
1.010743684496582
 40
2.022833993863546
 40
3.037578683882831
 40
4.056212471389632
 40
5.079857945358201
 40
6.109499720892564
 40
7.145961650132166
 40
7.907745354493536
 40
7.907745354493536
 40
7.907745354493536
 40
7.907745354493536
 10
-16.83031489127452
 20
-3.5001643652766
 30
0.0
 10
-17.01920626793344
 20
-3.458972225356501
 30
0.0
 10
-17.25244335261979
 20
-3.454805669939173
 30
0.0
 10
-17.60221359472698
 20
-3.421199166574024
 30
0.0
 10
-17.95196965141223
 20
-3.36779747526084
 30
0.0
 10
-18.30170386914799
 20
-3.292940302398574
 30
0.0
 10
-18.65141181218948
 20
-3.197642345103401
 30
0.0
 10
-19.00108983227872
 20
-3.082354741497437
 30
0.0
 10
-19.31901460531489
 20
-2.960026901167208
 30
0.0
 10
-19.51992755682355
 20
-2.873579437876668
 30
0.0
 10
-19.60480849750073
 20
-2.835493818959645
 30
0.0
  0
SPLINE
  5
3234
330
1F
100
AcDbEntity
  8
AM_0
100
AcDbSpline
210
0.0
220
0.0
230
1.0
 70
     8
 71
     3
 72
     8
 73
     4
 74
     0
 42
0.0000000001
 43
0.0000000001
 40
16.03460024169435
 40
16.03460024169435
 40
16.03460024169435
 40
16.03460024169435
 40
16.03905285852473
 40
16.03905285852473
 40
16.03905285852473
 40
16.03905285852473
 10
-23.10295805906425
 20
3.500661627146047
 30
0.0
 10
-23.10245415469646
 20
3.500495934532085
 30
0.0
 10
-23.10195025742101
 20
3.500330180571
 30
0.0
 10
-23.10144636724194
 20
3.500164365276549
 30
0.0
  0
ELLIPSE
  5
3235
330
1F
100
AcDbEntity
  8
AM_0
100
AcDbEllipse
 10
-21.39085472179805
 20
-2.555191875746328
 30
0.0
 11
0.0000000000149796
 21
-0.7292009094312637
 31
0.0
210
0.0
220
0.0
230
1.0
 40
0.7905622000756569
 41
0.2863257179288445
 42
0.4900394311561751
  0
LINE
  5
3236
330
1F
100
AcDbEntity
  8
AM_0
100
AcDbLine
 10
-23.10144636724195
 20
3.500164365276606
 30
0.0
 11
-23.34680864347462
 21
3.500164365276606
 31
0.0
  0
LINE
  5
3237
330
1F
100
AcDbEntity
  8
AM_0
100
AcDbLine
 10
-21.88714370813499
 20
-3.500164365276629
 30
0.0
 11
-21.22804016975886
 21
-3.254705611693265
 31
0.0
  0
LINE
  5
3238
330
1F
100
AcDbEntity
  8
AM_0
100
AcDbLine
 10
-21.88714370813499
 20
-3.500164365276629
 30
0.0
 11
-23.15301976320584
 21
-3.500164446083187
 31
0.0
  0
ELLIPSE
  5
3239
330
1F
100
AcDbEntity
  8
AM_0
100
AcDbEllipse
 10
-29.21905205247819
 20
-2.376934372682126
 30
0.0
 11
-1.56293271485551
 21
-0.1039964169023237
 31
0.0
210
0.0
220
0.0
230
1.0
 40
0.7163125681865049
 41
3.963766038016707
 42
7.806354755419555
  0
ELLIPSE
  5
323A
330
1F
100
AcDbEntity
  8
AM_0
100
AcDbEllipse
 10
-27.71355959372947
 20
-2.555191875746328
 30
0.0
 11
0.0000000000076676
 21
-0.7292009094318624
 31
0.0
210
0.0
220
0.0
230
1.0
 40
0.7905622000802577
 41
0.2863257179395604
 42
0.4900394311653096
  0
SPLINE
  5
323B
330
1F
100
AcDbEntity
  8
AM_0
 48
0.5
100
AcDbSpline
210
0.0
220
0.0
230
1.0
 70
     8
 71
     3
 72
    15
 73
    11
 74
     0
 42
0.0000000001
 43
0.0000000001
 40
7.907745354493536
 40
7.907745354493536
 40
7.907745354493536
 40
7.907745354493536
 40
8.189873411961459
 40
9.241710626092514
 40
10.30166235592959
 40
11.36982472628033
 40
12.44598212828784
 40
13.52983440361964
 40
14.62080578343036
 40
14.90544694398022
 40
14.90544694398022
 40
14.90544694398022
 40
14.90544694398022
 10
-25.92751336943217
 20
-2.835493818959645
 30
0.0
 10
-25.95894918877591
 20
-2.82138873687266
 30
0.0
 10
-26.1074350304677
 20
-2.753747132734912
 30
0.0
 10
-26.37262254666586
 20
-2.624483973463765
 30
0.0
 10
-26.72216312098228
 20
-2.437669292810807
 30
0.0
 10
-27.07167198392852
 20
-2.235625538127732
 30
0.0
 10
-27.42114887298241
 20
-2.019553850982998
 30
0.0
 10
-27.77060033518177
 20
-1.790830705850948
 30
0.0
 10
-28.03323753023989
 20
-1.610457758985188
 30
0.0
 10
-28.17958814041123
 20
-1.507362380489195
 30
0.0
 10
-28.20984858006641
 20
-1.485940078494121
 30
0.0
  0
LINE
  5
323C
330
1F
100
AcDbEntity
  8
AM_0
100
AcDbLine
 10
-28.20984925860501
 20
-3.50016476888332
 30
0.0
 11
-27.55074504169026
 21
-3.254705611693265
 31
0.0
  0
LINE
  5
323D
330
1F
100
AcDbEntity
  8
AM_0
100
AcDbLine
 10
-27.44223374886963
 20
-3.19857626614343
 30
0.0
 11
-26.49399797085075
 21
-2.55874583559692
 31
0.0
  0
DIMENSION
  5
323E
330
1F
100
AcDbEntity
  8
AM_5
100
AcDbDimension
  2
*D14
 10
-92.89897802178542
 20
-3.500166744732947
 30
0.0
 11
-94.59897802178543
 21
-0.0000011897282629
 31
0.0
 70
    32
  1
%%C<>
  3
AM_JIS$0
100
AcDbAlignedDimension
 13
-83.54364755418568
 23
3.500164365276448
 33
0.0
 14
-83.54364742007851
 24
-3.500166744732949
 34
0.0
 50
270.0
100
AcDbRotatedDimension
1001
ACAD
1000
DSTYLE
1002
{
1070
   271
1070
     1
1002
}
1001
GENIUS_GENDTOL_13
1000

1000
h7
1000

1040
0.0
  0
LINE
  5
323F
330
1F
100
AcDbEntity
  8
AM_0
100
AcDbLine
 10
-83.54364755418568
 20
-3.500166580989784
 30
0.0
 11
-83.5436475541857
 21
3.500164365276432
 31
0.0
  0
LINE
  5
3240
330
1F
100
AcDbEntity
  8
AM_0
 48
0.5
100
AcDbLine
 10
-83.78253644307458
 20
-0.0000000000002132
 30
0.0
 11
-83.78253644307456
 21
-3.208486237723704
 31
0.0
  0
LINE
  5
3241
330
1F
100
AcDbEntity
  8
AM_0
 48
0.5
100
AcDbLine
 10
-83.78253644307458
 20
-0.0000000000002132
 30
0.0
 11
-83.78253644307458
 21
3.20848400150335
 31
0.0
  0
LINE
  5
3242
330
1F
100
AcDbEntity
  8
AM_0
100
AcDbLine
 10
-83.78253644307458
 20
3.20848400150335
 30
0.0
 11
-83.5436475541857
 21
3.500164365276432
 31
0.0
1001
GENIUS_GENFIL_13
1070
     0
1040
1.0
1040
1.0
1040
20.0
1040
0.0
1002
{
1002
}
1001
GENIUS_GENODEF_13
1002
{
1000
HIER
1070
     0
1002
}
1002
{
1000
MANEDIT
1070
     0
1002
}
1002
{
1000
NOSEL
1070
     0
1002
}
1002
{
1000
BEHIND
1070
     0
1002
}
1002
{
1000
REACTOR
1002
}
1001
GENIUS_GENOBJ-N-CHA_13
1002
{
1000
OWNER
1000
GEN
1002
}
  0
LINE
  5
3243
330
1F
100
AcDbEntity
  8
AM_0
 48
0.5
100
AcDbLine
 10
-83.54364755418568
 20
-3.500166580989784
 30
0.0
 11
-83.78253644307456
 21
-3.208486237723704
 31
0.0
1001
GENIUS_GENFIL_13
1070
     0
1040
1.0
1040
1.0
1040
20.0
1040
0.0
1002
{
1002
}
1001
GENIUS_GENODEF_13
1002
{
1000
HIER
1070
     0
1002
}
1002
{
1000
MANEDIT
1070
     0
1002
}
1002
{
1000
NOSEL
1070
     0
1002
}
1002
{
1000
BEHIND
1070
     0
1002
}
1002
{
1000
REACTOR
1002
}
1001
GENIUS_GENOBJ-N-CHA_13
1002
{
1000
OWNER
1000
GEN
1002
}
  0
SPLINE
  5
35C6
330
1F
100
AcDbEntity
  8
AM_0
100
AcDbSpline
210
0.0
220
0.0
230
1.0
 70
     8
 71
     3
 72
    17
 73
    13
 74
     0
 42
0.0000000001
 43
0.0000000001
 40
1.580019955310467
 40
1.580019955310467
 40
1.580019955310467
 40
1.580019955310467
 40
2.030549285115227
 40
3.082371838836284
 40
4.126290986361125
 40
5.162752068350215
 40
6.192395305374981
 40
7.216039564037012
 40
8.234688489606833
 40
9.249433870634691
 40
10.26152376260694
 40
11.27226744710342
 40
11.27226744710342
 40
11.27226744710342
 40
11.27226744710352
 10
-6.421284281039193
 20
-1.586763042862045
 30
0.0
 10
-6.482316891514761
 20
-1.603105386772384
 30
0.0
 10
-6.686186315152983
 20
-1.656669601770531
 30
0.0
 10
-7.034241978804725
 20
-1.74068698955601
 30
0.0
 10
-7.465360407672797
 20
-1.834775318206837
 30
0.0
 10
-7.896597523040697
 20
-1.917372378500076
 30
0.0
 10
-8.327854397542685
 20
-1.988200790943295
 30
0.0
 10
-8.759158256708239
 20
-2.046745346243895
 30
0.0
 10
-9.190491913419791
 20
-2.092671956439346
 30
0.0
 10
-9.621852428417604
 20
-2.125683001728347
 30
0.0
 10
-10.05322917409566
 20
-2.145565986178723
 30
0.0
 10
-10.34088347045949
 20
-2.14999974499517
 30
0.0
 10
-10.48461489666616
 20
-2.149999732692762
 30
0.0
  0
SPLINE
  5
35C7
330
1F
100
AcDbEntity
  8
AM_0
100
AcDbSpline
210
0.0
220
0.0
230
1.0
 70
     8
 71
     3
 72
    36
 73
    32
 74
     0
 42
0.0000000001
 43
0.0000000001
 40
0.0
 40
0.0
 40
0.0
 40
0.0
 40
1.010743684496582
 40
2.022833576467832
 40
3.037578957496688
 40
4.056212745003489
 40
5.079857003664532
 40
6.109500240690281
 40
7.145961322679372
 40
8.189895241603872
 40
9.241717795325891
 40
10.30168407291828
 40
11.36983447792315
 40
12.44600489715814
 40
13.52984294512926
 40
14.62081576220742
 40
15.7182257034828
 40
16.82123173843959
 40
17.92886860250316
 40
19.0400688939571
 40
20.15368796660465
 40
21.26852814259644
 40
22.38336992938901
 40
23.49698739941135
 40
24.6081876908653
 40
25.71582455492886
 40
26.81883757994213
 40
27.91624752121713
 40
29.00722033829659
 40
30.09105838626677
 40
30.79552876096828
 40
30.79552876096828
 40
30.79552876096828
 40
30.79552876096828
 10
-2.358587653188414
 20
-2.149999732692791
 30
0.0
 10
-2.502319081291331
 20
-2.148720534779727
 30
0.0
 10
-2.789973373096347
 20
-2.14616043519247
 30
0.0
 10
-3.22135012792415
 20
-2.125523158446739
 30
0.0
 10
-3.652708468904777
 20
-2.092715279479151
 30
0.0
 10
-4.084040113039048
 20
-2.046733789328484
 30
0.0
 10
-4.515340756316143
 20
-1.988201825344717
 30
0.0
 10
-4.946601890138688
 20
-1.917379669843953
 30
0.0
 10
-5.377824957056061
 20
-1.834744406108839
 30
0.0
 10
-5.809006132991142
 20
-1.740802052956496
 30
0.0
 10
-6.240142480814292
 20
-1.63612941073643
 30
0.0
 10
-6.671236149501854
 20
-1.521383498803658
 30
0.0
 10
-7.102288293608649
 20
-1.397266570005683
 30
0.0
 10
-7.533304298785941
 20
-1.264551283752126
 30
0.0
 10
-7.964286138385558
 20
-1.124053203912097
 30
0.0
 10
-8.395237808789126
 20
-0.9766387960395235
 30
0.0
 10
-8.826164089308988
 20
-0.8232174893079786
 30
0.0
 10
-9.257068761984259
 20
-0.6647327521649516
 30
0.0
 10
-9.687956008793886
 20
-0.5021593273959013
 30
0.0
 10
-10.11883044041449
 20
-0.3364978351156367
 30
0.0
 10
-10.54969583602503
 20
-0.1687666940977692
 30
0.0
 10
-10.98055828011227
 20
-0.0000001713708571
 30
0.0
 10
-11.41141878998764
 20
0.1687693892586424
 30
0.0
 10
-11.84228562976508
 20
0.3364979182589991
 30
0.0
 10
-12.27315952946543
 20
0.5021599119871638
 30
0.0
 10
-12.70404754454225
 20
0.6647339560884831
 30
0.0
 10
-13.1349540048168
 20
0.8232173406949527
 30
0.0
 10
-13.56588096545219
 20
0.9766394254859704
 30
0.0
 10
-13.99683269807084
 20
1.124053713820671
 30
0.0
 10
-14.37853833454381
 20
1.248488010791818
 30
0.0
 10
-14.61701729069659
 20
1.322656417313394
 30
0.0
 10
-14.7111892016142
 20
1.351346449201485
 30
0.0
  0
SPLINE
  5
35C8
330
1F
100
AcDbEntity
  8
AM_0
100
AcDbSpline
210
0.0
220
0.0
230
1.0
 70
     8
 71
     3
 72
    38
 73
    34
 74
     0
 42
0.0000000001
 43
0.0000000001
 40
0.0
 40
0.0
 40
0.0
 40
0.0
 40
0.8427075293422852
 40
1.265518104770559
 40
1.68994884956506
 40
2.116467290673827
 40
2.54548530610122
 40
2.977344090263342
 40
3.412310401731623
 40
3.850575907619846
 40
4.292228523283339
 40
4.737291192035372
 40
5.185695533383686
 40
5.637294720037921
 40
6.091866727153826
 40
6.549120869352287
 40
7.008706717250554
 40
7.470222077277051
 40
7.933222198716569
 40
8.397230145652669
 40
8.861746885649248
 40
9.326263625646204
 40
9.790271572582303
 40
10.25327169402144
 40
10.71478705404793
 40
11.17437290194659
 40
11.6316270441445
 40
12.08619905126056
 40
12.53780120194721
 40
12.98620554329551
 40
13.43126821204755
 40
13.87292082771091
 40
13.97820595453336
 40
13.97820595453336
 40
13.97820595453336
 40
13.97820595453336
 10
-1.151025857514632
 20
-2.149999732692805
 30
0.0
 10
-1.438694203649922
 20
-2.145101866495835
 30
0.0
 10
-1.870694022718522
 20
-2.137746600129759
 30
0.0
 10
-2.445143020884513
 20
-2.092461576348199
 30
0.0
 10
-2.876479299229773
 20
-2.046802226026045
 30
0.0
 10
-3.307778708591381
 20
-1.98818337617827
 30
0.0
 10
-3.739040112779014
 20
-1.917384502883592
 30
0.0
 10
-4.170261296318264
 20
-1.834744085071349
 30
0.0
 10
-4.601441536978434
 20
-1.740800472603808
 30
0.0
 10
-5.032578915855165
 20
-1.63613049316811
 30
0.0
 10
-5.463674294688669
 20
-1.521383348792909
 30
0.0
 10
-5.89472651396346
 20
-1.397266610661532
 30
0.0
 10
-6.325742498764059
 20
-1.264551272727828
 30
0.0
 10
-6.756724343914319
 20
-1.124053206941994
 30
0.0
 10
-7.187676012694253
 20
-0.976638795046739
 30
0.0
 10
-7.618602294110708
 20
-0.8232174902288846
 30
0.0
 10
-8.049506964823443
 20
-0.6647327494633686
 30
0.0
 10
-8.4803942186221
 20
-0.5021593373323157
 30
0.0
 10
-8.9112686241399
 20
-0.3364977979259578
 30
0.0
 10
-9.342134117442711
 20
-0.1687668332618131
 30
0.0
 10
-9.772995988814102
 20
0.0000002672730943
 30
0.0
 10
-10.20385786009082
 20
0.1687673680130644
 30
0.0
 10
-10.63472335367755
 20
0.3364983320622628
 30
0.0
 10
-11.06559775815759
 20
0.5021598737160247
 30
0.0
 10
-11.49648501580433
 20
0.6647332775122976
 30
0.0
 10
-11.92738967224876
 20
0.8232180491823584
 30
0.0
 10
-12.35831600650555
 20
0.9766392395498115
 30
0.0
 10
-12.78926841670046
 20
1.124054395270746
 30
0.0
 10
-13.22025193643825
 20
1.264551184560431
 30
0.0
 10
-13.65126869010531
 20
1.397267203012944
 30
0.0
 10
-14.08232089934397
 20
1.521383978075675
 30
0.0
 10
-14.40507803745039
 20
1.607293671278823
 30
0.0
 10
-14.58388954828963
 20
1.652281108043964
 30
0.0
 10
-14.61834245348303
 20
1.660850941867001
 30
0.0
  0
SPLINE
  5
35C9
330
1F
100
AcDbEntity
  8
AM_0
 48
0.5
100
AcDbSpline
210
0.0
220
0.0
230
1.0
 70
     8
 71
     3
 72
    25
 73
    21
 74
     0
 42
0.0000000001
 43
0.0000000001
 40
6.846175049578289
 40
6.846175049578289
 40
6.846175049578289
 40
6.846175049578289
 40
7.604337694224321
 40
8.711974558287883
 40
9.814980593243754
 40
10.91239053451967
 40
12.0033633515982
 40
13.08720139956839
 40
14.16337181880432
 40
15.23152222380919
 40
16.29148850140128
 40
17.34331105512262
 40
18.38723020264746
 40
19.42369128463655
 40
20.45333379090873
 40
21.47697865721768
 40
22.49561244472435
 40
23.5103574802404
 40
24.52244778960836
 40
25.53320666051913
 40
25.53320666051913
 40
25.53320666051913
 40
25.53320666051913
 10
-2.861681524389175
 20
0.3891643430364979
 30
0.0
 10
-2.959675556580235
 20
0.4269145192755844
 30
0.0
 10
-3.20104009295971
 20
0.5194380166513213
 30
0.0
 10
-3.586133826896134
 20
0.6647332143938485
 30
0.0
 10
-4.017038450150073
 20
0.8232180432214022
 30
0.0
 10
-4.447964743877376
 20
0.9766393253681115
 30
0.0
 10
-4.878916410538004
 20
1.124053740512707
 30
0.0
 10
-5.309898251997045
 20
1.26455181568464
 30
0.0
 10
-5.740914253482781
 20
1.397267113288179
 30
0.0
 10
-6.171966410372301
 20
1.521384001758917
 30
0.0
 10
-6.603060032122361
 20
1.636130062061525
 30
0.0
 10
-7.03419453498075
 20
1.740801667043001
 30
0.0
 10
-7.46537301569613
 20
1.834745666984233
 30
0.0
 10
-7.896593952619811
 20
1.917380657116552
 30
0.0
 10
-8.327855661184877
 20
1.988200144073019
 30
0.0
 10
-8.759155741622624
 20
2.046734703445366
 30
0.0
 10
-9.190487483076971
 20
2.092716438204263
 30
0.0
 10
-9.621846131834379
 20
2.125520802308713
 30
0.0
 10
-10.05322468564414
 20
2.146163846014161
 30
0.0
 10
-10.34088127147237
 20
2.148722021472877
 30
0.0
 10
-10.48461489666618
 20
2.150000267307234
 30
0.0
  0
LINE
  5
35CA
330
1F
100
AcDbEntity
  8
AM_11
 48
0.2
100
AcDbLine
 10
-10.4846148966662
 20
-2.149999732692776
 30
0.0
 11
-2.358587653188414
 21
-2.149999732692805
 31
0.0
  0
LINE
  5
35CB
330
1F
100
AcDbEntity
  8
AM_11
 48
0.2
100
AcDbLine
 10
-10.48461489666618
 20
2.150000267307234
 30
0.0
 11
-2.358587653188388
 21
2.150000267307206
 31
0.0
  0
LINE
  5
35CC
330
1F
100
AcDbEntity
  8
AM_0
 48
0.5
100
AcDbLine
 10
-14.4323670499134
 20
2.150000267307246
 30
0.0
 11
-10.48461489666618
 21
2.150000267307234
 31
0.0
  0
SPLINE
  5
35CD
330
1F
100
AcDbEntity
  8
AM_0
100
AcDbSpline
210
0.0
220
0.0
230
1.0
 70
     8
 71
     3
 72
    14
 73
    10
 74
     0
 42
0.0000000001
 43
0.0000000001
 40
17.17441611292
 40
17.17441611292
 40
17.17441611292
 40
17.17441611292
 40
17.38177636558528
 40
18.41823744757437
 40
19.46215659509824
 40
20.51397914882054
 40
21.57394542641293
 40
22.64209583141747
 40
23.52740269164275
 40
23.52740269164275
 40
23.52740269164275
 40
23.52740269164275
 10
-12.13108440757288
 20
-1.930715293638229
 30
0.0
 10
-12.15997000943172
 20
-1.92573825451403
 30
0.0
 10
-12.33312341722952
 20
-1.895422565204768
 30
0.0
 10
-12.6503307031594
 20
-1.834635662464904
 30
0.0
 10
-13.08150915108089
 20
-1.740691809001475
 30
0.0
 10
-13.51264366282363
 20
-1.636020164325131
 30
0.0
 10
-13.94373728217311
 20
-1.521274114795616
 30
0.0
 10
-14.34911379131516
 20
-1.404550253650881
 30
0.0
 10
-14.61010961803689
 20
-1.324653507928496
 30
0.0
 10
-14.72804479246794
 20
-1.287661752265484
 30
0.0
  0
LINE
  5
35CE
330
1F
100
AcDbEntity
  8
AM_0
 48
0.5
100
AcDbLine
 10
-14.43236716552868
 20
-2.149999732692776
 30
0.0
 11
-10.4846148966662
 21
-2.149999732692776
 31
0.0
  0
SPLINE
  5
35CF
330
1F
100
AcDbEntity
  8
AM_0
100
AcDbSpline
210
0.0
220
0.0
230
1.0
 70
     8
 71
     3
 72
    11
 73
     7
 74
     0
 42
0.0000000001
 43
0.0000000001
 40
11.27226913003534
 40
11.27226913003534
 40
11.27226913003534
 40
11.2722691300354
 40
12.28301561507924
 40
13.29510212255852
 40
14.30984805882082
 40
15.18258238371378
 40
15.18258238371378
 40
15.18258238371378
 40
15.18258238371378
 10
-10.48461489666619
 20
-2.149999732692762
 30
0.0
 10
-10.62779978522987
 20
-2.139477007906847
 30
0.0
 10
-10.91389948842984
 20
-2.1140019491678
 30
0.0
 10
-11.34157167769913
 20
-2.062612454450345
 30
0.0
 10
-11.74744012635067
 20
-2.00123333764867
 30
0.0
 10
-12.00993201493852
 20
-1.954049383803521
 30
0.0
 10
-12.13089575164948
 20
-1.93074181387179
 30
0.0
  0
SPLINE
  5
35D0
330
1F
100
AcDbEntity
  8
AM_0
 48
0.5
100
AcDbSpline
210
0.0
220
0.0
230
1.0
 70
     8
 71
     3
 72
    10
 73
     6
 74
     0
 42
0.0000000001
 43
0.0000000001
 40
0.0
 40
0.0
 40
0.0
 40
0.0
 40
2.69986029516136
 40
4.147722969032201
 40
6.285750005020438
 40
6.285750005020438
 40
6.285750005020438
 40
6.285750005020438
 10
-2.861612556743187
 20
0.3891388069393287
 30
0.0
 10
-2.554593011056412
 20
0.1893889497697216
 30
0.0
 10
-2.08292711639177
 20
-0.117481399088021
 30
0.0
 10
-0.9675006355298991
 20
0.0310799127089894
 30
0.0
 10
-1.177567886055699
 20
0.5314540684288005
 30
0.0
 10
-1.316366903456494
 20
0.8364475274492235
 30
0.0
  0
ELLIPSE
  5
35D1
330
1F
100
AcDbEntity
  8
AM_0
 48
0.5
100
AcDbEllipse
 10
-4.476370730367596
 20
3.608479703545654
 30
0.0
 11
-6.171283088032201
 21
0.0000000000025382
 31
0.0
210
0.0
220
0.0
230
1.0
 40
0.8400000000000627
 41
2.081379652023706
 42
2.169874429703217
  0
ELLIPSE
  5
35D2
330
1F
100
AcDbEntity
  8
AM_0
 48
0.5
100
AcDbEllipse
 10
2.601609311136177
 20
-0.4779151150779484
 30
0.0
 11
4.046813112022552
 21
0.6102243300748022
 31
0.0
210
0.0
220
0.0
230
0.9999999999999998
 40
0.587737838764192
 41
3.069090876427146
 42
3.639513831164404
  0
LINE
  5
35D3
330
1F
100
AcDbEntity
  8
AM_0
 48
0.5
100
AcDbLine
 10
-2.358587653188414
 20
-2.149999732692805
 30
0.0
 11
-0.7825366279956692
 21
-2.149999732692819
 31
0.0
  0
LINE
  5
35D4
330
1F
100
AcDbEntity
  8
AM_0
 48
0.5
100
AcDbLine
 10
-2.358587653188388
 20
2.150000267307206
 30
0.0
 11
-0.7825365806125504
 21
2.150000267307191
 31
0.0
  0
LINE
  5
35D5
330
1F
100
AcDbEntity
  8
AM_0
 48
0.5
100
AcDbLine
 10
0.0
 20
0.0000016342402773
 30
0.0
 11
-1.303603265290869
 21
0.8255349607071167
 31
0.0
  0
SPLINE
  5
35D6
330
1F
100
AcDbEntity
  8
AM_0
 48
0.5
100
AcDbSpline
210
0.0
220
0.0
230
1.0
 70
     8
 71
     3
 72
    17
 73
    13
 74
     0
 42
0.0000000001
 43
0.0000000001
 40
0.0
 40
0.0
 40
0.0
 40
0.0
 40
1.010743614677189
 40
2.022833924044153
 40
3.037578959561199
 40
4.056212747067873
 40
5.079857613375832
 40
6.109500119648989
 40
7.14596120163808
 40
8.18989512056258
 40
9.241717674284874
 40
9.693948937866434
 40
9.693948937866434
 40
9.693948937866434
 40
9.693948937866434
 10
-2.358587653188389
 20
2.150000267307206
 30
0.0
 10
-2.502319107448708
 20
2.148721991246347
 30
0.0
 10
-2.789973520900383
 20
2.146163735975079
 30
0.0
 10
-3.22134991231309
 20
2.125520812035944
 30
0.0
 10
-3.652708544210156
 20
2.092716405528008
 30
0.0
 10
-4.084040349271306
 20
2.04673482513624
 30
0.0
 10
-4.515340190459709
 20
1.988199686634999
 30
0.0
 10
-4.946602799874156
 20
1.917382379875277
 30
0.0
 10
-5.377822389245616
 20
1.834738779280769
 30
0.0
 10
-5.809015691625123
 20
1.740825262854713
 30
0.0
 10
-6.157086169222045
 20
1.656223380666943
 30
0.0
 10
-6.361493561414879
 20
1.603335038016595
 30
0.0
 10
-6.422845693959003
 20
1.587146270381424
 30
0.0
  0
ELLIPSE
  5
35D7
330
1F
100
AcDbEntity
  8
AM_0
 48
0.5
100
AcDbEllipse
 10
1.588210610846134
 20
2.581207542697796
 30
0.0
 11
5.158578838620782
 21
0.0000000000000152
 31
0.0
210
0.0
220
0.0
230
1.0
 40
0.8399999999999996
 41
3.671960206823881
 42
4.080081137018774
  0
SPLINE
  5
35D8
330
1F
100
AcDbEntity
  8
AM_0
 48
0.5
100
AcDbSpline
210
0.0
220
0.0
230
1.0
 70
     8
 71
     3
 72
    16
 73
    12
 74
     0
 42
0.0000000001
 43
0.0000000001
 40
0.0
 40
0.0
 40
0.0
 40
0.0
 40
1.010743614677189
 40
2.022833924044153
 40
3.037578959561199
 40
4.056212747067873
 40
5.079857613375832
 40
6.109500119648989
 40
7.14596120163808
 40
8.18989512056258
 40
8.545190612624931
 40
8.545190612624931
 40
8.545190612624931
 40
8.545190612624931
 10
-2.358587653188389
 20
2.150000267307206
 30
0.0
 10
-2.502311116915621
 20
2.149987347636283
 30
0.0
 10
-2.789977235139195
 20
2.145575735768346
 30
0.0
 10
-3.22134891022374
 20
2.12567888473994
 30
0.0
 10
-3.652708827363165
 20
2.092673861208837
 30
0.0
 10
-4.084040223125862
 20
2.046746185673086
 30
0.0
 10
-4.515340411676411
 20
1.988197059882381
 30
0.0
 10
-4.946602035230905
 20
1.917381422846077
 30
0.0
 10
-5.377825253590381
 20
1.834745325833765
 30
0.0
 10
-5.71312129242549
 20
1.761690914931932
 30
0.0
 10
-5.904769652779155
 20
1.716760643407425
 30
0.0
 10
-5.953370606629169
 20
1.705166060736502
 30
0.0
  0
LINE
  5
35D9
330
1F
100
AcDbEntity
  8
AM_0
100
AcDbLine
 10
-0.7852016181693707
 20
2.157322397816557
 30
0.0
 11
-0.0000006006317737
 21
0.000000332399253
 31
0.0
  0
LINE
  5
35DA
330
1F
100
AcDbEntity
  8
AM_0
100
AcDbLine
 10
-0.7825366279956701
 20
-2.149999732692819
 30
0.0
 11
-0.0000006006317737
 21
0.000000332399253
 31
0.0
  0
ELLIPSE
  5
35DB
330
1F
100
AcDbEntity
  8
AM_0
 48
0.5
100
AcDbEllipse
 10
-4.63474105228982
 20
4.089536897509901
 30
0.0
 11
6.721833429826427
 21
0.000000000000484
 31
0.0
210
0.0
220
0.0
230
1.0
 40
0.8399999999999938
 41
-0.9323698858255562
 42
-0.8099906707996083
  0
ELLIPSE
  5
35DC
330
1F
100
AcDbEntity
  8
AM_0
 48
0.5
100
AcDbEllipse
 10
-0.8082966523375949
 20
-0.5603206822473794
 30
0.0
 11
-0.3772506419724533
 21
0.1651331897677561
 31
0.0
210
0.0
220
0.0
230
0.9999999999999998
 40
0.450686344502326
 41
4.397579333833926
 42
7.541019675163436
  0
ELLIPSE
  5
35DD
330
1F
100
AcDbEntity
  8
AM_0
 48
0.5
100
AcDbEllipse
 10
-0.8082966523375949
 20
-0.5603206822473794
 30
0.0
 11
-0.0852483157285644
 21
0.3507088312460525
 31
0.0
210
0.0
220
0.0
230
0.9999999999999998
 40
0.586728677357508
 41
1.752133309269087
 42
4.88747519898106
  0
SPLINE
  5
35F7
330
1F
100
AcDbEntity
  8
AM_0
100
AcDbSpline
210
0.0
220
0.0
230
1.0
 70
    24
 71
     3
 72
     8
 73
     4
 74
     0
 42
0.0000000001
 43
0.0000000001
 40
32.54006563661681
 40
32.54006563661681
 40
32.54006563661681
 40
32.54006563661681
 40
32.5407895042663
 40
32.54078950426994
 40
32.54078950426994
 40
32.54078950426994
 10
-18.25277906678259
 20
-0.0000000000000284
 30
0.0
 10
-18.25287235374512
 20
0.0000365406539942
 30
0.0
 10
-18.2529656407081
 20
0.0000730813082441
 30
0.0
 10
-18.25305892767108
 20
0.0001096219624941
 30
0.0
  0
VIEWPORT
  5
110
330
101
100
AcDbEntity
 67
     1
  8
0
100
AcDbViewport
 10
420.5
 20
297.0
 30
0.0
 40
948.9782706766916
 41
628.452
 68
     1
 69
     1
1001
ACAD
1000
MVIEW
1002
{
1070
    16
1010
0.0
1020
0.0
1030
0.0
1010
0.0
1020
0.0
1030
1.0
1040
0.0
1040
628.452
1040
420.5
1040
297.0
1040
50.0
1040
0.0
1040
0.0
1070
     0
1070
   100
1070
     1
1070
     1
1070
     0
1070
     0
1070
     0
1070
     0
1040
0.0
1040
0.0
1040
0.0
1040
10.0
1040
10.0
1040
10.0
1040
10.0
1070
     0
1002
{
1002
}
1002
}
  0
ENDSEC
  0
SECTION
  2
OBJECTS
  0
DICTIONARY
  5
C
330
0
100
AcDbDictionary
  3
ACAD_GROUP
350
D
  3
ACAD_LAYOUT
350
1A
  3
ACAD_MLINESTYLE
350
17
  3
ACAD_PLOTSETTINGS
350
19
  3
ACAD_PLOTSTYLENAME
350
E
  3
ACDBVARIABLEDICTIONARY
350
34
  3
ACMDICTIONARY
350
43
  3
AMG
350
2B
  3
AMGSNAPSETTINGS
350
6E
  3
DWGPROPS
350
36C4
  3
ACDBHEADERROUNDTRIPXREC
350
36D3
  0
DICTIONARY
  5
74
330
1F
100
AcDbDictionary
280
     1
  3
ACAD_INDEX
360
36C6
  3
ACAD_LAYOUTSELFREF
360
36F6
  0
DICTIONARY
  5
36FB
330
101
100
AcDbDictionary
280
     1
  3
ACAD_LAYOUTSELFREF
360
36FC
  0
DICTIONARY
  5
D
102
{ACAD_REACTORS
330
C
102
}
330
C
100
AcDbDictionary
  0
DICTIONARY
  5
1A
102
{ACAD_REACTORS
330
C
102
}
330
C
100
AcDbDictionary
  0
DICTIONARY
  5
17
102
{ACAD_REACTORS
330
C
102
}
330
C
100
AcDbDictionary
  3
STANDARD
350
18
  0
DICTIONARY
  5
19
102
{ACAD_REACTORS
330
C
102
}
330
C
100
AcDbDictionary
  0
ACDBDICTIONARYWDFLT
  5
E
102
{ACAD_REACTORS
330
C
102
}
330
C
100
AcDbDictionary
281
     1
  3
Normal
350
F
100
AcDbDictionaryWithDefault
340
F
  0
DICTIONARY
  5
34
102
{ACAD_REACTORS
330
C
102
}
330
C
100
AcDbDictionary
  3
INDEXCTL
350
35
  3
SORTENTS
350
B5E
  0
DICTIONARY
  5
43
102
{ACAD_REACTORS
330
C
102
}
330
C
100
AcDbDictionary
  3
ACMSTDDICTIONARY
350
260
  0
DICTIONARY
  5
2B
102
{ACAD_REACTORS
330
C
102
}
330
C
100
AcDbDictionary
  3
ACMGSETTINGS
350
2C
  0
DICTIONARY
  5
6E
102
{ACAD_REACTORS
330
C
102
}
330
C
100
AcDbDictionary
  0
XRECORD
  5
36C4
102
{ACAD_REACTORS
330
C
102
}
330
C
100
AcDbXrecord
  1
DWGPROPS COOKIE
  2

  3

  4

  6

  7

  8

  9

300
AmdtFileType=82
301
=
302
=
303
=
304
=
305
=
306
=
307
=
308
=
309
=
 40
0.2149216435185185
 41
2452800.443498622
 42
2453002.975632859
  1

 90
        1
  0
DICTIONARY
  5
36D3
102
{ACAD_REACTORS
330
C
102
}
330
C
100
AcDbDictionary
  3
TSTACKALIGN
350
36D4
  3
TSTACKSIZE
350
36D5
  3
HYPERLINKBASE
350
36D6
  3
STYLESHEET
350
36D7
  3
LAYOUTDICT
350
36D8
  3
PLOTSETDICT
350
36D9
  3
PLOTSTYLNAMDICT
350
36DA
  3
LWETCUNION
350
36DB
  3
INSUNITS
350
36DC
  3
CEPSNTYPE
350
36DD
  3
FINGERPRINTGUID
350
36DE
  3
VERSIONGUID
350
36DF
  3
PSVPSCALE
350
36E0
  3
DIMSTYLEDATA
350
36E1
  3
PUCSORTHOREF
350
36E2
  3
PUCSORTHOVIEW
350
36E3
  3
PUCSBASE
350
36E4
  3
PUCSORGTOP
350
36E5
  3
PUCSORGBOTTOM
350
36E6
  3
PUCSORGLEFT
350
36E7
  3
PUCSORGRIGHT
350
36E8
  3
PUCSORGFRONT
350
36E9
  3
PUCSORGBACK
350
36EA
  3
UCSORTHOREF
350
36EB
  3
UCSORTHOVIEW
350
36EC
  3
UCSBASE
350
36ED
  3
UCSORGTOP
350
36EE
  3
UCSORGBOTTOM
350
36EF
  3
UCSORGLEFT
350
36F0
  3
UCSORGRIGHT
350
36F1
  3
UCSORGFRONT
350
36F2
  3
UCSORGBACK
350
36F3
  0
DICTIONARY
  5
36C6
102
{ACAD_REACTORS
330
74
102
}
330
74
100
AcDbDictionary
  3
*A1
350
36C7
  0
XRECORD
  5
36F6
102
{ACAD_REACTORS
330
74
102
}
330
74
100
AcDbXrecord
340
1F
  0
XRECORD
  5
36FC
102
{ACAD_REACTORS
330
36FB
102
}
330
36FB
100
AcDbXrecord
340
101
  0
MLINESTYLE
  5
18
102
{ACAD_REACTORS
330
17
102
}
330
17
100
AcDbMlineStyle
  2
STANDARD
 70
     0
  3

 62
   256
 51
90.0
 52
90.0
 71
     2
 49
0.5
 62
   256
  6
BYLAYER
 49
-0.5
 62
   256
  6
BYLAYER
  0
ACDBPLACEHOLDER
  5
F
102
{ACAD_REACTORS
330
E
102
}
330
E
100
AcDbPlaceHolder
280
     0
  0
DICTIONARYVAR
  5
35
102
{ACAD_REACTORS
330
34
102
}
330
34
100
DictionaryVariables
280
     0
  1
1
  0
DICTIONARYVAR
  5
B5E
102
{ACAD_REACTORS
330
34
102
}
330
34
100
DictionaryVariables
280
     0
  1
96
  0
DICTIONARY
  5
260
102
{ACAD_REACTORS
330
43
102
}
330
43
100
AcDbDictionary
  0
DICTIONARY
  5
2C
102
{ACAD_REACTORS
330
2B
102
}
330
2B
100
AcDbDictionary
  3
DWGSETTINGS
350
2D
  0
XRECORD
  5
36D4
102
{ACAD_REACTORS
330
36D3
102
}
330
36D3
100
AcDbXrecord
 90
        1
  0
XRECORD
  5
36D5
102
{ACAD_REACTORS
330
36D3
102
}
330
36D3
100
AcDbXrecord
 90
       70
  0
XRECORD
  5
36D6
102
{ACAD_REACTORS
330
36D3
102
}
330
36D3
100
AcDbXrecord
  1

  0
XRECORD
  5
36D7
102
{ACAD_REACTORS
330
36D3
102
}
330
36D3
100
AcDbXrecord
  1
ASAMI.ctb
  0
XRECORD
  5
36D8
102
{ACAD_REACTORS
330
36D3
102
}
330
36D3
100
AcDbXrecord
340
1A
  0
XRECORD
  5
36D9
102
{ACAD_REACTORS
330
36D3
102
}
330
36D3
100
AcDbXrecord
340
19
  0
XRECORD
  5
36DA
102
{ACAD_REACTORS
330
36D3
102
}
330
36D3
100
AcDbXrecord
340
E
  0
XRECORD
  5
36DB
102
{ACAD_REACTORS
330
36D3
102
}
330
36D3
100
AcDbXrecord
 90
    10781
  0
XRECORD
  5
36DC
102
{ACAD_REACTORS
330
36D3
102
}
330
36D3
100
AcDbXrecord
 90
        4
  0
XRECORD
  5
36DD
102
{ACAD_REACTORS
330
36D3
102
}
330
36D3
100
AcDbXrecord
 90
        0
  0
XRECORD
  5
36DE
102
{ACAD_REACTORS
330
36D3
102
}
330
36D3
100
AcDbXrecord
  1
{AFB28963-8C59-40AE-9337-C84526B81ACE}
  0
XRECORD
  5
36DF
102
{ACAD_REACTORS
330
36D3
102
}
330
36D3
100
AcDbXrecord
  1
{44EB2913-C7B5-437D-8FB7-85DF211F67A2}
  0
XRECORD
  5
36E0
102
{ACAD_REACTORS
330
36D3
102
}
330
36D3
100
AcDbXrecord
 40
0.0
  0
XRECORD
  5
36E1
102
{ACAD_REACTORS
330
36D3
102
}
330
36D3
100
AcDbXrecord
1000
DSTYLE
1002
{
1070
    79
 70
     2
1070
   341
340
59
1070
   342
340
59
1070
   371
 70
    -1
1070
   372
 70
    -1
1002
}
  0
XRECORD
  5
36E2
102
{ACAD_REACTORS
330
36D3
102
}
330
36D3
100
AcDbXrecord
340
0
  0
XRECORD
  5
36E3
102
{ACAD_REACTORS
330
36D3
102
}
330
36D3
100
AcDbXrecord
 70
     0
  0
XRECORD
  5
36E4
102
{ACAD_REACTORS
330
36D3
102
}
330
36D3
100
AcDbXrecord
340
0
  0
XRECORD
  5
36E5
102
{ACAD_REACTORS
330
36D3
102
}
330
36D3
100
AcDbXrecord
 10
0.0
 20
0.0
 30
0.0
  0
XRECORD
  5
36E6
102
{ACAD_REACTORS
330
36D3
102
}
330
36D3
100
AcDbXrecord
 10
0.0
 20
0.0
 30
0.0
  0
XRECORD
  5
36E7
102
{ACAD_REACTORS
330
36D3
102
}
330
36D3
100
AcDbXrecord
 10
0.0
 20
0.0
 30
0.0
  0
XRECORD
  5
36E8
102
{ACAD_REACTORS
330
36D3
102
}
330
36D3
100
AcDbXrecord
 10
0.0
 20
0.0
 30
0.0
  0
XRECORD
  5
36E9
102
{ACAD_REACTORS
330
36D3
102
}
330
36D3
100
AcDbXrecord
 10
0.0
 20
0.0
 30
0.0
  0
XRECORD
  5
36EA
102
{ACAD_REACTORS
330
36D3
102
}
330
36D3
100
AcDbXrecord
 10
0.0
 20
0.0
 30
0.0
  0
XRECORD
  5
36EB
102
{ACAD_REACTORS
330
36D3
102
}
330
36D3
100
AcDbXrecord
340
0
  0
XRECORD
  5
36EC
102
{ACAD_REACTORS
330
36D3
102
}
330
36D3
100
AcDbXrecord
 70
     0
  0
XRECORD
  5
36ED
102
{ACAD_REACTORS
330
36D3
102
}
330
36D3
100
AcDbXrecord
340
0
  0
XRECORD
  5
36EE
102
{ACAD_REACTORS
330
36D3
102
}
330
36D3
100
AcDbXrecord
 10
0.0
 20
0.0
 30
0.0
  0
XRECORD
  5
36EF
102
{ACAD_REACTORS
330
36D3
102
}
330
36D3
100
AcDbXrecord
 10
0.0
 20
0.0
 30
0.0
  0
XRECORD
  5
36F0
102
{ACAD_REACTORS
330
36D3
102
}
330
36D3
100
AcDbXrecord
 10
0.0
 20
0.0
 30
0.0
  0
XRECORD
  5
36F1
102
{ACAD_REACTORS
330
36D3
102
}
330
36D3
100
AcDbXrecord
 10
0.0
 20
0.0
 30
0.0
  0
XRECORD
  5
36F2
102
{ACAD_REACTORS
330
36D3
102
}
330
36D3
100
AcDbXrecord
 10
0.0
 20
0.0
 30
0.0
  0
XRECORD
  5
36F3
102
{ACAD_REACTORS
330
36D3
102
}
330
36D3
100
AcDbXrecord
 10
0.0
 20
0.0
 30
0.0
  0
LAYER_INDEX
  5
36C7
102
{ACAD_REACTORS
330
36C6
102
}
330
36C6
100
AcDbIndex
 40
2453151.587874514
100
AcDbLayerIndex
  8
0
360
36C8
 90
        0
  8
AM_0
360
36C9
 90
       58
  8
PV0001_1
360
36CA
 90
        0
  8
AM_CL
360
36CB
 90
        0
  8
AM_7
360
36CC
 90
        1
  8
AM_11
360
36CD
 90
        2
  8
AM_5
360
36CE
 90
        7
  8
Defpoints
360
36CF
 90
        0
  8
AM_6
360
36D0
 90
        1
  8
AM_4
360
36D1
 90
        0
  0
XRECORD
  5
2D
102
{ACAD_REACTORS
330
2C
102
}
330
2C
100
AcDbXrecord
  1
VERSION
140
15.0
  1
PRODUCT
  2
AutoCAD Mechanical 2000
  0
IDBUFFER
  5
36C8
330
0
100
AcDbIdBuffer
  0
IDBUFFER
  5
36C9
330
0
100
AcDbIdBuffer
330
35D5
330
35D6
330
35D7
330
35D8
330
35D9
330
35DA
330
35DB
330
35DC
330
35DD
330
35F7
330
31FF
330
3200
330
3205
330
3206
330
3207
330
3208
330
3209
330
320A
330
3225
330
3226
330
3227
330
3228
330
322C
330
322D
330
322E
330
322F
330
3230
330
3231
330
3232
330
3233
330
3234
330
3235
330
3236
330
3237
330
3238
330
3239
330
323A
330
323B
330
323C
330
323D
330
323F
330
3240
330
3241
330
3242
330
3243
330
35C6
330
35C7
330
35C8
330
35C9
330
35CC
330
35CD
330
35CE
330
35CF
330
35D0
330
35D1
330
35D2
330
35D3
330
35D4
  0
IDBUFFER
  5
36CA
330
0
100
AcDbIdBuffer
  0
IDBUFFER
  5
36CB
330
0
100
AcDbIdBuffer
  0
IDBUFFER
  5
36CC
330
0
100
AcDbIdBuffer
330
3201
  0
IDBUFFER
  5
36CD
330
0
100
AcDbIdBuffer
330
35CA
330
35CB
  0
IDBUFFER
  5
36CE
330
0
100
AcDbIdBuffer
330
31FC
330
31FD
330
31FE
330
3202
330
3203
330
320B
330
323E
  0
IDBUFFER
  5
36CF
330
0
100
AcDbIdBuffer
  0
IDBUFFER
  5
36D0
330
0
100
AcDbIdBuffer
330
19BD
  0
IDBUFFER
  5
36D1
330
0
100
AcDbIdBuffer
  0
ENDSEC
  0
EOF
