  0
SECTION
  2
HEADER
  9
$ACADVER
  1
AC1014
  9
$ACADMAINTVER
 70
     9
  9
$DWGCODEPAGE
  3
ANSI_932
  9
$INSBASE
 10
0.0
 20
0.0
 30
0.0
  9
$EXTMIN
 10
-109.9000009999999
 20
-25.75000099999988
 30
-0.00000001
  9
$EXTMAX
 10
14.5863542899337
 20
14.17653580081274
 30
0.00000001
  9
$LIMMIN
 10
-118.2610573468045
 20
-38.91381283458128
  9
$LIMMAX
 10
19.64448440798253
 20
26.80456656152722
  9
$ORTHOMODE
 70
     0
  9
$REGENMODE
 70
     1
  9
$FILLMODE
 70
     1
  9
$QTEXTMODE
 70
     0
  9
$MIRRTEXT
 70
     0
  9
$DRAGMODE
 70
     2
  9
$LTSCALE
 40
1.0
  9
$OSMODE
 70
    55
  9
$ATTMODE
 70
     1
  9
$TEXTSIZE
 40
2.5
  9
$TRACEWID
 40
1.0
  9
$TEXTSTYLE
  7
STANDARD
  9
$CLAYER
  8
AM_0
  9
$CELTYPE
  6
BYLAYER
  9
$CECOLOR
 62
   256
  9
$CELTSCALE
 40
1.0
  9
$DELOBJ
 70
     1
  9
$DISPSILH
 70
     0
  9
$DIMSCALE
 40
0.5
  9
$DIMASZ
 40
2.5
  9
$DIMEXO
 40
1.0
  9
$DIMDLI
 40
12.0
  9
$DIMRND
 40
0.0
  9
$DIMDLE
 40
0.0
  9
$DIMEXE
 40
1.0
  9
$DIMTP
 40
0.1
  9
$DIMTM
 40
0.1
  9
$DIMTXT
 40
3.2
  9
$DIMCEN
 40
0.0
  9
$DIMTSZ
 40
0.0
  9
$DIMTOL
 70
     0
  9
$DIMLIM
 70
     0
  9
$DIMTIH
 70
     0
  9
$DIMTOH
 70
     0
  9
$DIMSE1
 70
     0
  9
$DIMSE2
 70
     0
  9
$DIMTAD
 70
     3
  9
$DIMZIN
 70
     8
  9
$DIMBLK
  1
OPEN30
  9
$DIMASO
 70
     1
  9
$DIMSHO
 70
     1
  9
$DIMPOST
  1

  9
$DIMAPOST
  1
"
  9
$DIMALT
 70
     0
  9
$DIMALTD
 70
     2
  9
$DIMALTF
 40
0.0393701
  9
$DIMLFAC
 40
1.0
  9
$DIMTOFL
 70
     1
  9
$DIMTVP
 40
0.0
  9
$DIMTIX
 70
     0
  9
$DIMSOXD
 70
     0
  9
$DIMSAH
 70
     0
  9
$DIMBLK1
  1

  9
$DIMBLK2
  1

  9
$DIMSTYLE
  2
AM_JIS
  9
$DIMCLRD
 70
   256
  9
$DIMCLRE
 70
   256
  9
$DIMCLRT
 70
     2
  9
$DIMTFAC
 40
0.71
  9
$DIMGAP
 40
1.5
  9
$DIMJUST
 70
     0
  9
$DIMSD1
 70
     0
  9
$DIMSD2
 70
     0
  9
$DIMTOLJ
 70
     0
  9
$DIMTZIN
 70
     0
  9
$DIMALTZ
 70
     0
  9
$DIMALTTZ
 70
     0
  9
$DIMFIT
 70
     3
  9
$DIMUPT
 70
     0
  9
$DIMUNIT
 70
     2
  9
$DIMDEC
 70
     3
  9
$DIMTDEC
 70
     3
  9
$DIMALTU
 70
     2
  9
$DIMALTTD
 70
     2
  9
$DIMTXSTY
  7
ASAMI
  9
$DIMAUNIT
 70
     0
  9
$LUNITS
 70
     2
  9
$LUPREC
 70
     2
  9
$SKETCHINC
 40
1.0
  9
$FILLETRAD
 40
2.5
  9
$AUNITS
 70
     0
  9
$AUPREC
 70
     0
  9
$MENU
  1
.
  9
$ELEVATION
 40
0.0
  9
$PELEVATION
 40
0.0
  9
$THICKNESS
 40
0.0
  9
$LIMCHECK
 70
     0
  9
$BLIPMODE
 70
     0
  9
$CHAMFERA
 40
0.25
  9
$CHAMFERB
 40
0.25
  9
$CHAMFERC
 40
20.0
  9
$CHAMFERD
 40
0.0
  9
$SKPOLY
 70
     0
  9
$TDCREATE
 40
2452800.443498622
  9
$TDUPDATE
 40
2453151.691200428
  9
$TDINDWG
 40
0.0407396644
  9
$TDUSRTIMER
 40
0.0407396644
  9
$USRTIMER
 70
     1
  9
$ANGBASE
 50
0.0
  9
$ANGDIR
 70
     0
  9
$PDMODE
 70
     3
  9
$PDSIZE
 40
0.0
  9
$PLINEWID
 40
0.0
  9
$COORDS
 70
     1
  9
$SPLFRAME
 70
     0
  9
$SPLINETYPE
 70
     6
  9
$SPLINESEGS
 70
     8
  9
$ATTDIA
 70
     1
  9
$ATTREQ
 70
     1
  9
$HANDLING
 70
 12289
  9
$HANDSEED
  5
293F
  9
$SURFTAB1
 70
     6
  9
$SURFTAB2
 70
     6
  9
$SURFTYPE
 70
     6
  9
$SURFU
 70
     6
  9
$SURFV
 70
     6
  9
$UCSNAME
  2

  9
$UCSORG
 10
0.0000000000000231
 20
0.0000000000000639
 30
0.0
  9
$UCSXDIR
 10
1.0
 20
0.000000000000002
 30
0.0
  9
$UCSYDIR
 10
-0.000000000000002
 20
1.0
 30
0.0
  9
$PUCSNAME
  2

  9
$PUCSORG
 10
0.0
 20
0.0
 30
0.0
  9
$PUCSXDIR
 10
1.0
 20
0.0
 30
0.0
  9
$PUCSYDIR
 10
0.0
 20
1.0
 30
0.0
  9
$USERI1
 70
     0
  9
$USERI2
 70
     0
  9
$USERI3
 70
     0
  9
$USERI4
 70
     0
  9
$USERI5
 70
     0
  9
$USERR1
 40
0.0
  9
$USERR2
 40
0.0
  9
$USERR3
 40
0.0
  9
$USERR4
 40
0.0
  9
$USERR5
 40
0.0
  9
$WORLDVIEW
 70
     1
  9
$SHADEDGE
 70
     3
  9
$SHADEDIF
 70
    70
  9
$TILEMODE
 70
     1
  9
$MAXACTVP
 70
    64
  9
$PINSBASE
 10
0.0
 20
0.0
 30
0.0
  9
$PLIMCHECK
 70
     0
  9
$PEXTMIN
 10
1.000000000000000E+20
 20
1.000000000000000E+20
 30
1.000000000000000E+20
  9
$PEXTMAX
 10
-1.000000000000000E+20
 20
-1.000000000000000E+20
 30
-1.000000000000000E+20
  9
$PLIMMIN
 10
0.0
 20
0.0
  9
$PLIMMAX
 10
841.0
 20
594.0
  9
$UNITMODE
 70
     0
  9
$VISRETAIN
 70
     1
  9
$PLINEGEN
 70
     0
  9
$PSLTSCALE
 70
     0
  9
$TREEDEPTH
 70
  3020
  9
$PICKSTYLE
 70
     0
  9
$CMLSTYLE
  2
STANDARD
  9
$CMLJUST
 70
     0
  9
$CMLSCALE
 40
20.0
  9
$PROXYGRAPHICS
 70
     1
  9
$MEASUREMENT
 70
     1
  0
ENDSEC
  0
SECTION
  2
CLASSES
  0
CLASS
  1
ACDBDICTIONARYWDFLT
  2
AcDbDictionaryWithDefault
  3
AutoCAD 2000
 90
        0
280
     0
281
     0
  0
CLASS
  1
ACDBPLACEHOLDER
  2
AcDbPlaceHolder
  3
AutoCAD 2000
 90
        0
280
     0
281
     0
  0
CLASS
  1
LAYOUT
  2
AcDbLayout
  3
AutoCAD 2000
 90
        0
280
     0
281
     0
  0
CLASS
  1
AMGSETTINGSOBJ
  2
AmgSettingsObj
  3
"AcadM|Product Description: AutoCAD Mechanical 2000|Company: Autodesk"
 90
        0
280
     0
281
     0
  0
CLASS
  1
ACME_DOCUMENT
  2
AcMeDbDoc
  3
AcMeServices
 90
        0
280
     0
281
     0
  0
CLASS
  1
ACMESCOPE
  2
AcMeScope
  3
AcMeServices
 90
        0
280
     0
281
     0
  0
CLASS
  1
ACMECOMMANDHISTORY
  2
AcMeCommandHistory
  3
AcMeServices
 90
        0
280
     0
281
     0
  0
CLASS
  1
DICTIONARYVAR
  2
AcDbDictionaryVar
  3
AutoCAD 2000
 90
        0
280
     0
281
     0
  0
CLASS
  1
ACIMSYSVARMAN
  2
AcImSysVarManager
  3
AcMeServices
 90
        0
280
     0
281
     0
  0
CLASS
  1
ACIMREALSYSVAR
  2
AcImRealSysVar
  3
AcMeServices
 90
        0
280
     0
281
     0
  0
CLASS
  1
ACIMINTSYSVAR
  2
AcImIntSysVar
  3
AcMeServices
 90
        0
280
     0
281
     0
  0
CLASS
  1
ACMEDRAWINGMAN
  2
AcMeDrawingMan
  3
AcMeServices
 90
        0
280
     0
281
     0
  0
CLASS
  1
ACMEVIEW
  2
AcMeView
  3
AcMeServices
 90
        0
280
     0
281
     0
  0
CLASS
  1
ACDBENTITYCACHE
  2
AcMeEntityCache
  3
AcMeServices
 90
        0
280
     0
281
     0
  0
CLASS
  1
GSMANAGER
  2
AcMeGSManager
  3
AcMeServices
 90
        0
280
     0
281
     0
  0
CLASS
  1
AmdtInternalReactor
  2
AmdtInternalReactor
  3
AcMeServices
 90
        0
280
     0
281
     0
  0
CLASS
  1
ACMESTATEMGR
  2
AcMeStateMgr
  3
AcMeServices
 90
        0
280
     0
281
     0
  0
CLASS
  1
ACME_DATABASE
  2
AcMeDbDatabase
  3
AcMeServices
 90
        0
280
     0
281
     0
  0
CLASS
  1
ACRFINSADJUSTERMGR
  2
AcRfInsAdjusterMgr
  3
AcMeServices
 90
        0
280
     0
281
     0
  0
CLASS
  1
ACMDATADICTIONARY
  2
AcmDataDictionary
  3
"AcmSymBB|Product Description: AutoCAD Mechanical 2000|Company: Autodesk"
 90
        0
280
     0
281
     0
  0
CLASS
  1
ACMDATAENTRYBLOCK
  2
AcmDataEntryBlock
  3
"AcmSymBB|Product Description: AutoCAD Mechanical 2000|Company: Autodesk"
 90
        0
280
     0
281
     0
  0
CLASS
  1
AMGOBJPROPCFG
  2
AmgObjPropCfg
  3
"AmgLay|Product Description: AutoCAD Mechanical 2000|Company: Autodesk"
 90
        1
280
     0
281
     0
  0
CLASS
  1
ACAMGFILTERDAT
  2
AcAmgFilterDat
  3
"AcadM|Product Description: AutoCAD Mechanical 2000|Company: Autodesk"
 90
        0
280
     0
281
     0
  0
CLASS
  1
LAYER_INDEX
  2
AcDbLayerIndex
  3
AutoCAD 2000
 90
        0
280
     0
281
     0
  0
CLASS
  1
IDBUFFER
  2
AcDbIdBuffer
  3
AutoCAD 2000
 90
        0
280
     0
281
     0
  0
CLASS
  1
ACIMSTRSYSVAR
  2
AcImStrSysVar
  3
AcMeServices
 90
        0
280
     0
281
     0
  0
CLASS
  1
ACMSTANDARDJIS
  2
AcmStandardJIS
  3
"AcmSymBB|Product Description: AutoCAD Mechanical 2000|Company: Autodesk"
 90
        0
280
     0
281
     0
  0
CLASS
  1
ACMSURFSTANDARDJIS
  2
AcmSurfTextStdJIS
  3
"AcmSymBB|Product Description: AutoCAD Mechanical 2000|Company: Autodesk"
 90
        0
280
     0
281
     0
  0
CLASS
  1
ACMFCFSTANDARDJIS
  2
AcmFCFStdJIS
  3
"AcmSymBB|Product Description: AutoCAD Mechanical 2000|Company: Autodesk"
 90
        0
280
     0
281
     0
  0
CLASS
  1
ACMWELDSTANDARDJIS
  2
AcmWeldingStdJIS
  3
"AcmSymBB|Product Description: AutoCAD Mechanical 2000|Company: Autodesk"
 90
        0
280
     0
281
     0
  0
CLASS
  1
ACMIDSTANDARDJIS
  2
AcmIdStdJIS
  3
"AcmSymBB|Product Description: AutoCAD Mechanical 2000|Company: Autodesk"
 90
        0
280
     0
281
     0
  0
CLASS
  1
ACMDATUMSTANDARDJIS
  2
AcmDatumStdJIS
  3
"AcmSymBB|Product Description: AutoCAD Mechanical 2000|Company: Autodesk"
 90
        0
280
     0
281
     0
  0
CLASS
  1
ACMBOMSTANDARDJIS
  2
AcmBOMStdJIS
  3
"AcmSymBB|Product Description: AutoCAD Mechanical 2000|Company: Autodesk"
 90
        0
280
     0
281
     0
  0
CLASS
  1
ACMSTANDARDANSI
  2
AcmStandardANSI
  3
"AcmSymBB|Product Description: AutoCAD Mechanical 2000|Company: Autodesk"
 90
        0
280
     0
281
     0
  0
CLASS
  1
ACMSURFSTANDARDANSI
  2
AcmSurfTextStdANSI
  3
"AcmSymBB|Product Description: AutoCAD Mechanical 2000|Company: Autodesk"
 90
        0
280
     0
281
     0
  0
CLASS
  1
ACMFCFSTANDARDANSI
  2
AcmFCFStdANSI
  3
"AcmSymBB|Product Description: AutoCAD Mechanical 2000|Company: Autodesk"
 90
        0
280
     0
281
     0
  0
CLASS
  1
ACMWELDSTANDARDANSI
  2
AcmWeldingStdANSI
  3
"AcmSymBB|Product Description: AutoCAD Mechanical 2000|Company: Autodesk"
 90
        0
280
     0
281
     0
  0
CLASS
  1
ACMIDSTANDARDANSI
  2
AcmIdStdANSI
  3
"AcmSymBB|Product Description: AutoCAD Mechanical 2000|Company: Autodesk"
 90
        0
280
     0
281
     0
  0
CLASS
  1
ACMDATUMSTANDARDANSI
  2
AcmDatumStdANSI
  3
"AcmSymBB|Product Description: AutoCAD Mechanical 2000|Company: Autodesk"
 90
        0
280
     0
281
     0
  0
CLASS
  1
ACMBOMSTANDARDANSI
  2
AcmBOMStdANSI
  3
"AcmSymBB|Product Description: AutoCAD Mechanical 2000|Company: Autodesk"
 90
        0
280
     0
281
     0
  0
CLASS
  1
ACMSTANDARDBSI
  2
AcmStandardBSI
  3
"AcmSymBB|Product Description: AutoCAD Mechanical 2000|Company: Autodesk"
 90
        0
280
     0
281
     0
  0
CLASS
  1
ACMSURFSTANDARDBSI
  2
AcmSurfTextStdBSI
  3
"AcmSymBB|Product Description: AutoCAD Mechanical 2000|Company: Autodesk"
 90
        0
280
     0
281
     0
  0
CLASS
  1
ACMFCFSTANDARDBSI
  2
AcmFCFStdBSI
  3
"AcmSymBB|Product Description: AutoCAD Mechanical 2000|Company: Autodesk"
 90
        0
280
     0
281
     0
  0
CLASS
  1
ACMWELDSTANDARDBSI
  2
AcmWeldingStdBSI
  3
"AcmSymBB|Product Description: AutoCAD Mechanical 2000|Company: Autodesk"
 90
        0
280
     0
281
     0
  0
CLASS
  1
ACMIDSTANDARDBSI
  2
AcmIdStdBSI
  3
"AcmSymBB|Product Description: AutoCAD Mechanical 2000|Company: Autodesk"
 90
        0
280
     0
281
     0
  0
CLASS
  1
ACMDATUMSTANDARDBSI
  2
AcmDatumStdBSI
  3
"AcmSymBB|Product Description: AutoCAD Mechanical 2000|Company: Autodesk"
 90
        0
280
     0
281
     0
  0
CLASS
  1
ACMBOMSTANDARDBSI
  2
AcmBOMStdBSI
  3
"AcmSymBB|Product Description: AutoCAD Mechanical 2000|Company: Autodesk"
 90
        0
280
     0
281
     0
  0
CLASS
  1
LONG_TRANSACTION
  2
AcDbLongTransaction
  3
AutoCAD 2000
 90
        0
280
     0
281
     0
  0
CLASS
  1
LWPOLYLINE
  2
AcDbPolyline
  3
AutoCAD 2000
 90
        0
280
     0
281
     1
  0
CLASS
  1
HATCH
  2
AcDbHatch
  3
AutoCAD 2000
 90
        0
280
     0
281
     1
  0
CLASS
  1
XRECORD
  2
AcDbXrecord
  3
AutoCAD 2000
 90
        0
280
     0
281
     0
  0
ENDSEC
  0
SECTION
  2
TABLES
  0
TABLE
  2
VPORT
  5
8
330
0
100
AcDbSymbolTable
 70
     3
  0
VPORT
  5
2909
330
8
100
AcDbSymbolTableRecord
100
AcDbViewportTableRecord
  2
*ACTIVE
 70
     0
 10
0.0
 20
0.0
 11
1.0
 21
1.0
 12
-45.35516473047671
 22
-5.78637856046572
 13
0.0
 23
0.0
 14
2.5
 24
2.5
 15
10.0
 25
10.0
 16
0.0
 26
0.0
 36
1.0
 17
0.0
 27
0.0
 37
0.0
 40
82.84446436672313
 41
1.56570841889117
 42
50.0
 43
0.0
 44
0.0
 50
0.0
 51
0.0
 71
     0
 72
   100
 73
     1
 74
     1
 75
     0
 76
     0
 77
     0
 78
     0
  0
ENDTAB
  0
TABLE
  2
LTYPE
  5
5
330
0
100
AcDbSymbolTable
 70
    10
  0
LTYPE
  5
14
330
5
100
AcDbSymbolTableRecord
100
AcDbLinetypeTableRecord
  2
BYBLOCK
 70
     0
  3

 72
    65
 73
     0
 40
0.0
  0
LTYPE
  5
15
330
5
100
AcDbSymbolTableRecord
100
AcDbLinetypeTableRecord
  2
BYLAYER
 70
     0
  3

 72
    65
 73
     0
 40
0.0
  0
LTYPE
  5
16
330
5
100
AcDbSymbolTableRecord
100
AcDbLinetypeTableRecord
  2
CONTINUOUS
 70
     0
  3
Solid line
 72
    65
 73
     0
 40
0.0
  0
LTYPE
  5
4B
330
5
100
AcDbSymbolTableRecord
100
AcDbLinetypeTableRecord
  2
AM_ISO02W050
 70
     0
  3
__ __ __ __ __ __ __ __ __ __ __ __ __ __ __
 72
    65
 73
     2
 40
7.5
 49
6.0
 74
     0
 49
-1.5
 74
     0
  0
LTYPE
  5
4C
330
5
100
AcDbSymbolTableRecord
100
AcDbLinetypeTableRecord
  2
AM_ISO08W050
 70
     0
  3
____ . ____ . ____ . ____ . ____ . ____ . ____
 72
    65
 73
     4
 40
18.0
 49
12.0
 74
     0
 49
-1.5
 74
     0
 49
3.0
 74
     0
 49
-1.5
 74
     0
  0
LTYPE
  5
4D
330
5
100
AcDbSymbolTableRecord
100
AcDbLinetypeTableRecord
  2
AM_ISO09W050
 70
     0
  3
_____ . . _____ . . _____ . . ____ .. ____
 72
    65
 73
     6
 40
22.5
 49
12.0
 74
     0
 49
-1.5
 74
     0
 49
3.0
 74
     0
 49
-1.5
 74
     0
 49
3.0
 74
     0
 49
-1.5
 74
     0
  0
LTYPE
  5
4E
330
5
100
AcDbSymbolTableRecord
100
AcDbLinetypeTableRecord
  2
AMCONSTR
 70
     0
  3
_______________________
 72
    65
 73
     2
 40
9999.0
 49
9999.0
 74
     0
 49
0.0
 74
     0
  0
LTYPE
  5
4F
330
5
100
AcDbSymbolTableRecord
100
AcDbLinetypeTableRecord
  2
AM_ISO02W050X2
 70
     0
  3
 _ _ _ _ _ _ _ _ _ _ _ _
 72
    65
 73
     2
 40
3.75
 49
3.0
 74
     0
 49
-0.75
 74
     0
  0
LTYPE
  5
50
330
5
100
AcDbSymbolTableRecord
100
AcDbLinetypeTableRecord
  2
AM_ISO08W050X2
 70
     0
  3
__ . __ . __ . __ . __ . __
 72
    65
 73
     4
 40
9.0
 49
6.0
 74
     0
 49
-0.75
 74
     0
 49
1.5
 74
     0
 49
-0.75
 74
     0
  0
LTYPE
  5
53
330
5
100
AcDbSymbolTableRecord
100
AcDbLinetypeTableRecord
  2
AMZIGZAG
 70
     0
  3
/\/-/\/-/\/-/\/-/\/-/\/
 72
    65
 73
     2
 40
11.00009999999999
 49
0.0001
 74
     4
 75
   135
340
52
 46
0.04
 50
0.0
 44
0.0
 45
0.0
 49
-11.0
 74
     0
  0
LTYPE
  5
166
330
5
100
AcDbSymbolTableRecord
100
AcDbLinetypeTableRecord
  2
ACJISTGL
 70
     0
  3
_ _ _ _ _
 72
    65
 73
     2
 40
3.0
 49
2.0
 74
     0
 49
-1.0
 74
     0
  0
LTYPE
  5
26A
330
5
100
AcDbSymbolTableRecord
100
AcDbLinetypeTableRecord
  2
ACJISTGB
 70
     0
  3
__ . . __ . .
 72
    65
 73
     6
 40
9.0
 49
4.0
 74
     0
 49
-1.0
 74
     0
 49
1.0
 74
     0
 49
-1.0
 74
     0
 49
1.0
 74
     0
 49
-1.0
 74
     0
  0
ENDTAB
  0
TABLE
  2
LAYER
  5
2
330
0
100
AcDbSymbolTable
 70
     7
  0
LAYER
  5
10
330
2
100
AcDbSymbolTableRecord
100
AcDbLayerTableRecord
  2
0
 70
     0
 62
     7
  6
CONTINUOUS
  0
LAYER
  5
3F9
330
2
100
AcDbSymbolTableRecord
100
AcDbLayerTableRecord
  2
AM_0
 70
     0
 62
     7
  6
CONTINUOUS
  0
LAYER
  5
C7C
330
2
100
AcDbSymbolTableRecord
100
AcDbLayerTableRecord
  2
AM_7
 70
     0
 62
     4
  6
AM_ISO08W050
  0
LAYER
  5
C97
330
2
100
AcDbSymbolTableRecord
100
AcDbLayerTableRecord
  2
AM_11
 70
     0
 62
     3
  6
AM_ISO09W050
  0
LAYER
  5
CC5
330
2
100
AcDbSymbolTableRecord
100
AcDbLayerTableRecord
  2
AM_5
 70
     0
 62
     3
  6
CONTINUOUS
  0
LAYER
  5
CC7
330
2
100
AcDbSymbolTableRecord
100
AcDbLayerTableRecord
  2
DEFPOINTS
 70
     0
 62
     7
  6
CONTINUOUS
  0
LAYER
  5
19BC
330
2
100
AcDbSymbolTableRecord
100
AcDbLayerTableRecord
  2
AM_6
 70
     0
 62
     2
  6
CONTINUOUS
  0
ENDTAB
  0
TABLE
  2
STYLE
  5
3
330
0
100
AcDbSymbolTable
 70
     5
  0
STYLE
  5
11
330
3
100
AcDbSymbolTableRecord
100
AcDbTextStyleTableRecord
  2
STANDARD
 70
     0
 40
0.0
 41
1.0
 50
0.0
 71
     0
 42
2.5
  3
simplex.shx
  4
EXTFONT.SHX
  0
STYLE
  5
52
330
3
100
AcDbSymbolTableRecord
100
AcDbTextStyleTableRecord
  2

 70
     1
 40
0.0
 41
1.0
 50
0.0
 71
     0
 42
2.5
  3
ltypeshp.shx
  4

  0
STYLE
  5
6B
330
3
100
AcDbSymbolTableRecord
100
AcDbTextStyleTableRecord
  2
ASAMI
 70
     0
 40
0.0
 41
1.0
 50
0.0
 71
     0
 42
2.5
  3
simplex.shx
  4
EXTFONT.SHX
  0
STYLE
  5
262
330
3
100
AcDbSymbolTableRecord
100
AcDbTextStyleTableRecord
  2
ACJISTS
 70
     0
 40
1.0
 41
1.0
 50
0.0
 71
     0
 42
2.5
  3
simplex.shx
  4
bigfont.shx
  0
STYLE
  5
269
330
3
100
AcDbSymbolTableRecord
100
AcDbTextStyleTableRecord
  2
ACJISGDT
 70
     0
 40
0.0
 41
1.0
 50
0.0
 71
     0
 42
2.5
  3
amgdtans.shx
  4

  0
ENDTAB
  0
TABLE
  2
VIEW
  5
6
330
0
100
AcDbSymbolTable
 70
     0
  0
ENDTAB
  0
TABLE
  2
UCS
  5
7
330
0
100
AcDbSymbolTable
 70
     0
  0
ENDTAB
  0
TABLE
  2
APPID
  5
9
330
0
100
AcDbSymbolTable
 70
    16
  0
APPID
  5
12
330
9
100
AcDbSymbolTableRecord
100
AcDbRegAppTableRecord
  2
ACAD
 70
     0
  0
APPID
  5
30
330
9
100
AcDbSymbolTableRecord
100
AcDbRegAppTableRecord
  2
MCAD_NO_VIS
 70
     0
  0
APPID
  5
31
330
9
100
AcDbSymbolTableRecord
100
AcDbRegAppTableRecord
  2
ACAD_TEMP_GRAPHIC
 70
     0
  0
APPID
  5
2C2
330
9
100
AcDbSymbolTableRecord
100
AcDbRegAppTableRecord
  2
GENIUS_GENDTOL_13
 70
     0
  0
APPID
  5
339
330
9
100
AcDbSymbolTableRecord
100
AcDbRegAppTableRecord
  2
GENIUS_GENODEF_13
 70
     0
  0
APPID
  5
33A
330
9
100
AcDbSymbolTableRecord
100
AcDbRegAppTableRecord
  2
GENIUS_GENOBJ-N-RSBK_13
 70
     0
  0
APPID
  5
33B
330
9
100
AcDbSymbolTableRecord
100
AcDbRegAppTableRecord
  2
GENIUS_GENOBJ-N-LIB_13
 70
     0
  0
APPID
  5
33C
330
9
100
AcDbSymbolTableRecord
100
AcDbRegAppTableRecord
  2
GENIUS_GENSCALE_13
 70
     0
  0
APPID
  5
378
330
9
100
AcDbSymbolTableRecord
100
AcDbRegAppTableRecord
  2
GENIUS_GENDIMSH_14
 70
     0
  0
APPID
  5
C82
330
9
100
AcDbSymbolTableRecord
100
AcDbRegAppTableRecord
  2
GENIUS_GENOBJ-N-CRS_13
 70
     0
  0
APPID
  5
C83
330
9
100
AcDbSymbolTableRecord
100
AcDbRegAppTableRecord
  2
GENIUS_GENOENT_13
 70
     0
  0
APPID
  5
C84
330
9
100
AcDbSymbolTableRecord
100
AcDbRegAppTableRecord
  2
GENIUS_GENOREF_13
 70
     0
  0
APPID
  5
C85
330
9
100
AcDbSymbolTableRecord
100
AcDbRegAppTableRecord
  2
GENIUS_GENOLIS_13
 70
     0
  0
APPID
  5
CA0
330
9
100
AcDbSymbolTableRecord
100
AcDbRegAppTableRecord
  2
GENIUS_GENOBJ-N-CEN_13
 70
     0
  0
APPID
  5
1CFA
330
9
100
AcDbSymbolTableRecord
100
AcDbRegAppTableRecord
  2
GENIUS_GENFIL_13
 70
     0
  0
APPID
  5
1CFB
330
9
100
AcDbSymbolTableRecord
100
AcDbRegAppTableRecord
  2
GENIUS_GENOBJ-N-CHA_13
 70
     0
  0
ENDTAB
  0
TABLE
  2
DIMSTYLE
  5
A
330
0
100
AcDbSymbolTable
 70
     9
  0
DIMSTYLE
105
58
330
A
100
AcDbSymbolTableRecord
100
AcDbDimStyleTableRecord
  2
AM_JIS
 70
     0
  3

  4
"
  5
OPEN30
  6

  7

 40
0.5
 41
2.5
 42
1.0
 43
12.0
 44
1.0
 45
0.0
 46
0.0
 47
0.1
 48
0.1
140
3.2
141
0.0
142
0.0
143
0.0393701
144
1.0
145
0.0
146
0.71
147
1.5
 71
     0
 72
     0
 73
     0
 74
     0
 75
     0
 76
     0
 77
     3
 78
     8
170
     0
171
     2
172
     1
173
     0
174
     0
175
     0
176
   256
177
   256
178
     2
270
     2
271
     3
272
     3
273
     2
274
     2
340
6B
275
     0
280
     0
281
     0
282
     0
283
     0
284
     0
285
     0
286
     0
287
     3
288
     0
  0
DIMSTYLE
105
5F
330
A
100
AcDbSymbolTableRecord
100
AcDbDimStyleTableRecord
  2
AM_JIS$3
 70
     0
  3

  4
"
  5
OPEN30
  6

  7

 40
0.5
 41
2.5
 42
1.0
 43
10.0
 44
1.0
 45
0.0
 46
0.0
 47
0.1
 48
0.1
140
3.2
141
0.0
142
0.0
143
0.0393701
144
1.0
145
0.0
146
0.71
147
1.5
 71
     0
 72
     0
 73
     0
 74
     1
 75
     0
 76
     0
 77
     3
 78
     8
170
     0
171
     2
172
     0
173
     0
174
     0
175
     0
176
   256
177
   256
178
     2
270
     2
271
     2
272
     3
273
     2
274
     2
340
6B
275
     0
280
     0
281
     0
282
     0
283
     0
284
     0
285
     0
286
     0
287
     0
288
     1
  0
DIMSTYLE
105
60
330
A
100
AcDbSymbolTableRecord
100
AcDbDimStyleTableRecord
  2
AM_JIS$4
 70
     0
  3

  4
"
  5
OPEN30
  6

  7

 40
0.5
 41
2.5
 42
1.0
 43
10.0
 44
1.0
 45
0.0
 46
0.0
 47
0.1
 48
0.1
140
3.2
141
0.0
142
0.0
143
0.0393701
144
1.0
145
0.0
146
0.71
147
1.5
 71
     0
 72
     0
 73
     0
 74
     1
 75
     0
 76
     0
 77
     3
 78
     8
170
     0
171
     2
172
     0
173
     0
174
     0
175
     0
176
   256
177
   256
178
     2
270
     2
271
     2
272
     3
273
     2
274
     2
340
6B
275
     0
280
     0
281
     0
282
     0
283
     0
284
     0
285
     0
286
     0
287
     0
288
     1
  0
DIMSTYLE
105
61
330
A
100
AcDbSymbolTableRecord
100
AcDbDimStyleTableRecord
  2
AM_JIS$6
 70
     0
  3

  4
"
  5
OPEN30
  6

  7

 40
0.5
 41
2.5
 42
1.0
 43
10.0
 44
1.0
 45
0.0
 46
0.0
 47
0.1
 48
0.1
140
3.2
141
0.0
142
0.0
143
0.0393701
144
1.0
145
0.0
146
0.71
147
1.5
 71
     0
 72
     0
 73
     0
 74
     0
 75
     0
 76
     0
 77
     0
 78
     8
170
     0
171
     2
172
     1
173
     0
174
     0
175
     0
176
   256
177
   256
178
     2
270
     2
271
     2
272
     2
273
     2
274
     2
340
6B
275
     0
280
     0
281
     0
282
     0
283
     0
284
     0
285
     0
286
     0
287
     3
288
     0
  0
DIMSTYLE
105
62
330
A
100
AcDbSymbolTableRecord
100
AcDbDimStyleTableRecord
  2
AM_JIS$7
 70
     0
  3

  4
"
  5
OPEN30
  6

  7

 40
0.5
 41
2.5
 42
1.0
 43
10.0
 44
1.0
 45
0.0
 46
0.0
 47
0.1
 48
0.1
140
3.2
141
0.0
142
0.0
143
0.0393701
144
1.0
145
0.0
146
0.71
147
1.5
 71
     0
 72
     0
 73
     0
 74
     0
 75
     0
 76
     0
 77
     3
 78
     8
170
     0
171
     2
172
     1
173
     0
174
     0
175
     0
176
   256
177
   256
178
     2
270
     2
271
     2
272
     3
273
     2
274
     2
340
6B
275
     0
280
     0
281
     0
282
     0
283
     0
284
     0
285
     0
286
     0
287
     3
288
     0
  0
DIMSTYLE
105
63
330
A
100
AcDbSymbolTableRecord
100
AcDbDimStyleTableRecord
  2
AM_JIS$SF
 70
     0
  3

  4
"
  5
OPEN30
  6

  7

 40
0.5
 41
2.5
 42
1.0
 43
10.0
 44
1.0
 45
0.0
 46
0.0
 47
0.1
 48
0.1
140
3.2
141
0.0
142
0.0
143
0.0393701
144
1.0
145
0.0
146
0.71
147
1.5
 71
     0
 72
     0
 73
     0
 74
     0
 75
     1
 76
     1
 77
     3
 78
     8
170
     0
171
     2
172
     1
173
     0
174
     0
175
     0
176
   256
177
   256
178
     2
270
     2
271
     2
272
     2
273
     2
274
     2
340
6B
275
     0
280
     0
281
     0
282
     0
283
     0
284
     0
285
     0
286
     0
287
     3
288
     0
  0
DIMSTYLE
105
68
330
A
100
AcDbSymbolTableRecord
100
AcDbDimStyleTableRecord
  2
AM_JIS$SH
 70
     0
  3

  4
"
  5

  6
GENAXEH
  7
OPEN30
 40
0.5
 41
2.5
 42
1.0
 43
10.0
 44
1.0
 45
0.0
 46
0.0
 47
0.1
 48
0.1
140
3.2
141
0.0
142
0.0
143
0.0393701
144
2.0
145
0.0
146
0.71
147
1.5
 71
     0
 72
     0
 73
     0
 74
     0
 75
     1
 76
     1
 77
     3
 78
     8
170
     0
171
     2
172
     1
173
     1
174
     0
175
     0
176
   256
177
   256
178
     2
270
     2
271
     2
272
     2
273
     2
274
     2
340
6B
275
     0
280
     0
281
     0
282
     0
283
     0
284
     0
285
     0
286
     0
287
     3
288
     0
  0
DIMSTYLE
105
B34
102
{ACAD_REACTORS
330
2602
102
}
330
A
100
AcDbSymbolTableRecord
100
AcDbDimStyleTableRecord
  2
AM_JIS$2
 70
     0
  3

  4
"
  5
OPEN30
  6

  7

 40
0.5
 41
2.5
 42
1.0
 43
12.0
 44
1.0
 45
0.0
 46
0.0
 47
0.1
 48
0.1
140
3.2
141
0.0
142
0.0
143
0.0393701
144
1.0
145
0.0
146
0.71
147
1.5
 71
     0
 72
     0
 73
     0
 74
     0
 75
     0
 76
     0
 77
     3
 78
     8
170
     0
171
     2
172
     1
173
     0
174
     0
175
     0
176
   256
177
   256
178
     2
270
     2
271
     3
272
     3
273
     2
274
     2
340
6B
275
     0
280
     0
281
     0
282
     0
283
     0
284
     0
285
     0
286
     0
287
     3
288
     0
  0
DIMSTYLE
105
BA5
102
{ACAD_REACTORS
330
CC6
330
DF5
330
218E
330
245D
102
}
330
A
100
AcDbSymbolTableRecord
100
AcDbDimStyleTableRecord
  2
AM_JIS$0
 70
     0
  3

  4
"
  5
OPEN30
  6

  7

 40
0.5
 41
2.5
 42
0.0
 43
10.0
 44
1.0
 45
0.0
 46
0.0
 47
0.1
 48
0.1000000001
140
3.799999999999999
141
0.0
142
0.0
143
0.0393701
144
1.0
145
0.0
146
0.71
147
1.5
 71
     0
 72
     0
 73
     0
 74
     0
 75
     0
 76
     0
 77
     3
 78
     1
170
     0
171
     2
172
     1
173
     0
174
     0
175
     0
176
     3
177
     3
178
     2
270
     2
271
     2
272
     2
273
     2
274
     2
340
11
275
     1
280
     0
281
     0
282
     0
283
     0
284
     8
285
     0
286
     0
287
     0
288
     0
  0
ENDTAB
  0
TABLE
  2
BLOCK_RECORD
  5
1
330
0
100
AcDbSymbolTable
 70
    10
  0
BLOCK_RECORD
  5
1F
102
{ACAD_XDICTIONARY
360
74
102
}
330
1
100
AcDbSymbolTableRecord
100
AcDbBlockTableRecord
  2
*MODEL_SPACE
  0
BLOCK_RECORD
  5
101
102
{ACAD_XDICTIONARY
360
2932
102
}
330
1
100
AcDbSymbolTableRecord
100
AcDbBlockTableRecord
  2
*PAPER_SPACE
  0
BLOCK_RECORD
  5
59
330
1
100
AcDbSymbolTableRecord
100
AcDbBlockTableRecord
  2
_OPEN30
  0
BLOCK_RECORD
  5
64
330
1
100
AcDbSymbolTableRecord
100
AcDbBlockTableRecord
  2
GENAXEH
  0
BLOCK_RECORD
  5
CC8
330
1
100
AcDbSymbolTableRecord
100
AcDbBlockTableRecord
  2
*D5
  0
BLOCK_RECORD
  5
DF6
330
1
100
AcDbSymbolTableRecord
100
AcDbBlockTableRecord
  2
*D6
  0
BLOCK_RECORD
  5
218F
330
1
100
AcDbSymbolTableRecord
100
AcDbBlockTableRecord
  2
*D7
  0
BLOCK_RECORD
  5
245E
330
1
100
AcDbSymbolTableRecord
100
AcDbBlockTableRecord
  2
*D8
  0
BLOCK_RECORD
  5
2603
330
1
100
AcDbSymbolTableRecord
100
AcDbBlockTableRecord
  2
*D9
  0
ENDTAB
  0
ENDSEC
  0
SECTION
  2
BLOCKS
  0
BLOCK
  5
20
330
1F
100
AcDbEntity
  8
0
100
AcDbBlockBegin
  2
*MODEL_SPACE
 70
     0
 10
0.0
 20
0.0
 30
0.0
  3
*MODEL_SPACE
  1

  0
ENDBLK
  5
21
330
1F
100
AcDbEntity
  8
0
100
AcDbBlockEnd
  0
BLOCK
  5
103
330
101
100
AcDbEntity
 67
     1
  8
0
100
AcDbBlockBegin
  2
*PAPER_SPACE
 70
     0
 10
0.0
 20
0.0
 30
0.0
  3
*PAPER_SPACE
  1

  0
ENDBLK
  5
104
330
101
100
AcDbEntity
 67
     1
  8
0
100
AcDbBlockEnd
  0
BLOCK
  5
5D
330
59
100
AcDbEntity
  8
0
100
AcDbBlockBegin
  2
_OPEN30
 70
     0
 10
0.0
 20
0.0
 30
0.0
  3
_OPEN30
  1

  0
LINE
  5
5A
330
59
100
AcDbEntity
  8
0
 62
     0
100
AcDbLine
 10
-1.0
 20
0.26794919
 30
0.0
 11
0.0
 21
0.0
 31
0.0
  0
LINE
  5
5B
330
59
100
AcDbEntity
  8
0
 62
     0
100
AcDbLine
 10
0.0
 20
0.0
 30
0.0
 11
-1.0
 21
-0.26794919
 31
0.0
  0
LINE
  5
5C
330
59
100
AcDbEntity
  8
0
 62
     0
100
AcDbLine
 10
0.0
 20
0.0
 30
0.0
 11
-1.0
 21
0.0
 31
0.0
  0
ENDBLK
  5
5E
330
59
100
AcDbEntity
  8
0
100
AcDbBlockEnd
  0
BLOCK
  5
66
330
64
100
AcDbEntity
  8
0
100
AcDbBlockBegin
  2
GENAXEH
 70
     0
 10
0.0
 20
0.0
 30
0.0
  3
GENAXEH
  1

  0
LINE
  5
65
330
64
100
AcDbEntity
  8
0
100
AcDbLine
 10
-1.0
 20
0.0
 30
0.0
 11
1.0
 21
0.0
 31
0.0
  0
ENDBLK
  5
67
330
64
100
AcDbEntity
  8
0
100
AcDbBlockEnd
  0
BLOCK
  5
CD2
330
CC8
100
AcDbEntity
  8
0
100
AcDbBlockBegin
  2
*D5
 70
     1
 10
0.0
 20
0.0
 30
0.0
  3
*D5
  1

  0
LINE
  5
28C0
330
CC8
100
AcDbEntity
  8
AM_5
 62
     3
100
AcDbLine
 10
-99.0
 20
-2.352702618522066
 30
0.0
 11
-99.0
 21
-15.00000099999985
 31
0.0
  0
LINE
  5
28C1
330
CC8
100
AcDbEntity
  8
AM_5
 62
     3
100
AcDbLine
 10
-0.9999936421712837
 20
-2.1999995974168
 30
0.0
 11
-0.9999936421712845
 21
-15.00000099999985
 31
0.0
  0
LINE
  5
28C2
330
CC8
100
AcDbEntity
  8
AM_5
 62
     3
100
AcDbLine
 10
-97.75
 20
-14.50000099999984
 30
0.0
 11
-2.249993642171284
 21
-14.50000099999984
 31
0.0
  0
INSERT
  5
28C3
330
CC8
100
AcDbEntity
  8
AM_5
 62
     3
100
AcDbBlockReference
  2
_OPEN30
 10
-99.0
 20
-14.50000099999984
 30
0.0
 41
1.25
 42
1.25
 43
1.25
 50
180.0
  0
INSERT
  5
28C4
330
CC8
100
AcDbEntity
  8
AM_5
 62
     3
100
AcDbBlockReference
  2
_OPEN30
 10
-0.9999936421712845
 20
-14.50000099999984
 30
0.0
 41
1.25
 42
1.25
 43
1.25
  0
MTEXT
  5
28C5
330
CC8
100
AcDbEntity
  8
AM_5
 62
     2
100
AcDbMText
 10
-49.99999682108565
 20
-12.80000099999984
 30
0.0
 40
1.9
 41
0.0
 71
     5
 72
     1
  1
98
1001
ACAD
1000
MTEXTBEGIN
1070
    73
1070
     1
1070
    44
1040
1.0
1070
    74
1070
     0
1000
MTEXTEND
  0
POINT
  5
28C6
330
CC8
100
AcDbEntity
  8
DEFPOINTS
 62
     0
100
AcDbPoint
 10
-99.0
 20
-2.352702618522066
 30
0.0
  0
POINT
  5
28C7
330
CC8
100
AcDbEntity
  8
DEFPOINTS
 62
     0
100
AcDbPoint
 10
-0.9999936421712837
 20
-2.1999995974168
 30
0.0
  0
POINT
  5
28C8
330
CC8
100
AcDbEntity
  8
DEFPOINTS
 62
     0
100
AcDbPoint
 10
-0.9999936421712845
 20
-14.50000099999984
 30
0.0
  0
ENDBLK
  5
CD3
330
CC8
100
AcDbEntity
  8
0
100
AcDbBlockEnd
  0
BLOCK
  5
E00
330
DF6
100
AcDbEntity
  8
0
100
AcDbBlockBegin
  2
*D6
 70
     1
 10
0.0
 20
0.0
 30
0.0
  3
*D6
  1

  0
LINE
  5
28B7
330
DF6
100
AcDbEntity
  8
AM_5
 62
     3
100
AcDbLine
 10
-49.00000000000001
 20
-2.499999999999941
 30
0.0
 11
-49.00000000000001
 21
-10.00000099999981
 31
0.0
  0
LINE
  5
28B8
330
DF6
100
AcDbEntity
  8
AM_5
 62
     3
100
AcDbLine
 10
-0.9999936421712837
 20
-2.1999995974168
 30
0.0
 11
-0.9999936421712842
 21
-10.00000099999981
 31
0.0
  0
LINE
  5
28B9
330
DF6
100
AcDbEntity
  8
AM_5
 62
     3
100
AcDbLine
 10
-47.75000000000001
 20
-9.500000999999814
 30
0.0
 11
-2.249993642171284
 21
-9.500000999999814
 31
0.0
  0
INSERT
  5
28BA
330
DF6
100
AcDbEntity
  8
AM_5
 62
     3
100
AcDbBlockReference
  2
_OPEN30
 10
-49.00000000000001
 20
-9.500000999999814
 30
0.0
 41
1.25
 42
1.25
 43
1.25
 50
180.0
  0
INSERT
  5
28BB
330
DF6
100
AcDbEntity
  8
AM_5
 62
     3
100
AcDbBlockReference
  2
_OPEN30
 10
-0.9999936421712842
 20
-9.500000999999814
 30
0.0
 41
1.25
 42
1.25
 43
1.25
  0
MTEXT
  5
28BC
330
DF6
100
AcDbEntity
  8
AM_5
 62
     2
100
AcDbMText
 10
-24.99999682108564
 20
-7.800000999999814
 30
0.0
 40
1.9
 41
0.0
 71
     5
 72
     1
  1
48
1001
ACAD
1000
MTEXTBEGIN
1070
    73
1070
     1
1070
    44
1040
1.0
1070
    74
1070
     0
1000
MTEXTEND
  0
POINT
  5
28BD
330
DF6
100
AcDbEntity
  8
DEFPOINTS
 62
     0
100
AcDbPoint
 10
-49.00000000000001
 20
-2.499999999999941
 30
0.0
  0
POINT
  5
28BE
330
DF6
100
AcDbEntity
  8
DEFPOINTS
 62
     0
100
AcDbPoint
 10
-0.9999936421712837
 20
-2.1999995974168
 30
0.0
  0
POINT
  5
28BF
330
DF6
100
AcDbEntity
  8
DEFPOINTS
 62
     0
100
AcDbPoint
 10
-0.9999936421712842
 20
-9.500000999999814
 30
0.0
  0
ENDBLK
  5
E01
330
DF6
100
AcDbEntity
  8
0
100
AcDbBlockEnd
  0
BLOCK
  5
219B
330
218F
100
AcDbEntity
  8
0
100
AcDbBlockBegin
  2
*D7
 70
     1
 10
0.0
 20
0.0
 30
0.0
  3
*D7
  1

  0
LINE
  5
26E2
330
218F
100
AcDbEntity
  8
AM_5
 62
     3
100
AcDbLine
 10
-98.74999999999998
 20
2.499999999999792
 30
0.0
 11
-107.7500009999999
 21
2.499999999999774
 31
0.0
  0
LINE
  5
26E3
330
218F
100
AcDbEntity
  8
AM_5
 62
     3
100
AcDbLine
 10
-98.74999999999978
 20
-2.500000000000207
 30
0.0
 11
-107.7500009999999
 21
-2.500000000000225
 31
0.0
  0
LINE
  5
26E4
330
218F
100
AcDbEntity
  8
AM_5
 62
     3
100
AcDbLine
 10
-107.2500009999999
 20
3.749999999999775
 30
0.0
 11
-107.2500009999999
 21
4.999999999999776
 31
0.0
  0
LINE
  5
26E5
330
218F
100
AcDbEntity
  8
AM_5
 62
     3
100
AcDbLine
 10
-107.2500009999999
 20
-3.750000000000224
 30
0.0
 11
-107.2500009999999
 21
-5.000000000000223
 31
0.0
  0
LINE
  5
26E6
330
218F
100
AcDbEntity
  8
AM_5
 62
     3
100
AcDbLine
 10
-107.2500009999999
 20
2.499999999999775
 30
0.0
 11
-107.2500009999999
 21
-2.500000000000224
 31
0.0
  0
INSERT
  5
26E7
330
218F
100
AcDbEntity
  8
AM_5
 62
     3
100
AcDbBlockReference
  2
_OPEN30
 10
-107.2500009999999
 20
2.499999999999775
 30
0.0
 41
1.25
 42
1.25
 43
1.25
 50
270.0000000000001
  0
INSERT
  5
26E8
330
218F
100
AcDbEntity
  8
AM_5
 62
     3
100
AcDbBlockReference
  2
_OPEN30
 10
-107.2500009999999
 20
-2.500000000000224
 30
0.0
 41
1.25
 42
1.25
 43
1.25
 50
90.0000000000001
  0
MTEXT
  5
26E9
330
218F
100
AcDbEntity
  8
AM_5
 62
     2
100
AcDbMText
 10
-108.9500009999999
 20
-0.0000000000002135
 30
0.0
 40
1.9
 41
0.0
 71
     5
 72
     1
  1
%%c5
 11
-0.000000000000002
 21
1.0
 31
0.0
1001
ACAD
1000
MTEXTBEGIN
1070
    73
1070
     1
1070
    44
1040
1.0
1070
    74
1070
     0
1000
MTEXTEND
  0
POINT
  5
26EA
330
218F
100
AcDbEntity
  8
DEFPOINTS
 62
     0
100
AcDbPoint
 10
-98.74999999999998
 20
2.500000000000011
 30
0.0
  0
POINT
  5
26EB
330
218F
100
AcDbEntity
  8
DEFPOINTS
 62
     0
100
AcDbPoint
 10
-98.74999999999978
 20
-2.499999999999988
 30
0.0
  0
POINT
  5
26EC
330
218F
100
AcDbEntity
  8
DEFPOINTS
 62
     0
100
AcDbPoint
 10
-107.2500009999999
 20
-2.499999999999985
 30
0.0
  0
ENDBLK
  5
219C
330
218F
100
AcDbEntity
  8
0
100
AcDbBlockEnd
  0
BLOCK
  5
246A
330
245E
100
AcDbEntity
  8
0
100
AcDbBlockBegin
  2
*D8
 70
     1
 10
0.0
 20
0.0
 30
0.0
  3
*D8
  1

  0
LINE
  5
28C9
330
245E
100
AcDbEntity
  8
AM_5
 62
     3
100
AcDbLine
 10
-0.9999936421712837
 20
-2.1999995974168
 30
0.0
 11
8.704574799195803
 21
-2.199999597416802
 31
0.0
  0
LINE
  5
28CA
330
245E
100
AcDbEntity
  8
AM_5
 62
     3
100
AcDbLine
 10
-0.9999936421712146
 20
2.200000402583198
 30
0.0
 11
8.704574799195803
 21
2.200000402583196
 31
0.0
  0
LINE
  5
28CB
330
245E
100
AcDbEntity
  8
AM_5
 62
     3
100
AcDbLine
 10
8.204574799195803
 20
-3.449999597416802
 30
0.0
 11
8.204574799195802
 21
-4.699999597416802
 31
0.0
  0
LINE
  5
28CC
330
245E
100
AcDbEntity
  8
AM_5
 62
     3
100
AcDbLine
 10
8.204574799195803
 20
3.450000402583196
 30
0.0
 11
8.204574799195805
 21
11.99047659305938
 31
0.0
  0
LINE
  5
28CD
330
245E
100
AcDbEntity
  8
AM_5
 62
     3
100
AcDbLine
 10
8.204574799195803
 20
-2.199999597416802
 30
0.0
 11
8.204574799195803
 21
2.200000402583196
 31
0.0
  0
INSERT
  5
28CE
330
245E
100
AcDbEntity
  8
AM_5
 62
     3
100
AcDbBlockReference
  2
_OPEN30
 10
8.204574799195803
 20
-2.199999597416802
 30
0.0
 41
1.25
 42
1.25
 43
1.25
 50
90.0
  0
INSERT
  5
28CF
330
245E
100
AcDbEntity
  8
AM_5
 62
     3
100
AcDbBlockReference
  2
_OPEN30
 10
8.204574799195803
 20
2.200000402583196
 30
0.0
 41
1.25
 42
1.25
 43
1.25
 50
270.0
  0
MTEXT
  5
28D0
330
245E
100
AcDbEntity
  8
AM_5
 62
     2
100
AcDbMText
 10
6.504574799195804
 20
8.345238497821293
 30
0.0
 40
1.9
 41
0.0
 71
     5
 72
     1
  1
%%c4.4
 11
0.0000000000000001
 21
1.0
 31
0.0
1001
ACAD
1000
MTEXTBEGIN
1070
    73
1070
     1
1070
    44
1040
1.0
1070
    74
1070
     0
1000
MTEXTEND
  0
POINT
  5
28D1
330
245E
100
AcDbEntity
  8
DEFPOINTS
 62
     0
100
AcDbPoint
 10
-0.9999936421712837
 20
-2.1999995974168
 30
0.0
  0
POINT
  5
28D2
330
245E
100
AcDbEntity
  8
DEFPOINTS
 62
     0
100
AcDbPoint
 10
-0.9999936421712146
 20
2.200000402583198
 30
0.0
  0
POINT
  5
28D3
330
245E
100
AcDbEntity
  8
DEFPOINTS
 62
     0
100
AcDbPoint
 10
8.204574799195803
 20
2.200000402583196
 30
0.0
  0
ENDBLK
  5
246B
330
245E
100
AcDbEntity
  8
0
100
AcDbBlockEnd
  0
BLOCK
  5
2613
330
2603
100
AcDbEntity
  8
0
100
AcDbBlockBegin
  2
*D9
 70
     1
 10
0.0
 20
0.0
 30
0.0
  3
*D9
  1

  0
LINE
  5
2934
330
2603
100
AcDbEntity
  8
AM_5
100
AcDbLine
 10
0.1710100716628686
 20
-0.4698463103928708
 30
0.0
 11
5.15983705650509
 21
-14.17653580081234
 31
0.0
  0
LINE
  5
2935
330
2603
100
AcDbEntity
  8
AM_5
100
AcDbLine
 10
0.1710100716628466
 20
0.4698463103930422
 30
0.0
 11
5.159837056504428
 21
14.17653580081274
 31
0.0
  0
ARC
  5
2936
330
2603
100
AcDbEntity
  8
AM_5
100
AcDbCircle
 10
0.0000000000000296
 20
0.0000000000000817
 30
0.0
 40
14.58635428993364
100
AcDbArc
 50
294.9115533887523
 51
65.08844661125028
  0
INSERT
  5
2937
330
2603
100
AcDbEntity
  8
AM_5
100
AcDbBlockReference
  2
_OPEN30
 10
4.988826984842251
 20
-13.70668949041938
 30
0.0
 41
1.25
 42
1.25
 43
1.25
 50
202.4557766943765
  0
INSERT
  5
2938
330
2603
100
AcDbEntity
  8
AM_5
100
AcDbBlockReference
  2
_OPEN30
 10
4.988826984841611
 20
13.70668949041978
 30
0.0
 41
1.25
 42
1.25
 43
1.25
 50
157.5442233056261
  0
MTEXT
  5
2939
330
2603
100
AcDbEntity
  8
AM_5
 62
     2
100
AcDbMText
 10
13.03635428993366
 20
0.0000000000004156
 30
0.0
 40
1.6
 41
0.0
 71
     5
 72
     1
  1
140°
  7
ASAMI
 11
-0.000000000000002
 21
1.0
 31
0.0
  0
POINT
  5
293A
330
2603
100
AcDbEntity
  8
DEFPOINTS
 62
     0
100
AcDbPoint
 10
13.39342544967937
 20
-5.777359794520862
 30
0.0
  0
POINT
  5
293B
330
2603
100
AcDbEntity
  8
DEFPOINTS
 62
     0
100
AcDbPoint
 10
-0.2325008974277924
 20
-0.6387909656858639
 30
0.0
  0
POINT
  5
293C
330
2603
100
AcDbEntity
  8
DEFPOINTS
 62
     0
100
AcDbPoint
 10
-0.2325008974278209
 20
0.6387909656860203
 30
0.0
  0
POINT
  5
293D
330
2603
100
AcDbEntity
  8
DEFPOINTS
 62
     0
100
AcDbPoint
 10
0.0000000000000231
 20
0.0000000000000995
 30
0.0
  0
POINT
  5
293E
330
2603
100
AcDbEntity
  8
DEFPOINTS
 62
     0
100
AcDbPoint
 10
0.0000000000000231
 20
0.0000000000000639
 30
0.0
  0
ENDBLK
  5
2614
330
2603
100
AcDbEntity
  8
0
100
AcDbBlockEnd
  0
ENDSEC
  0
SECTION
  2
ENTITIES
  0
LINE
  5
C30
330
1F
100
AcDbEntity
  8
AM_0
 48
0.5
100
AcDbLine
 10
-99.0
 20
-2.249999999999988
 30
0.0
 11
-98.99999999999998
 21
2.250000000000011
 31
0.0
  0
LINE
  5
C9F
330
1F
100
AcDbEntity
  8
AM_7
100
AcDbLine
 10
-100.2499999999999
 20
0.0000000000000105
 30
0.0
 11
1.204573799195808
 21
0.000000000000102
 31
0.0
1001
GENIUS_GENODEF_13
1002
{
1000
HIER
1070
     0
1002
}
1002
{
1000
MANEDIT
1070
     0
1002
}
1002
{
1000
NOSEL
1070
     0
1002
}
1002
{
1000
BEHIND
1070
     0
1002
}
1002
{
1000
REACTOR
1002
}
1001
GENIUS_GENOBJ-N-CEN_13
1002
{
1000
OWNER
1000
GEN
1002
}
  0
DIMENSION
  5
CC6
330
1F
100
AcDbEntity
  8
AM_5
100
AcDbDimension
  2
*D5
 10
-0.9999936421712845
 20
-14.50000099999984
 30
0.0
 11
-49.99999682108565
 21
-12.80000099999984
 31
0.0
 70
    32
  1
<>
  3
AM_JIS$0
100
AcDbAlignedDimension
 13
-99.0
 23
-2.352702618522066
 33
0.0
 14
-0.9999936421712837
 24
-2.1999995974168
 34
0.0
 50
0.0000000000001132
100
AcDbRotatedDimension
1001
GENIUS_GENDTOL_13
1000

1000
h7
1000

1040
0.0
1001
ACAD
1000
DSTYLE
1002
{
1070
   271
1070
     0
1002
}
  0
DIMENSION
  5
DF5
330
1F
100
AcDbEntity
  8
AM_5
100
AcDbDimension
  2
*D6
 10
-0.9999936421712842
 20
-9.500000999999814
 30
0.0
 11
-24.99999682108564
 21
-7.800000999999814
 31
0.0
 70
    32
  1
<>
  3
AM_JIS$0
100
AcDbAlignedDimension
 13
-49.00000000000001
 23
-2.499999999999941
 33
0.0
 14
-0.9999936421712837
 24
-2.1999995974168
 34
0.0
 50
0.0000000000001527
100
AcDbRotatedDimension
1001
GENIUS_GENDTOL_13
1000

1000
h7
1000

1040
0.0
1001
ACAD
1000
DSTYLE
1002
{
1070
   271
1070
     0
1002
}
  0
ARC
  5
144A
330
1F
100
AcDbEntity
  8
AM_11
 48
0.5
100
AcDbCircle
 10
-40.36613718668327
 20
-11.04241155161749
 30
0.0
 40
12.20908006032291
100
AcDbArc
 50
64.74833051131179
 51
115.2516644797366
  0
ARC
  5
144B
330
1F
100
AcDbEntity
  8
AM_11
 48
0.5
100
AcDbCircle
 10
-40.36613718668326
 20
11.0424190503925
 30
0.0
 40
12.20908006032291
100
AcDbArc
 50
244.7482808787518
 51
295.2516148471758
  0
ARC
  5
144E
330
1F
100
AcDbEntity
  8
AM_11
 48
0.5
100
AcDbCircle
 10
-29.94947052001661
 20
-11.04241155161749
 30
0.0
 40
12.20908006032291
100
AcDbArc
 50
64.74833051131179
 51
115.2516644797366
  0
ARC
  5
144F
330
1F
100
AcDbEntity
  8
AM_11
 48
0.5
100
AcDbCircle
 10
-29.94947052001661
 20
11.0424190503925
 30
0.0
 40
12.20908006032291
100
AcDbArc
 50
244.7482808787518
 51
295.2516148471758
  0
ARC
  5
1450
330
1F
100
AcDbEntity
  8
AM_11
 48
0.5
100
AcDbCircle
 10
-19.53280385335286
 20
11.0424190503925
 30
0.0
 40
12.20908006032291
100
AcDbArc
 50
244.7482808787518
 51
295.2516148471758
  0
ARC
  5
1451
330
1F
100
AcDbEntity
  8
AM_11
 48
0.5
100
AcDbCircle
 10
-19.53280385335286
 20
-11.04241155161749
 30
0.0
 40
12.20908006032291
100
AcDbArc
 50
64.74833051131179
 51
115.2516644797366
  0
ARC
  5
1452
330
1F
100
AcDbEntity
  8
AM_11
 48
0.5
100
AcDbCircle
 10
-9.116137186686197
 20
-11.04241155161749
 30
0.0
 40
12.20908006032291
100
AcDbArc
 50
64.74833051131179
 51
115.2516644797366
  0
ARC
  5
1453
330
1F
100
AcDbEntity
  8
AM_11
 48
0.5
100
AcDbCircle
 10
-9.116137186686197
 20
11.0424190503925
 30
0.0
 40
12.20908006032291
100
AcDbArc
 50
244.7482808787518
 51
295.2516148471758
  0
TEXT
  5
19BD
330
1F
100
AcDbEntity
  8
AM_6
100
AcDbText
 10
-60.8333333333333
 20
-25.75000099999988
 30
0.0
 40
2.5
  1
MDW044LHK
 50
0.0000000000001527
 72
     4
 11
-49.99999999999997
 21
-24.50000099999984
 31
0.0
100
AcDbText
  0
LINE
  5
1CF0
330
1F
100
AcDbEntity
  8
AM_0
100
AcDbLine
 10
-98.74999999999998
 20
2.500000000000011
 30
0.0
 11
-48.99999999999998
 21
2.500000000000058
 31
0.0
1001
GENIUS_GENODEF_13
1002
{
1000
HIER
1070
     0
1002
}
1002
{
1000
MANEDIT
1070
     0
1002
}
1002
{
1000
NOSEL
1070
     0
1002
}
1002
{
1000
BEHIND
1070
     0
1002
}
1002
{
1000
REACTOR
1002
}
1001
GENIUS_GENOBJ-N-CEN_13
1002
{
1000
OWNER
1000
GEN
1002
}
  0
LINE
  5
1CF4
330
1F
100
AcDbEntity
  8
AM_0
100
AcDbLine
 10
-98.75
 20
-2.499999999999988
 30
0.0
 11
-49.00000000000001
 21
-2.499999999999941
 31
0.0
1001
GENIUS_GENODEF_13
1002
{
1000
HIER
1070
     0
1002
}
1002
{
1000
MANEDIT
1070
     0
1002
}
1002
{
1000
NOSEL
1070
     0
1002
}
1002
{
1000
BEHIND
1070
     0
1002
}
1002
{
1000
REACTOR
1002
}
1001
GENIUS_GENOBJ-N-CEN_13
1002
{
1000
OWNER
1000
GEN
1002
}
  0
LINE
  5
1CFE
330
1F
100
AcDbEntity
  8
AM_0
100
AcDbLine
 10
-98.75
 20
-2.499999999999988
 30
0.0
 11
-98.75
 21
2.500000000000011
 31
0.0
  0
ARC
  5
1DAB
330
1F
100
AcDbEntity
  8
AM_11
 48
0.5
100
AcDbCircle
 10
-50.78278106749335
 20
-11.04241155161752
 30
0.0
 40
12.20908006032291
100
AcDbArc
 50
64.74833051131179
 51
115.2516644797366
  0
ARC
  5
1DAC
330
1F
100
AcDbEntity
  8
AM_11
 48
0.5
100
AcDbCircle
 10
-50.78278106749333
 20
11.04241905039247
 30
0.0
 40
12.20908006032291
100
AcDbArc
 50
244.7482808787518
 51
295.2516148471758
  0
ARC
  5
1DAD
330
1F
100
AcDbEntity
  8
AM_11
 48
0.5
100
AcDbCircle
 10
-61.19942494830343
 20
-11.04241155161755
 30
0.0
 40
12.20908006032291
100
AcDbArc
 50
64.74833051131179
 51
115.2516644797366
  0
ARC
  5
1DAE
330
1F
100
AcDbEntity
  8
AM_11
 48
0.5
100
AcDbCircle
 10
-61.19942494830342
 20
11.04241905039244
 30
0.0
 40
12.20908006032291
100
AcDbArc
 50
244.7482808787518
 51
295.2516148471758
  0
ARC
  5
1DAF
330
1F
100
AcDbEntity
  8
AM_11
 48
0.5
100
AcDbCircle
 10
-71.6160688291135
 20
-11.04241155161757
 30
0.0
 40
12.20908006032291
100
AcDbArc
 50
64.74833051131179
 51
115.2516644797366
  0
ARC
  5
1DB0
330
1F
100
AcDbEntity
  8
AM_11
 48
0.5
100
AcDbCircle
 10
-71.61606882911349
 20
11.04241905039242
 30
0.0
 40
12.20908006032291
100
AcDbArc
 50
244.7482808787518
 51
295.2516148471758
  0
LINE
  5
1EB2
330
1F
100
AcDbEntity
  8
AM_0
100
AcDbLine
 10
-98.99999999999998
 20
2.250000000000011
 30
0.0
 11
-98.74999999999998
 21
2.500000000000011
 31
0.0
1001
GENIUS_GENFIL_13
1070
     0
1040
0.25
1040
0.25
1040
20.0
1040
0.0
1002
{
1002
}
1001
GENIUS_GENODEF_13
1002
{
1000
HIER
1070
     0
1002
}
1002
{
1000
MANEDIT
1070
     0
1002
}
1002
{
1000
NOSEL
1070
     0
1002
}
1002
{
1000
BEHIND
1070
     0
1002
}
1002
{
1000
REACTOR
1002
}
1001
GENIUS_GENOBJ-N-CHA_13
1002
{
1000
OWNER
1000
GEN
1002
}
  0
LINE
  5
1EB5
330
1F
100
AcDbEntity
  8
AM_0
100
AcDbLine
 10
-99.0
 20
-2.249999999999988
 30
0.0
 11
-98.75
 21
-2.499999999999988
 31
0.0
1001
GENIUS_GENFIL_13
1070
     0
1040
0.25
1040
0.25
1040
20.0
1040
0.0
1002
{
1002
}
1001
GENIUS_GENODEF_13
1002
{
1000
HIER
1070
     0
1002
}
1002
{
1000
MANEDIT
1070
     0
1002
}
1002
{
1000
NOSEL
1070
     0
1002
}
1002
{
1000
BEHIND
1070
     0
1002
}
1002
{
1000
REACTOR
1002
}
1001
GENIUS_GENOBJ-N-CHA_13
1002
{
1000
OWNER
1000
GEN
1002
}
  0
ARC
  5
1EBF
330
1F
100
AcDbEntity
  8
AM_11
 48
0.5
100
AcDbCircle
 10
-82.03270196212015
 20
11.04241905039239
 30
0.0
 40
12.20908006032291
100
AcDbArc
 50
244.7482808787518
 51
295.2516148471758
  0
ARC
  5
1EC0
330
1F
100
AcDbEntity
  8
AM_11
 48
0.5
100
AcDbCircle
 10
-82.03270196212015
 20
-11.0424115516176
 30
0.0
 40
12.20908006032291
100
AcDbArc
 50
64.74833051131179
 51
115.2516644797366
  0
ARC
  5
1ECC
330
1F
100
AcDbEntity
  8
AM_11
 48
0.5
100
AcDbCircle
 10
-102.8659906890981
 20
-11.04241352569739
 30
0.0
 40
12.20908006032291
100
AcDbArc
 50
64.74833051131179
 51
71.53962023753722
  0
ARC
  5
1ECD
330
1F
100
AcDbEntity
  8
AM_11
 48
0.5
100
AcDbCircle
 10
-102.8659906890981
 20
11.0424170763126
 30
0.0
 40
12.20908006032291
100
AcDbArc
 50
288.4603797624627
 51
295.2516148471758
  0
ARC
  5
1ECE
330
1F
100
AcDbEntity
  8
AM_11
 48
0.5
100
AcDbCircle
 10
-92.44935755609153
 20
-11.04241352569736
 30
0.0
 40
12.20908006032291
100
AcDbArc
 50
64.74833051131179
 51
115.2516644797366
  0
ARC
  5
1ECF
330
1F
100
AcDbEntity
  8
AM_11
 48
0.5
100
AcDbCircle
 10
-92.44935755609152
 20
11.04241707631263
 30
0.0
 40
12.20908006032291
100
AcDbArc
 50
244.7482808787518
 51
295.2516148471758
  0
LINE
  5
1ED3
330
1F
100
AcDbEntity
  8
AM_0
 48
0.5
100
AcDbLine
 10
-49.00000000000001
 20
-2.499999999999941
 30
0.0
 11
-48.99999999999998
 21
2.500000000000058
 31
0.0
  0
LINE
  5
1FDE
330
1F
100
AcDbEntity
  8
AM_0
100
AcDbLine
 10
-49.00000000000001
 20
-2.499999999999941
 30
0.0
 11
-48.48038406043468
 21
-2.19999959741667
 31
0.0
  0
LINE
  5
1FDF
330
1F
100
AcDbEntity
  8
AM_0
100
AcDbLine
 10
-48.99999999999998
 20
2.500000000000058
 30
0.0
 11
-48.48038545502504
 21
2.200000402583931
 31
0.0
  0
DIMENSION
  5
218E
330
1F
100
AcDbEntity
  8
AM_5
100
AcDbDimension
  2
*D7
 10
-107.2500009999999
 20
-2.499999999999985
 30
0.0
 11
-107.2500009999999
 21
0.0000000000000065
 31
0.0
 70
   160
  1
%%c<>
 51
359.9999999999998
  3
AM_JIS$0
100
AcDbAlignedDimension
 13
-98.74999999999998
 23
2.500000000000011
 33
0.0
 14
-98.74999999999978
 24
-2.499999999999988
 34
0.0
 50
270.0000000000001
100
AcDbRotatedDimension
1001
ACAD
1000
DSTYLE
1002
{
1070
   271
1070
     0
1002
}
1001
GENIUS_GENDTOL_13
1000

1000
h7
1000

1040
0.0
  0
DIMENSION
  5
245D
330
1F
100
AcDbEntity
  8
AM_5
100
AcDbDimension
  2
*D8
 10
8.204574799195803
 20
2.200000402583196
 30
0.0
 11
8.204574799195803
 21
8.345238497821293
 31
0.0
 70
   160
  1
%%c<>
  3
AM_JIS$0
100
AcDbAlignedDimension
 13
-0.9999936421712837
 23
-2.1999995974168
 33
0.0
 14
-0.9999936421712146
 24
2.200000402583198
 34
0.0
 50
89.99999999999955
100
AcDbRotatedDimension
1001
ACAD
1000
DSTYLE
1002
{
1070
   271
1070
     1
1002
}
1001
GENIUS_GENDTOL_13
1000

1000
h7
1000

1040
0.0
  0
LINE
  5
24A9
330
1F
100
AcDbEntity
  8
AM_0
100
AcDbLine
 10
-48.48038406043468
 20
-2.199999597416675
 30
0.0
 11
-48.48038545502502
 21
2.200000402583931
 31
0.0
  0
ELLIPSE
  5
25D9
330
1F
100
AcDbEntity
  8
AM_0
 48
0.5
100
AcDbEllipse
 10
3.32132366026137
 20
2.391979645995979
 30
0.0
 11
-4.199774953921811
 21
-0.6125770303807735
 31
0.0
210
0.0
220
0.0
230
1.0
 40
0.626569248795472
 41
0.0862669406231196
 42
0.4774127955839865
  0
ELLIPSE
  5
25DA
330
1F
100
AcDbEntity
  8
AM_0
 48
0.5
100
AcDbEllipse
 10
3.321323660261378
 20
-2.391979645995773
 30
0.0
 11
-4.199774953921813
 21
0.6125770303807655
 31
0.0
210
0.0
220
0.0
230
-1.0
 40
0.626569248795472
 41
0.0862669406231196
 42
0.4774127955839865
  0
LINE
  5
25DB
330
1F
100
AcDbEntity
  8
AM_0
 48
0.5
100
AcDbLine
 10
-0.8297635614580443
 20
-1.554954929176216
 30
0.0
 11
-0.9999936421712837
 21
-2.1999995974168
 31
0.0
  0
LINE
  5
25DD
330
1F
100
AcDbEntity
  8
AM_0
100
AcDbLine
 10
-0.2325008974278209
 20
0.6387909656860203
 30
0.0
 11
0.0000000000000231
 21
0.0000000000000995
 31
0.0
  0
LINE
  5
25DE
330
1F
100
AcDbEntity
  8
AM_0
100
AcDbLine
 10
-0.2325008974277924
 20
-0.6387909656858639
 30
0.0
 11
0.0000000000000231
 21
0.0000000000000639
 31
0.0
  0
LINE
  5
25F5
330
1F
100
AcDbEntity
  8
AM_0
 48
0.5
100
AcDbLine
 10
-0.8297635614580503
 20
1.554954929176416
 30
0.0
 11
-0.9999936421712146
 21
2.200000402583198
 31
0.0
  0
DIMENSION
  5
2602
330
1F
100
AcDbEntity
  8
AM_5
100
AcDbDimension
  2
*D9
 10
0.0000000000000231
 20
0.0000000000000639
 30
0.0
 11
13.03635428993366
 21
0.0000000000003872
 31
0.0
 70
    34
  1
<>
 51
359.9999999999998
  3
AM_JIS$2
100
AcDb2LineAngularDimension
 13
-0.2325008974278209
 23
0.6387909656860203
 33
0.0
 14
0.0000000000000231
 24
0.0000000000000995
 34
0.0
 15
-0.2325008974277924
 25
-0.6387909656858639
 35
0.0
 16
13.39342544967937
 26
-5.777359794520862
 36
0.0
1001
GENIUS_GENDTOL_13
1000

1000
h7
1000

1040
0.0
1001
ACAD
1000
DSTYLE
1002
{
1070
   271
1070
     0
1002
}
  0
LINE
  5
2881
330
1F
100
AcDbEntity
  8
AM_0
 48
0.5
100
AcDbLine
 10
-2.34916305542004
 20
-2.19999959741678
 30
0.0
 11
-0.9999936421712837
 21
-2.1999995974168
 31
0.0
  0
ELLIPSE
  5
2882
330
1F
100
AcDbEntity
  8
AM_0
 48
0.5
100
AcDbEllipse
 10
1.999993717482185
 20
-0.2878059815854332
 30
0.0
 11
-3.780730527796767
 21
0.2448860639269862
 31
0.0
210
0.0
220
0.0
230
0.9999999999999998
 40
0.8499831353049833
 41
0.3190995021984166
 42
0.7112332064010465
  0
LINE
  5
2883
330
1F
100
AcDbEntity
  8
AM_0
 48
0.5
100
AcDbLine
 10
0.0000000000000302
 20
0.0000000000000869
 30
0.0
 11
-1.200369724326178
 21
0.8447335277406184
 31
0.0
  0
ELLIPSE
  5
2884
330
1F
100
AcDbEntity
  8
AM_11
 48
0.5
100
AcDbEllipse
 10
1.300529479980549
 20
11.85040093212853
 30
0.0
 11
0.0000000000007235
 21
13.10242738180993
 31
0.0
210
0.0
220
0.0
230
1.0
 40
0.9318181818181725
 41
2.700867013135249
 42
2.862597064175942
  0
ELLIPSE
  5
2885
330
1F
100
AcDbEntity
  8
AM_0
 48
0.5
100
AcDbEllipse
 10
1.0902260305224
 20
2.641231538457818
 30
0.0
 11
3.135681177759091
 21
3.410378391720622
 31
0.0
210
0.0
220
0.0
230
1.0
 40
0.7348827439874704
 41
2.741338419591571
 42
3.284968558230763
  0
SPLINE
  5
2886
330
1F
100
AcDbEntity
  8
AM_0
 48
0.5
100
AcDbSpline
210
0.0
220
0.0
230
1.0
 70
     8
 71
     3
 72
    10
 73
     6
 74
     0
 42
0.0000000001
 43
0.0000000001
 40
0.0
 40
0.0
 40
0.0
 40
0.0
 40
2.69986029516136
 40
4.147722969032201
 40
6.285750005020438
 40
6.285750005020438
 40
6.285750005020438
 40
6.285750005020438
 10
-2.774139572235676
 20
0.3981886262108027
 30
0.0
 10
-2.352295347076408
 20
0.1937934235256138
 30
0.0
 10
-1.917980012933423
 20
-0.1202134450729973
 30
0.0
 10
-0.8908825903141682
 20
0.0318027809518392
 30
0.0
 10
-1.084314909963822
 20
0.543813544944204
 30
0.0
 10
-1.212122627890947
 20
0.8558998751046356
 30
0.0
  0
ELLIPSE
  5
2887
330
1F
100
AcDbEntity
  8
AM_0
 48
0.5
100
AcDbEllipse
 10
-0.7442857472114442
 20
-0.5733513162128303
 30
0.0
 11
-0.3436216778348026
 21
0.1772561546187541
 31
0.0
210
0.0
220
0.0
230
1.0
 40
0.4817186880519554
 41
4.446362256258888
 42
7.589802597588393
  0
ELLIPSE
  5
2888
330
1F
100
AcDbEntity
  8
AM_0
 48
0.5
100
AcDbEllipse
 10
-0.7442857472114442
 20
-0.5733513162128303
 30
0.0
 11
-0.0715948635750416
 21
0.3604808489450111
 31
0.0
210
0.0
220
0.0
230
0.9999999999999998
 40
0.5331511027329976
 41
1.788300992167089
 42
4.923642881879064
  0
ELLIPSE
  5
2889
330
1F
100
AcDbEntity
  8
AM_0
 48
0.5
100
AcDbEllipse
 10
-4.121890184762568
 20
3.69239791576147
 30
0.0
 11
-3.708849373576638
 21
3.986129723089936
 31
0.0
210
0.0
220
0.0
230
1.0
 40
0.8280346549382395
 41
2.817972138274861
 42
2.999567624296505
  0
ELLIPSE
  5
288A
330
1F
100
AcDbEntity
  8
AM_0
 48
0.5
100
AcDbEllipse
 10
-4.267719383061684
 20
4.184642486329528
 30
0.0
 11
6.189578507547653
 21
0.0004325868056959
 31
0.0
210
0.0
220
0.0
230
0.9999999999999998
 40
0.9334516466655534
 41
-0.9324396384370261
 42
-0.8100619611687209
  0
LINE
  5
288B
330
1F
100
AcDbEntity
  8
AM_0
 48
0.5
100
AcDbLine
 10
-35.51786359151207
 20
1.114699575557171
 30
0.0
 11
-41.00000000000003
 21
-0.1779240714966727
 31
0.0
  0
ELLIPSE
  5
288C
330
1F
100
AcDbEntity
  8
AM_0
 48
0.5
100
AcDbEllipse
 10
-40.37499364217125
 20
-1.48900945459393
 30
0.0
 11
0.6252129954826796
 21
0.0001909505290151
 31
0.0
210
0.0
220
0.0
230
1.0
 40
0.8796191360935623
 41
1.175309707488261
 42
3.115611675473729
  0
LINE
  5
288D
330
1F
100
AcDbEntity
  8
AM_11
 48
0.5
100
AcDbLine
 10
-25.28600247758756
 20
-2.199999597416459
 30
0.0
 11
-17.34895261186609
 21
-2.200312147342438
 31
0.0
  0
LINE
  5
288E
330
1F
100
AcDbEntity
  8
AM_0
 48
0.5
100
AcDbLine
 10
-17.34895261186608
 20
-2.199999597416585
 30
0.0
 11
-10.28621292114253
 21
-2.199999597416652
 31
0.0
  0
LINE
  5
288F
330
1F
100
AcDbEntity
  8
AM_0
100
AcDbLine
 10
-48.48038406043363
 20
-2.199999597416068
 30
0.0
 11
-40.16650772094754
 21
-2.199999597416194
 31
0.0
1001
GENIUS_GENODEF_13
1002
{
1000
HIER
1070
     0
1002
}
1002
{
1000
MANEDIT
1070
     0
1002
}
1002
{
1000
NOSEL
1070
     0
1002
}
1002
{
1000
BEHIND
1070
     0
1002
}
1002
{
1000
REACTOR
1002
}
1001
GENIUS_GENOBJ-N-CEN_13
1002
{
1000
OWNER
1000
GEN
1002
}
  0
LINE
  5
2890
330
1F
100
AcDbEntity
  8
AM_11
 48
0.5
100
AcDbLine
 10
-40.09090677897172
 20
-2.199999597416222
 30
0.0
 11
-34.19192886352548
 21
-2.199999597416316
 31
0.0
  0
LINE
  5
2891
330
1F
100
AcDbEntity
  8
AM_0
 48
0.5
100
AcDbLine
 10
-34.19193204245464
 20
-2.199999597416286
 30
0.0
 11
-25.28600247897936
 21
-2.199999597416404
 31
0.0
  0
LINE
  5
2892
330
1F
100
AcDbEntity
  8
AM_11
 48
0.5
100
AcDbLine
 10
-10.28621292114253
 20
-2.199999597416652
 30
0.0
 11
-2.34916305542004
 21
-2.19999959741678
 31
0.0
  0
SPLINE
  5
2893
330
1F
100
AcDbEntity
  8
AM_0
100
AcDbSpline
210
0.0
220
0.0
230
1.0
 70
     8
 71
     3
 72
    17
 73
    13
 74
     0
 42
0.0000000001
 43
0.0000000001
 40
1.580019955310467
 40
1.580019955310467
 40
1.580019955310467
 40
1.580019955310467
 40
2.030549285115227
 40
3.082371838836284
 40
4.126290986361125
 40
5.162752068350215
 40
6.192395305374981
 40
7.216039564037012
 40
8.234688489606833
 40
9.249433870634691
 40
10.26152376260694
 40
11.27226744710342
 40
11.27226744710342
 40
11.27226744710342
 40
11.27226744710352
 10
-6.317378366344051
 20
-1.623664379915507
 30
0.0
 10
-6.376991613785303
 20
-1.640386778335378
 30
0.0
 10
-6.576119888036592
 20
-1.69519667275209
 30
0.0
 10
-6.916081233928991
 20
-1.781167953276753
 30
0.0
 10
-7.337173652823387
 20
-1.87744438259388
 30
0.0
 10
-7.758381998066454
 20
-1.961962304754398
 30
0.0
 10
-8.179609642928859
 20
-2.034437889580021
 30
0.0
 10
-8.60088317978824
 20
-2.094343946166675
 30
0.0
 10
-9.022185821227431
 20
-2.141338617064337
 30
0.0
 10
-9.443514696341573
 20
-2.175117361080979
 30
0.0
 10
-9.864859424678284
 20
-2.195462740518577
 30
0.0
 10
-10.14582408624295
 20
-2.19999961000517
 30
0.0
 10
-10.28621292114249
 20
-2.199999597416653
 30
0.0
  0
SPLINE
  5
2894
330
1F
100
AcDbEntity
  8
AM_0
100
AcDbSpline
210
0.0
220
0.0
230
1.0
 70
     8
 71
     3
 72
    22
 73
    18
 74
     0
 42
0.0000000001
 43
0.0000000001
 40
17.17441611292
 40
17.17441611292
 40
17.17441611292
 40
17.17441611292
 40
17.38177636558528
 40
18.41823744757437
 40
19.46215659509824
 40
20.51397914882054
 40
21.57394542641293
 40
22.64209583141747
 40
23.71826625065247
 40
24.80210429862395
 40
25.8930771157021
 40
26.99048705697709
 40
28.09349309193389
 40
29.20112995599786
 40
30.31233024745139
 40
31.42594771747373
 40
32.5407895042663
 40
32.54078950426994
 40
32.54078950426994
 40
32.54078950426994
 10
-11.89439244342347
 20
-1.975615520244555
 30
0.0
 10
-11.92260628709955
 20
-1.970522736024448
 30
0.0
 10
-12.09173287146019
 20
-1.939502030684742
 30
0.0
 10
-12.40156324376379
 20
-1.87730147904394
 30
0.0
 10
-12.82271428591966
 20
-1.781172884802289
 30
0.0
 10
-13.24382241366839
 20
-1.674067015831146
 30
0.0
 10
-13.66489060000974
 20
-1.556652453521861
 30
0.0
 10
-14.08591828874192
 20
-1.429649122740999
 30
0.0
 10
-14.50691066222756
 20
-1.293847423903565
 30
0.0
 10
-14.9278696697797
 20
-1.15008195055632
 30
0.0
 10
-15.34879920627018
 20
-0.9992392964959597
 30
0.0
 10
-15.76970395216855
 20
-0.8422500653527063
 30
0.0
 10
-16.19058756067406
 20
-0.6800795886563318
 30
0.0
 10
-16.6114542686607
 20
-0.5137255665829902
 30
0.0
 10
-17.03230780674554
 20
-0.3442108880665071
 30
0.0
 10
-17.45315440950774
 20
-0.1725815502973694
 30
0.0
 10
-17.73366373991701
 20
-0.0574733940788708
 30
0.0
 10
-17.87399546305425
 20
0.0001123003702091
 30
0.0
  0
SPLINE
  5
2895
330
1F
100
AcDbEntity
  8
AM_0
100
AcDbSpline
210
0.0
220
0.0
230
1.0
 70
     8
 71
     3
 72
    11
 73
     7
 74
     0
 42
0.0000000001
 43
0.0000000001
 40
11.27226913003534
 40
11.27226913003534
 40
11.27226913003534
 40
11.2722691300354
 40
12.28301561507924
 40
13.29510212255852
 40
14.30984805882082
 40
15.18258238371378
 40
15.18258238371378
 40
15.18258238371378
 40
15.18258238371378
 10
-10.28621292114251
 20
-2.199999597416653
 30
0.0
 10
-10.4260679285768
 20
-2.189232158100825
 30
0.0
 10
-10.70551415030701
 20
-2.163164656135301
 30
0.0
 10
-11.12324047470957
 20
-2.110580056889518
 30
0.0
 10
-11.51967012222969
 20
-2.047773518766871
 30
0.0
 10
-11.77605754829223
 20
-1.99949226366951
 30
0.0
 10
-11.89420817484713
 20
-1.975642657227733
 30
0.0
  0
SPLINE
  5
2896
330
1F
100
AcDbEntity
  8
AM_0
100
AcDbSpline
210
0.0
220
0.0
230
1.0
 70
     8
 71
     3
 72
    13
 73
     9
 74
     0
 42
0.0000000001
 43
0.0000000001
 40
16.03460056234195
 40
16.03460056234195
 40
16.03460056234195
 40
16.03460056234195
 40
16.35212717791071
 40
17.38177067057215
 40
18.41822498539278
 40
19.46214186516937
 40
20.5139635832251
 40
21.34083983469381
 40
21.34083983469381
 40
21.34083983469381
 40
21.34083983469381
 10
-40.09071646941014
 20
-2.200199677720303
 30
0.0
 10
-40.04742845823628
 20
-2.192773083865859
 30
0.0
 10
-39.86395476797523
 20
-2.160432292749825
 30
0.0
 10
-39.54076433031392
 20
-2.097062969912226
 30
0.0
 10
-39.12223158666019
 20
-2.00283484126421
 30
0.0
 10
-38.70408766279093
 20
-1.897031994908562
 30
0.0
 10
-38.31716697670647
 20
-1.788891989846986
 30
0.0
 10
-38.07031839262096
 20
-1.714429900437361
 30
0.0
 10
-37.96202739825
 20
-1.680772357525526
 30
0.0
  0
SPLINE
  5
2897
330
1F
100
AcDbEntity
  8
AM_0
 48
0.5
100
AcDbSpline
210
0.0
220
0.0
230
1.0
 70
     8
 71
     3
 72
    22
 73
    18
 74
     0
 42
0.0000000001
 43
0.0000000001
 40
0.0
 40
0.0
 40
0.0
 40
0.0
 40
1.010743684496582
 40
2.022833993863546
 40
3.037578683882831
 40
4.056212471389632
 40
5.079857945358201
 40
6.109499720892564
 40
7.145961650132166
 40
8.189873411961459
 40
9.241710626092514
 40
10.30166235592959
 40
11.36982472628033
 40
12.44598212828784
 40
13.52983440361964
 40
14.62080578343036
 40
14.90544694398022
 40
14.90544694398022
 40
14.90544694398022
 40
14.90544694398022
 10
-34.19193204244006
 20
-2.199999597416316
 30
0.0
 10
-34.33232090601766
 20
-2.198691041765053
 30
0.0
 10
-34.61328567479192
 20
-2.196072187059531
 30
0.0
 10
-35.03462997057543
 20
-2.174949091202413
 30
0.0
 10
-35.45595717815103
 20
-2.141383890077952
 30
0.0
 10
-35.87725807783738
 20
-2.094333019572977
 30
0.0
 10
-36.29852732619601
 20
-2.034434259352045
 30
0.0
 10
-36.71976052842002
 20
-1.961971168632882
 30
0.0
 10
-37.14095151194795
 20
-1.877412140106422
 30
0.0
 10
-37.56210317303597
 20
-1.781281743509123
 30
0.0
 10
-37.98321171859358
 20
-1.674180200966514
 30
0.0
 10
-38.40427934929265
 20
-1.556759344530796
 30
0.0
 10
-38.82530877947226
 20
-1.429766376796937
 30
0.0
 10
-39.24629969288993
 20
-1.293956265582099
 30
0.0
 10
-39.66725997631447
 20
-1.150194182783204
 30
0.0
 10
-39.9836410478763
 20
-1.036822226014211
 30
0.0
 10
-40.15993962150179
 20
-0.972022459768571
 30
0.0
 10
-40.19639230415367
 20
-0.9585576451282644
 30
0.0
  0
SPLINE
  5
2898
330
1F
100
AcDbEntity
  8
AM_0
100
AcDbSpline
210
0.0
220
0.0
230
1.0
 70
     8
 71
     3
 72
    22
 73
    18
 74
     0
 42
0.0000000001
 43
0.0000000001
 40
17.17441611292
 40
17.17441611292
 40
17.17441611292
 40
17.17441611292
 40
17.38177636558528
 40
18.41823744757437
 40
19.46215659509824
 40
20.51397914882054
 40
21.57394542641293
 40
22.64209583141747
 40
23.71826625065247
 40
24.80210429862395
 40
25.8930771157021
 40
26.99048705697709
 40
28.09349309193389
 40
29.20112995599786
 40
30.31233024745139
 40
31.42594771747373
 40
32.5407895042663
 40
32.54078950426994
 40
32.54078950426994
 40
32.54078950426994
 10
-26.89418199986952
 20
-1.975615520244361
 30
0.0
 10
-26.9223958435456
 20
-1.970522736024254
 30
0.0
 10
-27.09152242790623
 20
-1.939502030684548
 30
0.0
 10
-27.40135280020983
 20
-1.877301479043745
 30
0.0
 10
-27.82250384236572
 20
-1.781172884802094
 30
0.0
 10
-28.24361197011444
 20
-1.674067015830952
 30
0.0
 10
-28.66468015645579
 20
-1.556652453521667
 30
0.0
 10
-29.08570784518797
 20
-1.429649122740805
 30
0.0
 10
-29.50670021867363
 20
-1.29384742390337
 30
0.0
 10
-29.92765922622577
 20
-1.150081950556125
 30
0.0
 10
-30.34858876271623
 20
-0.9992392964957661
 30
0.0
 10
-30.76949350861459
 20
-0.8422500653525125
 30
0.0
 10
-31.1903771171201
 20
-0.6800795886561378
 30
0.0
 10
-31.61124382510675
 20
-0.5137255665827964
 30
0.0
 10
-32.03209736319159
 20
-0.3442108880663133
 30
0.0
 10
-32.45294396595378
 20
-0.1725815502971754
 30
0.0
 10
-32.73345329636305
 20
-0.0574733940786769
 30
0.0
 10
-32.87378501950029
 20
0.000112300370403
 30
0.0
  0
SPLINE
  5
2899
330
1F
100
AcDbEntity
  8
AM_0
100
AcDbSpline
210
0.0
220
0.0
230
1.0
 70
     8
 71
     3
 72
    17
 73
    13
 74
     0
 42
0.0000000001
 43
0.0000000001
 40
1.580019955310467
 40
1.580019955310467
 40
1.580019955310467
 40
1.580019955310467
 40
2.030549285115227
 40
3.082371838836284
 40
4.126290986361125
 40
5.162752068350215
 40
6.192395305374981
 40
7.216039564037012
 40
8.234688489606833
 40
9.249433870634691
 40
10.26152376260694
 40
11.27226744710342
 40
11.27226744710342
 40
11.27226744710342
 40
11.27226744710352
 10
-21.3171679227901
 20
-1.623664379915313
 30
0.0
 10
-21.37678117023135
 20
-1.640386778335184
 30
0.0
 10
-21.57590944448263
 20
-1.695196672751897
 30
0.0
 10
-21.91587079037503
 20
-1.78116795327656
 30
0.0
 10
-22.33696320926942
 20
-1.877444382593686
 30
0.0
 10
-22.7581715545125
 20
-1.961962304754204
 30
0.0
 10
-23.1793991993749
 20
-2.034437889579827
 30
0.0
 10
-23.60067273623428
 20
-2.094343946166481
 30
0.0
 10
-24.02197537767347
 20
-2.141338617064142
 30
0.0
 10
-24.44330425278761
 20
-2.175117361080786
 30
0.0
 10
-24.86464898112432
 20
-2.195462740518384
 30
0.0
 10
-25.14561364268899
 20
-2.199999610004975
 30
0.0
 10
-25.28600247758853
 20
-2.199999597416459
 30
0.0
  0
SPLINE
  5
289A
330
1F
100
AcDbEntity
  8
AM_0
100
AcDbSpline
210
0.0
220
0.0
230
1.0
 70
     8
 71
     3
 72
    11
 73
     7
 74
     0
 42
0.0000000001
 43
0.0000000001
 40
11.27226913003534
 40
11.27226913003534
 40
11.27226913003534
 40
11.2722691300354
 40
12.28301561507924
 40
13.29510212255852
 40
14.30984805882082
 40
15.18258238371378
 40
15.18258238371378
 40
15.18258238371378
 40
15.18258238371378
 10
-25.28600247758856
 20
-2.199999597416459
 30
0.0
 10
-25.42585748502285
 20
-2.18923215810063
 30
0.0
 10
-25.70530370675305
 20
-2.163164656135107
 30
0.0
 10
-26.12303003115562
 20
-2.110580056889324
 30
0.0
 10
-26.51945967867573
 20
-2.047773518766677
 30
0.0
 10
-26.77584710473827
 20
-1.999492263669315
 30
0.0
 10
-26.89399773129317
 20
-1.975642657227538
 30
0.0
  0
SPLINE
  5
289B
330
1F
100
AcDbEntity
  8
AM_0
 48
0.5
100
AcDbSpline
210
0.0
220
0.0
230
1.0
 70
     8
 71
     3
 72
    26
 73
    22
 74
     0
 42
0.0000000001
 43
0.0000000001
 40
0.0
 40
0.0
 40
0.0
 40
0.0
 40
0.4211432018735474
 40
0.8428473235286537
 40
1.265657898956934
 40
1.690088643751428
 40
2.116607084860617
 40
2.545625100287603
 40
2.977483884449724
 40
3.412450195918404
 40
3.850709593302191
 40
4.292362208965671
 40
4.737427885281768
 40
5.185826256336565
 40
5.637431371058531
 40
6.092003378174421
 40
6.549257520372505
 40
7.008843368271169
 40
7.470358728297647
 40
7.933358849736796
 40
8.383035712276667
 40
8.383035712276667
 40
8.383035712276667
 40
8.383035712276667
 10
-33.01245307922382
 20
-2.199999597416334
 30
0.0
 10
-33.15284191599239
 20
-2.198690650771632
 30
0.0
 10
-33.4338065731382
 20
-2.196071014098824
 30
0.0
 10
-33.85515131015788
 20
-2.174953799826833
 30
0.0
 10
-34.27647806278248
 20
-2.141382950202656
 30
0.0
 10
-34.69777873480571
 20
-2.09433211076913
 30
0.0
 10
-35.11904914426319
 20
-2.034438984583398
 30
0.0
 10
-35.54028089781419
 20
-1.961969628019937
 30
0.0
 10
-35.96147371523191
 20
-1.877413672169996
 30
0.0
 10
-36.38262472399068
 20
-1.781284667323606
 30
0.0
 10
-36.80373292844872
 20
-1.674179077894493
 30
0.0
 10
-37.22480179434229
 20
-1.556763537979944
 30
0.0
 10
-37.64582957689956
 20
-1.429763050691928
 30
0.0
 10
-38.06682104648377
 20
-1.293956668512225
 30
0.0
 10
-38.48778183204116
 20
-1.150195338583781
 30
0.0
 10
-38.90871284310966
 20
-0.9993511541817163
 30
0.0
 10
-39.32961721750892
 20
-0.8423612756948934
 30
0.0
 10
-39.75050268465244
 20
-0.6801942967792445
 30
0.0
 10
-40.17136228894069
 20
-0.5138268537135551
 30
0.0
 10
-40.58789875072474
 20
-0.3461115505934302
 30
0.0
 10
-40.8638698283883
 20
-0.2334392335036412
 30
0.0
 10
-41.00000000000003
 20
-0.1779254702189105
 30
0.0
  0
ELLIPSE
  5
289C
330
1F
100
AcDbEntity
  8
AM_0
 48
0.5
100
AcDbEllipse
 10
-40.16650772094748
 20
-1.466666264082897
 30
0.0
 11
-0.8335470884531076
 21
0.0008240246250304
 31
0.0
210
0.0
220
0.0
230
1.0
 40
0.8797738054999724
 41
0.0123704445683328
 42
1.57166573598659
  0
LINE
  5
289D
330
1F
100
AcDbEntity
  8
AM_0
 48
0.5
100
AcDbLine
 10
-2.349163055419971
 20
2.20000040258322
 30
0.0
 11
-0.9999936421712146
 21
2.200000402583198
 31
0.0
  0
LINE
  5
289E
330
1F
100
AcDbEntity
  8
AM_11
 48
0.5
100
AcDbLine
 10
-24.25719554549385
 20
2.20031295250943
 30
0.0
 11
-19.19207461528144
 21
2.200000402583489
 31
0.0
  0
LINE
  5
289F
330
1F
100
AcDbEntity
  8
AM_0
 48
0.5
100
AcDbLine
 10
-19.19208145141581
 20
2.200000402583489
 30
0.0
 11
-10.02657505354086
 21
2.20000035304061
 31
0.0
  0
LINE
  5
28A0
330
1F
100
AcDbEntity
  8
AM_0
100
AcDbLine
 10
-48.48038545502502
 20
2.200000402583931
 30
0.0
 11
-39.25522192582425
 21
2.20000040258379
 31
0.0
1001
GENIUS_GENODEF_13
1002
{
1000
HIER
1070
     0
1002
}
1002
{
1000
MANEDIT
1070
     0
1002
}
1002
{
1000
NOSEL
1070
     0
1002
}
1002
{
1000
BEHIND
1070
     0
1002
}
1002
{
1000
REACTOR
1002
}
1001
GENIUS_GENOBJ-N-CEN_13
1002
{
1000
OWNER
1000
GEN
1002
}
  0
LINE
  5
28A1
330
1F
100
AcDbEntity
  8
AM_11
 48
0.5
100
AcDbLine
 10
-39.2570429576034
 20
2.200312952509622
 30
0.0
 11
-34.19192886352536
 21
2.200000402583684
 31
0.0
  0
LINE
  5
28A2
330
1F
100
AcDbEntity
  8
AM_0
100
AcDbLine
 10
-34.19192886352536
 20
2.200000402583684
 30
0.0
 11
-24.25719554549385
 21
2.20031295250943
 31
0.0
  0
LINE
  5
28A3
330
1F
100
AcDbEntity
  8
AM_11
 48
0.5
100
AcDbLine
 10
-10.02657505354086
 20
2.20000035304061
 30
0.0
 11
-2.349163055419971
 21
2.20000040258322
 31
0.0
  0
SPLINE
  5
28A4
330
1F
100
AcDbEntity
  8
AM_0
 48
0.5
100
AcDbSpline
210
0.0
220
0.0
230
1.0
 70
     8
 71
     3
 72
    17
 73
    13
 74
     0
 42
0.0000000001
 43
0.0000000001
 40
0.0
 40
0.0
 40
0.0
 40
0.0
 40
1.010743614677189
 40
2.022833924044153
 40
3.037578959561199
 40
4.056212747067873
 40
5.079857613375832
 40
6.109500119648989
 40
7.14596120163808
 40
8.18989512056258
 40
9.241717674284874
 40
9.64933280892064
 40
9.64933280892064
 40
9.64933280892064
 40
9.64933280892064
 10
-2.349163055419971
 20
2.20000040258322
 30
0.0
 10
-2.489551917720748
 20
2.198692399172123
 30
0.0
 10
-2.770516693650292
 20
2.196074649592215
 30
0.0
 10
-3.191861075960378
 20
2.1749516576545
 30
0.0
 10
-3.613188111766815
 20
2.141384357971959
 30
0.0
 10
-4.034488944617241
 20
2.094333438501321
 30
0.0
 10
-4.455758556940799
 20
2.034437017709373
 30
0.0
 10
-4.876991803345607
 20
1.961972796838953
 30
0.0
 10
-5.298183030173545
 20
1.877407252044575
 30
0.0
 10
-5.719348581334925
 20
1.781309700352805
 30
0.0
 10
-6.053371304895098
 20
1.696256191507477
 30
0.0
 10
-6.247132197631609
 20
1.643830095306073
 30
0.0
 10
-6.301164096408139
 20
1.628951107183138
 30
0.0
  0
SPLINE
  5
28A5
330
1F
100
AcDbEntity
  8
AM_0
 48
0.5
100
AcDbSpline
210
0.0
220
0.0
230
1.0
 70
     8
 71
     3
 72
    25
 73
    21
 74
     0
 42
0.0000000001
 43
0.0000000001
 40
6.846175049578289
 40
6.846175049578289
 40
6.846175049578289
 40
6.846175049578289
 40
7.604337694224321
 40
8.711974558287883
 40
9.814980593243754
 40
10.91239053451967
 40
12.0033633515982
 40
13.08720139956839
 40
14.16337181880432
 40
15.23152222380919
 40
16.29148850140128
 40
17.34331105512262
 40
18.38723020264746
 40
19.42369128463655
 40
20.45333379090873
 40
21.47697865721768
 40
22.49561244472435
 40
23.5103574802404
 40
24.52244778960836
 40
25.53320666051913
 40
25.53320666051913
 40
25.53320666051913
 40
25.53320666051913
 10
-2.774175137983688
 20
0.3983016064291966
 30
0.0
 10
-3.025471124544481
 20
0.4457888394418763
 30
0.0
 10
-3.31977632667333
 20
0.531518050102145
 30
0.0
 10
-3.674375028048346
 20
0.6801922059317011
 30
0.0
 10
-4.071156918681664
 20
0.8423627284529173
 30
0.0
 10
-4.467958763733955
 20
0.9993519473937622
 30
0.0
 10
-4.864783972472586
 20
1.150194604751022
 30
0.0
 10
-5.261636966509663
 20
1.293960077019962
 30
0.0
 10
-5.658521415488849
 20
1.429761776893364
 30
0.0
 10
-6.055439156776114
 20
1.556765104630871
 30
0.0
 10
-6.452395079379781
 20
1.674179677963755
 30
0.0
 10
-6.849388645774158
 20
1.781285506316903
 30
0.0
 10
-7.246422707480729
 20
1.877414250442815
 30
0.0
 10
-7.643495863348018
 20
1.961970984531704
 30
0.0
 10
-8.040606562207614
 20
2.034437436301117
 30
0.0
 10
-8.437752594325115
 20
2.094333264496086
 30
0.0
 10
-8.834927780267733
 20
2.141384341923788
 30
0.0
 10
-9.232127742761832
 20
2.174951598216723
 30
0.0
 10
-9.629346034055114
 20
2.19607471270601
 30
0.0
 10
-9.894223498390857
 20
2.198692380617263
 30
0.0
 10
-10.02657505944237
 20
2.200000353098933
 30
0.0
  0
SPLINE
  5
28A6
330
1F
100
AcDbEntity
  8
AM_0
100
AcDbSpline
210
0.0
220
0.0
230
1.0
 70
     8
 71
     3
 72
    55
 73
    51
 74
     0
 42
0.0000000001
 43
0.0000000001
 40
0.0
 40
0.0
 40
0.0
 40
0.0
 40
1.010743684496582
 40
2.022833576467832
 40
3.037578957496688
 40
4.056212745003489
 40
5.079857003664532
 40
6.109500240690281
 40
7.145961322679372
 40
8.189895241603872
 40
9.241717795325891
 40
10.30168407291828
 40
11.36983447792315
 40
12.44600489715814
 40
13.52984294512926
 40
14.62081576220742
 40
15.7182257034828
 40
16.82123173843959
 40
17.92886860250316
 40
19.0400688939571
 40
20.15368796660465
 40
21.26852814259644
 40
22.38336992938901
 40
23.49698739941135
 40
24.6081876908653
 40
25.71582455492886
 40
26.81883757994213
 40
27.91624752121713
 40
29.00722033829659
 40
30.09105838626677
 40
31.16722880550176
 40
32.23537921050758
 40
33.29534548809967
 40
34.347168041821
 40
35.39108718934584
 40
36.42754827133493
 40
37.45720575381954
 40
38.48085062012849
 40
39.49948440763516
 40
40.51422944315121
 40
41.52631975251916
 40
42.53706336719636
 40
43.54780698187354
 40
44.55989729124051
 40
45.57464232675757
 40
46.59327611426424
 40
47.6169209805722
 40
48.64656348684535
 40
49.68302456883444
 40
50.58557219878025
 40
50.58557219878025
 40
50.58557219878025
 40
50.58557219878025
 10
-2.34916305542004
 20
-2.19999959741678
 30
0.0
 10
-2.489551892171727
 20
-2.198690650715034
 30
0.0
 10
-2.770516549283603
 20
-2.196071013928081
 30
0.0
 10
-3.19186128655727
 20
-2.174953800513828
 30
0.0
 10
-3.613188038212766
 20
-2.141382947616755
 30
0.0
 10
-4.034488713878797
 20
-2.09433212048584
 30
0.0
 10
-4.455759109637819
 20
-2.03443894803732
 30
0.0
 10
-4.876990914766818
 20
-1.961969765664451
 30
0.0
 10
-5.298185538267507
 20
-1.877412751609897
 30
0.0
 10
-5.719339244994795
 20
-1.781285692570307
 30
0.0
 10
-6.140449166124382
 20
-1.674178802856729
 30
0.0
 10
-6.561517400656416
 20
-1.556764381344122
 30
0.0
 10
-6.982545076295611
 20
-1.429761012341542
 30
0.0
 10
-7.403537453445524
 20
-1.293959324082084
 30
0.0
 10
-7.824496459566077
 20
-1.150193847036477
 30
0.0
 10
-8.245425998099792
 20
-0.9993511971203433
 30
0.0
 10
-8.666330737212216
 20
-0.8423619530229533
 30
0.0
 10
-9.087214370988062
 20
-0.6801915243184381
 30
0.0
 10
-9.508080984150954
 20
-0.513837322229184
 30
0.0
 10
-9.928935080152472
 20
-0.3443232371051838
 30
0.0
 10
-10.34978035028369
 20
-0.1726913718775952
 30
0.0
 10
-10.77062273753169
 20
-0.0000000462965603
 30
0.0
 10
-11.1914632355495
 20
0.1726943878359579
 30
0.0
 10
-11.61230991626234
 20
0.3443235803014281
 30
0.0
 10
-12.03316349271384
 20
0.5138381785349134
 30
0.0
 10
-12.45403085627724
 20
0.6801930143595301
 30
0.0
 10
-12.8749162360803
 20
0.8423620590731299
 30
0.0
 10
-13.2958216394916
 20
0.9993520993244191
 30
0.0
 10
-13.71675123879354
 20
1.150194626922715
 30
0.0
 10
-14.13771022959674
 20
1.29396013420166
 30
0.0
 10
-14.55870260782464
 20
1.429761822659769
 30
0.0
 10
-14.97973029418774
 20
1.556765161293929
 30
0.0
 10
-15.40079848526095
 20
1.674179702697463
 30
0.0
 10
-15.82190659661478
 20
1.781285646658577
 30
0.0
 10
-16.24305769899284
 20
1.87741396472281
 30
0.0
 10
-16.66425216625218
 20
1.96197267911254
 30
0.0
 10
-17.08548697911745
 20
2.034433584498803
 30
0.0
 10
-17.50675876663482
 20
2.094345295150317
 30
0.0
 10
-17.92805956719322
 20
2.141340349598642
 30
0.0
 10
-18.34938661159934
 20
2.17511506605606
 30
0.0
 10
-18.77073099162289
 20
2.195466829378124
 30
0.0
 10
-19.19208463043366
 20
2.202265680083489
 30
0.0
 10
-19.61343826862446
 20
2.195466829367475
 30
0.0
 10
-20.0347826505115
 20
2.175115066098846
 30
0.0
 10
-20.45610968805675
 20
2.141340349437507
 30
0.0
 10
-20.87741051433823
 20
2.094345295755973
 30
0.0
 10
-21.29868015137252
 20
2.034433874300816
 30
0.0
 10
-21.71991330473296
 20
1.961973419986195
 30
0.0
 10
-22.12195697363057
 20
1.881252395011684
 30
0.0
 10
-22.38280748461479
 20
1.822220346337607
 30
0.0
 10
-22.50382691824409
 20
1.793451149261973
 30
0.0
  0
SPLINE
  5
28A7
330
1F
100
AcDbEntity
  8
AM_0
100
AcDbSpline
210
0.0
220
0.0
230
1.0
 70
     8
 71
     3
 72
    46
 73
    42
 74
     0
 42
0.0000000001
 43
0.0000000001
 40
0.0
 40
0.0
 40
0.0
 40
0.0
 40
0.8427075293422852
 40
1.265518104770559
 40
1.68994884956506
 40
2.116467290673827
 40
2.54548530610122
 40
2.977344090263342
 40
3.412310401731623
 40
3.850575907619846
 40
4.292228523283339
 40
4.737291192035372
 40
5.185695533383686
 40
5.637294720037921
 40
6.091866727153826
 40
6.549120869352287
 40
7.008706717250554
 40
7.470222077277051
 40
7.933222198716569
 40
8.397230145652669
 40
8.861746885649248
 40
9.326263625646204
 40
9.790271572582303
 40
10.25327169402144
 40
10.71478705404793
 40
11.17437290194659
 40
11.6316270441445
 40
12.08619905126056
 40
12.53780120194721
 40
12.98620554329551
 40
13.43126821204755
 40
13.87292082771091
 40
14.3111802250952
 40
14.74614653656348
 40
15.17800532072561
 40
15.60702303167235
 40
16.03354172596774
 40
16.45797877828845
 40
16.88078920975347
 40
17.30249350532345
 40
17.72363667810562
 40
17.72363667810562
 40
17.72363667810562
 40
17.72363667810562
 10
-1.169684092203788
 20
-2.199999597416797
 30
0.0
 10
-1.450662476801048
 20
-2.194987827354782
 30
0.0
 10
-1.872615788449448
 20
-2.187461508282519
 30
0.0
 10
-2.433705507588323
 20
-2.141123344412996
 30
0.0
 10
-2.855010709692995
 20
-2.094402148734514
 30
0.0
 10
-3.27627990023224
 20
-2.034420069820515
 30
0.0
 10
-3.697511969438764
 20
-1.961974711100369
 30
0.0
 10
-4.11870475336082
 20
-1.877412423106454
 30
0.0
 10
-4.539857546563777
 20
-1.781284075465227
 30
0.0
 10
-4.960968474768955
 20
-1.674179910461256
 30
0.0
 10
-5.382038379676095
 20
-1.556764227844774
 30
0.0
 10
-5.803066128735193
 20
-1.429761053942878
 30
0.0
 10
-6.224058485982291
 20
-1.293959312801409
 30
0.0
 10
-6.645017497524401
 20
-1.150193850136834
 30
0.0
 10
-7.065947034472243
 20
-0.9993511961044843
 30
0.0
 10
-7.486851774460408
 20
-0.8423619539652841
 30
0.0
 10
-7.907735406319354
 20
-0.6801915215540477
 30
0.0
 10
-8.328602026308743
 20
-0.513837332396685
 30
0.0
 10
-8.749456096814494
 20
-0.3443231990506399
 30
0.0
 10
-9.170301462366076
 20
-0.172691514278008
 30
0.0
 10
-9.5911432902172
 20
0.0000004025483953
 30
0.0
 10
-10.01198511797586
 20
0.172692319584654
 30
0.0
 10
-10.43283048380476
 20
0.3443240037280273
 30
0.0
 10
-10.85368455329688
 20
0.5138381393737346
 30
0.0
 10
-11.27455117704485
 20
0.6801923200024826
 30
0.0
 10
-11.69543479496733
 20
0.8423627840369661
 30
0.0
 10
-12.11633958656698
 20
0.9993519090641443
 30
0.0
 10
-12.53726984768759
 20
1.150195324220452
 30
0.0
 10
-12.95823049487334
 20
1.293959480702922
 30
0.0
 10
-13.37922360310627
 20
1.429761918189213
 30
0.0
 10
-13.80025134236264
 20
1.556765129881313
 30
0.0
 10
-14.22131951756245
 20
1.674179733548013
 30
0.0
 10
-14.64242763999211
 20
1.78128555536269
 30
0.0
 10
-15.06357871407761
 20
1.877414295698736
 30
0.0
 10
-15.48477125423541
 20
1.961971051183825
 30
0.0
 10
-15.90600363226351
 20
2.034437421912789
 30
0.0
 10
-16.32727551137524
 20
2.094333845648965
 30
0.0
 10
-16.74857854260101
 20
2.141383949841261
 30
0.0
 10
-17.1699076396403
 20
2.174951721706535
 30
0.0
 10
-17.59125203061241
 20
2.196074633621798
 30
0.0
 10
-17.87221680538935
 20
2.198692393851187
 30
0.0
 10
-18.01260566711415
 20
2.200000402583471
 30
0.0
  0
SPLINE
  5
28A8
330
1F
100
AcDbEntity
  8
AM_0
100
AcDbSpline
210
0.0
220
0.0
230
1.0
 70
     8
 71
     3
 72
    23
 73
    19
 74
     0
 42
0.0000000001
 43
0.0000000001
 40
16.03460024169435
 40
16.03460024169435
 40
16.03460024169435
 40
16.03460024169435
 40
16.35212704903564
 40
17.38177054169784
 40
18.41822485651776
 40
19.46214173629503
 40
20.51396345435107
 40
21.57393551351153
 40
22.64208202342361
 40
23.7182574881101
 40
24.80209208578934
 40
25.89306333925047
 40
26.99048218457928
 40
28.09348763352352
 40
29.20111863782268
 40
30.31232390128032
 40
31.42594612798585
 40
32.5407912310448
 40
32.5407912310486
 40
32.5407912310486
 40
32.5407912310486
 10
-39.2570429576034
 20
2.200312952509622
 30
0.0
 10
-39.21375496397168
 20
2.192886139928774
 30
0.0
 10
-39.03028142553121
 20
2.160544461461357
 30
0.0
 10
-38.70709081169372
 20
2.097175878466835
 30
0.0
 10
-38.28855812071043
 20
2.002947488546056
 30
0.0
 10
-37.87041418257697
 20
1.897144712947488
 30
0.0
 10
-37.45263428883458
 20
1.780379884171256
 30
0.0
 10
-37.03520361173444
 20
1.653303968751804
 30
0.0
 10
-36.61809802478385
 20
1.516643386211256
 30
0.0
 10
-36.20128848233507
 20
1.371193466860632
 30
0.0
 10
-35.7847512997729
 20
1.217777885112953
 30
0.0
 10
-35.36845308180103
 20
1.057289330491771
 30
0.0
 10
-34.95236009210415
 20
0.8906606318153597
 30
0.0
 10
-34.53644460759319
 20
0.7188498342458819
 30
0.0
 10
-34.12067182912464
 20
0.5428559940426733
 30
0.0
 10
-33.70500324733377
 20
0.3637067861133906
 30
0.0
 10
-33.28940501506429
 20
0.1824403316060902
 30
0.0
 10
-33.0124139465781
 20
0.0609110854062367
 30
0.0
 10
-32.87384287516196
 20
0.0001123003696111
 30
0.0
  0
SPLINE
  5
28A9
330
1F
100
AcDbEntity
  8
AM_0
100
AcDbSpline
210
0.0
220
0.0
230
1.0
 70
     8
 71
     3
 72
    55
 73
    51
 74
     0
 42
0.0000000001
 43
0.0000000001
 40
0.0
 40
0.0
 40
0.0
 40
0.0
 40
1.010743684496582
 40
2.022833576467832
 40
3.037578957496688
 40
4.056212745003489
 40
5.079857003664532
 40
6.109500240690281
 40
7.145961322679372
 40
8.189895241603872
 40
9.241717795325891
 40
10.30168407291828
 40
11.36983447792315
 40
12.44600489715814
 40
13.52984294512926
 40
14.62081576220742
 40
15.7182257034828
 40
16.82123173843959
 40
17.92886860250316
 40
19.0400688939571
 40
20.15368796660465
 40
21.26852814259644
 40
22.38336992938901
 40
23.49698739941135
 40
24.6081876908653
 40
25.71582455492886
 40
26.81883757994213
 40
27.91624752121713
 40
29.00722033829659
 40
30.09105838626677
 40
31.16722880550176
 40
32.23537921050758
 40
33.29534548809967
 40
34.347168041821
 40
35.39108718934584
 40
36.42754827133493
 40
37.45720575381954
 40
38.48085062012849
 40
39.49948440763516
 40
40.51422944315121
 40
41.52631975251916
 40
42.53706336719636
 40
43.54780698187354
 40
44.55989729124051
 40
45.57464232675757
 40
46.59327611426424
 40
47.6169209805722
 40
48.64656348684535
 40
49.68302456883444
 40
50.58557219878025
 40
50.58557219878025
 40
50.58557219878025
 40
50.58557219878025
 10
-17.34895261186608
 20
-2.199999597416586
 30
0.0
 10
-17.48934144861776
 20
-2.198690650714841
 30
0.0
 10
-17.77030610572964
 20
-2.196071013927885
 30
0.0
 10
-18.19165084300331
 20
-2.174953800513633
 30
0.0
 10
-18.6129775946588
 20
-2.141382947616563
 30
0.0
 10
-19.03427827032484
 20
-2.094332120485647
 30
0.0
 10
-19.45554866608386
 20
-2.034438948037128
 30
0.0
 10
-19.87678047121286
 20
-1.961969765664258
 30
0.0
 10
-20.29797509471355
 20
-1.877412751609703
 30
0.0
 10
-20.71912880144084
 20
-1.781285692570112
 30
0.0
 10
-21.14023872257043
 20
-1.674178802856537
 30
0.0
 10
-21.56130695710246
 20
-1.556764381343928
 30
0.0
 10
-21.98233463274167
 20
-1.429761012341346
 30
0.0
 10
-22.40332700989157
 20
-1.29395932408189
 30
0.0
 10
-22.82428601601213
 20
-1.150193847036284
 30
0.0
 10
-23.24521555454585
 20
-0.9993511971201495
 30
0.0
 10
-23.66612029365825
 20
-0.842361953022759
 30
0.0
 10
-24.08700392743409
 20
-0.6801915243182445
 30
0.0
 10
-24.50787054059698
 20
-0.5138373222289899
 30
0.0
 10
-24.92872463659852
 20
-0.3443232371049898
 30
0.0
 10
-25.34956990672974
 20
-0.1726913718774015
 30
0.0
 10
-25.77041229397774
 20
-0.0000000462963664
 30
0.0
 10
-26.19125279199555
 20
0.1726943878361516
 30
0.0
 10
-26.61209947270839
 20
0.344323580301622
 30
0.0
 10
-27.0329530491599
 20
0.5138381785351074
 30
0.0
 10
-27.4538204127233
 20
0.680193014359724
 30
0.0
 10
-27.87470579252635
 20
0.8423620590733239
 30
0.0
 10
-28.29561119593764
 20
0.9993520993246123
 30
0.0
 10
-28.71654079523958
 20
1.150194626922909
 30
0.0
 10
-29.13749978604278
 20
1.293960134201855
 30
0.0
 10
-29.55849216427069
 20
1.429761822659962
 30
0.0
 10
-29.97951985063379
 20
1.556765161294123
 30
0.0
 10
-30.40058804170699
 20
1.674179702697657
 30
0.0
 10
-30.82169615306083
 20
1.781285646658771
 30
0.0
 10
-31.24284725543889
 20
1.877413964723004
 30
0.0
 10
-31.66404172269823
 20
1.961972679112735
 30
0.0
 10
-32.08527653556347
 20
2.034433584498996
 30
0.0
 10
-32.50654832308083
 20
2.09434529515051
 30
0.0
 10
-32.92784912363923
 20
2.141340349598835
 30
0.0
 10
-33.34917616804536
 20
2.175115066056255
 30
0.0
 10
-33.7705205480689
 20
2.195466829378318
 30
0.0
 10
-34.19187418687968
 20
2.202265680083684
 30
0.0
 10
-34.61322782507047
 20
2.19546682936767
 30
0.0
 10
-35.03457220695751
 20
2.17511506609904
 30
0.0
 10
-35.45589924450276
 20
2.141340349437701
 30
0.0
 10
-35.87720007078424
 20
2.094345295756165
 30
0.0
 10
-36.29846970781855
 20
2.03443387430101
 30
0.0
 10
-36.71970286117897
 20
1.96197341998639
 30
0.0
 10
-37.1217465300766
 20
1.881252395011878
 30
0.0
 10
-37.38259704106084
 20
1.822220346337801
 30
0.0
 10
-37.50361647469015
 20
1.793451149262167
 30
0.0
  0
SPLINE
  5
28AA
330
1F
100
AcDbEntity
  8
AM_0
100
AcDbSpline
210
0.0
220
0.0
230
1.0
 70
     8
 71
     3
 72
    46
 73
    42
 74
     0
 42
0.0000000001
 43
0.0000000001
 40
0.0
 40
0.0
 40
0.0
 40
0.0
 40
0.8427075293422831
 40
1.265518104770557
 40
1.689948849565058
 40
2.116467290673825
 40
2.545485306101222
 40
2.97734409026334
 40
3.412310401731621
 40
3.850575907619841
 40
4.292228523283341
 40
4.737291192035375
 40
5.185695533383689
 40
5.637294720037917
 40
6.09186672715383
 40
6.549120869352283
 40
7.008706717250553
 40
7.470222077277046
 40
7.933222198716568
 40
8.397230145652669
 40
8.861746885649248
 40
9.326263625646204
 40
9.790271572582303
 40
10.25327169402144
 40
10.71478705404793
 40
11.17437290194658
 40
11.6316270441445
 40
12.08619905126055
 40
12.5378012019472
 40
12.98620554329551
 40
13.43126821204755
 40
13.87292082771092
 40
14.31118022509521
 40
14.74614653656349
 40
15.17800532072561
 40
15.60702303167235
 40
16.03354172596773
 40
16.45797877828844
 40
16.88078920975346
 40
17.30249350532346
 40
17.72363667810562
 40
17.72363667810562
 40
17.72363667810562
 40
17.72363667810562
 10
-16.16947364864982
 20
-2.199999597416602
 30
0.0
 10
-16.45045203324708
 20
-2.194987827354586
 30
0.0
 10
-16.87240534489549
 20
-2.187461508282324
 30
0.0
 10
-17.43349506403436
 20
-2.141123344412804
 30
0.0
 10
-17.85480026613902
 20
-2.094402148734318
 30
0.0
 10
-18.27606945667828
 20
-2.034420069820321
 30
0.0
 10
-18.6973015258848
 20
-1.961974711100175
 30
0.0
 10
-19.11849430980686
 20
-1.87741242310626
 30
0.0
 10
-19.53964710300981
 20
-1.781284075465034
 30
0.0
 10
-19.96075803121499
 20
-1.67417991046106
 30
0.0
 10
-20.38182793612214
 20
-1.556764227844582
 30
0.0
 10
-20.80285568518124
 20
-1.429761053942684
 30
0.0
 10
-21.22384804242835
 20
-1.293959312801217
 30
0.0
 10
-21.64480705397045
 20
-1.150193850136636
 30
0.0
 10
-22.0657365909183
 20
-0.9993511961042944
 30
0.0
 10
-22.48664133090645
 20
-0.8423619539650866
 30
0.0
 10
-22.90752496276538
 20
-0.6801915215538561
 30
0.0
 10
-23.32839158275477
 20
-0.5138373323964887
 30
0.0
 10
-23.74924565326054
 20
-0.344323199050447
 30
0.0
 10
-24.17009101881212
 20
-0.1726915142778143
 30
0.0
 10
-24.59093284666324
 20
0.0000004025485891
 30
0.0
 10
-25.0117746744219
 20
0.1726923195848478
 30
0.0
 10
-25.43262004025081
 20
0.3443240037282211
 30
0.0
 10
-25.85347410974295
 20
0.5138381393739286
 30
0.0
 10
-26.27434073349091
 20
0.6801923200026757
 30
0.0
 10
-26.6952243514134
 20
0.8423627840371613
 30
0.0
 10
-27.11612914301301
 20
0.9993519090643388
 30
0.0
 10
-27.53705940413361
 20
1.150195324220646
 30
0.0
 10
-27.95802005131937
 20
1.293959480703117
 30
0.0
 10
-28.3790131595523
 20
1.429761918189405
 30
0.0
 10
-28.80004089880868
 20
1.556765129881508
 30
0.0
 10
-29.22110907400851
 20
1.674179733548204
 30
0.0
 10
-29.64221719643815
 20
1.781285555362884
 30
0.0
 10
-30.06336827052367
 20
1.877414295698929
 30
0.0
 10
-30.48456081068146
 20
1.961971051184018
 30
0.0
 10
-30.90579318870956
 20
2.034437421912982
 30
0.0
 10
-31.32706506782127
 20
2.094333845649159
 30
0.0
 10
-31.74836809904706
 20
2.141383949841455
 30
0.0
 10
-32.16969719608631
 20
2.174951721706731
 30
0.0
 10
-32.59104158705843
 20
2.196074633621991
 30
0.0
 10
-32.87200636183536
 20
2.198692393851381
 30
0.0
 10
-33.01239522356016
 20
2.200000402583666
 30
0.0
  0
SPLINE
  5
28AB
330
1F
100
AcDbEntity
  8
AM_0
100
AcDbSpline
210
0.0
220
0.0
230
1.0
 70
     8
 71
     3
 72
    23
 73
    19
 74
     0
 42
0.0000000001
 43
0.0000000001
 40
16.03460024169435
 40
16.03460024169435
 40
16.03460024169435
 40
16.03460024169435
 40
16.35212704903564
 40
17.38177054169784
 40
18.41822485651776
 40
19.46214173629503
 40
20.51396345435107
 40
21.57393551351153
 40
22.64208202342361
 40
23.7182574881101
 40
24.80209208578934
 40
25.89306333925047
 40
26.99048218457928
 40
28.09348763352352
 40
29.20111863782268
 40
30.31232390128032
 40
31.42594612798585
 40
32.5407912310448
 40
32.5407912310486
 40
32.5407912310486
 40
32.5407912310486
 10
-24.25719554549385
 20
2.200312952509431
 30
0.0
 10
-24.21390755186212
 20
2.192886139928583
 30
0.0
 10
-24.03043401342166
 20
2.160544461461167
 30
0.0
 10
-23.70724339958417
 20
2.097175878466642
 30
0.0
 10
-23.28871070860088
 20
2.002947488545864
 30
0.0
 10
-22.87056677046741
 20
1.897144712947295
 30
0.0
 10
-22.452786876725
 20
1.780379884171063
 30
0.0
 10
-22.03535619962484
 20
1.653303968751611
 30
0.0
 10
-21.61825061267423
 20
1.516643386211063
 30
0.0
 10
-21.20144107022546
 20
1.371193466860441
 30
0.0
 10
-20.7849038876633
 20
1.21777788511276
 30
0.0
 10
-20.36860566969141
 20
1.057289330491578
 30
0.0
 10
-19.95251267999456
 20
0.8906606318151672
 30
0.0
 10
-19.5365971954836
 20
0.7188498342456893
 30
0.0
 10
-19.12082441701505
 20
0.5428559940424807
 30
0.0
 10
-18.70515583522419
 20
0.3637067861131983
 30
0.0
 10
-18.2895576029547
 20
0.1824403316058978
 30
0.0
 10
-18.01256653446852
 20
0.0609110854060442
 30
0.0
 10
-17.87399546305239
 20
0.0001123003694186
 30
0.0
  0
VIEWPORT
  5
110
330
101
100
AcDbEntity
 67
     1
  8
0
100
AcDbViewport
 10
420.5
 20
297.0
 30
0.0
 40
948.9782706766916
 41
628.452
 68
     1
 69
     1
1001
ACAD
1000
MVIEW
1002
{
1070
    16
1010
0.0
1020
0.0
1030
0.0
1010
0.0
1020
0.0
1030
1.0
1040
0.0
1040
628.452
1040
420.5
1040
297.0
1040
50.0
1040
0.0
1040
0.0
1070
     0
1070
   100
1070
     1
1070
     1
1070
     0
1070
     0
1070
     0
1070
     0
1040
0.0
1040
0.0
1040
0.0
1040
10.0
1040
10.0
1040
10.0
1040
10.0
1070
     0
1002
{
1002
}
1002
}
  0
ENDSEC
  0
SECTION
  2
OBJECTS
  0
DICTIONARY
  5
C
330
0
100
AcDbDictionary
  3
ACAD_GROUP
350
D
  3
ACAD_LAYOUT
350
1A
  3
ACAD_MLINESTYLE
350
17
  3
ACAD_PLOTSETTINGS
350
19
  3
ACAD_PLOTSTYLENAME
350
E
  3
ACDBVARIABLEDICTIONARY
350
34
  3
ACMDICTIONARY
350
43
  3
AMG
350
2B
  3
AMGSNAPSETTINGS
350
6E
  3
DWGPROPS
350
28FE
  3
ACDBHEADERROUNDTRIPXREC
350
290A
  0
DICTIONARY
  5
74
330
1F
100
AcDbDictionary
280
     1
  3
ACAD_INDEX
360
2900
  3
ACAD_LAYOUTSELFREF
360
292D
  0
DICTIONARY
  5
2932
330
101
100
AcDbDictionary
280
     1
  3
ACAD_LAYOUTSELFREF
360
2933
  0
DICTIONARY
  5
D
102
{ACAD_REACTORS
330
C
102
}
330
C
100
AcDbDictionary
  0
DICTIONARY
  5
1A
102
{ACAD_REACTORS
330
C
102
}
330
C
100
AcDbDictionary
  0
DICTIONARY
  5
17
102
{ACAD_REACTORS
330
C
102
}
330
C
100
AcDbDictionary
  3
STANDARD
350
18
  0
DICTIONARY
  5
19
102
{ACAD_REACTORS
330
C
102
}
330
C
100
AcDbDictionary
  0
ACDBDICTIONARYWDFLT
  5
E
102
{ACAD_REACTORS
330
C
102
}
330
C
100
AcDbDictionary
281
     1
  3
Normal
350
F
100
AcDbDictionaryWithDefault
340
F
  0
DICTIONARY
  5
34
102
{ACAD_REACTORS
330
C
102
}
330
C
100
AcDbDictionary
  3
INDEXCTL
350
35
  3
SORTENTS
350
B5E
  0
DICTIONARY
  5
43
102
{ACAD_REACTORS
330
C
102
}
330
C
100
AcDbDictionary
  3
ACMSTDDICTIONARY
350
260
  0
DICTIONARY
  5
2B
102
{ACAD_REACTORS
330
C
102
}
330
C
100
AcDbDictionary
  3
ACMGSETTINGS
350
2C
  0
DICTIONARY
  5
6E
102
{ACAD_REACTORS
330
C
102
}
330
C
100
AcDbDictionary
  0
XRECORD
  5
28FE
102
{ACAD_REACTORS
330
C
102
}
330
C
100
AcDbXrecord
  1
DWGPROPS COOKIE
  2

  3

  4

  6

  7

  8

  9

300
AmdtFileType=82
301
=
302
=
303
=
304
=
305
=
306
=
307
=
308
=
309
=
 40
0.0405778125
 41
2452800.443498622
 42
2452948.687734548
  1

 90
        1
  0
DICTIONARY
  5
290A
102
{ACAD_REACTORS
330
C
102
}
330
C
100
AcDbDictionary
  3
TSTACKALIGN
350
290B
  3
TSTACKSIZE
350
290C
  3
HYPERLINKBASE
350
290D
  3
STYLESHEET
350
290E
  3
LAYOUTDICT
350
290F
  3
PLOTSETDICT
350
2910
  3
PLOTSTYLNAMDICT
350
2911
  3
LWETCUNION
350
2912
  3
INSUNITS
350
2913
  3
CEPSNTYPE
350
2914
  3
FINGERPRINTGUID
350
2915
  3
VERSIONGUID
350
2916
  3
PSVPSCALE
350
2917
  3
DIMSTYLEDATA
350
2918
  3
PUCSORTHOREF
350
2919
  3
PUCSORTHOVIEW
350
291A
  3
PUCSBASE
350
291B
  3
PUCSORGTOP
350
291C
  3
PUCSORGBOTTOM
350
291D
  3
PUCSORGLEFT
350
291E
  3
PUCSORGRIGHT
350
291F
  3
PUCSORGFRONT
350
2920
  3
PUCSORGBACK
350
2921
  3
UCSORTHOREF
350
2922
  3
UCSORTHOVIEW
350
2923
  3
UCSBASE
350
2924
  3
UCSORGTOP
350
2925
  3
UCSORGBOTTOM
350
2926
  3
UCSORGLEFT
350
2927
  3
UCSORGRIGHT
350
2928
  3
UCSORGFRONT
350
2929
  3
UCSORGBACK
350
292A
  0
DICTIONARY
  5
2900
102
{ACAD_REACTORS
330
74
102
}
330
74
100
AcDbDictionary
  3
*A1
350
2901
  0
XRECORD
  5
292D
102
{ACAD_REACTORS
330
74
102
}
330
74
100
AcDbXrecord
340
1F
  0
XRECORD
  5
2933
102
{ACAD_REACTORS
330
2932
102
}
330
2932
100
AcDbXrecord
340
101
  0
MLINESTYLE
  5
18
102
{ACAD_REACTORS
330
17
102
}
330
17
100
AcDbMlineStyle
  2
STANDARD
 70
     0
  3

 62
   256
 51
90.0
 52
90.0
 71
     2
 49
0.5
 62
   256
  6
BYLAYER
 49
-0.5
 62
   256
  6
BYLAYER
  0
ACDBPLACEHOLDER
  5
F
102
{ACAD_REACTORS
330
E
102
}
330
E
100
AcDbPlaceHolder
280
     0
  0
DICTIONARYVAR
  5
35
102
{ACAD_REACTORS
330
34
102
}
330
34
100
DictionaryVariables
280
     0
  1
1
  0
DICTIONARYVAR
  5
B5E
102
{ACAD_REACTORS
330
34
102
}
330
34
100
DictionaryVariables
280
     0
  1
96
  0
DICTIONARY
  5
260
102
{ACAD_REACTORS
330
43
102
}
330
43
100
AcDbDictionary
  0
DICTIONARY
  5
2C
102
{ACAD_REACTORS
330
2B
102
}
330
2B
100
AcDbDictionary
  3
DWGSETTINGS
350
2D
  0
XRECORD
  5
290B
102
{ACAD_REACTORS
330
290A
102
}
330
290A
100
AcDbXrecord
 90
        1
  0
XRECORD
  5
290C
102
{ACAD_REACTORS
330
290A
102
}
330
290A
100
AcDbXrecord
 90
       70
  0
XRECORD
  5
290D
102
{ACAD_REACTORS
330
290A
102
}
330
290A
100
AcDbXrecord
  1

  0
XRECORD
  5
290E
102
{ACAD_REACTORS
330
290A
102
}
330
290A
100
AcDbXrecord
  1
ASAMI.ctb
  0
XRECORD
  5
290F
102
{ACAD_REACTORS
330
290A
102
}
330
290A
100
AcDbXrecord
340
1A
  0
XRECORD
  5
2910
102
{ACAD_REACTORS
330
290A
102
}
330
290A
100
AcDbXrecord
340
19
  0
XRECORD
  5
2911
102
{ACAD_REACTORS
330
290A
102
}
330
290A
100
AcDbXrecord
340
E
  0
XRECORD
  5
2912
102
{ACAD_REACTORS
330
290A
102
}
330
290A
100
AcDbXrecord
 90
    10781
  0
XRECORD
  5
2913
102
{ACAD_REACTORS
330
290A
102
}
330
290A
100
AcDbXrecord
 90
        4
  0
XRECORD
  5
2914
102
{ACAD_REACTORS
330
290A
102
}
330
290A
100
AcDbXrecord
 90
        0
  0
XRECORD
  5
2915
102
{ACAD_REACTORS
330
290A
102
}
330
290A
100
AcDbXrecord
  1
{AFB28963-8C59-40AE-9337-C84526B81ACE}
  0
XRECORD
  5
2916
102
{ACAD_REACTORS
330
290A
102
}
330
290A
100
AcDbXrecord
  1
{9787DCA9-808E-4917-87A4-B7D5466342EF}
  0
XRECORD
  5
2917
102
{ACAD_REACTORS
330
290A
102
}
330
290A
100
AcDbXrecord
 40
0.0
  0
XRECORD
  5
2918
102
{ACAD_REACTORS
330
290A
102
}
330
290A
100
AcDbXrecord
1000
DSTYLE
1002
{
1070
    79
 70
     2
1070
   341
340
59
1070
   342
340
59
1070
   371
 70
    -1
1070
   372
 70
    -1
1002
}
  0
XRECORD
  5
2919
102
{ACAD_REACTORS
330
290A
102
}
330
290A
100
AcDbXrecord
340
0
  0
XRECORD
  5
291A
102
{ACAD_REACTORS
330
290A
102
}
330
290A
100
AcDbXrecord
 70
     0
  0
XRECORD
  5
291B
102
{ACAD_REACTORS
330
290A
102
}
330
290A
100
AcDbXrecord
340
0
  0
XRECORD
  5
291C
102
{ACAD_REACTORS
330
290A
102
}
330
290A
100
AcDbXrecord
 10
0.0
 20
0.0
 30
0.0
  0
XRECORD
  5
291D
102
{ACAD_REACTORS
330
290A
102
}
330
290A
100
AcDbXrecord
 10
0.0
 20
0.0
 30
0.0
  0
XRECORD
  5
291E
102
{ACAD_REACTORS
330
290A
102
}
330
290A
100
AcDbXrecord
 10
0.0
 20
0.0
 30
0.0
  0
XRECORD
  5
291F
102
{ACAD_REACTORS
330
290A
102
}
330
290A
100
AcDbXrecord
 10
0.0
 20
0.0
 30
0.0
  0
XRECORD
  5
2920
102
{ACAD_REACTORS
330
290A
102
}
330
290A
100
AcDbXrecord
 10
0.0
 20
0.0
 30
0.0
  0
XRECORD
  5
2921
102
{ACAD_REACTORS
330
290A
102
}
330
290A
100
AcDbXrecord
 10
0.0
 20
0.0
 30
0.0
  0
XRECORD
  5
2922
102
{ACAD_REACTORS
330
290A
102
}
330
290A
100
AcDbXrecord
340
0
  0
XRECORD
  5
2923
102
{ACAD_REACTORS
330
290A
102
}
330
290A
100
AcDbXrecord
 70
     0
  0
XRECORD
  5
2924
102
{ACAD_REACTORS
330
290A
102
}
330
290A
100
AcDbXrecord
340
0
  0
XRECORD
  5
2925
102
{ACAD_REACTORS
330
290A
102
}
330
290A
100
AcDbXrecord
 10
0.0
 20
0.0
 30
0.0
  0
XRECORD
  5
2926
102
{ACAD_REACTORS
330
290A
102
}
330
290A
100
AcDbXrecord
 10
0.0
 20
0.0
 30
0.0
  0
XRECORD
  5
2927
102
{ACAD_REACTORS
330
290A
102
}
330
290A
100
AcDbXrecord
 10
0.0
 20
0.0
 30
0.0
  0
XRECORD
  5
2928
102
{ACAD_REACTORS
330
290A
102
}
330
290A
100
AcDbXrecord
 10
0.0
 20
0.0
 30
0.0
  0
XRECORD
  5
2929
102
{ACAD_REACTORS
330
290A
102
}
330
290A
100
AcDbXrecord
 10
0.0
 20
0.0
 30
0.0
  0
XRECORD
  5
292A
102
{ACAD_REACTORS
330
290A
102
}
330
290A
100
AcDbXrecord
 10
0.0
 20
0.0
 30
0.0
  0
LAYER_INDEX
  5
2901
102
{ACAD_REACTORS
330
2900
102
}
330
2900
100
AcDbIndex
 40
2453151.691200428
100
AcDbLayerIndex
  8
0
360
2902
 90
        0
  8
AM_0
360
2903
 90
       52
  8
AM_7
360
2904
 90
        1
  8
AM_11
360
2905
 90
       27
  8
AM_5
360
2906
 90
        5
  8
Defpoints
360
2907
 90
        0
  8
AM_6
360
2908
 90
        1
  0
XRECORD
  5
2D
102
{ACAD_REACTORS
330
2C
102
}
330
2C
100
AcDbXrecord
  1
VERSION
140
15.0
  1
PRODUCT
  2
AutoCAD Mechanical 2000
  0
IDBUFFER
  5
2902
330
0
100
AcDbIdBuffer
  0
IDBUFFER
  5
2903
330
0
100
AcDbIdBuffer
330
28A8
330
28A9
330
28AA
330
28AB
330
C30
330
1CF0
330
1CF4
330
1CFE
330
1EB2
330
1EB5
330
1ED3
330
1FDE
330
1FDF
330
24A9
330
25D9
330
25DA
330
25DB
330
25DD
330
25DE
330
25F5
330
2881
330
2882
330
2883
330
2885
330
2886
330
2887
330
2888
330
2889
330
288A
330
288B
330
288C
330
288E
330
288F
330
2891
330
2893
330
2894
330
2895
330
2896
330
2897
330
2898
330
2899
330
289A
330
289B
330
289C
330
289D
330
289F
330
28A0
330
28A2
330
28A4
330
28A5
330
28A6
330
28A7
  0
IDBUFFER
  5
2904
330
0
100
AcDbIdBuffer
330
C9F
  0
IDBUFFER
  5
2905
330
0
100
AcDbIdBuffer
330
1ECC
330
1ECD
330
1ECE
330
1ECF
330
2884
330
288D
330
2890
330
2892
330
289E
330
28A1
330
28A3
330
144A
330
144B
330
144E
330
144F
330
1450
330
1451
330
1452
330
1453
330
1DAB
330
1DAC
330
1DAD
330
1DAE
330
1DAF
330
1DB0
330
1EBF
330
1EC0
  0
IDBUFFER
  5
2906
330
0
100
AcDbIdBuffer
330
CC6
330
DF5
330
218E
330
245D
330
2602
  0
IDBUFFER
  5
2907
330
0
100
AcDbIdBuffer
  0
IDBUFFER
  5
2908
330
0
100
AcDbIdBuffer
330
19BD
  0
ENDSEC
  0
EOF
