  0
SECTION
  2
HEADER
  9
$ACADVER
  1
AC1014
  9
$ACADMAINTVER
 70
     9
  9
$DWGCODEPAGE
  3
ANSI_932
  9
$INSBASE
 10
0.0
 20
0.0
 30
0.0
  9
$EXTMIN
 10
-94.02502198083162
 20
-26.25000100000001
 30
-0.00000001
  9
$EXTMAX
 10
15.46484148501989
 20
15.03482745971508
 30
0.00000001
  9
$LIMMIN
 10
-98.94168101531841
 20
-36.66226367413097
  9
$LIMMAX
 10
18.48376559323867
 20
25.04533903870165
  9
$ORTHOMODE
 70
     0
  9
$REGENMODE
 70
     1
  9
$FILLMODE
 70
     1
  9
$QTEXTMODE
 70
     0
  9
$MIRRTEXT
 70
     0
  9
$DRAGMODE
 70
     2
  9
$LTSCALE
 40
1.0
  9
$OSMODE
 70
    55
  9
$ATTMODE
 70
     1
  9
$TEXTSIZE
 40
2.5
  9
$TRACEWID
 40
1.0
  9
$TEXTSTYLE
  7
STANDARD
  9
$CLAYER
  8
AM_0
  9
$CELTYPE
  6
BYLAYER
  9
$CECOLOR
 62
   256
  9
$CELTSCALE
 40
1.0
  9
$DELOBJ
 70
     1
  9
$DISPSILH
 70
     0
  9
$DIMSCALE
 40
0.5
  9
$DIMASZ
 40
2.5
  9
$DIMEXO
 40
1.0
  9
$DIMDLI
 40
12.0
  9
$DIMRND
 40
0.0
  9
$DIMDLE
 40
0.0
  9
$DIMEXE
 40
1.0
  9
$DIMTP
 40
0.1
  9
$DIMTM
 40
0.1
  9
$DIMTXT
 40
3.2
  9
$DIMCEN
 40
0.0
  9
$DIMTSZ
 40
0.0
  9
$DIMTOL
 70
     0
  9
$DIMLIM
 70
     0
  9
$DIMTIH
 70
     0
  9
$DIMTOH
 70
     0
  9
$DIMSE1
 70
     0
  9
$DIMSE2
 70
     0
  9
$DIMTAD
 70
     3
  9
$DIMZIN
 70
     8
  9
$DIMBLK
  1
OPEN30
  9
$DIMASO
 70
     1
  9
$DIMSHO
 70
     1
  9
$DIMPOST
  1

  9
$DIMAPOST
  1
"
  9
$DIMALT
 70
     0
  9
$DIMALTD
 70
     2
  9
$DIMALTF
 40
0.0393701
  9
$DIMLFAC
 40
1.0
  9
$DIMTOFL
 70
     1
  9
$DIMTVP
 40
0.0
  9
$DIMTIX
 70
     0
  9
$DIMSOXD
 70
     0
  9
$DIMSAH
 70
     0
  9
$DIMBLK1
  1

  9
$DIMBLK2
  1

  9
$DIMSTYLE
  2
AM_JIS
  9
$DIMCLRD
 70
   256
  9
$DIMCLRE
 70
   256
  9
$DIMCLRT
 70
     2
  9
$DIMTFAC
 40
0.71
  9
$DIMGAP
 40
1.5
  9
$DIMJUST
 70
     0
  9
$DIMSD1
 70
     0
  9
$DIMSD2
 70
     0
  9
$DIMTOLJ
 70
     0
  9
$DIMTZIN
 70
     0
  9
$DIMALTZ
 70
     0
  9
$DIMALTTZ
 70
     0
  9
$DIMFIT
 70
     3
  9
$DIMUPT
 70
     0
  9
$DIMUNIT
 70
     2
  9
$DIMDEC
 70
     3
  9
$DIMTDEC
 70
     3
  9
$DIMALTU
 70
     2
  9
$DIMALTTD
 70
     2
  9
$DIMTXSTY
  7
ASAMI
  9
$DIMAUNIT
 70
     0
  9
$LUNITS
 70
     2
  9
$LUPREC
 70
     2
  9
$SKETCHINC
 40
1.0
  9
$FILLETRAD
 40
2.5
  9
$AUNITS
 70
     0
  9
$AUPREC
 70
     0
  9
$MENU
  1
.
  9
$ELEVATION
 40
0.0
  9
$PELEVATION
 40
0.0
  9
$THICKNESS
 40
0.0
  9
$LIMCHECK
 70
     0
  9
$BLIPMODE
 70
     0
  9
$CHAMFERA
 40
0.25
  9
$CHAMFERB
 40
0.25
  9
$CHAMFERC
 40
20.0
  9
$CHAMFERD
 40
0.0
  9
$SKPOLY
 70
     0
  9
$TDCREATE
 40
2452800.443498622
  9
$TDUPDATE
 40
2453151.578993946
  9
$TDINDWG
 40
0.0778739931
  9
$TDUSRTIMER
 40
0.0778739931
  9
$USRTIMER
 70
     1
  9
$ANGBASE
 50
0.0
  9
$ANGDIR
 70
     0
  9
$PDMODE
 70
     3
  9
$PDSIZE
 40
0.0
  9
$PLINEWID
 40
0.0
  9
$COORDS
 70
     1
  9
$SPLFRAME
 70
     0
  9
$SPLINETYPE
 70
     6
  9
$SPLINESEGS
 70
     8
  9
$ATTDIA
 70
     1
  9
$ATTREQ
 70
     1
  9
$HANDLING
 70
 12289
  9
$HANDSEED
  5
2BDE
  9
$SURFTAB1
 70
     6
  9
$SURFTAB2
 70
     6
  9
$SURFTYPE
 70
     6
  9
$SURFU
 70
     6
  9
$SURFV
 70
     6
  9
$UCSNAME
  2

  9
$UCSORG
 10
0.0
 20
0.0
 30
0.0
  9
$UCSXDIR
 10
1.0
 20
0.000000000000002
 30
0.0
  9
$UCSYDIR
 10
-0.000000000000002
 20
1.0
 30
0.0
  9
$PUCSNAME
  2

  9
$PUCSORG
 10
0.0
 20
0.0
 30
0.0
  9
$PUCSXDIR
 10
1.0
 20
0.0
 30
0.0
  9
$PUCSYDIR
 10
0.0
 20
1.0
 30
0.0
  9
$USERI1
 70
     0
  9
$USERI2
 70
     0
  9
$USERI3
 70
     0
  9
$USERI4
 70
     0
  9
$USERI5
 70
     0
  9
$USERR1
 40
0.0
  9
$USERR2
 40
0.0
  9
$USERR3
 40
0.0
  9
$USERR4
 40
0.0
  9
$USERR5
 40
0.0
  9
$WORLDVIEW
 70
     1
  9
$SHADEDGE
 70
     3
  9
$SHADEDIF
 70
    70
  9
$TILEMODE
 70
     1
  9
$MAXACTVP
 70
    64
  9
$PINSBASE
 10
0.0
 20
0.0
 30
0.0
  9
$PLIMCHECK
 70
     0
  9
$PEXTMIN
 10
1.000000000000000E+20
 20
1.000000000000000E+20
 30
1.000000000000000E+20
  9
$PEXTMAX
 10
-1.000000000000000E+20
 20
-1.000000000000000E+20
 30
-1.000000000000000E+20
  9
$PLIMMIN
 10
0.0
 20
0.0
  9
$PLIMMAX
 10
841.0
 20
594.0
  9
$UNITMODE
 70
     0
  9
$VISRETAIN
 70
     1
  9
$PLINEGEN
 70
     0
  9
$PSLTSCALE
 70
     0
  9
$TREEDEPTH
 70
  3020
  9
$PICKSTYLE
 70
     0
  9
$CMLSTYLE
  2
STANDARD
  9
$CMLJUST
 70
     0
  9
$CMLSCALE
 40
20.0
  9
$PROXYGRAPHICS
 70
     1
  9
$MEASUREMENT
 70
     1
  0
ENDSEC
  0
SECTION
  2
CLASSES
  0
CLASS
  1
ACDBDICTIONARYWDFLT
  2
AcDbDictionaryWithDefault
  3
AutoCAD 2000
 90
        0
280
     0
281
     0
  0
CLASS
  1
ACDBPLACEHOLDER
  2
AcDbPlaceHolder
  3
AutoCAD 2000
 90
        0
280
     0
281
     0
  0
CLASS
  1
LAYOUT
  2
AcDbLayout
  3
AutoCAD 2000
 90
        0
280
     0
281
     0
  0
CLASS
  1
AMGSETTINGSOBJ
  2
AmgSettingsObj
  3
"AcadM|Product Description: AutoCAD Mechanical 2000|Company: Autodesk"
 90
        0
280
     0
281
     0
  0
CLASS
  1
ACME_DOCUMENT
  2
AcMeDbDoc
  3
AcMeServices
 90
        0
280
     0
281
     0
  0
CLASS
  1
ACMESCOPE
  2
AcMeScope
  3
AcMeServices
 90
        0
280
     0
281
     0
  0
CLASS
  1
ACMECOMMANDHISTORY
  2
AcMeCommandHistory
  3
AcMeServices
 90
        0
280
     0
281
     0
  0
CLASS
  1
DICTIONARYVAR
  2
AcDbDictionaryVar
  3
AutoCAD 2000
 90
        0
280
     0
281
     0
  0
CLASS
  1
ACIMSYSVARMAN
  2
AcImSysVarManager
  3
AcMeServices
 90
        0
280
     0
281
     0
  0
CLASS
  1
ACIMREALSYSVAR
  2
AcImRealSysVar
  3
AcMeServices
 90
        0
280
     0
281
     0
  0
CLASS
  1
ACIMINTSYSVAR
  2
AcImIntSysVar
  3
AcMeServices
 90
        0
280
     0
281
     0
  0
CLASS
  1
ACMEDRAWINGMAN
  2
AcMeDrawingMan
  3
AcMeServices
 90
        0
280
     0
281
     0
  0
CLASS
  1
ACMEVIEW
  2
AcMeView
  3
AcMeServices
 90
        0
280
     0
281
     0
  0
CLASS
  1
ACDBENTITYCACHE
  2
AcMeEntityCache
  3
AcMeServices
 90
        0
280
     0
281
     0
  0
CLASS
  1
GSMANAGER
  2
AcMeGSManager
  3
AcMeServices
 90
        0
280
     0
281
     0
  0
CLASS
  1
AmdtInternalReactor
  2
AmdtInternalReactor
  3
AcMeServices
 90
        0
280
     0
281
     0
  0
CLASS
  1
ACMESTATEMGR
  2
AcMeStateMgr
  3
AcMeServices
 90
        0
280
     0
281
     0
  0
CLASS
  1
ACME_DATABASE
  2
AcMeDbDatabase
  3
AcMeServices
 90
        0
280
     0
281
     0
  0
CLASS
  1
ACRFINSADJUSTERMGR
  2
AcRfInsAdjusterMgr
  3
AcMeServices
 90
        0
280
     0
281
     0
  0
CLASS
  1
ACMDATADICTIONARY
  2
AcmDataDictionary
  3
"AcmSymBB|Product Description: AutoCAD Mechanical 2000|Company: Autodesk"
 90
        0
280
     0
281
     0
  0
CLASS
  1
ACMDATAENTRYBLOCK
  2
AcmDataEntryBlock
  3
"AcmSymBB|Product Description: AutoCAD Mechanical 2000|Company: Autodesk"
 90
        0
280
     0
281
     0
  0
CLASS
  1
AMGOBJPROPCFG
  2
AmgObjPropCfg
  3
"AmgLay|Product Description: AutoCAD Mechanical 2000|Company: Autodesk"
 90
        1
280
     0
281
     0
  0
CLASS
  1
ACAMGFILTERDAT
  2
AcAmgFilterDat
  3
"AcadM|Product Description: AutoCAD Mechanical 2000|Company: Autodesk"
 90
        0
280
     0
281
     0
  0
CLASS
  1
LAYER_INDEX
  2
AcDbLayerIndex
  3
AutoCAD 2000
 90
        0
280
     0
281
     0
  0
CLASS
  1
IDBUFFER
  2
AcDbIdBuffer
  3
AutoCAD 2000
 90
        0
280
     0
281
     0
  0
CLASS
  1
ACIMSTRSYSVAR
  2
AcImStrSysVar
  3
AcMeServices
 90
        0
280
     0
281
     0
  0
CLASS
  1
ACMSTANDARDJIS
  2
AcmStandardJIS
  3
"AcmSymBB|Product Description: AutoCAD Mechanical 2000|Company: Autodesk"
 90
        0
280
     0
281
     0
  0
CLASS
  1
ACMSURFSTANDARDJIS
  2
AcmSurfTextStdJIS
  3
"AcmSymBB|Product Description: AutoCAD Mechanical 2000|Company: Autodesk"
 90
        0
280
     0
281
     0
  0
CLASS
  1
ACMFCFSTANDARDJIS
  2
AcmFCFStdJIS
  3
"AcmSymBB|Product Description: AutoCAD Mechanical 2000|Company: Autodesk"
 90
        0
280
     0
281
     0
  0
CLASS
  1
ACMWELDSTANDARDJIS
  2
AcmWeldingStdJIS
  3
"AcmSymBB|Product Description: AutoCAD Mechanical 2000|Company: Autodesk"
 90
        0
280
     0
281
     0
  0
CLASS
  1
ACMIDSTANDARDJIS
  2
AcmIdStdJIS
  3
"AcmSymBB|Product Description: AutoCAD Mechanical 2000|Company: Autodesk"
 90
        0
280
     0
281
     0
  0
CLASS
  1
ACMDATUMSTANDARDJIS
  2
AcmDatumStdJIS
  3
"AcmSymBB|Product Description: AutoCAD Mechanical 2000|Company: Autodesk"
 90
        0
280
     0
281
     0
  0
CLASS
  1
ACMBOMSTANDARDJIS
  2
AcmBOMStdJIS
  3
"AcmSymBB|Product Description: AutoCAD Mechanical 2000|Company: Autodesk"
 90
        0
280
     0
281
     0
  0
CLASS
  1
ACMSTANDARDANSI
  2
AcmStandardANSI
  3
"AcmSymBB|Product Description: AutoCAD Mechanical 2000|Company: Autodesk"
 90
        0
280
     0
281
     0
  0
CLASS
  1
ACMSURFSTANDARDANSI
  2
AcmSurfTextStdANSI
  3
"AcmSymBB|Product Description: AutoCAD Mechanical 2000|Company: Autodesk"
 90
        0
280
     0
281
     0
  0
CLASS
  1
ACMFCFSTANDARDANSI
  2
AcmFCFStdANSI
  3
"AcmSymBB|Product Description: AutoCAD Mechanical 2000|Company: Autodesk"
 90
        0
280
     0
281
     0
  0
CLASS
  1
ACMWELDSTANDARDANSI
  2
AcmWeldingStdANSI
  3
"AcmSymBB|Product Description: AutoCAD Mechanical 2000|Company: Autodesk"
 90
        0
280
     0
281
     0
  0
CLASS
  1
ACMIDSTANDARDANSI
  2
AcmIdStdANSI
  3
"AcmSymBB|Product Description: AutoCAD Mechanical 2000|Company: Autodesk"
 90
        0
280
     0
281
     0
  0
CLASS
  1
ACMDATUMSTANDARDANSI
  2
AcmDatumStdANSI
  3
"AcmSymBB|Product Description: AutoCAD Mechanical 2000|Company: Autodesk"
 90
        0
280
     0
281
     0
  0
CLASS
  1
ACMBOMSTANDARDANSI
  2
AcmBOMStdANSI
  3
"AcmSymBB|Product Description: AutoCAD Mechanical 2000|Company: Autodesk"
 90
        0
280
     0
281
     0
  0
CLASS
  1
ACMSTANDARDBSI
  2
AcmStandardBSI
  3
"AcmSymBB|Product Description: AutoCAD Mechanical 2000|Company: Autodesk"
 90
        0
280
     0
281
     0
  0
CLASS
  1
ACMSURFSTANDARDBSI
  2
AcmSurfTextStdBSI
  3
"AcmSymBB|Product Description: AutoCAD Mechanical 2000|Company: Autodesk"
 90
        0
280
     0
281
     0
  0
CLASS
  1
ACMFCFSTANDARDBSI
  2
AcmFCFStdBSI
  3
"AcmSymBB|Product Description: AutoCAD Mechanical 2000|Company: Autodesk"
 90
        0
280
     0
281
     0
  0
CLASS
  1
ACMWELDSTANDARDBSI
  2
AcmWeldingStdBSI
  3
"AcmSymBB|Product Description: AutoCAD Mechanical 2000|Company: Autodesk"
 90
        0
280
     0
281
     0
  0
CLASS
  1
ACMIDSTANDARDBSI
  2
AcmIdStdBSI
  3
"AcmSymBB|Product Description: AutoCAD Mechanical 2000|Company: Autodesk"
 90
        0
280
     0
281
     0
  0
CLASS
  1
ACMDATUMSTANDARDBSI
  2
AcmDatumStdBSI
  3
"AcmSymBB|Product Description: AutoCAD Mechanical 2000|Company: Autodesk"
 90
        0
280
     0
281
     0
  0
CLASS
  1
ACMBOMSTANDARDBSI
  2
AcmBOMStdBSI
  3
"AcmSymBB|Product Description: AutoCAD Mechanical 2000|Company: Autodesk"
 90
        0
280
     0
281
     0
  0
CLASS
  1
LONG_TRANSACTION
  2
AcDbLongTransaction
  3
AutoCAD 2000
 90
        0
280
     0
281
     0
  0
CLASS
  1
LWPOLYLINE
  2
AcDbPolyline
  3
AutoCAD 2000
 90
        0
280
     0
281
     1
  0
CLASS
  1
HATCH
  2
AcDbHatch
  3
AutoCAD 2000
 90
        0
280
     0
281
     1
  0
CLASS
  1
XRECORD
  2
AcDbXrecord
  3
AutoCAD 2000
 90
        0
280
     0
281
     0
  0
ENDSEC
  0
SECTION
  2
TABLES
  0
TABLE
  2
VPORT
  5
8
330
0
100
AcDbSymbolTable
 70
     3
  0
VPORT
  5
2BB3
330
8
100
AcDbSymbolTableRecord
100
AcDbViewportTableRecord
  2
*ACTIVE
 70
     0
 10
0.0
 20
0.0
 11
1.0
 21
1.0
 12
-37.23183948417358
 22
-5.606021765735022
 13
0.0
 23
0.0
 14
2.5
 24
2.5
 15
10.0
 25
10.0
 16
0.0
 26
0.0
 36
1.0
 17
0.0
 27
0.0
 37
0.0
 40
72.89654304563047
 41
1.56570841889117
 42
50.0
 43
0.0
 44
0.0
 50
0.0
 51
0.0
 71
     0
 72
   100
 73
     1
 74
     1
 75
     0
 76
     0
 77
     0
 78
     0
  0
ENDTAB
  0
TABLE
  2
LTYPE
  5
5
330
0
100
AcDbSymbolTable
 70
    10
  0
LTYPE
  5
14
330
5
100
AcDbSymbolTableRecord
100
AcDbLinetypeTableRecord
  2
BYBLOCK
 70
     0
  3

 72
    65
 73
     0
 40
0.0
  0
LTYPE
  5
15
330
5
100
AcDbSymbolTableRecord
100
AcDbLinetypeTableRecord
  2
BYLAYER
 70
     0
  3

 72
    65
 73
     0
 40
0.0
  0
LTYPE
  5
16
330
5
100
AcDbSymbolTableRecord
100
AcDbLinetypeTableRecord
  2
CONTINUOUS
 70
     0
  3
Solid line
 72
    65
 73
     0
 40
0.0
  0
LTYPE
  5
4B
330
5
100
AcDbSymbolTableRecord
100
AcDbLinetypeTableRecord
  2
AM_ISO02W050
 70
     0
  3
__ __ __ __ __ __ __ __ __ __ __ __ __ __ __
 72
    65
 73
     2
 40
7.5
 49
6.0
 74
     0
 49
-1.5
 74
     0
  0
LTYPE
  5
4C
330
5
100
AcDbSymbolTableRecord
100
AcDbLinetypeTableRecord
  2
AM_ISO08W050
 70
     0
  3
____ . ____ . ____ . ____ . ____ . ____ . ____
 72
    65
 73
     4
 40
18.0
 49
12.0
 74
     0
 49
-1.5
 74
     0
 49
3.0
 74
     0
 49
-1.5
 74
     0
  0
LTYPE
  5
4D
330
5
100
AcDbSymbolTableRecord
100
AcDbLinetypeTableRecord
  2
AM_ISO09W050
 70
     0
  3
_____ . . _____ . . _____ . . ____ .. ____
 72
    65
 73
     6
 40
22.5
 49
12.0
 74
     0
 49
-1.5
 74
     0
 49
3.0
 74
     0
 49
-1.5
 74
     0
 49
3.0
 74
     0
 49
-1.5
 74
     0
  0
LTYPE
  5
4E
330
5
100
AcDbSymbolTableRecord
100
AcDbLinetypeTableRecord
  2
AMCONSTR
 70
     0
  3
_______________________
 72
    65
 73
     2
 40
9999.0
 49
9999.0
 74
     0
 49
0.0
 74
     0
  0
LTYPE
  5
4F
330
5
100
AcDbSymbolTableRecord
100
AcDbLinetypeTableRecord
  2
AM_ISO02W050X2
 70
     0
  3
 _ _ _ _ _ _ _ _ _ _ _ _
 72
    65
 73
     2
 40
3.75
 49
3.0
 74
     0
 49
-0.75
 74
     0
  0
LTYPE
  5
50
330
5
100
AcDbSymbolTableRecord
100
AcDbLinetypeTableRecord
  2
AM_ISO08W050X2
 70
     0
  3
__ . __ . __ . __ . __ . __
 72
    65
 73
     4
 40
9.0
 49
6.0
 74
     0
 49
-0.75
 74
     0
 49
1.5
 74
     0
 49
-0.75
 74
     0
  0
LTYPE
  5
53
330
5
100
AcDbSymbolTableRecord
100
AcDbLinetypeTableRecord
  2
AMZIGZAG
 70
     0
  3
/\/-/\/-/\/-/\/-/\/-/\/
 72
    65
 73
     2
 40
11.00009999999999
 49
0.0001
 74
     4
 75
   135
340
52
 46
0.04
 50
0.0
 44
0.0
 45
0.0
 49
-11.0
 74
     0
  0
LTYPE
  5
166
330
5
100
AcDbSymbolTableRecord
100
AcDbLinetypeTableRecord
  2
ACJISTGL
 70
     0
  3
_ _ _ _ _
 72
    65
 73
     2
 40
3.0
 49
2.0
 74
     0
 49
-1.0
 74
     0
  0
LTYPE
  5
26A
330
5
100
AcDbSymbolTableRecord
100
AcDbLinetypeTableRecord
  2
ACJISTGB
 70
     0
  3
__ . . __ . .
 72
    65
 73
     6
 40
9.0
 49
4.0
 74
     0
 49
-1.0
 74
     0
 49
1.0
 74
     0
 49
-1.0
 74
     0
 49
1.0
 74
     0
 49
-1.0
 74
     0
  0
ENDTAB
  0
TABLE
  2
LAYER
  5
2
330
0
100
AcDbSymbolTable
 70
     7
  0
LAYER
  5
10
330
2
100
AcDbSymbolTableRecord
100
AcDbLayerTableRecord
  2
0
 70
     0
 62
     7
  6
CONTINUOUS
  0
LAYER
  5
3F9
330
2
100
AcDbSymbolTableRecord
100
AcDbLayerTableRecord
  2
AM_0
 70
     0
 62
     7
  6
CONTINUOUS
  0
LAYER
  5
C7C
330
2
100
AcDbSymbolTableRecord
100
AcDbLayerTableRecord
  2
AM_7
 70
     0
 62
     4
  6
AM_ISO08W050
  0
LAYER
  5
C97
330
2
100
AcDbSymbolTableRecord
100
AcDbLayerTableRecord
  2
AM_11
 70
     0
 62
     3
  6
AM_ISO09W050
  0
LAYER
  5
CC5
330
2
100
AcDbSymbolTableRecord
100
AcDbLayerTableRecord
  2
AM_5
 70
     0
 62
     3
  6
CONTINUOUS
  0
LAYER
  5
CC7
330
2
100
AcDbSymbolTableRecord
100
AcDbLayerTableRecord
  2
DEFPOINTS
 70
     0
 62
     7
  6
CONTINUOUS
  0
LAYER
  5
19BC
330
2
100
AcDbSymbolTableRecord
100
AcDbLayerTableRecord
  2
AM_6
 70
     0
 62
     2
  6
CONTINUOUS
  0
ENDTAB
  0
TABLE
  2
STYLE
  5
3
330
0
100
AcDbSymbolTable
 70
     5
  0
STYLE
  5
11
330
3
100
AcDbSymbolTableRecord
100
AcDbTextStyleTableRecord
  2
STANDARD
 70
     0
 40
0.0
 41
1.0
 50
0.0
 71
     0
 42
2.5
  3
simplex.shx
  4
EXTFONT.SHX
  0
STYLE
  5
52
330
3
100
AcDbSymbolTableRecord
100
AcDbTextStyleTableRecord
  2

 70
     1
 40
0.0
 41
1.0
 50
0.0
 71
     0
 42
2.5
  3
ltypeshp.shx
  4

  0
STYLE
  5
6B
330
3
100
AcDbSymbolTableRecord
100
AcDbTextStyleTableRecord
  2
ASAMI
 70
     0
 40
0.0
 41
1.0
 50
0.0
 71
     0
 42
2.5
  3
simplex.shx
  4
EXTFONT.SHX
  0
STYLE
  5
262
330
3
100
AcDbSymbolTableRecord
100
AcDbTextStyleTableRecord
  2
ACJISTS
 70
     0
 40
1.0
 41
1.0
 50
0.0
 71
     0
 42
2.5
  3
simplex.shx
  4
bigfont.shx
  0
STYLE
  5
269
330
3
100
AcDbSymbolTableRecord
100
AcDbTextStyleTableRecord
  2
ACJISGDT
 70
     0
 40
0.0
 41
1.0
 50
0.0
 71
     0
 42
2.5
  3
amgdtans.shx
  4

  0
ENDTAB
  0
TABLE
  2
VIEW
  5
6
330
0
100
AcDbSymbolTable
 70
     0
  0
ENDTAB
  0
TABLE
  2
UCS
  5
7
330
0
100
AcDbSymbolTable
 70
     0
  0
ENDTAB
  0
TABLE
  2
APPID
  5
9
330
0
100
AcDbSymbolTable
 70
    16
  0
APPID
  5
12
330
9
100
AcDbSymbolTableRecord
100
AcDbRegAppTableRecord
  2
ACAD
 70
     0
  0
APPID
  5
30
330
9
100
AcDbSymbolTableRecord
100
AcDbRegAppTableRecord
  2
MCAD_NO_VIS
 70
     0
  0
APPID
  5
31
330
9
100
AcDbSymbolTableRecord
100
AcDbRegAppTableRecord
  2
ACAD_TEMP_GRAPHIC
 70
     0
  0
APPID
  5
2C2
330
9
100
AcDbSymbolTableRecord
100
AcDbRegAppTableRecord
  2
GENIUS_GENDTOL_13
 70
     0
  0
APPID
  5
339
330
9
100
AcDbSymbolTableRecord
100
AcDbRegAppTableRecord
  2
GENIUS_GENODEF_13
 70
     0
  0
APPID
  5
33A
330
9
100
AcDbSymbolTableRecord
100
AcDbRegAppTableRecord
  2
GENIUS_GENOBJ-N-RSBK_13
 70
     0
  0
APPID
  5
33B
330
9
100
AcDbSymbolTableRecord
100
AcDbRegAppTableRecord
  2
GENIUS_GENOBJ-N-LIB_13
 70
     0
  0
APPID
  5
33C
330
9
100
AcDbSymbolTableRecord
100
AcDbRegAppTableRecord
  2
GENIUS_GENSCALE_13
 70
     0
  0
APPID
  5
378
330
9
100
AcDbSymbolTableRecord
100
AcDbRegAppTableRecord
  2
GENIUS_GENDIMSH_14
 70
     0
  0
APPID
  5
C82
330
9
100
AcDbSymbolTableRecord
100
AcDbRegAppTableRecord
  2
GENIUS_GENOBJ-N-CRS_13
 70
     0
  0
APPID
  5
C83
330
9
100
AcDbSymbolTableRecord
100
AcDbRegAppTableRecord
  2
GENIUS_GENOENT_13
 70
     0
  0
APPID
  5
C84
330
9
100
AcDbSymbolTableRecord
100
AcDbRegAppTableRecord
  2
GENIUS_GENOREF_13
 70
     0
  0
APPID
  5
C85
330
9
100
AcDbSymbolTableRecord
100
AcDbRegAppTableRecord
  2
GENIUS_GENOLIS_13
 70
     0
  0
APPID
  5
CA0
330
9
100
AcDbSymbolTableRecord
100
AcDbRegAppTableRecord
  2
GENIUS_GENOBJ-N-CEN_13
 70
     0
  0
APPID
  5
1CFA
330
9
100
AcDbSymbolTableRecord
100
AcDbRegAppTableRecord
  2
GENIUS_GENFIL_13
 70
     0
  0
APPID
  5
1CFB
330
9
100
AcDbSymbolTableRecord
100
AcDbRegAppTableRecord
  2
GENIUS_GENOBJ-N-CHA_13
 70
     0
  0
ENDTAB
  0
TABLE
  2
DIMSTYLE
  5
A
330
0
100
AcDbSymbolTable
 70
     9
  0
DIMSTYLE
105
58
330
A
100
AcDbSymbolTableRecord
100
AcDbDimStyleTableRecord
  2
AM_JIS
 70
     0
  3

  4
"
  5
OPEN30
  6

  7

 40
0.5
 41
2.5
 42
1.0
 43
12.0
 44
1.0
 45
0.0
 46
0.0
 47
0.1
 48
0.1
140
3.2
141
0.0
142
0.0
143
0.0393701
144
1.0
145
0.0
146
0.71
147
1.5
 71
     0
 72
     0
 73
     0
 74
     0
 75
     0
 76
     0
 77
     3
 78
     8
170
     0
171
     2
172
     1
173
     0
174
     0
175
     0
176
   256
177
   256
178
     2
270
     2
271
     3
272
     3
273
     2
274
     2
340
6B
275
     0
280
     0
281
     0
282
     0
283
     0
284
     0
285
     0
286
     0
287
     3
288
     0
  0
DIMSTYLE
105
5F
330
A
100
AcDbSymbolTableRecord
100
AcDbDimStyleTableRecord
  2
AM_JIS$3
 70
     0
  3

  4
"
  5
OPEN30
  6

  7

 40
0.5
 41
2.5
 42
1.0
 43
10.0
 44
1.0
 45
0.0
 46
0.0
 47
0.1
 48
0.1
140
3.2
141
0.0
142
0.0
143
0.0393701
144
1.0
145
0.0
146
0.71
147
1.5
 71
     0
 72
     0
 73
     0
 74
     1
 75
     0
 76
     0
 77
     3
 78
     8
170
     0
171
     2
172
     0
173
     0
174
     0
175
     0
176
   256
177
   256
178
     2
270
     2
271
     2
272
     3
273
     2
274
     2
340
6B
275
     0
280
     0
281
     0
282
     0
283
     0
284
     0
285
     0
286
     0
287
     0
288
     1
  0
DIMSTYLE
105
60
330
A
100
AcDbSymbolTableRecord
100
AcDbDimStyleTableRecord
  2
AM_JIS$4
 70
     0
  3

  4
"
  5
OPEN30
  6

  7

 40
0.5
 41
2.5
 42
1.0
 43
10.0
 44
1.0
 45
0.0
 46
0.0
 47
0.1
 48
0.1
140
3.2
141
0.0
142
0.0
143
0.0393701
144
1.0
145
0.0
146
0.71
147
1.5
 71
     0
 72
     0
 73
     0
 74
     1
 75
     0
 76
     0
 77
     3
 78
     8
170
     0
171
     2
172
     0
173
     0
174
     0
175
     0
176
   256
177
   256
178
     2
270
     2
271
     2
272
     3
273
     2
274
     2
340
6B
275
     0
280
     0
281
     0
282
     0
283
     0
284
     0
285
     0
286
     0
287
     0
288
     1
  0
DIMSTYLE
105
61
330
A
100
AcDbSymbolTableRecord
100
AcDbDimStyleTableRecord
  2
AM_JIS$6
 70
     0
  3

  4
"
  5
OPEN30
  6

  7

 40
0.5
 41
2.5
 42
1.0
 43
10.0
 44
1.0
 45
0.0
 46
0.0
 47
0.1
 48
0.1
140
3.2
141
0.0
142
0.0
143
0.0393701
144
1.0
145
0.0
146
0.71
147
1.5
 71
     0
 72
     0
 73
     0
 74
     0
 75
     0
 76
     0
 77
     0
 78
     8
170
     0
171
     2
172
     1
173
     0
174
     0
175
     0
176
   256
177
   256
178
     2
270
     2
271
     2
272
     2
273
     2
274
     2
340
6B
275
     0
280
     0
281
     0
282
     0
283
     0
284
     0
285
     0
286
     0
287
     3
288
     0
  0
DIMSTYLE
105
62
330
A
100
AcDbSymbolTableRecord
100
AcDbDimStyleTableRecord
  2
AM_JIS$7
 70
     0
  3

  4
"
  5
OPEN30
  6

  7

 40
0.5
 41
2.5
 42
1.0
 43
10.0
 44
1.0
 45
0.0
 46
0.0
 47
0.1
 48
0.1
140
3.2
141
0.0
142
0.0
143
0.0393701
144
1.0
145
0.0
146
0.71
147
1.5
 71
     0
 72
     0
 73
     0
 74
     0
 75
     0
 76
     0
 77
     3
 78
     8
170
     0
171
     2
172
     1
173
     0
174
     0
175
     0
176
   256
177
   256
178
     2
270
     2
271
     2
272
     3
273
     2
274
     2
340
6B
275
     0
280
     0
281
     0
282
     0
283
     0
284
     0
285
     0
286
     0
287
     3
288
     0
  0
DIMSTYLE
105
63
330
A
100
AcDbSymbolTableRecord
100
AcDbDimStyleTableRecord
  2
AM_JIS$SF
 70
     0
  3

  4
"
  5
OPEN30
  6

  7

 40
0.5
 41
2.5
 42
1.0
 43
10.0
 44
1.0
 45
0.0
 46
0.0
 47
0.1
 48
0.1
140
3.2
141
0.0
142
0.0
143
0.0393701
144
1.0
145
0.0
146
0.71
147
1.5
 71
     0
 72
     0
 73
     0
 74
     0
 75
     1
 76
     1
 77
     3
 78
     8
170
     0
171
     2
172
     1
173
     0
174
     0
175
     0
176
   256
177
   256
178
     2
270
     2
271
     2
272
     2
273
     2
274
     2
340
6B
275
     0
280
     0
281
     0
282
     0
283
     0
284
     0
285
     0
286
     0
287
     3
288
     0
  0
DIMSTYLE
105
68
330
A
100
AcDbSymbolTableRecord
100
AcDbDimStyleTableRecord
  2
AM_JIS$SH
 70
     0
  3

  4
"
  5

  6
GENAXEH
  7
OPEN30
 40
0.5
 41
2.5
 42
1.0
 43
10.0
 44
1.0
 45
0.0
 46
0.0
 47
0.1
 48
0.1
140
3.2
141
0.0
142
0.0
143
0.0393701
144
2.0
145
0.0
146
0.71
147
1.5
 71
     0
 72
     0
 73
     0
 74
     0
 75
     1
 76
     1
 77
     3
 78
     8
170
     0
171
     2
172
     1
173
     1
174
     0
175
     0
176
   256
177
   256
178
     2
270
     2
271
     2
272
     2
273
     2
274
     2
340
6B
275
     0
280
     0
281
     0
282
     0
283
     0
284
     0
285
     0
286
     0
287
     3
288
     0
  0
DIMSTYLE
105
B34
102
{ACAD_REACTORS
330
299F
102
}
330
A
100
AcDbSymbolTableRecord
100
AcDbDimStyleTableRecord
  2
AM_JIS$2
 70
     0
  3

  4
"
  5
OPEN30
  6

  7

 40
0.5
 41
2.5
 42
1.0
 43
12.0
 44
1.0
 45
0.0
 46
0.0
 47
0.1
 48
0.1
140
3.2
141
0.0
142
0.0
143
0.0393701
144
1.0
145
0.0
146
0.71
147
1.5
 71
     0
 72
     0
 73
     0
 74
     0
 75
     0
 76
     0
 77
     3
 78
     8
170
     0
171
     2
172
     1
173
     0
174
     0
175
     0
176
   256
177
   256
178
     2
270
     2
271
     3
272
     3
273
     2
274
     2
340
6B
275
     0
280
     0
281
     0
282
     0
283
     0
284
     0
285
     0
286
     0
287
     3
288
     0
  0
DIMSTYLE
105
BA5
102
{ACAD_REACTORS
330
CC6
330
DF5
330
2424
330
254C
102
}
330
A
100
AcDbSymbolTableRecord
100
AcDbDimStyleTableRecord
  2
AM_JIS$0
 70
     0
  3

  4
"
  5
OPEN30
  6

  7

 40
0.5
 41
2.5
 42
0.0
 43
10.0
 44
1.0
 45
0.0
 46
0.0
 47
0.1
 48
0.1000000001
140
3.799999999999999
141
0.0
142
0.0
143
0.0393701
144
1.0
145
0.0
146
0.71
147
1.5
 71
     0
 72
     0
 73
     0
 74
     0
 75
     0
 76
     0
 77
     3
 78
     1
170
     0
171
     2
172
     1
173
     0
174
     0
175
     0
176
     3
177
     3
178
     2
270
     2
271
     2
272
     2
273
     2
274
     2
340
11
275
     1
280
     0
281
     0
282
     0
283
     0
284
     8
285
     0
286
     0
287
     0
288
     0
  0
ENDTAB
  0
TABLE
  2
BLOCK_RECORD
  5
1
330
0
100
AcDbSymbolTable
 70
    10
  0
BLOCK_RECORD
  5
1F
102
{ACAD_XDICTIONARY
360
74
102
}
330
1
100
AcDbSymbolTableRecord
100
AcDbBlockTableRecord
  2
*MODEL_SPACE
  0
BLOCK_RECORD
  5
101
102
{ACAD_XDICTIONARY
360
2BDC
102
}
330
1
100
AcDbSymbolTableRecord
100
AcDbBlockTableRecord
  2
*PAPER_SPACE
  0
BLOCK_RECORD
  5
59
330
1
100
AcDbSymbolTableRecord
100
AcDbBlockTableRecord
  2
_OPEN30
  0
BLOCK_RECORD
  5
64
330
1
100
AcDbSymbolTableRecord
100
AcDbBlockTableRecord
  2
GENAXEH
  0
BLOCK_RECORD
  5
CC8
330
1
100
AcDbSymbolTableRecord
100
AcDbBlockTableRecord
  2
*D5
  0
BLOCK_RECORD
  5
DF6
330
1
100
AcDbSymbolTableRecord
100
AcDbBlockTableRecord
  2
*D6
  0
BLOCK_RECORD
  5
2425
330
1
100
AcDbSymbolTableRecord
100
AcDbBlockTableRecord
  2
*D7
  0
BLOCK_RECORD
  5
254D
330
1
100
AcDbSymbolTableRecord
100
AcDbBlockTableRecord
  2
*D8
  0
BLOCK_RECORD
  5
29A0
330
1
100
AcDbSymbolTableRecord
100
AcDbBlockTableRecord
  2
*D9
  0
ENDTAB
  0
ENDSEC
  0
SECTION
  2
BLOCKS
  0
BLOCK
  5
20
330
1F
100
AcDbEntity
  8
0
100
AcDbBlockBegin
  2
*MODEL_SPACE
 70
     0
 10
0.0
 20
0.0
 30
0.0
  3
*MODEL_SPACE
  1

  0
ENDBLK
  5
21
330
1F
100
AcDbEntity
  8
0
100
AcDbBlockEnd
  0
BLOCK
  5
103
330
101
100
AcDbEntity
 67
     1
  8
0
100
AcDbBlockBegin
  2
*PAPER_SPACE
 70
     0
 10
0.0
 20
0.0
 30
0.0
  3
*PAPER_SPACE
  1

  0
ENDBLK
  5
104
330
101
100
AcDbEntity
 67
     1
  8
0
100
AcDbBlockEnd
  0
BLOCK
  5
5D
330
59
100
AcDbEntity
  8
0
100
AcDbBlockBegin
  2
_OPEN30
 70
     0
 10
0.0
 20
0.0
 30
0.0
  3
_OPEN30
  1

  0
LINE
  5
5A
330
59
100
AcDbEntity
  8
0
 62
     0
100
AcDbLine
 10
-1.0
 20
0.26794919
 30
0.0
 11
0.0
 21
0.0
 31
0.0
  0
LINE
  5
5B
330
59
100
AcDbEntity
  8
0
 62
     0
100
AcDbLine
 10
0.0
 20
0.0
 30
0.0
 11
-1.0
 21
-0.26794919
 31
0.0
  0
LINE
  5
5C
330
59
100
AcDbEntity
  8
0
 62
     0
100
AcDbLine
 10
0.0
 20
0.0
 30
0.0
 11
-1.0
 21
0.0
 31
0.0
  0
ENDBLK
  5
5E
330
59
100
AcDbEntity
  8
0
100
AcDbBlockEnd
  0
BLOCK
  5
66
330
64
100
AcDbEntity
  8
0
100
AcDbBlockBegin
  2
GENAXEH
 70
     0
 10
0.0
 20
0.0
 30
0.0
  3
GENAXEH
  1

  0
LINE
  5
65
330
64
100
AcDbEntity
  8
0
100
AcDbLine
 10
-1.0
 20
0.0
 30
0.0
 11
1.0
 21
0.0
 31
0.0
  0
ENDBLK
  5
67
330
64
100
AcDbEntity
  8
0
100
AcDbBlockEnd
  0
BLOCK
  5
CD2
330
CC8
100
AcDbEntity
  8
0
100
AcDbBlockBegin
  2
*D5
 70
     1
 10
0.0
 20
0.0
 30
0.0
  3
*D5
  1

  0
LINE
  5
2B5F
330
CC8
100
AcDbEntity
  8
AM_5
 62
     3
100
AcDbLine
 10
-82.99999999999995
 20
-2.750000000000154
 30
0.0
 11
-82.99999999999995
 21
-15.50000099999997
 31
0.0
  0
LINE
  5
2B60
330
CC8
100
AcDbEntity
  8
AM_5
 62
     3
100
AcDbLine
 10
-0.9999999999999365
 20
-2.549999859141922
 30
0.0
 11
-0.9999999999999374
 21
-15.50000099999997
 31
0.0
  0
LINE
  5
2B61
330
CC8
100
AcDbEntity
  8
AM_5
 62
     3
100
AcDbLine
 10
-81.74999999999995
 20
-15.00000099999997
 30
0.0
 11
-2.249999999999937
 21
-15.00000099999997
 31
0.0
  0
INSERT
  5
2B62
330
CC8
100
AcDbEntity
  8
AM_5
 62
     3
100
AcDbBlockReference
  2
_OPEN30
 10
-82.99999999999995
 20
-15.00000099999997
 30
0.0
 41
1.25
 42
1.25
 43
1.25
 50
180.0
  0
INSERT
  5
2B63
330
CC8
100
AcDbEntity
  8
AM_5
 62
     3
100
AcDbBlockReference
  2
_OPEN30
 10
-0.9999999999999374
 20
-15.00000099999997
 30
0.0
 41
1.25
 42
1.25
 43
1.25
  0
MTEXT
  5
2B64
330
CC8
100
AcDbEntity
  8
AM_5
 62
     2
100
AcDbMText
 10
-41.99999999999994
 20
-13.30000099999997
 30
0.0
 40
1.9
 41
0.0
 71
     5
 72
     1
  1
82
1001
ACAD
1000
MTEXTBEGIN
1070
    73
1070
     1
1070
    44
1040
1.0
1070
    74
1070
     0
1000
MTEXTEND
  0
POINT
  5
2B65
330
CC8
100
AcDbEntity
  8
DEFPOINTS
 62
     0
100
AcDbPoint
 10
-82.99999999999995
 20
-2.750000000000154
 30
0.0
  0
POINT
  5
2B66
330
CC8
100
AcDbEntity
  8
DEFPOINTS
 62
     0
100
AcDbPoint
 10
-0.9999999999999365
 20
-2.549999859141922
 30
0.0
  0
POINT
  5
2B67
330
CC8
100
AcDbEntity
  8
DEFPOINTS
 62
     0
100
AcDbPoint
 10
-0.9999999999999374
 20
-15.00000099999997
 30
0.0
  0
ENDBLK
  5
CD3
330
CC8
100
AcDbEntity
  8
0
100
AcDbBlockEnd
  0
BLOCK
  5
E00
330
DF6
100
AcDbEntity
  8
0
100
AcDbBlockBegin
  2
*D6
 70
     1
 10
0.0
 20
0.0
 30
0.0
  3
*D6
  1

  0
LINE
  5
2B7C
330
DF6
100
AcDbEntity
  8
AM_5
 62
     3
100
AcDbLine
 10
-30.99999999999995
 20
-3.000000000000036
 30
0.0
 11
-30.99999999999995
 21
-10.50000099999994
 31
0.0
  0
LINE
  5
2B7D
330
DF6
100
AcDbEntity
  8
AM_5
 62
     3
100
AcDbLine
 10
-0.9999999999999365
 20
-2.549999859141922
 30
0.0
 11
-0.9999999999999371
 21
-10.50000099999994
 31
0.0
  0
LINE
  5
2B7E
330
DF6
100
AcDbEntity
  8
AM_5
 62
     3
100
AcDbLine
 10
-29.74999999999995
 20
-10.00000099999994
 30
0.0
 11
-2.249999999999936
 21
-10.00000099999994
 31
0.0
  0
INSERT
  5
2B7F
330
DF6
100
AcDbEntity
  8
AM_5
 62
     3
100
AcDbBlockReference
  2
_OPEN30
 10
-30.99999999999995
 20
-10.00000099999994
 30
0.0
 41
1.25
 42
1.25
 43
1.25
 50
180.0
  0
INSERT
  5
2B80
330
DF6
100
AcDbEntity
  8
AM_5
 62
     3
100
AcDbBlockReference
  2
_OPEN30
 10
-0.9999999999999371
 20
-10.00000099999994
 30
0.0
 41
1.25
 42
1.25
 43
1.25
  0
MTEXT
  5
2B81
330
DF6
100
AcDbEntity
  8
AM_5
 62
     2
100
AcDbMText
 10
-15.99999999999994
 20
-8.300000999999946
 30
0.0
 40
1.9
 41
0.0
 71
     5
 72
     1
  1
30
1001
ACAD
1000
MTEXTBEGIN
1070
    73
1070
     1
1070
    44
1040
1.0
1070
    74
1070
     0
1000
MTEXTEND
  0
POINT
  5
2B82
330
DF6
100
AcDbEntity
  8
DEFPOINTS
 62
     0
100
AcDbPoint
 10
-30.99999999999995
 20
-3.000000000000036
 30
0.0
  0
POINT
  5
2B83
330
DF6
100
AcDbEntity
  8
DEFPOINTS
 62
     0
100
AcDbPoint
 10
-0.9999999999999365
 20
-2.549999859141922
 30
0.0
  0
POINT
  5
2B84
330
DF6
100
AcDbEntity
  8
DEFPOINTS
 62
     0
100
AcDbPoint
 10
-0.9999999999999371
 20
-10.00000099999994
 30
0.0
  0
ENDBLK
  5
E01
330
DF6
100
AcDbEntity
  8
0
100
AcDbBlockEnd
  0
BLOCK
  5
2431
330
2425
100
AcDbEntity
  8
0
100
AcDbBlockBegin
  2
*D7
 70
     1
 10
0.0
 20
0.0
 30
0.0
  3
*D7
  1

  0
LINE
  5
2B85
330
2425
100
AcDbEntity
  8
AM_5
 62
     3
100
AcDbLine
 10
-0.9999999999999371
 20
-2.549999859141922
 30
0.0
 11
8.925011198283797
 21
-2.549999859141924
 31
0.0
  0
LINE
  5
2B86
330
2425
100
AcDbEntity
  8
AM_5
 62
     3
100
AcDbLine
 10
-0.9999999999999371
 20
2.550000140858079
 30
0.0
 11
8.925011198283797
 21
2.550000140858077
 31
0.0
  0
LINE
  5
2B87
330
2425
100
AcDbEntity
  8
AM_5
 62
     3
100
AcDbLine
 10
8.425011198283797
 20
-3.799999859141924
 30
0.0
 11
8.425011198283796
 21
-5.049999859141924
 31
0.0
  0
LINE
  5
2B88
330
2425
100
AcDbEntity
  8
AM_5
 62
     3
100
AcDbLine
 10
8.425011198283797
 20
3.800000140858077
 30
0.0
 11
8.425011198283799
 21
11.43571442657236
 31
0.0
  0
LINE
  5
2B89
330
2425
100
AcDbEntity
  8
AM_5
 62
     3
100
AcDbLine
 10
8.425011198283797
 20
-2.549999859141924
 30
0.0
 11
8.425011198283797
 21
2.550000140858077
 31
0.0
  0
INSERT
  5
2B8A
330
2425
100
AcDbEntity
  8
AM_5
 62
     3
100
AcDbBlockReference
  2
_OPEN30
 10
8.425011198283797
 20
-2.549999859141924
 30
0.0
 41
1.25
 42
1.25
 43
1.25
 50
90.0
  0
INSERT
  5
2B8B
330
2425
100
AcDbEntity
  8
AM_5
 62
     3
100
AcDbBlockReference
  2
_OPEN30
 10
8.425011198283797
 20
2.550000140858077
 30
0.0
 41
1.25
 42
1.25
 43
1.25
 50
270.0
  0
MTEXT
  5
2B8C
330
2425
100
AcDbEntity
  8
AM_5
 62
     2
100
AcDbMText
 10
6.725011198283798
 20
8.242857283715222
 30
0.0
 40
1.9
 41
0.0
 71
     5
 72
     1
  1
%%c5.1
 11
0.0000000000000001
 21
1.0
 31
0.0
1001
ACAD
1000
MTEXTBEGIN
1070
    73
1070
     1
1070
    44
1040
1.0
1070
    74
1070
     0
1000
MTEXTEND
  0
POINT
  5
2B8D
330
2425
100
AcDbEntity
  8
DEFPOINTS
 62
     0
100
AcDbPoint
 10
-0.9999999999999371
 20
-2.549999859141922
 30
0.0
  0
POINT
  5
2B8E
330
2425
100
AcDbEntity
  8
DEFPOINTS
 62
     0
100
AcDbPoint
 10
-0.9999999999999371
 20
2.550000140858079
 30
0.0
  0
POINT
  5
2B8F
330
2425
100
AcDbEntity
  8
DEFPOINTS
 62
     0
100
AcDbPoint
 10
8.425011198283797
 20
2.550000140858077
 30
0.0
  0
ENDBLK
  5
2432
330
2425
100
AcDbEntity
  8
0
100
AcDbBlockEnd
  0
BLOCK
  5
2557
330
254D
100
AcDbEntity
  8
0
100
AcDbBlockBegin
  2
*D8
 70
     1
 10
0.0
 20
0.0
 30
0.0
  3
*D8
  1

  0
LINE
  5
2B68
330
254D
100
AcDbEntity
  8
AM_5
 62
     3
100
AcDbLine
 10
-82.74999999999973
 20
2.9999999999999
 30
0.0
 11
-91.87502198083162
 21
2.999999999999882
 31
0.0
  0
LINE
  5
2B69
330
254D
100
AcDbEntity
  8
AM_5
 62
     3
100
AcDbLine
 10
-82.74999999999961
 20
-3.00000000000065
 30
0.0
 11
-91.87502198083162
 21
-3.000000000000667
 31
0.0
  0
LINE
  5
2B6A
330
254D
100
AcDbEntity
  8
AM_5
 62
     3
100
AcDbLine
 10
-91.37502198083161
 20
1.749999999999883
 30
0.0
 11
-91.37502198083161
 21
-1.750000000000667
 31
0.0
  0
INSERT
  5
2B6B
330
254D
100
AcDbEntity
  8
AM_5
 62
     3
100
AcDbBlockReference
  2
_OPEN30
 10
-91.37502198083161
 20
2.999999999999883
 30
0.0
 41
1.25
 42
1.25
 43
1.25
 50
90.0000000000001
  0
INSERT
  5
2B6C
330
254D
100
AcDbEntity
  8
AM_5
 62
     3
100
AcDbBlockReference
  2
_OPEN30
 10
-91.37502198083161
 20
-3.000000000000667
 30
0.0
 41
1.25
 42
1.25
 43
1.25
 50
270.0000000000001
  0
MTEXT
  5
2B6D
330
254D
100
AcDbEntity
  8
AM_5
 62
     2
100
AcDbMText
 10
-93.07502198083161
 20
-0.0000000000003915
 30
0.0
 40
1.9
 41
0.0
 71
     5
 72
     1
  1
%%c6
 11
-0.000000000000002
 21
1.0
 31
0.0
1001
ACAD
1000
MTEXTBEGIN
1070
    73
1070
     1
1070
    44
1040
1.0
1070
    74
1070
     0
1000
MTEXTEND
  0
POINT
  5
2B6E
330
254D
100
AcDbEntity
  8
DEFPOINTS
 62
     0
100
AcDbPoint
 10
-82.74999999999973
 20
3.000000000000083
 30
0.0
  0
POINT
  5
2B6F
330
254D
100
AcDbEntity
  8
DEFPOINTS
 62
     0
100
AcDbPoint
 10
-82.74999999999961
 20
-3.000000000000466
 30
0.0
  0
POINT
  5
2B70
330
254D
100
AcDbEntity
  8
DEFPOINTS
 62
     0
100
AcDbPoint
 10
-91.37502198083161
 20
-3.000000000000464
 30
0.0
  0
ENDBLK
  5
2558
330
254D
100
AcDbEntity
  8
0
100
AcDbBlockEnd
  0
BLOCK
  5
29AE
330
29A0
100
AcDbEntity
  8
0
100
AcDbBlockBegin
  2
*D9
 70
     1
 10
0.0
 20
0.0
 30
0.0
  3
*D9
  1

  0
LINE
  5
2B71
330
29A0
100
AcDbEntity
  8
AM_5
100
AcDbLine
 10
0.1710100704081166
 20
-0.4698463108495553
 30
0.0
 11
5.472234143428638
 21
-15.03483986796903
 31
0.0
  0
LINE
  5
2B72
330
29A0
100
AcDbEntity
  8
AM_5
100
AcDbLine
 10
0.1710111357777073
 20
0.4698459230855806
 30
0.0
 11
5.472268234706844
 21
15.03482745971508
 31
0.0
  0
ARC
  5
2B73
330
29A0
100
AcDbEntity
  8
AM_5
100
AcDbCircle
 10
0.000000000000042
 20
0.0000000000001153
 30
0.0
 40
15.49974238467545
100
AcDbArc
 50
294.6219571253923
 51
65.37791295721693
  0
INSERT
  5
2B74
330
29A0
100
AcDbEntity
  8
AM_5
100
AcDbBlockReference
  2
_OPEN30
 10
5.30122407302057
 20
-14.56499355711938
 30
0.0
 41
1.25
 42
1.25
 43
1.25
 50
202.3109784861893
  0
INSERT
  5
2B75
330
29A0
100
AcDbEntity
  8
AM_5
100
AcDbBlockReference
  2
_OPEN30
 10
5.30125709892918
 20
14.56498153662961
 30
0.0
 41
1.25
 42
1.25
 43
1.25
 50
157.6888915964199
  0
MTEXT
  5
2B76
330
29A0
100
AcDbEntity
  8
AM_5
 62
     2
100
AcDbMText
 10
13.94974238466653
 20
-0.0000158154242254
 30
0.0
 40
1.6
 41
0.0
 71
     5
 72
     1
  1
140°
  7
ASAMI
 11
0.0000011337431117
 21
0.9999999999993573
 31
0.0
1001
ACAD
1000
MTEXTBEGIN
1070
    73
1070
     1
1070
    44
1040
1.0
1070
    74
1070
     0
1000
MTEXTEND
  0
POINT
  5
2B77
330
29A0
100
AcDbEntity
  8
DEFPOINTS
 62
     0
100
AcDbPoint
 10
14.23210846450062
 20
-6.13914510709712
 30
0.0
  0
POINT
  5
2B78
330
29A0
100
AcDbEntity
  8
DEFPOINTS
 62
     0
100
AcDbPoint
 10
0.0000000000000389
 20
0.000000000000107
 30
0.0
  0
POINT
  5
2B79
330
29A0
100
AcDbEntity
  8
DEFPOINTS
 62
     0
100
AcDbPoint
 10
0.0000000000000487
 20
0.0000000000000966
 30
0.0
  0
POINT
  5
2B7A
330
29A0
100
AcDbEntity
  8
DEFPOINTS
 62
     0
100
AcDbPoint
 10
-0.3082220015099191
 20
0.8468329963645198
 30
0.0
  0
POINT
  5
2B7B
330
29A0
100
AcDbEntity
  8
DEFPOINTS
 62
     0
100
AcDbPoint
 10
-0.3082275505119658
 20
-0.8468422675055965
 30
0.0
  0
ENDBLK
  5
29AF
330
29A0
100
AcDbEntity
  8
0
100
AcDbBlockEnd
  0
ENDSEC
  0
SECTION
  2
ENTITIES
  0
LINE
  5
C1D
330
1F
100
AcDbEntity
  8
AM_0
 48
0.5
100
AcDbLine
 10
0.0000000000000487
 20
0.0000000000000966
 30
0.0
 11
-0.3082220015099192
 21
0.8468329963645198
 31
0.0
  0
LINE
  5
C20
330
1F
100
AcDbEntity
  8
AM_0
 48
0.5
100
AcDbLine
 10
0.0000000000000389
 20
0.000000000000107
 30
0.0
 11
-0.3082275505119658
 21
-0.8468422675055965
 31
0.0
  0
LINE
  5
C9F
330
1F
100
AcDbEntity
  8
AM_7
100
AcDbLine
 10
-84.37502098083161
 20
0.0000000000000592
 30
0.0
 11
1.425010198283803
 21
0.0000000000001098
 31
0.0
1001
GENIUS_GENODEF_13
1002
{
1000
HIER
1070
     0
1002
}
1002
{
1000
MANEDIT
1070
     0
1002
}
1002
{
1000
NOSEL
1070
     0
1002
}
1002
{
1000
BEHIND
1070
     0
1002
}
1002
{
1000
REACTOR
1002
}
1001
GENIUS_GENOBJ-N-CEN_13
1002
{
1000
OWNER
1000
GEN
1002
}
  0
DIMENSION
  5
CC6
330
1F
100
AcDbEntity
  8
AM_5
100
AcDbDimension
  2
*D5
 10
-0.9999999999999374
 20
-15.00000099999997
 30
0.0
 11
-41.99999999999994
 21
-13.30000099999997
 31
0.0
 70
    32
  1
<>
  3
AM_JIS$0
100
AcDbAlignedDimension
 13
-82.99999999999995
 23
-2.750000000000154
 33
0.0
 14
-0.9999999999999365
 24
-2.549999859141922
 34
0.0
 50
0.0000000000001132
100
AcDbRotatedDimension
1001
GENIUS_GENDTOL_13
1000

1000
h7
1000

1040
0.0
1001
ACAD
1000
DSTYLE
1002
{
1070
   271
1070
     0
1002
}
  0
DIMENSION
  5
DF5
330
1F
100
AcDbEntity
  8
AM_5
100
AcDbDimension
  2
*D6
 10
-0.9999999999999371
 20
-10.00000099999994
 30
0.0
 11
-15.99999999999994
 21
-8.300000999999946
 31
0.0
 70
    32
  1
<>
  3
AM_JIS$0
100
AcDbAlignedDimension
 13
-30.99999999999995
 23
-3.000000000000036
 33
0.0
 14
-0.9999999999999365
 24
-2.549999859141922
 34
0.0
 50
0.0000000000001527
100
AcDbRotatedDimension
1001
GENIUS_GENDTOL_13
1000

1000
h7
1000

1040
0.0
1001
ACAD
1000
DSTYLE
1002
{
1070
   271
1070
     0
1002
}
  0
ARC
  5
144A
330
1F
100
AcDbEntity
  8
AM_11
 48
0.5
100
AcDbCircle
 10
-44.3027718861832
 20
-12.14665270677925
 30
0.0
 40
13.42998806635521
100
AcDbArc
 50
64.74833051131179
 51
115.2516644797366
  0
ARC
  5
144B
330
1F
100
AcDbEntity
  8
AM_11
 48
0.5
100
AcDbCircle
 10
-44.30277188618318
 20
12.14666095543175
 30
0.0
 40
13.42998806635521
100
AcDbArc
 50
244.7482808787518
 51
295.2516148471758
  0
ARC
  5
144E
330
1F
100
AcDbEntity
  8
AM_11
 48
0.5
100
AcDbCircle
 10
-32.84443855284986
 20
-12.14665270677925
 30
0.0
 40
13.42998806635521
100
AcDbArc
 50
64.74833051131179
 51
115.2516644797366
  0
ARC
  5
144F
330
1F
100
AcDbEntity
  8
AM_11
 48
0.5
100
AcDbCircle
 10
-32.84443855284986
 20
12.14666095543175
 30
0.0
 40
13.42998806635521
100
AcDbArc
 50
244.7482808787518
 51
295.2516148471758
  0
ARC
  5
1450
330
1F
100
AcDbEntity
  8
AM_11
 48
0.5
100
AcDbCircle
 10
-21.38610521951973
 20
12.14666095543175
 30
0.0
 40
13.42998806635521
100
AcDbArc
 50
244.7482808787518
 51
295.2516148471758
  0
ARC
  5
1451
330
1F
100
AcDbEntity
  8
AM_11
 48
0.5
100
AcDbCircle
 10
-21.38610521951973
 20
-12.14665270677925
 30
0.0
 40
13.42998806635521
100
AcDbArc
 50
64.74833051131179
 51
115.2516644797366
  0
ARC
  5
1452
330
1F
100
AcDbEntity
  8
AM_11
 48
0.5
100
AcDbCircle
 10
-9.927771886186405
 20
-12.14665270677925
 30
0.0
 40
13.42998806635521
100
AcDbArc
 50
64.74833051131179
 51
115.2516644797366
  0
ARC
  5
1453
330
1F
100
AcDbEntity
  8
AM_11
 48
0.5
100
AcDbCircle
 10
-9.927771886186405
 20
12.14666095543175
 30
0.0
 40
13.42998806635521
100
AcDbArc
 50
244.7482808787518
 51
295.2516148471758
  0
ARC
  5
1454
330
1F
100
AcDbEntity
  8
AM_11
 48
0.5
100
AcDbCircle
 10
1.530561447146944
 20
12.14666095543175
 30
0.0
 40
13.42998806635521
100
AcDbArc
 50
244.7482808787518
 51
254.0147302238188
  0
TEXT
  5
19BD
330
1F
100
AcDbEntity
  8
AM_6
100
AcDbText
 10
-53.01190476190467
 20
-26.25000100000001
 30
0.0
 40
2.5
  1
MDW051MHK
 50
0.0000000000001527
 72
     4
 11
-41.99999999999991
 21
-25.00000099999998
 31
0.0
100
AcDbText
  0
ARC
  5
1DAB
330
1F
100
AcDbEntity
  8
AM_11
 48
0.5
100
AcDbCircle
 10
-55.76108015507429
 20
-12.14665270677928
 30
0.0
 40
13.42998806635521
100
AcDbArc
 50
64.74833051131179
 51
115.2516644797366
  0
ARC
  5
1DAC
330
1F
100
AcDbEntity
  8
AM_11
 48
0.5
100
AcDbCircle
 10
-55.76108015507427
 20
12.14666095543172
 30
0.0
 40
13.42998806635521
100
AcDbArc
 50
244.7482808787518
 51
295.2516148471758
  0
ARC
  5
1DAD
330
1F
100
AcDbEntity
  8
AM_11
 48
0.5
100
AcDbCircle
 10
-67.21938842396538
 20
-12.14665270677931
 30
0.0
 40
13.42998806635521
100
AcDbArc
 50
64.74833051131179
 51
115.2516644797366
  0
ARC
  5
1DAE
330
1F
100
AcDbEntity
  8
AM_11
 48
0.5
100
AcDbCircle
 10
-67.21938842396537
 20
12.14666095543169
 30
0.0
 40
13.42998806635521
100
AcDbArc
 50
244.7482808787518
 51
295.2516148471758
  0
ARC
  5
1DAF
330
1F
100
AcDbEntity
  8
AM_11
 48
0.5
100
AcDbCircle
 10
-78.67769669285647
 20
-12.14665270677934
 30
0.0
 40
13.42998806635521
100
AcDbArc
 50
64.74833051131179
 51
108.7742185832982
  0
ARC
  5
1DB0
330
1F
100
AcDbEntity
  8
AM_11
 48
0.5
100
AcDbCircle
 10
-78.67769669285646
 20
12.14666095543166
 30
0.0
 40
13.42998806635521
100
AcDbArc
 50
251.2257814167015
 51
295.2516148471758
  0
LINE
  5
1F19
330
1F
100
AcDbEntity
  8
AM_0
100
AcDbLine
 10
-82.74999999999996
 20
-2.999999999999915
 30
0.0
 11
-82.74999999999995
 21
3.000000000000083
 31
0.0
  0
LINE
  5
1F1A
330
1F
100
AcDbEntity
  8
AM_0
 48
0.5
100
AcDbLine
 10
-82.99999999999995
 20
-2.75000000000014
 30
0.0
 11
-82.99999999999995
 21
2.749999999999859
 31
0.0
  0
LINE
  5
1F1B
330
1F
100
AcDbEntity
  8
AM_0
100
AcDbLine
 10
-82.99999999999995
 20
-2.75000000000014
 30
0.0
 11
-82.74999999999996
 21
-3.000000000000139
 31
0.0
1001
GENIUS_GENFIL_13
1070
     0
1040
0.25
1040
0.25
1040
20.0
1040
0.0
1002
{
1002
}
1001
GENIUS_GENODEF_13
1002
{
1000
HIER
1070
     0
1002
}
1002
{
1000
MANEDIT
1070
     0
1002
}
1002
{
1000
NOSEL
1070
     0
1002
}
1002
{
1000
BEHIND
1070
     0
1002
}
1002
{
1000
REACTOR
1002
}
1001
GENIUS_GENOBJ-N-CHA_13
1002
{
1000
OWNER
1000
GEN
1002
}
  0
LINE
  5
1F1C
330
1F
100
AcDbEntity
  8
AM_0
100
AcDbLine
 10
-82.99999999999995
 20
2.749999999999859
 30
0.0
 11
-82.74999999999995
 21
2.99999999999986
 31
0.0
1001
GENIUS_GENFIL_13
1070
     0
1040
0.25
1040
0.25
1040
20.0
1040
0.0
1002
{
1002
}
1001
GENIUS_GENODEF_13
1002
{
1000
HIER
1070
     0
1002
}
1002
{
1000
MANEDIT
1070
     0
1002
}
1002
{
1000
NOSEL
1070
     0
1002
}
1002
{
1000
BEHIND
1070
     0
1002
}
1002
{
1000
REACTOR
1002
}
1001
GENIUS_GENOBJ-N-CHA_13
1002
{
1000
OWNER
1000
GEN
1002
}
  0
LINE
  5
1F2F
330
1F
100
AcDbEntity
  8
AM_0
 48
0.5
100
AcDbLine
 10
-30.99999999999995
 20
-3.000000000000036
 30
0.0
 11
-30.99999999999993
 21
3.000000000000187
 31
0.0
  0
LINE
  5
1F31
330
1F
100
AcDbEntity
  8
AM_0
100
AcDbLine
 10
-82.74999999999995
 20
3.000000000000083
 30
0.0
 11
-30.99999999999993
 21
3.000000000000186
 31
0.0
  0
LINE
  5
1F32
330
1F
100
AcDbEntity
  8
AM_0
100
AcDbLine
 10
-82.74999999999996
 20
-3.000000000000139
 30
0.0
 11
-30.99999999999995
 21
-3.000000000000037
 31
0.0
  0
LINE
  5
1F5B
330
1F
100
AcDbEntity
  8
AM_0
100
AcDbLine
 10
-30.99999999999993
 20
3.000000000000187
 30
0.0
 11
-30.22057738056767
 21
2.550000140858488
 31
0.0
  0
LINE
  5
1F5C
330
1F
100
AcDbEntity
  8
AM_0
100
AcDbLine
 10
-30.99999999999995
 20
-3.000000000000036
 30
0.0
 11
-30.22057689261986
 21
-2.549999859141512
 31
0.0
  0
LINE
  5
2422
330
1F
100
AcDbEntity
  8
AM_0
 48
0.5
100
AcDbLine
 10
0.0000000000000389
 20
0.000000000000107
 30
0.0
 11
-1.364318978128146
 21
0.9920654959102494
 31
0.0
  0
ELLIPSE
  5
2423
330
1F
100
AcDbEntity
  8
AM_0
 48
0.5
100
AcDbEllipse
 10
16.73805150987539
 20
-20.49678681453007
 30
0.0
 11
-18.71203674199494
 21
18.71203674199495
 31
0.0
210
0.0
220
0.0
230
1.0
 40
0.9999999999998632
 41
-0.1006059243521218
 42
-0.0696776924373628
  0
DIMENSION
  5
2424
330
1F
100
AcDbEntity
  8
AM_5
100
AcDbDimension
  2
*D7
 10
8.425011198283797
 20
2.550000140858077
 30
0.0
 11
8.425011198283797
 21
8.242857283715222
 31
0.0
 70
   160
  1
%%c<>
  3
AM_JIS$0
100
AcDbAlignedDimension
 13
-0.9999999999999371
 23
-2.549999859141922
 33
0.0
 14
-0.9999999999999371
 24
2.550000140858079
 34
0.0
 50
89.99999999999955
100
AcDbRotatedDimension
1001
ACAD
1000
DSTYLE
1002
{
1070
   271
1070
     1
1002
}
1001
GENIUS_GENDTOL_13
1000

1000
h7
1000

1040
0.0
  0
LINE
  5
2433
330
1F
100
AcDbEntity
  8
AM_0
 48
0.5
100
AcDbLine
 10
-2.484100341793572
 20
2.550000140858092
 30
0.0
 11
-0.9999999999999371
 21
2.550000140858079
 31
0.0
  0
LINE
  5
2435
330
1F
100
AcDbEntity
  8
AM_11
 48
0.5
100
AcDbLine
 10
-11.21485519408831
 20
2.550000140858158
 30
0.0
 11
-2.484100341793572
 21
2.550000140858092
 31
0.0
  0
LINE
  5
2436
330
1F
100
AcDbEntity
  8
AM_0
 48
0.5
100
AcDbLine
 10
-2.715771530751966
 20
-2.549999859141911
 30
0.0
 11
-0.9999999999999371
 21
-2.549999859141922
 31
0.0
  0
LINE
  5
2437
330
1F
100
AcDbEntity
  8
AM_0
 48
0.5
100
AcDbLine
 10
-0.8232046243055572
 20
-2.308499132519687
 30
0.0
 11
-0.9999999999999371
 21
-2.549999859141922
 31
0.0
  0
LINE
  5
243B
330
1F
100
AcDbEntity
  8
AM_0
100
AcDbLine
 10
-30.22057738056767
 20
2.55000014085819
 30
0.0
 11
-26.58354856897613
 21
2.550000140858138
 31
0.0
1001
GENIUS_GENODEF_13
1002
{
1000
HIER
1070
     0
1002
}
1002
{
1000
MANEDIT
1070
     0
1002
}
1002
{
1000
NOSEL
1070
     0
1002
}
1002
{
1000
BEHIND
1070
     0
1002
}
1002
{
1000
REACTOR
1002
}
1001
GENIUS_GENOBJ-N-CEN_13
1002
{
1000
OWNER
1000
GEN
1002
}
  0
LINE
  5
2440
330
1F
100
AcDbEntity
  8
AM_0
100
AcDbLine
 10
-30.22057738056773
 20
-2.549999859141849
 30
0.0
 11
-27.60815470754689
 21
-2.549999859141892
 31
0.0
1001
GENIUS_GENODEF_13
1002
{
1000
HIER
1070
     0
1002
}
1002
{
1000
MANEDIT
1070
     0
1002
}
1002
{
1000
NOSEL
1070
     0
1002
}
1002
{
1000
BEHIND
1070
     0
1002
}
1002
{
1000
REACTOR
1002
}
1001
GENIUS_GENOBJ-N-CEN_13
1002
{
1000
OWNER
1000
GEN
1002
}
  0
LINE
  5
2442
330
1F
100
AcDbEntity
  8
AM_0
100
AcDbLine
 10
-30.22057738056773
 20
-2.549999859141512
 30
0.0
 11
-30.22057738056767
 21
2.550000140858446
 31
0.0
  0
ELLIPSE
  5
2445
330
1F
100
AcDbEntity
  8
AM_0
 48
0.5
100
AcDbEllipse
 10
-4.759485880530298
 20
4.279824588489754
 30
0.0
 11
-6.630541364351478
 21
0.0000000000012018
 31
0.0
210
0.0
220
0.0
230
1.0
 40
0.927272727272747
 41
2.081379652023475
 42
2.169874429702975
  0
ELLIPSE
  5
2446
330
1F
100
AcDbEntity
  8
AM_0
 48
0.5
100
AcDbEllipse
 10
2.845227559410953
 20
-0.5668297312731398
 30
0.0
 11
4.399991567519788
 21
0.0006156670283675
 31
0.0
210
0.0
220
0.0
230
1.0
 40
0.9272315305377652
 41
3.268630176455721
 42
3.64905590916959
  0
ELLIPSE
  5
2447
330
1F
100
AcDbEntity
  8
AM_0
 48
0.5
100
AcDbEllipse
 10
1.756413141890033
 20
3.061432025623672
 30
0.0
 11
-5.542473077773961
 21
0.0000000000000237
 31
0.0
210
0.0
220
0.0
230
1.0
 40
0.9272727272727259
 41
0.5303675532340937
 42
0.9384884834289888
  0
SPLINE
  5
244F
330
1F
100
AcDbEntity
  8
AM_0
 48
0.5
100
AcDbSpline
210
0.0
220
0.0
230
1.0
 70
     8
 71
     3
 72
    10
 73
     6
 74
     0
 42
0.0000000001
 43
0.0000000001
 40
0.0
 40
0.0
 40
0.0
 40
0.0
 40
2.69986029516136
 40
4.147722969032201
 40
6.285750005020438
 40
6.285750005020438
 40
6.285750005020438
 40
6.285750005020438
 10
-3.024559656775712
 20
0.4615365483287503
 30
0.0
 10
-2.694692144898293
 20
0.2246239270345599
 30
0.0
 10
-2.187925532491167
 20
-0.1393385797501909
 30
0.0
 10
-0.9894905693325981
 20
0.0368620458695113
 30
0.0
 10
-1.215190731525432
 20
0.6303290677697494
 30
0.0
 10
-1.364318978128146
 20
0.9920654959102494
 30
0.0
  0
SPLINE
  5
2450
330
1F
100
AcDbEntity
  8
AM_0
 48
0.5
100
AcDbSpline
210
0.0
220
0.0
230
1.0
 70
     8
 71
     3
 72
    25
 73
    21
 74
     0
 42
0.0000000001
 43
0.0000000001
 40
6.846175049578289
 40
6.846175049578289
 40
6.846175049578289
 40
6.846175049578289
 40
7.604337694224321
 40
8.711974558287883
 40
9.814980593243754
 40
10.91239053451967
 40
12.0033633515982
 40
13.08720139956839
 40
14.16337181880432
 40
15.23152222380919
 40
16.29148850140128
 40
17.34331105512262
 40
18.38723020264746
 40
19.42369128463655
 40
20.45333379090873
 40
21.47697865721768
 40
22.49561244472435
 40
23.5103574802404
 40
24.52244778960836
 40
25.53320666051913
 40
25.53320666051913
 40
25.53320666051913
 40
25.53320666051913
 10
-3.024633756897681
 20
0.4615668353277334
 30
0.0
 10
-3.129920368228539
 20
0.5063403001694307
 30
0.0
 10
-3.389246916617649
 20
0.6160774714755354
 30
0.0
 10
-3.802998788893527
 20
0.788404333914337
 30
0.0
 10
-4.26597073294776
 20
0.9763747122912015
 30
0.0
 10
-4.728965960161744
 20
1.158339488790814
 30
0.0
 10
-5.191988448527352
 20
1.333179841636725
 30
0.0
 10
-5.65504335725776
 20
1.499817093584815
 30
0.0
 10
-6.118134968156388
 20
1.657223609347166
 30
0.0
 10
-6.581265425093501
 20
1.804432011952003
 30
0.0
 10
-7.044440432648217
 20
1.940526176496937
 30
0.0
 10
-7.507659363626298
 20
2.064671568451721
 30
0.0
 10
-7.970925545232126
 20
2.17609352187039
 30
0.0
 10
-8.434237342578031
 20
2.274102463655237
 30
0.0
 10
-8.897592945733988
 20
2.358097669115237
 30
0.0
 10
-9.360989776343844
 20
2.427522379068492
 30
0.0
 10
-9.824420624138982
 20
2.482058855177877
 30
0.0
 10
-10.28788038164112
 20
2.520966356790139
 30
0.0
 10
-10.75136152550185
 20
2.545449966766364
 30
0.0
 10
-11.06042511306614
 20
2.54848408184531
 30
0.0
 10
-11.21485519408831
 20
2.550000140858158
 30
0.0
  0
SPLINE
  5
2452
330
1F
100
AcDbEntity
  8
AM_0
 48
0.5
100
AcDbSpline
210
0.0
220
0.0
230
1.0
 70
     8
 71
     3
 72
    17
 73
    13
 74
     0
 42
0.0000000001
 43
0.0000000001
 40
0.0
 40
0.0
 40
0.0
 40
0.0
 40
1.010743614677189
 40
2.022833924044153
 40
3.037578959561199
 40
4.056212747067873
 40
5.079857613375832
 40
6.109500119648989
 40
7.14596120163808
 40
8.18989512056258
 40
9.241717674284874
 40
9.693948937866434
 40
9.693948937866434
 40
9.693948937866434
 40
9.693948937866434
 10
-2.484100341793572
 20
2.550000140858091
 30
0.0
 10
-2.638528090324427
 20
2.548484045995227
 30
0.0
 10
-2.947589343846926
 20
2.545449836254877
 30
0.0
 10
-3.41106816438802
 20
2.520966368327066
 30
0.0
 10
-3.874527903775099
 20
2.482058816422297
 30
0.0
 10
-4.337958819910568
 20
2.427522523399507
 30
0.0
 10
-4.801355393466481
 20
2.358097126572471
 30
0.0
 10
-5.26471196451177
 20
2.27410450692721
 30
0.0
 10
-5.728022314022502
 20
2.17608535273372
 30
0.0
 10
-6.19130442030002
 20
2.064699554181892
 30
0.0
 10
-6.565277817159969
 20
1.964357786935935
 30
0.0
 10
-6.784896922260178
 20
1.9016297526297
 30
0.0
 10
-6.850814794900609
 20
1.882429121248455
 30
0.0
  0
ELLIPSE
  5
2453
330
1F
100
AcDbEntity
  8
AM_0
 48
0.5
100
AcDbEllipse
 10
-0.8184388478562162
 20
-0.664566566753175
 30
0.0
 11
-0.4012776615138548
 21
0.2048072973816611
 31
0.0
210
0.0
220
0.0
230
1.0
 40
0.4798558986536547
 41
4.442987292544678
 42
7.586427633874185
  0
ELLIPSE
  5
2454
330
1F
100
AcDbEntity
  8
AM_0
 48
0.5
100
AcDbEllipse
 10
-0.8184388478562162
 20
-0.664566566753175
 30
0.0
 11
-0.0839667778081387
 21
0.4177447091791171
 31
0.0
210
0.0
220
0.0
230
1.0
 40
0.5364313087748649
 41
1.786388804901651
 42
4.921730694613627
  0
ELLIPSE
  5
245F
330
1F
100
AcDbEntity
  8
AM_0
 48
0.5
100
AcDbEllipse
 10
3.875377709857081
 20
-3.305989277576121
 30
0.0
 11
-4.522585147891904
 21
1.89960735216737
 31
0.0
210
0.0
220
0.0
230
1.0
 40
0.670656747097513
 41
-0.1980062927602497
 42
0.2770693262937132
  0
DIMENSION
  5
254C
330
1F
100
AcDbEntity
  8
AM_5
100
AcDbDimension
  2
*D8
 10
-91.37502198083161
 20
-3.000000000000464
 30
0.0
 11
-93.07502198083161
 21
-0.0000000000002034
 31
0.0
 70
    32
  1
%%c<>
 51
359.9999999999998
  3
AM_JIS$0
100
AcDbAlignedDimension
 13
-82.74999999999973
 23
3.000000000000083
 33
0.0
 14
-82.74999999999961
 24
-3.000000000000466
 34
0.0
 50
270.0000000000002
100
AcDbRotatedDimension
1001
ACAD
1000
DSTYLE
1002
{
1070
   271
1070
     0
1002
}
1001
GENIUS_GENDTOL_13
1000

1000
h7
1000

1040
0.0
  0
ELLIPSE
  5
270B
330
1F
100
AcDbEntity
  8
AM_0
 48
0.5
100
AcDbEllipse
 10
3.875377709857077
 20
3.305989277576343
 30
0.0
 11
-4.522585147891902
 21
-1.899607352167375
 31
0.0
210
0.0
220
0.0
230
-1.0
 40
0.670656747097513
 41
-0.1980062927602497
 42
0.2770693262937132
  0
LINE
  5
270C
330
1F
100
AcDbEntity
  8
AM_0
 48
0.5
100
AcDbLine
 10
-0.8232046243055599
 20
2.308499132519904
 30
0.0
 11
-0.9999999999999401
 21
2.549999859142138
 31
0.0
  0
SPLINE
  5
2902
330
1F
100
AcDbEntity
  8
AM_0
100
AcDbSpline
210
0.0
220
0.0
230
1.0
 70
     8
 71
     3
 72
    55
 73
    51
 74
     0
 42
0.0000000001
 43
0.0000000001
 40
0.0
 40
0.0
 40
0.0
 40
0.0
 40
1.010743684496582
 40
2.022833576467832
 40
3.037578957496688
 40
4.056212745003489
 40
5.079857003664532
 40
6.109500240690281
 40
7.145961322679372
 40
8.189895241603872
 40
9.241717795325891
 40
10.30168407291828
 40
11.36983447792315
 40
12.44600489715814
 40
13.52984294512926
 40
14.62081576220742
 40
15.7182257034828
 40
16.82123173843959
 40
17.92886860250316
 40
19.0400688939571
 40
20.15368796660465
 40
21.26852814259644
 40
22.38336992938901
 40
23.49698739941135
 40
24.6081876908653
 40
25.71582455492886
 40
26.81883757994213
 40
27.91624752121713
 40
29.00722033829659
 40
30.09105838626677
 40
31.16722880550176
 40
32.23537921050758
 40
33.29534548809967
 40
34.347168041821
 40
35.39108718934584
 40
36.42754827133493
 40
37.45720575381954
 40
38.48085062012849
 40
39.49948440763516
 40
40.51422944315121
 40
41.52631975251916
 40
42.53706336719636
 40
43.54780698187354
 40
44.55989729124051
 40
45.57464232675757
 40
46.59327611426424
 40
47.6169209805722
 40
48.64656348684535
 40
49.68302456883444
 40
50.58557219878025
 40
50.58557219878025
 40
50.58557219878025
 40
50.58557219878025
 10
-2.715771530751966
 20
-2.550001480380961
 30
0.0
 10
-2.868731261582886
 20
-2.548484292158482
 30
0.0
 10
-3.174854450001711
 20
-2.545447894973601
 30
0.0
 10
-3.633927828566712
 20
-2.520971124879799
 30
0.0
 10
-4.092981611020102
 20
-2.482059454476368
 30
0.0
 10
-4.552006982551202
 20
-2.427523268483715
 30
0.0
 10
-5.010999362809411
 20
-2.358101636782016
 30
0.0
 10
-5.469949696901294
 20
-2.274103266304357
 30
0.0
 10
-5.928859519995358
 20
-2.176094000013848
 30
0.0
 10
-6.38772476248891
 20
-2.064673999763412
 30
0.0
 10
-6.84654229867339
 20
-1.94052737759539
 30
0.0
 10
-7.305314415500544
 20
-1.804433389023951
 30
0.0
 10
-7.764042341653584
 20
-1.657224938589139
 30
0.0
 10
-8.222731808570552
 20
-1.499818436288405
 30
0.0
 10
-8.681384916302629
 20
-1.333181178803719
 30
0.0
 10
-9.140005917819895
 20
-1.158340834582737
 30
0.0
 10
-9.598599899291308
 20
-0.9763760289243966
 30
0.0
 10
-10.0571708855825
 20
-0.7884057592896094
 30
0.0
 10
-10.51572332717715
 20
-0.5955861159588766
 30
0.0
 10
-10.9742621307812
 20
-0.3991038809287714
 30
0.0
 10
-11.43279131821652
 20
-0.2001669462331546
 30
0.0
 10
-11.89131736462544
 20
-0.0000020006733118
 30
0.0
 10
-12.34984135263607
 20
0.2001665479802851
 30
0.0
 10
-12.80837207696126
 20
0.3991003847016442
 30
0.0
 10
-13.26691031449305
 20
0.5955832144722818
 30
0.0
 10
-13.72546357368163
 20
0.7884035923599099
 30
0.0
 10
-14.18403646234524
 20
0.9763722578234
 30
0.0
 10
-14.64263116759912
 20
1.158337986296495
 30
0.0
 10
-15.10125223532599
 20
1.333178188739979
 30
0.0
 10
-15.55990532636915
 20
1.499815481267852
 30
0.0
 10
-16.01859479446061
 20
1.657221983798849
 30
0.0
 10
-16.47732273229785
 20
1.804430399033905
 30
0.0
 10
-16.93609480177471
 20
1.940524526569835
 30
0.0
 10
-17.39491036612995
 20
2.064670052524757
 30
0.0
 10
-17.853772771072
 20
2.176091512099216
 30
0.0
 10
-18.31268242393434
 20
2.274102749232775
 30
0.0
 10
-18.77163603508542
 20
2.358091525930494
 30
0.0
 10
-19.23062993172474
 20
2.427534645094756
 30
0.0
 10
-19.68965543933151
 20
2.482006185478045
 30
0.0
 10
-20.1487095407494
 20
2.521154152280971
 30
0.0
 10
-20.60778253007488
 20
2.544743696131551
 30
0.0
 10
-21.0668656072509
 20
2.552624182176409
 30
0.0
 10
-21.52594868375144
 20
2.54474369611922
 30
0.0
 10
-21.98502167510728
 20
2.521154152330588
 30
0.0
 10
-22.44407576904996
 20
2.482006185291315
 30
0.0
 10
-22.90310130468314
 20
2.427534645796815
 30
0.0
 10
-23.36209285827782
 20
2.35809186183744
 30
0.0
 10
-23.82104466132639
 20
2.274103607972773
 30
0.0
 10
-24.25908868818607
 20
2.18054060175232
 30
0.0
 10
-24.5432966413998
 20
2.112117090789191
 30
0.0
 10
-24.6751525668534
 20
2.078770975996971
 30
0.0
  0
LINE
  5
2903
330
1F
100
AcDbEntity
  8
AM_11
 48
0.5
100
AcDbLine
 10
-26.58552378636768
 20
2.550360793397466
 30
0.0
 11
-21.0668546953079
 21
2.549998519619596
 31
0.0
  0
SPLINE
  5
2904
330
1F
100
AcDbEntity
  8
AM_0
100
AcDbSpline
210
0.0
220
0.0
230
1.0
 70
     8
 71
     3
 72
    23
 73
    19
 74
     0
 42
0.0000000001
 43
0.0000000001
 40
16.03460024169435
 40
16.03460024169435
 40
16.03460024169435
 40
16.03460024169435
 40
16.35212704903564
 40
17.38177054169784
 40
18.41822485651776
 40
19.46214173629503
 40
20.51396345435107
 40
21.57393551351153
 40
22.64208202342361
 40
23.7182574881101
 40
24.80209208578934
 40
25.89306333925047
 40
26.99048218457928
 40
28.09348763352352
 40
29.20111863782268
 40
30.31232390128032
 40
31.42594612798585
 40
32.5407912310448
 40
32.5407912310486
 40
32.5407912310486
 40
32.5407912310486
 10
-26.58552378636768
 20
2.550360793397463
 30
0.0
 10
-26.53835963851005
 20
2.541752442451482
 30
0.0
 10
-26.33845725521664
 20
2.504265496955156
 30
0.0
 10
-25.98632705424417
 20
2.430815548484233
 30
0.0
 10
-25.53031752216162
 20
2.321596278348771
 30
0.0
 10
-25.07473155318174
 20
2.198961242995871
 30
0.0
 10
-24.61954222636624
 20
2.06362019145979
 30
0.0
 10
-24.16473338623925
 20
1.916327653132694
 30
0.0
 10
-23.71027874593984
 20
1.757925614278868
 30
0.0
 10
-23.25614665897418
 20
1.589335935031542
 30
0.0
 10
-22.80231131992601
 20
1.411513328914914
 30
0.0
 10
-22.34873634317055
 20
1.22549250424035
 30
0.0
 10
-21.89538497152809
 20
1.032354694410874
 30
0.0
 10
-21.4422269994898
 20
0.8332103608644244
 30
0.0
 10
-20.9892245118785
 20
0.6292175006288764
 30
0.0
 10
-20.53633555106986
 20
0.4215672823472124
 30
0.0
 10
-20.08352323911811
 20
0.2114629828046481
 30
0.0
 10
-19.78172944796963
 20
0.0705995383457149
 30
0.0
 10
-19.63075025136687
 20
0.0001282193259981
 30
0.0
  0
LINE
  5
2905
330
1F
100
AcDbEntity
  8
AM_0
 48
0.5
100
AcDbLine
 10
-22.29486721421854
 20
1.201718791417342
 30
0.0
 11
-28.49999999999993
 21
-0.2063633163018852
 31
0.0
  0
SPLINE
  5
2906
330
1F
100
AcDbEntity
  8
AM_0
 48
0.5
100
AcDbSpline
210
0.0
220
0.0
230
1.0
 70
     8
 71
     3
 72
    22
 73
    18
 74
     0
 42
0.0000000001
 43
0.0000000001
 40
0.0
 40
0.0
 40
0.0
 40
0.0
 40
1.010743684496582
 40
2.022833993863546
 40
3.037578683882831
 40
4.056212471389632
 40
5.079857945358201
 40
6.109499720892564
 40
7.145961650132166
 40
8.189873411961459
 40
9.241710626092514
 40
10.30166235592959
 40
11.36982472628033
 40
12.44598212828784
 40
13.52983440361964
 40
14.62080578343036
 40
14.90544694398022
 40
14.90544694398022
 40
14.90544694398022
 40
14.90544694398022
 10
-21.06633288120562
 20
-2.550132675890665
 30
0.0
 10
-21.23527770245769
 20
-2.548615940931241
 30
0.0
 10
-21.54140101253754
 20
-2.545580450249834
 30
0.0
 10
-22.00047391007985
 20
-2.52109686186999
 30
0.0
 10
-22.45952818927798
 20
-2.482191742384809
 30
0.0
 10
-22.91855380488893
 20
-2.427655506117676
 30
0.0
 10
-23.3775449350046
 20
-2.35822739767977
 30
0.0
 10
-23.83649679129214
 20
-2.274236087982556
 30
0.0
 10
-24.29540264847792
 20
-2.176224486735967
 30
0.0
 10
-24.75426566215875
 20
-2.064800617952728
 30
0.0
 10
-25.21308169959786
 20
-1.940660193641972
 30
0.0
 10
-25.67185315852277
 20
-1.804558746409657
 30
0.0
 10
-26.13058299632376
 20
-1.657362351990861
 30
0.0
 10
-26.58927086844087
 20
-1.499946086719114
 30
0.0
 10
-27.04792536785109
 20
-1.333312763474929
 30
0.0
 10
-27.39263627696486
 20
-1.201904359038137
 30
0.0
 10
-27.5847212246828
 20
-1.126795539071596
 30
0.0
 10
-27.55699193200199
 20
-1.1377085449949
 30
0.0
  0
SPLINE
  5
2907
330
1F
100
AcDbEntity
  8
AM_0
 48
0.5
100
AcDbSpline
210
0.0
220
0.0
230
1.0
 70
     8
 71
     3
 72
    26
 73
    22
 74
     0
 42
0.0000000001
 43
0.0000000001
 40
0.0
 40
0.0
 40
0.0
 40
0.0
 40
0.2526859211241313
 40
0.5057083941171959
 40
0.7593947393741639
 40
1.01405318625086
 40
1.26996425091637
 40
1.527375060172565
 40
1.786490330669834
 40
2.047470117551047
 40
2.310425755981314
 40
2.575417325379407
 40
2.842456731169063
 40
3.111495753801943
 40
3.382458822635121
 40
3.655202026904655
 40
3.929554512223505
 40
4.205306020962704
 40
4.482215236978595
 40
4.76001530984208
 40
5.029821427366006
 40
5.029821427366006
 40
5.029821427366006
 40
5.029821427366006
 10
-19.79722441994584
 20
-2.550132675890706
 30
0.0
 10
-19.95018415079516
 20
-2.548615487734339
 30
0.0
 10
-20.25630733925097
 20
-2.545579090681767
 30
0.0
 10
-20.71538071753921
 20
-2.521102319593772
 30
0.0
 10
-21.1744345010485
 20
-2.482190652983919
 30
0.0
 10
-21.6334598686106
 20
-2.427654452731418
 30
0.0
 10
-22.09245226379386
 20
-2.358232874652487
 30
0.0
 10
-22.55140254168928
 20
-2.274234302272112
 30
0.0
 10
-23.01031039697758
 20
-2.176226262536944
 30
0.0
 10
-23.46917269991738
 20
-2.064804006919538
 30
0.0
 10
-23.92798836571369
 20
-1.940658891899413
 30
0.0
 10
-24.38676117043663
 20
-1.804563606998466
 30
0.0
 10
-24.84548921308157
 20
-1.657358496732798
 30
0.0
 10
-25.3041776911663
 20
-1.499946553751777
 30
0.0
 10
-25.76283273767202
 20
-1.333314103152893
 30
0.0
 10
-26.22145534357988
 20
-1.158471980323216
 30
0.0
 10
-26.68004892768043
 20
-0.9765064393498526
 30
0.0
 10
-27.13862191150528
 20
-0.788540168333975
 30
0.0
 10
-27.59716671662685
 20
-0.595705177507838
 30
0.0
 10
-28.05100127035594
 20
-0.4013078943458619
 30
0.0
 10
-28.35168373723331
 20
-0.2707104359008752
 30
0.0
 10
-28.49999999999996
 20
-0.2063633163018834
 30
0.0
  0
LINE
  5
2908
330
1F
100
AcDbEntity
  8
AM_11
 48
0.5
100
AcDbLine
 10
-27.59611598535619
 20
-2.550000872972055
 30
0.0
 11
-21.07958061988499
 21
-2.550013389120096
 31
0.0
  0
SPLINE
  5
2909
330
1F
100
AcDbEntity
  8
AM_0
100
AcDbSpline
210
0.0
220
0.0
230
1.0
 70
     8
 71
     3
 72
    13
 73
     9
 74
     0
 42
0.0000000001
 43
0.0000000001
 40
16.03460056234195
 40
16.03460056234195
 40
16.03460056234195
 40
16.03460056234195
 40
16.35212717791071
 40
17.38177067057215
 40
18.41822498539278
 40
19.46214186516937
 40
20.5139635832251
 40
21.34083983469381
 40
21.34083983469381
 40
21.34083983469381
 40
21.34083983469381
 10
-27.59210487269413
 20
-2.550132675890437
 30
0.0
 10
-27.46213542906853
 20
-2.54175648972982
 30
0.0
 10
-27.26223288036
 20
-2.504270572754419
 30
0.0
 10
-26.91010287133913
 20
-2.430819766738115
 30
0.0
 10
-26.45409328186985
 20
-2.321600799441559
 30
0.0
 10
-25.99850732843143
 20
-2.198965682074792
 30
0.0
 10
-25.57694044771804
 20
-2.073621585298876
 30
0.0
 10
-25.30798820157544
 20
-1.987313254392273
 30
0.0
 10
-25.19000046313657
 20
-1.948301102380829
 30
0.0
  0
ELLIPSE
  5
290A
330
1F
100
AcDbEntity
  8
AM_0
 48
0.5
100
AcDbEllipse
 10
-27.81925904760193
 20
-1.726030464891898
 30
0.0
 11
-0.680964626399897
 21
0.0000000000001461
 31
0.0
210
0.0
220
0.0
230
1.0
 40
0.9361719761719749
 41
4.317028824483271
 42
6.257553905069562
  0
ELLIPSE
  5
290B
330
1F
100
AcDbEntity
  8
AM_0
 48
0.5
100
AcDbEllipse
 10
-27.59210458767271
 20
-1.700132675890471
 30
0.0
 11
-0.9079528351998639
 21
0.0000000000002638
 31
0.0
210
0.0
220
0.0
230
1.0
 40
0.9361719761719651
 41
0.0112467747894363
 42
1.570796012878642
  0
SPLINE
  5
290C
330
1F
100
AcDbEntity
  8
AM_0
100
AcDbSpline
210
0.0
220
0.0
230
1.0
 70
     8
 71
     3
 72
    17
 73
    13
 74
     0
 42
0.0000000001
 43
0.0000000001
 40
1.580019955310467
 40
1.580019955310467
 40
1.580019955310467
 40
1.580019955310467
 40
2.030549285115227
 40
3.082371838836284
 40
4.126290986361125
 40
5.162752068350215
 40
6.192395305374981
 40
7.216039564037012
 40
8.234688489606833
 40
9.249433870634691
 40
10.26152376260694
 40
11.27226744710342
 40
11.27226744710342
 40
11.27226744710342
 40
11.27226744710352
 10
-7.039314341436297
 20
-1.881976569186249
 30
0.0
 10
-7.104265561872002
 20
-1.901359349172913
 30
0.0
 10
-7.321224459281908
 20
-1.964888999519558
 30
0.0
 10
-7.691627100715549
 20
-2.064537529218588
 30
0.0
 10
-8.150425567455142
 20
-2.1761306631998
 30
0.0
 10
-8.60935034098307
 20
-2.274094618431302
 30
0.0
 10
-9.068296142283942
 20
-2.358100409933722
 30
0.0
 10
-9.527291944907316
 20
-2.427536975522792
 30
0.0
 10
-9.986319458233607
 20
-2.482008071335987
 30
0.0
 10
-10.44537555428735
 20
-2.521160706446181
 30
0.0
 10
-10.90444892311513
 20
-2.544742850794303
 30
0.0
 10
-11.21057211638547
 20
-2.550001494971934
 30
0.0
 10
-11.36353184519839
 20
-2.550001480380698
 30
0.0
  0
SPLINE
  5
290D
330
1F
100
AcDbEntity
  8
AM_0
100
AcDbSpline
210
0.0
220
0.0
230
1.0
 70
     8
 71
     3
 72
    22
 73
    18
 74
     0
 42
0.0000000001
 43
0.0000000001
 40
17.17441611292
 40
17.17441611292
 40
17.17441611292
 40
17.17441611292
 40
17.38177636558528
 40
18.41823744757437
 40
19.46215659509824
 40
20.51397914882054
 40
21.57394542641293
 40
22.64209583141747
 40
23.71826625065247
 40
24.80210429862395
 40
25.8930771157021
 40
26.99048705697709
 40
28.09349309193389
 40
29.20112995599786
 40
30.31233024745139
 40
31.42594771747373
 40
32.5407895042663
 40
32.54078950426994
 40
32.54078950426994
 40
32.54078950426994
 10
-13.11571323331683
 20
-2.289919936385741
 30
0.0
 10
-13.14645344054593
 20
-2.284016936494255
 30
0.0
 10
-13.33072419467941
 20
-2.248061118941412
 30
0.0
 10
-13.66829783263632
 20
-2.175965024994109
 30
0.0
 10
-14.12716017196368
 20
-2.064543245304921
 30
0.0
 10
-14.58597575418188
 20
-1.940397806270181
 30
0.0
 10
-15.04474781850318
 20
-1.80430365450259
 30
0.0
 10
-15.50347575892162
 20
-1.657095248370228
 30
0.0
 10
-15.96216522184618
 20
-1.499688733808649
 30
0.0
 10
-16.42081833113805
 20
-1.3330514806107
 30
0.0
 10
-16.87943933042912
 20
-1.158211131586186
 30
0.0
 10
-17.33803331929411
 20
-0.9762463409428606
 30
0.0
 10
-17.79660427805216
 20
-0.7882760156811481
 30
0.0
 10
-18.25515682296141
 20
-0.5954565810052279
 30
0.0
 10
-18.71369501869103
 20
-0.3989736581792934
 30
0.0
 10
-19.17222565808563
 20
-0.2000396530377907
 30
0.0
 10
-19.47785274829978
 20
-0.0666188356027101
 30
0.0
 10
-19.6307502513689
 20
0.0001282193269076
 30
0.0
  0
SPLINE
  5
290E
330
1F
100
AcDbEntity
  8
AM_0
100
AcDbSpline
210
0.0
220
0.0
230
1.0
 70
     8
 71
     3
 72
    11
 73
     7
 74
     0
 42
0.0000000001
 43
0.0000000001
 40
11.27226913003534
 40
11.27226913003534
 40
11.27226913003534
 40
11.2722691300354
 40
12.28301561507924
 40
13.29510212255852
 40
14.30984805882082
 40
15.18258238371378
 40
15.18258238371378
 40
15.18258238371378
 40
15.18258238371378
 10
-11.36353184519843
 20
-2.550001480380698
 30
0.0
 10
-11.51590994581867
 20
-2.537521039355529
 30
0.0
 10
-11.82037873298565
 20
-2.507306434804579
 30
0.0
 10
-12.27550969368037
 20
-2.446356103860597
 30
0.0
 10
-12.70743700058814
 20
-2.373557616491163
 30
0.0
 10
-12.98678222907184
 20
-2.317595252628306
 30
0.0
 10
-13.11551246470524
 20
-2.289951390616239
 30
0.0
  0
LINE
  5
290F
330
1F
100
AcDbEntity
  8
AM_11
 48
0.5
100
AcDbLine
 10
-11.36353184519844
 20
-2.550001480380698
 30
0.0
 11
-2.715771530751966
 21
-2.550001480380966
 31
0.0
  0
LINE
  5
2910
330
1F
100
AcDbEntity
  8
AM_0
 48
0.5
100
AcDbLine
 10
-21.07958061988499
 20
-2.550013389120096
 30
0.0
 11
-11.36353184519844
 21
-2.550001480380698
 31
0.0
  0
SPLINE
  5
2911
330
1F
100
AcDbEntity
  8
AM_0
100
AcDbSpline
210
0.0
220
0.0
230
1.0
 70
     8
 71
     3
 72
    46
 73
    42
 74
     0
 42
0.0000000001
 43
0.0000000001
 40
0.0
 40
0.0
 40
0.0
 40
0.0
 40
0.5056245176053715
 40
0.759310862862336
 40
1.013969309739036
 40
1.269880374404297
 40
1.527291183660732
 40
1.786406454158005
 40
2.047386241038974
 40
2.310345544571907
 40
2.575337113970003
 40
2.842374715221223
 40
3.111417320030211
 40
3.382376832022752
 40
3.655120036292296
 40
3.929472521611371
 40
4.205224030350333
 40
4.482133246366229
 40
4.759933319229942
 40
5.038338087391601
 40
5.317048131389549
 40
5.595758175387723
 40
5.874162943549383
 40
6.151963016412869
 40
6.428872232428759
 40
6.704623741167955
 40
6.978976226486705
 40
7.251719430756336
 40
7.522680721168327
 40
7.791723325977311
 40
8.058760927228529
 40
8.32375249662655
 40
8.586708135057122
 40
8.84768792193809
 40
9.106803192435362
 40
9.364213819003406
 40
9.620125035580644
 40
9.87478726697307
 40
10.12847352585208
 40
10.38149610319407
 40
10.63418200686337
 40
10.63418200686337
 40
10.63418200686337
 40
10.63418200686337
 10
-1.43067800829903
 20
-2.550001480381003
 30
0.0
 10
-1.736816153408978
 20
-2.544192383263662
 30
0.0
 10
-2.196552600168751
 20
-2.53546869524808
 30
0.0
 10
-2.807884201721107
 20
-2.481758550762941
 30
0.0
 10
-3.266914505003563
 20
-2.42760443759014
 30
0.0
 10
-3.725905572122513
 20
-2.358079755212553
 30
0.0
 10
-4.184856193938316
 20
-2.274108998514198
 30
0.0
 10
-4.643764012731613
 20
-2.176093619248513
 30
0.0
 10
-5.102628259900776
 20
-2.06467212539163
 30
0.0
 10
-5.561446893337797
 20
-1.940528661409753
 30
0.0
 10
-6.020220830111123
 20
-1.804433211104275
 30
0.0
 10
-6.478948836258365
 20
-1.657224986808896
 30
0.0
 10
-6.937638281490337
 20
-1.499818423213095
 30
0.0
 10
-7.396291395129444
 20
-1.333181182397328
 30
0.0
 10
-7.854912394918813
 20
-1.158340833405284
 30
0.0
 10
-8.313506377344404
 20
-0.9763760300166536
 30
0.0
 10
-8.772077361547054
 20
-0.7884057560854489
 30
0.0
 10
-9.230629810579461
 20
-0.5955861277439438
 30
0.0
 10
-9.689168586404788
 20
-0.3991038368201186
 30
0.0
 10
-10.14769787780471
 20
-0.2001671112881945
 30
0.0
 10
-10.60622331472644
 20
-0.0000014804212215
 30
0.0
 10
-11.06474875154745
 20
0.2001641506889845
 30
0.0
 10
-11.52327804324954
 20
0.3991008754915489
 30
0.0
 10
-11.98181681797046
 20
0.5955831690808934
 30
0.0
 10
-12.44036927109801
 20
0.7884027875369425
 30
0.0
 10
-12.89894024011629
 20
0.9763730981223771
 30
0.0
 10
-13.35753427877481
 20
1.15833776576752
 30
0.0
 10
-13.81615606758185
 20
1.33317899697143
 30
0.0
 10
-14.27481096332568
 20
1.499814723803393
 30
0.0
 10
-14.73350122678931
 20
1.657222094526141
 30
0.0
 10
-15.19222922225607
 20
1.804430362623812
 30
0.0
 10
-15.65100127443818
 20
1.940524562328399
 30
0.0
 10
-16.109816850861
 20
2.064669946704505
 30
0.0
 10
-16.56867922497709
 20
2.176091895730391
 30
0.0
 10
-17.02758677817865
 20
2.274100862315382
 30
0.0
 10
-17.48653773646895
 20
2.358095973842143
 30
0.0
 10
-17.9455317329043
 20
2.427521374081806
 30
0.0
 10
-18.40455967091998
 20
2.482056722122888
 30
0.0
 10
-18.86361600877082
 20
2.52096482133037
 30
0.0
 10
-19.32268901002524
 20
2.545448196504878
 30
0.0
 10
-19.62881232664525
 20
2.548482418588954
 30
0.0
 10
-19.78177208468547
 20
2.549998519619557
 30
0.0
  0
LINE
  5
2912
330
1F
100
AcDbEntity
  8
AM_0
100
AcDbLine
 10
-21.0668546953079
 20
2.549998519619596
 30
0.0
 11
-11.21485519408832
 21
2.550000140858158
 31
0.0
  0
DIMENSION
  5
299F
330
1F
100
AcDbEntity
  8
AM_5
100
AcDbDimension
  2
*D9
 10
-0.3082275505119658
 20
-0.8468422675055965
 30
0.0
 11
13.94974238466653
 21
-0.0000158154242543
 31
0.0
 70
    34
  1
<>
 51
359.9999999999998
  3
AM_JIS$2
100
AcDb2LineAngularDimension
 13
0.0000000000000487
 23
0.0000000000000966
 33
0.0
 14
-0.3082220015099192
 24
0.8468329963645198
 34
0.0
 15
0.0000000000000389
 25
0.000000000000107
 35
0.0
 16
14.23210846450062
 26
-6.13914510709712
 36
0.0
1001
ACAD
1000
DSTYLE
1002
{
1070
   179
1070
     3
1002
}
1001
GENIUS_GENDTOL_13
1000

1000
h7
1000

1040
0.0
  0
VIEWPORT
  5
110
330
101
100
AcDbEntity
 67
     1
  8
0
100
AcDbViewport
 10
420.5
 20
297.0
 30
0.0
 40
948.9782706766916
 41
628.452
 68
     1
 69
     1
1001
ACAD
1000
MVIEW
1002
{
1070
    16
1010
0.0
1020
0.0
1030
0.0
1010
0.0
1020
0.0
1030
1.0
1040
0.0
1040
628.452
1040
420.5
1040
297.0
1040
50.0
1040
0.0
1040
0.0
1070
     0
1070
   100
1070
     1
1070
     1
1070
     0
1070
     0
1070
     0
1070
     0
1040
0.0
1040
0.0
1040
0.0
1040
10.0
1040
10.0
1040
10.0
1040
10.0
1070
     0
1002
{
1002
}
1002
}
  0
ENDSEC
  0
SECTION
  2
OBJECTS
  0
DICTIONARY
  5
C
330
0
100
AcDbDictionary
  3
ACAD_GROUP
350
D
  3
ACAD_LAYOUT
350
1A
  3
ACAD_MLINESTYLE
350
17
  3
ACAD_PLOTSETTINGS
350
19
  3
ACAD_PLOTSTYLENAME
350
E
  3
ACDBVARIABLEDICTIONARY
350
34
  3
ACMDICTIONARY
350
43
  3
AMG
350
2B
  3
AMGSNAPSETTINGS
350
6E
  3
DWGPROPS
350
2BA8
  3
ACDBHEADERROUNDTRIPXREC
350
2BB4
  0
DICTIONARY
  5
74
330
1F
100
AcDbDictionary
280
     1
  3
ACAD_INDEX
360
2BAA
  3
ACAD_LAYOUTSELFREF
360
2BD7
  0
DICTIONARY
  5
2BDC
330
101
100
AcDbDictionary
280
     1
  3
ACAD_LAYOUTSELFREF
360
2BDD
  0
DICTIONARY
  5
D
102
{ACAD_REACTORS
330
C
102
}
330
C
100
AcDbDictionary
  0
DICTIONARY
  5
1A
102
{ACAD_REACTORS
330
C
102
}
330
C
100
AcDbDictionary
  0
DICTIONARY
  5
17
102
{ACAD_REACTORS
330
C
102
}
330
C
100
AcDbDictionary
  3
STANDARD
350
18
  0
DICTIONARY
  5
19
102
{ACAD_REACTORS
330
C
102
}
330
C
100
AcDbDictionary
  0
ACDBDICTIONARYWDFLT
  5
E
102
{ACAD_REACTORS
330
C
102
}
330
C
100
AcDbDictionary
281
     1
  3
Normal
350
F
100
AcDbDictionaryWithDefault
340
F
  0
DICTIONARY
  5
34
102
{ACAD_REACTORS
330
C
102
}
330
C
100
AcDbDictionary
  3
INDEXCTL
350
35
  3
SORTENTS
350
B5E
  0
DICTIONARY
  5
43
102
{ACAD_REACTORS
330
C
102
}
330
C
100
AcDbDictionary
  3
ACMSTDDICTIONARY
350
260
  0
DICTIONARY
  5
2B
102
{ACAD_REACTORS
330
C
102
}
330
C
100
AcDbDictionary
  3
ACMGSETTINGS
350
2C
  0
DICTIONARY
  5
6E
102
{ACAD_REACTORS
330
C
102
}
330
C
100
AcDbDictionary
  0
XRECORD
  5
2BA8
102
{ACAD_REACTORS
330
C
102
}
330
C
100
AcDbXrecord
  1
DWGPROPS COOKIE
  2

  3

  4

  6

  7

  8

  9

300
AmdtFileType=82
301
=
302
=
303
=
304
=
305
=
306
=
307
=
308
=
309
=
 40
0.0777803125
 41
2452800.443498622
 42
2452946.605038692
  1

 90
        1
  0
DICTIONARY
  5
2BB4
102
{ACAD_REACTORS
330
C
102
}
330
C
100
AcDbDictionary
  3
TSTACKALIGN
350
2BB5
  3
TSTACKSIZE
350
2BB6
  3
HYPERLINKBASE
350
2BB7
  3
STYLESHEET
350
2BB8
  3
LAYOUTDICT
350
2BB9
  3
PLOTSETDICT
350
2BBA
  3
PLOTSTYLNAMDICT
350
2BBB
  3
LWETCUNION
350
2BBC
  3
INSUNITS
350
2BBD
  3
CEPSNTYPE
350
2BBE
  3
FINGERPRINTGUID
350
2BBF
  3
VERSIONGUID
350
2BC0
  3
PSVPSCALE
350
2BC1
  3
DIMSTYLEDATA
350
2BC2
  3
PUCSORTHOREF
350
2BC3
  3
PUCSORTHOVIEW
350
2BC4
  3
PUCSBASE
350
2BC5
  3
PUCSORGTOP
350
2BC6
  3
PUCSORGBOTTOM
350
2BC7
  3
PUCSORGLEFT
350
2BC8
  3
PUCSORGRIGHT
350
2BC9
  3
PUCSORGFRONT
350
2BCA
  3
PUCSORGBACK
350
2BCB
  3
UCSORTHOREF
350
2BCC
  3
UCSORTHOVIEW
350
2BCD
  3
UCSBASE
350
2BCE
  3
UCSORGTOP
350
2BCF
  3
UCSORGBOTTOM
350
2BD0
  3
UCSORGLEFT
350
2BD1
  3
UCSORGRIGHT
350
2BD2
  3
UCSORGFRONT
350
2BD3
  3
UCSORGBACK
350
2BD4
  0
DICTIONARY
  5
2BAA
102
{ACAD_REACTORS
330
74
102
}
330
74
100
AcDbDictionary
  3
*A1
350
2BAB
  0
XRECORD
  5
2BD7
102
{ACAD_REACTORS
330
74
102
}
330
74
100
AcDbXrecord
340
1F
  0
XRECORD
  5
2BDD
102
{ACAD_REACTORS
330
2BDC
102
}
330
2BDC
100
AcDbXrecord
340
101
  0
MLINESTYLE
  5
18
102
{ACAD_REACTORS
330
17
102
}
330
17
100
AcDbMlineStyle
  2
STANDARD
 70
     0
  3

 62
   256
 51
90.0
 52
90.0
 71
     2
 49
0.5
 62
   256
  6
BYLAYER
 49
-0.5
 62
   256
  6
BYLAYER
  0
ACDBPLACEHOLDER
  5
F
102
{ACAD_REACTORS
330
E
102
}
330
E
100
AcDbPlaceHolder
280
     0
  0
DICTIONARYVAR
  5
35
102
{ACAD_REACTORS
330
34
102
}
330
34
100
DictionaryVariables
280
     0
  1
1
  0
DICTIONARYVAR
  5
B5E
102
{ACAD_REACTORS
330
34
102
}
330
34
100
DictionaryVariables
280
     0
  1
96
  0
DICTIONARY
  5
260
102
{ACAD_REACTORS
330
43
102
}
330
43
100
AcDbDictionary
  0
DICTIONARY
  5
2C
102
{ACAD_REACTORS
330
2B
102
}
330
2B
100
AcDbDictionary
  3
DWGSETTINGS
350
2D
  0
XRECORD
  5
2BB5
102
{ACAD_REACTORS
330
2BB4
102
}
330
2BB4
100
AcDbXrecord
 90
        1
  0
XRECORD
  5
2BB6
102
{ACAD_REACTORS
330
2BB4
102
}
330
2BB4
100
AcDbXrecord
 90
       70
  0
XRECORD
  5
2BB7
102
{ACAD_REACTORS
330
2BB4
102
}
330
2BB4
100
AcDbXrecord
  1

  0
XRECORD
  5
2BB8
102
{ACAD_REACTORS
330
2BB4
102
}
330
2BB4
100
AcDbXrecord
  1
ASAMI.ctb
  0
XRECORD
  5
2BB9
102
{ACAD_REACTORS
330
2BB4
102
}
330
2BB4
100
AcDbXrecord
340
1A
  0
XRECORD
  5
2BBA
102
{ACAD_REACTORS
330
2BB4
102
}
330
2BB4
100
AcDbXrecord
340
19
  0
XRECORD
  5
2BBB
102
{ACAD_REACTORS
330
2BB4
102
}
330
2BB4
100
AcDbXrecord
340
E
  0
XRECORD
  5
2BBC
102
{ACAD_REACTORS
330
2BB4
102
}
330
2BB4
100
AcDbXrecord
 90
    10781
  0
XRECORD
  5
2BBD
102
{ACAD_REACTORS
330
2BB4
102
}
330
2BB4
100
AcDbXrecord
 90
        4
  0
XRECORD
  5
2BBE
102
{ACAD_REACTORS
330
2BB4
102
}
330
2BB4
100
AcDbXrecord
 90
        0
  0
XRECORD
  5
2BBF
102
{ACAD_REACTORS
330
2BB4
102
}
330
2BB4
100
AcDbXrecord
  1
{AFB28963-8C59-40AE-9337-C84526B81ACE}
  0
XRECORD
  5
2BC0
102
{ACAD_REACTORS
330
2BB4
102
}
330
2BB4
100
AcDbXrecord
  1
{7D13CC6E-838D-460E-B1A4-6BECF5D6CAEB}
  0
XRECORD
  5
2BC1
102
{ACAD_REACTORS
330
2BB4
102
}
330
2BB4
100
AcDbXrecord
 40
0.0
  0
XRECORD
  5
2BC2
102
{ACAD_REACTORS
330
2BB4
102
}
330
2BB4
100
AcDbXrecord
1000
DSTYLE
1002
{
1070
    79
 70
     2
1070
   341
340
59
1070
   342
340
59
1070
   371
 70
    -1
1070
   372
 70
    -1
1002
}
  0
XRECORD
  5
2BC3
102
{ACAD_REACTORS
330
2BB4
102
}
330
2BB4
100
AcDbXrecord
340
0
  0
XRECORD
  5
2BC4
102
{ACAD_REACTORS
330
2BB4
102
}
330
2BB4
100
AcDbXrecord
 70
     0
  0
XRECORD
  5
2BC5
102
{ACAD_REACTORS
330
2BB4
102
}
330
2BB4
100
AcDbXrecord
340
0
  0
XRECORD
  5
2BC6
102
{ACAD_REACTORS
330
2BB4
102
}
330
2BB4
100
AcDbXrecord
 10
0.0
 20
0.0
 30
0.0
  0
XRECORD
  5
2BC7
102
{ACAD_REACTORS
330
2BB4
102
}
330
2BB4
100
AcDbXrecord
 10
0.0
 20
0.0
 30
0.0
  0
XRECORD
  5
2BC8
102
{ACAD_REACTORS
330
2BB4
102
}
330
2BB4
100
AcDbXrecord
 10
0.0
 20
0.0
 30
0.0
  0
XRECORD
  5
2BC9
102
{ACAD_REACTORS
330
2BB4
102
}
330
2BB4
100
AcDbXrecord
 10
0.0
 20
0.0
 30
0.0
  0
XRECORD
  5
2BCA
102
{ACAD_REACTORS
330
2BB4
102
}
330
2BB4
100
AcDbXrecord
 10
0.0
 20
0.0
 30
0.0
  0
XRECORD
  5
2BCB
102
{ACAD_REACTORS
330
2BB4
102
}
330
2BB4
100
AcDbXrecord
 10
0.0
 20
0.0
 30
0.0
  0
XRECORD
  5
2BCC
102
{ACAD_REACTORS
330
2BB4
102
}
330
2BB4
100
AcDbXrecord
340
0
  0
XRECORD
  5
2BCD
102
{ACAD_REACTORS
330
2BB4
102
}
330
2BB4
100
AcDbXrecord
 70
     0
  0
XRECORD
  5
2BCE
102
{ACAD_REACTORS
330
2BB4
102
}
330
2BB4
100
AcDbXrecord
340
0
  0
XRECORD
  5
2BCF
102
{ACAD_REACTORS
330
2BB4
102
}
330
2BB4
100
AcDbXrecord
 10
0.0
 20
0.0
 30
0.0
  0
XRECORD
  5
2BD0
102
{ACAD_REACTORS
330
2BB4
102
}
330
2BB4
100
AcDbXrecord
 10
0.0
 20
0.0
 30
0.0
  0
XRECORD
  5
2BD1
102
{ACAD_REACTORS
330
2BB4
102
}
330
2BB4
100
AcDbXrecord
 10
0.0
 20
0.0
 30
0.0
  0
XRECORD
  5
2BD2
102
{ACAD_REACTORS
330
2BB4
102
}
330
2BB4
100
AcDbXrecord
 10
0.0
 20
0.0
 30
0.0
  0
XRECORD
  5
2BD3
102
{ACAD_REACTORS
330
2BB4
102
}
330
2BB4
100
AcDbXrecord
 10
0.0
 20
0.0
 30
0.0
  0
XRECORD
  5
2BD4
102
{ACAD_REACTORS
330
2BB4
102
}
330
2BB4
100
AcDbXrecord
 10
0.0
 20
0.0
 30
0.0
  0
LAYER_INDEX
  5
2BAB
102
{ACAD_REACTORS
330
2BAA
102
}
330
2BAA
100
AcDbIndex
 40
2453151.578993946
100
AcDbLayerIndex
  8
0
360
2BAC
 90
        0
  8
AM_0
360
2BAD
 90
       44
  8
AM_7
360
2BAE
 90
        1
  8
AM_11
360
2BAF
 90
       19
  8
AM_5
360
2BB0
 90
        5
  8
Defpoints
360
2BB1
 90
        0
  8
AM_6
360
2BB2
 90
        1
  0
XRECORD
  5
2D
102
{ACAD_REACTORS
330
2C
102
}
330
2C
100
AcDbXrecord
  1
VERSION
140
15.0
  1
PRODUCT
  2
AutoCAD Mechanical 2000
  0
IDBUFFER
  5
2BAC
330
0
100
AcDbIdBuffer
  0
IDBUFFER
  5
2BAD
330
0
100
AcDbIdBuffer
330
243B
330
2440
330
2442
330
2445
330
2446
330
2447
330
244F
330
2450
330
2452
330
2453
330
2454
330
245F
330
270B
330
270C
330
2902
330
2904
330
2905
330
2906
330
2907
330
2909
330
290A
330
290B
330
290C
330
290D
330
290E
330
2910
330
2911
330
2912
330
C1D
330
C20
330
1F19
330
1F1A
330
1F1B
330
1F1C
330
1F2F
330
1F31
330
1F32
330
1F5B
330
1F5C
330
2422
330
2423
330
2433
330
2436
330
2437
  0
IDBUFFER
  5
2BAE
330
0
100
AcDbIdBuffer
330
C9F
  0
IDBUFFER
  5
2BAF
330
0
100
AcDbIdBuffer
330
2903
330
2908
330
290F
330
144A
330
144B
330
144E
330
144F
330
1450
330
1451
330
1452
330
1453
330
1454
330
1DAB
330
1DAC
330
1DAD
330
1DAE
330
1DAF
330
1DB0
330
2435
  0
IDBUFFER
  5
2BB0
330
0
100
AcDbIdBuffer
330
CC6
330
DF5
330
2424
330
254C
330
299F
  0
IDBUFFER
  5
2BB1
330
0
100
AcDbIdBuffer
  0
IDBUFFER
  5
2BB2
330
0
100
AcDbIdBuffer
330
19BD
  0
ENDSEC
  0
EOF
