  0
SECTION
  2
HEADER
  9
$ACADVER
  1
AC1014
  9
$ACADMAINTVER
 70
     9
  9
$DWGCODEPAGE
  3
ANSI_932
  9
$INSBASE
 10
0.0
 20
0.0
 30
0.0
  9
$EXTMIN
 10
-112.0250219808317
 20
-26.25000100000011
 30
-0.00000001
  9
$EXTMAX
 10
15.50703714757518
 20
15.04169468822249
 30
0.00000001
  9
$LIMMIN
 10
-118.7376616840613
 20
-44.05358703045147
  9
$LIMMAX
 10
23.3009026967577
 20
29.02021291074325
  9
$ORTHOMODE
 70
     0
  9
$REGENMODE
 70
     1
  9
$FILLMODE
 70
     1
  9
$QTEXTMODE
 70
     0
  9
$MIRRTEXT
 70
     0
  9
$DRAGMODE
 70
     2
  9
$LTSCALE
 40
1.0
  9
$OSMODE
 70
    55
  9
$ATTMODE
 70
     1
  9
$TEXTSIZE
 40
2.5
  9
$TRACEWID
 40
1.0
  9
$TEXTSTYLE
  7
STANDARD
  9
$CLAYER
  8
AM_0
  9
$CELTYPE
  6
BYLAYER
  9
$CECOLOR
 62
   256
  9
$CELTSCALE
 40
1.0
  9
$DELOBJ
 70
     1
  9
$DISPSILH
 70
     0
  9
$DIMSCALE
 40
0.5
  9
$DIMASZ
 40
2.5
  9
$DIMEXO
 40
1.0
  9
$DIMDLI
 40
12.0
  9
$DIMRND
 40
0.0
  9
$DIMDLE
 40
0.0
  9
$DIMEXE
 40
1.0
  9
$DIMTP
 40
0.1
  9
$DIMTM
 40
0.1
  9
$DIMTXT
 40
3.2
  9
$DIMCEN
 40
0.0
  9
$DIMTSZ
 40
0.0
  9
$DIMTOL
 70
     0
  9
$DIMLIM
 70
     0
  9
$DIMTIH
 70
     0
  9
$DIMTOH
 70
     0
  9
$DIMSE1
 70
     0
  9
$DIMSE2
 70
     0
  9
$DIMTAD
 70
     3
  9
$DIMZIN
 70
     8
  9
$DIMBLK
  1
OPEN30
  9
$DIMASO
 70
     1
  9
$DIMSHO
 70
     1
  9
$DIMPOST
  1

  9
$DIMAPOST
  1
"
  9
$DIMALT
 70
     0
  9
$DIMALTD
 70
     2
  9
$DIMALTF
 40
0.0393701
  9
$DIMLFAC
 40
1.0
  9
$DIMTOFL
 70
     1
  9
$DIMTVP
 40
0.0
  9
$DIMTIX
 70
     0
  9
$DIMSOXD
 70
     0
  9
$DIMSAH
 70
     0
  9
$DIMBLK1
  1

  9
$DIMBLK2
  1

  9
$DIMSTYLE
  2
AM_JIS
  9
$DIMCLRD
 70
   256
  9
$DIMCLRE
 70
   256
  9
$DIMCLRT
 70
     2
  9
$DIMTFAC
 40
0.71
  9
$DIMGAP
 40
1.5
  9
$DIMJUST
 70
     0
  9
$DIMSD1
 70
     0
  9
$DIMSD2
 70
     0
  9
$DIMTOLJ
 70
     0
  9
$DIMTZIN
 70
     0
  9
$DIMALTZ
 70
     0
  9
$DIMALTTZ
 70
     0
  9
$DIMFIT
 70
     3
  9
$DIMUPT
 70
     0
  9
$DIMUNIT
 70
     2
  9
$DIMDEC
 70
     3
  9
$DIMTDEC
 70
     3
  9
$DIMALTU
 70
     2
  9
$DIMALTTD
 70
     2
  9
$DIMTXSTY
  7
ASAMI
  9
$DIMAUNIT
 70
     0
  9
$LUNITS
 70
     2
  9
$LUPREC
 70
     2
  9
$SKETCHINC
 40
1.0
  9
$FILLETRAD
 40
2.5
  9
$AUNITS
 70
     0
  9
$AUPREC
 70
     0
  9
$MENU
  1
.
  9
$ELEVATION
 40
0.0
  9
$PELEVATION
 40
0.0
  9
$THICKNESS
 40
0.0
  9
$LIMCHECK
 70
     0
  9
$BLIPMODE
 70
     0
  9
$CHAMFERA
 40
0.25
  9
$CHAMFERB
 40
0.25
  9
$CHAMFERC
 40
20.0
  9
$CHAMFERD
 40
0.0
  9
$SKPOLY
 70
     0
  9
$TDCREATE
 40
2452800.443498622
  9
$TDUPDATE
 40
2453151.692773055
  9
$TDINDWG
 40
0.0759579514
  9
$TDUSRTIMER
 40
0.0759579514
  9
$USRTIMER
 70
     1
  9
$ANGBASE
 50
0.0
  9
$ANGDIR
 70
     0
  9
$PDMODE
 70
     3
  9
$PDSIZE
 40
0.0
  9
$PLINEWID
 40
0.0
  9
$COORDS
 70
     1
  9
$SPLFRAME
 70
     0
  9
$SPLINETYPE
 70
     6
  9
$SPLINESEGS
 70
     8
  9
$ATTDIA
 70
     1
  9
$ATTREQ
 70
     1
  9
$HANDLING
 70
 12289
  9
$HANDSEED
  5
29CC
  9
$SURFTAB1
 70
     6
  9
$SURFTAB2
 70
     6
  9
$SURFTYPE
 70
     6
  9
$SURFU
 70
     6
  9
$SURFV
 70
     6
  9
$UCSNAME
  2

  9
$UCSORG
 10
-0.0000000000000168
 20
-0.0000000000000414
 30
0.0
  9
$UCSXDIR
 10
1.0
 20
0.000000000000002
 30
0.0
  9
$UCSYDIR
 10
-0.000000000000002
 20
1.0
 30
0.0
  9
$PUCSNAME
  2

  9
$PUCSORG
 10
0.0
 20
0.0
 30
0.0
  9
$PUCSXDIR
 10
1.0
 20
0.0
 30
0.0
  9
$PUCSYDIR
 10
0.0
 20
1.0
 30
0.0
  9
$USERI1
 70
     0
  9
$USERI2
 70
     0
  9
$USERI3
 70
     0
  9
$USERI4
 70
     0
  9
$USERI5
 70
     0
  9
$USERR1
 40
0.0
  9
$USERR2
 40
0.0
  9
$USERR3
 40
0.0
  9
$USERR4
 40
0.0
  9
$USERR5
 40
0.0
  9
$WORLDVIEW
 70
     1
  9
$SHADEDGE
 70
     3
  9
$SHADEDIF
 70
    70
  9
$TILEMODE
 70
     1
  9
$MAXACTVP
 70
    64
  9
$PINSBASE
 10
0.0
 20
0.0
 30
0.0
  9
$PLIMCHECK
 70
     0
  9
$PEXTMIN
 10
1.000000000000000E+20
 20
1.000000000000000E+20
 30
1.000000000000000E+20
  9
$PEXTMAX
 10
-1.000000000000000E+20
 20
-1.000000000000000E+20
 30
-1.000000000000000E+20
  9
$PLIMMIN
 10
0.0
 20
0.0
  9
$PLIMMAX
 10
841.0
 20
594.0
  9
$UNITMODE
 70
     0
  9
$VISRETAIN
 70
     1
  9
$PLINEGEN
 70
     0
  9
$PSLTSCALE
 70
     0
  9
$TREEDEPTH
 70
  3020
  9
$PICKSTYLE
 70
     0
  9
$CMLSTYLE
  2
STANDARD
  9
$CMLJUST
 70
     0
  9
$CMLSCALE
 40
20.0
  9
$PROXYGRAPHICS
 70
     1
  9
$MEASUREMENT
 70
     1
  0
ENDSEC
  0
SECTION
  2
CLASSES
  0
CLASS
  1
ACDBDICTIONARYWDFLT
  2
AcDbDictionaryWithDefault
  3
AutoCAD 2000
 90
        0
280
     0
281
     0
  0
CLASS
  1
ACDBPLACEHOLDER
  2
AcDbPlaceHolder
  3
AutoCAD 2000
 90
        0
280
     0
281
     0
  0
CLASS
  1
LAYOUT
  2
AcDbLayout
  3
AutoCAD 2000
 90
        0
280
     0
281
     0
  0
CLASS
  1
AMGSETTINGSOBJ
  2
AmgSettingsObj
  3
"AcadM|Product Description: AutoCAD Mechanical 2000|Company: Autodesk"
 90
        0
280
     0
281
     0
  0
CLASS
  1
ACME_DOCUMENT
  2
AcMeDbDoc
  3
AcMeServices
 90
        0
280
     0
281
     0
  0
CLASS
  1
ACMESCOPE
  2
AcMeScope
  3
AcMeServices
 90
        0
280
     0
281
     0
  0
CLASS
  1
ACMECOMMANDHISTORY
  2
AcMeCommandHistory
  3
AcMeServices
 90
        0
280
     0
281
     0
  0
CLASS
  1
DICTIONARYVAR
  2
AcDbDictionaryVar
  3
AutoCAD 2000
 90
        0
280
     0
281
     0
  0
CLASS
  1
ACIMSYSVARMAN
  2
AcImSysVarManager
  3
AcMeServices
 90
        0
280
     0
281
     0
  0
CLASS
  1
ACIMREALSYSVAR
  2
AcImRealSysVar
  3
AcMeServices
 90
        0
280
     0
281
     0
  0
CLASS
  1
ACIMINTSYSVAR
  2
AcImIntSysVar
  3
AcMeServices
 90
        0
280
     0
281
     0
  0
CLASS
  1
ACMEDRAWINGMAN
  2
AcMeDrawingMan
  3
AcMeServices
 90
        0
280
     0
281
     0
  0
CLASS
  1
ACMEVIEW
  2
AcMeView
  3
AcMeServices
 90
        0
280
     0
281
     0
  0
CLASS
  1
ACDBENTITYCACHE
  2
AcMeEntityCache
  3
AcMeServices
 90
        0
280
     0
281
     0
  0
CLASS
  1
GSMANAGER
  2
AcMeGSManager
  3
AcMeServices
 90
        0
280
     0
281
     0
  0
CLASS
  1
AmdtInternalReactor
  2
AmdtInternalReactor
  3
AcMeServices
 90
        0
280
     0
281
     0
  0
CLASS
  1
ACMESTATEMGR
  2
AcMeStateMgr
  3
AcMeServices
 90
        0
280
     0
281
     0
  0
CLASS
  1
ACME_DATABASE
  2
AcMeDbDatabase
  3
AcMeServices
 90
        0
280
     0
281
     0
  0
CLASS
  1
ACRFINSADJUSTERMGR
  2
AcRfInsAdjusterMgr
  3
AcMeServices
 90
        0
280
     0
281
     0
  0
CLASS
  1
ACMDATADICTIONARY
  2
AcmDataDictionary
  3
"AcmSymBB|Product Description: AutoCAD Mechanical 2000|Company: Autodesk"
 90
        0
280
     0
281
     0
  0
CLASS
  1
ACMDATAENTRYBLOCK
  2
AcmDataEntryBlock
  3
"AcmSymBB|Product Description: AutoCAD Mechanical 2000|Company: Autodesk"
 90
        0
280
     0
281
     0
  0
CLASS
  1
AMGOBJPROPCFG
  2
AmgObjPropCfg
  3
"AmgLay|Product Description: AutoCAD Mechanical 2000|Company: Autodesk"
 90
        1
280
     0
281
     0
  0
CLASS
  1
ACAMGFILTERDAT
  2
AcAmgFilterDat
  3
"AcadM|Product Description: AutoCAD Mechanical 2000|Company: Autodesk"
 90
        0
280
     0
281
     0
  0
CLASS
  1
LAYER_INDEX
  2
AcDbLayerIndex
  3
AutoCAD 2000
 90
        0
280
     0
281
     0
  0
CLASS
  1
IDBUFFER
  2
AcDbIdBuffer
  3
AutoCAD 2000
 90
        0
280
     0
281
     0
  0
CLASS
  1
ACIMSTRSYSVAR
  2
AcImStrSysVar
  3
AcMeServices
 90
        0
280
     0
281
     0
  0
CLASS
  1
ACMSTANDARDJIS
  2
AcmStandardJIS
  3
"AcmSymBB|Product Description: AutoCAD Mechanical 2000|Company: Autodesk"
 90
        0
280
     0
281
     0
  0
CLASS
  1
ACMSURFSTANDARDJIS
  2
AcmSurfTextStdJIS
  3
"AcmSymBB|Product Description: AutoCAD Mechanical 2000|Company: Autodesk"
 90
        0
280
     0
281
     0
  0
CLASS
  1
ACMFCFSTANDARDJIS
  2
AcmFCFStdJIS
  3
"AcmSymBB|Product Description: AutoCAD Mechanical 2000|Company: Autodesk"
 90
        0
280
     0
281
     0
  0
CLASS
  1
ACMWELDSTANDARDJIS
  2
AcmWeldingStdJIS
  3
"AcmSymBB|Product Description: AutoCAD Mechanical 2000|Company: Autodesk"
 90
        0
280
     0
281
     0
  0
CLASS
  1
ACMIDSTANDARDJIS
  2
AcmIdStdJIS
  3
"AcmSymBB|Product Description: AutoCAD Mechanical 2000|Company: Autodesk"
 90
        0
280
     0
281
     0
  0
CLASS
  1
ACMDATUMSTANDARDJIS
  2
AcmDatumStdJIS
  3
"AcmSymBB|Product Description: AutoCAD Mechanical 2000|Company: Autodesk"
 90
        0
280
     0
281
     0
  0
CLASS
  1
ACMBOMSTANDARDJIS
  2
AcmBOMStdJIS
  3
"AcmSymBB|Product Description: AutoCAD Mechanical 2000|Company: Autodesk"
 90
        0
280
     0
281
     0
  0
CLASS
  1
ACMSTANDARDANSI
  2
AcmStandardANSI
  3
"AcmSymBB|Product Description: AutoCAD Mechanical 2000|Company: Autodesk"
 90
        0
280
     0
281
     0
  0
CLASS
  1
ACMSURFSTANDARDANSI
  2
AcmSurfTextStdANSI
  3
"AcmSymBB|Product Description: AutoCAD Mechanical 2000|Company: Autodesk"
 90
        0
280
     0
281
     0
  0
CLASS
  1
ACMFCFSTANDARDANSI
  2
AcmFCFStdANSI
  3
"AcmSymBB|Product Description: AutoCAD Mechanical 2000|Company: Autodesk"
 90
        0
280
     0
281
     0
  0
CLASS
  1
ACMWELDSTANDARDANSI
  2
AcmWeldingStdANSI
  3
"AcmSymBB|Product Description: AutoCAD Mechanical 2000|Company: Autodesk"
 90
        0
280
     0
281
     0
  0
CLASS
  1
ACMIDSTANDARDANSI
  2
AcmIdStdANSI
  3
"AcmSymBB|Product Description: AutoCAD Mechanical 2000|Company: Autodesk"
 90
        0
280
     0
281
     0
  0
CLASS
  1
ACMDATUMSTANDARDANSI
  2
AcmDatumStdANSI
  3
"AcmSymBB|Product Description: AutoCAD Mechanical 2000|Company: Autodesk"
 90
        0
280
     0
281
     0
  0
CLASS
  1
ACMBOMSTANDARDANSI
  2
AcmBOMStdANSI
  3
"AcmSymBB|Product Description: AutoCAD Mechanical 2000|Company: Autodesk"
 90
        0
280
     0
281
     0
  0
CLASS
  1
ACMSTANDARDBSI
  2
AcmStandardBSI
  3
"AcmSymBB|Product Description: AutoCAD Mechanical 2000|Company: Autodesk"
 90
        0
280
     0
281
     0
  0
CLASS
  1
ACMSURFSTANDARDBSI
  2
AcmSurfTextStdBSI
  3
"AcmSymBB|Product Description: AutoCAD Mechanical 2000|Company: Autodesk"
 90
        0
280
     0
281
     0
  0
CLASS
  1
ACMFCFSTANDARDBSI
  2
AcmFCFStdBSI
  3
"AcmSymBB|Product Description: AutoCAD Mechanical 2000|Company: Autodesk"
 90
        0
280
     0
281
     0
  0
CLASS
  1
ACMWELDSTANDARDBSI
  2
AcmWeldingStdBSI
  3
"AcmSymBB|Product Description: AutoCAD Mechanical 2000|Company: Autodesk"
 90
        0
280
     0
281
     0
  0
CLASS
  1
ACMIDSTANDARDBSI
  2
AcmIdStdBSI
  3
"AcmSymBB|Product Description: AutoCAD Mechanical 2000|Company: Autodesk"
 90
        0
280
     0
281
     0
  0
CLASS
  1
ACMDATUMSTANDARDBSI
  2
AcmDatumStdBSI
  3
"AcmSymBB|Product Description: AutoCAD Mechanical 2000|Company: Autodesk"
 90
        0
280
     0
281
     0
  0
CLASS
  1
ACMBOMSTANDARDBSI
  2
AcmBOMStdBSI
  3
"AcmSymBB|Product Description: AutoCAD Mechanical 2000|Company: Autodesk"
 90
        0
280
     0
281
     0
  0
CLASS
  1
LONG_TRANSACTION
  2
AcDbLongTransaction
  3
AutoCAD 2000
 90
        0
280
     0
281
     0
  0
CLASS
  1
LWPOLYLINE
  2
AcDbPolyline
  3
AutoCAD 2000
 90
        0
280
     0
281
     1
  0
CLASS
  1
HATCH
  2
AcDbHatch
  3
AutoCAD 2000
 90
        0
280
     0
281
     1
  0
CLASS
  1
XRECORD
  2
AcDbXrecord
  3
AutoCAD 2000
 90
        0
280
     0
281
     0
  0
ENDSEC
  0
SECTION
  2
TABLES
  0
TABLE
  2
VPORT
  5
8
330
0
100
AcDbSymbolTable
 70
     3
  0
VPORT
  5
2996
330
8
100
AcDbSymbolTableRecord
100
AcDbViewportTableRecord
  2
*ACTIVE
 70
     0
 10
0.0
 20
0.0
 11
1.0
 21
1.0
 12
-45.89680656456526
 22
-5.604431533193675
 13
0.0
 23
0.0
 14
2.5
 24
2.5
 15
10.0
 25
10.0
 16
0.0
 26
0.0
 36
1.0
 17
0.0
 27
0.0
 37
0.0
 40
84.88736606358877
 41
1.56570841889117
 42
50.0
 43
0.0
 44
0.0
 50
0.0
 51
0.0
 71
     0
 72
   100
 73
     1
 74
     1
 75
     0
 76
     0
 77
     0
 78
     0
  0
ENDTAB
  0
TABLE
  2
LTYPE
  5
5
330
0
100
AcDbSymbolTable
 70
    10
  0
LTYPE
  5
14
330
5
100
AcDbSymbolTableRecord
100
AcDbLinetypeTableRecord
  2
BYBLOCK
 70
     0
  3

 72
    65
 73
     0
 40
0.0
  0
LTYPE
  5
15
330
5
100
AcDbSymbolTableRecord
100
AcDbLinetypeTableRecord
  2
BYLAYER
 70
     0
  3

 72
    65
 73
     0
 40
0.0
  0
LTYPE
  5
16
330
5
100
AcDbSymbolTableRecord
100
AcDbLinetypeTableRecord
  2
CONTINUOUS
 70
     0
  3
Solid line
 72
    65
 73
     0
 40
0.0
  0
LTYPE
  5
4B
330
5
100
AcDbSymbolTableRecord
100
AcDbLinetypeTableRecord
  2
AM_ISO02W050
 70
     0
  3
__ __ __ __ __ __ __ __ __ __ __ __ __ __ __
 72
    65
 73
     2
 40
7.5
 49
6.0
 74
     0
 49
-1.5
 74
     0
  0
LTYPE
  5
4C
330
5
100
AcDbSymbolTableRecord
100
AcDbLinetypeTableRecord
  2
AM_ISO08W050
 70
     0
  3
____ . ____ . ____ . ____ . ____ . ____ . ____
 72
    65
 73
     4
 40
18.0
 49
12.0
 74
     0
 49
-1.5
 74
     0
 49
3.0
 74
     0
 49
-1.5
 74
     0
  0
LTYPE
  5
4D
330
5
100
AcDbSymbolTableRecord
100
AcDbLinetypeTableRecord
  2
AM_ISO09W050
 70
     0
  3
_____ . . _____ . . _____ . . ____ .. ____
 72
    65
 73
     6
 40
22.5
 49
12.0
 74
     0
 49
-1.5
 74
     0
 49
3.0
 74
     0
 49
-1.5
 74
     0
 49
3.0
 74
     0
 49
-1.5
 74
     0
  0
LTYPE
  5
4E
330
5
100
AcDbSymbolTableRecord
100
AcDbLinetypeTableRecord
  2
AMCONSTR
 70
     0
  3
_______________________
 72
    65
 73
     2
 40
9999.0
 49
9999.0
 74
     0
 49
0.0
 74
     0
  0
LTYPE
  5
4F
330
5
100
AcDbSymbolTableRecord
100
AcDbLinetypeTableRecord
  2
AM_ISO02W050X2
 70
     0
  3
 _ _ _ _ _ _ _ _ _ _ _ _
 72
    65
 73
     2
 40
3.75
 49
3.0
 74
     0
 49
-0.75
 74
     0
  0
LTYPE
  5
50
330
5
100
AcDbSymbolTableRecord
100
AcDbLinetypeTableRecord
  2
AM_ISO08W050X2
 70
     0
  3
__ . __ . __ . __ . __ . __
 72
    65
 73
     4
 40
9.0
 49
6.0
 74
     0
 49
-0.75
 74
     0
 49
1.5
 74
     0
 49
-0.75
 74
     0
  0
LTYPE
  5
53
330
5
100
AcDbSymbolTableRecord
100
AcDbLinetypeTableRecord
  2
AMZIGZAG
 70
     0
  3
/\/-/\/-/\/-/\/-/\/-/\/
 72
    65
 73
     2
 40
11.00009999999999
 49
0.0001
 74
     4
 75
   135
340
52
 46
0.04
 50
0.0
 44
0.0
 45
0.0
 49
-11.0
 74
     0
  0
LTYPE
  5
166
330
5
100
AcDbSymbolTableRecord
100
AcDbLinetypeTableRecord
  2
ACJISTGL
 70
     0
  3
_ _ _ _ _
 72
    65
 73
     2
 40
3.0
 49
2.0
 74
     0
 49
-1.0
 74
     0
  0
LTYPE
  5
26A
330
5
100
AcDbSymbolTableRecord
100
AcDbLinetypeTableRecord
  2
ACJISTGB
 70
     0
  3
__ . . __ . .
 72
    65
 73
     6
 40
9.0
 49
4.0
 74
     0
 49
-1.0
 74
     0
 49
1.0
 74
     0
 49
-1.0
 74
     0
 49
1.0
 74
     0
 49
-1.0
 74
     0
  0
ENDTAB
  0
TABLE
  2
LAYER
  5
2
330
0
100
AcDbSymbolTable
 70
     7
  0
LAYER
  5
10
330
2
100
AcDbSymbolTableRecord
100
AcDbLayerTableRecord
  2
0
 70
     0
 62
     7
  6
CONTINUOUS
  0
LAYER
  5
3F9
330
2
100
AcDbSymbolTableRecord
100
AcDbLayerTableRecord
  2
AM_0
 70
     0
 62
     7
  6
CONTINUOUS
  0
LAYER
  5
C7C
330
2
100
AcDbSymbolTableRecord
100
AcDbLayerTableRecord
  2
AM_7
 70
     0
 62
     4
  6
AM_ISO08W050
  0
LAYER
  5
C97
330
2
100
AcDbSymbolTableRecord
100
AcDbLayerTableRecord
  2
AM_11
 70
     0
 62
     3
  6
AM_ISO09W050
  0
LAYER
  5
CC5
330
2
100
AcDbSymbolTableRecord
100
AcDbLayerTableRecord
  2
AM_5
 70
     0
 62
     3
  6
CONTINUOUS
  0
LAYER
  5
CC7
330
2
100
AcDbSymbolTableRecord
100
AcDbLayerTableRecord
  2
DEFPOINTS
 70
     0
 62
     7
  6
CONTINUOUS
  0
LAYER
  5
19BC
330
2
100
AcDbSymbolTableRecord
100
AcDbLayerTableRecord
  2
AM_6
 70
     0
 62
     2
  6
CONTINUOUS
  0
ENDTAB
  0
TABLE
  2
STYLE
  5
3
330
0
100
AcDbSymbolTable
 70
     5
  0
STYLE
  5
11
330
3
100
AcDbSymbolTableRecord
100
AcDbTextStyleTableRecord
  2
STANDARD
 70
     0
 40
0.0
 41
1.0
 50
0.0
 71
     0
 42
2.5
  3
simplex.shx
  4
EXTFONT.SHX
  0
STYLE
  5
52
330
3
100
AcDbSymbolTableRecord
100
AcDbTextStyleTableRecord
  2

 70
     1
 40
0.0
 41
1.0
 50
0.0
 71
     0
 42
2.5
  3
ltypeshp.shx
  4

  0
STYLE
  5
6B
330
3
100
AcDbSymbolTableRecord
100
AcDbTextStyleTableRecord
  2
ASAMI
 70
     0
 40
0.0
 41
1.0
 50
0.0
 71
     0
 42
2.5
  3
simplex.shx
  4
EXTFONT.SHX
  0
STYLE
  5
262
330
3
100
AcDbSymbolTableRecord
100
AcDbTextStyleTableRecord
  2
ACJISTS
 70
     0
 40
1.0
 41
1.0
 50
0.0
 71
     0
 42
2.5
  3
simplex.shx
  4
bigfont.shx
  0
STYLE
  5
269
330
3
100
AcDbSymbolTableRecord
100
AcDbTextStyleTableRecord
  2
ACJISGDT
 70
     0
 40
0.0
 41
1.0
 50
0.0
 71
     0
 42
2.5
  3
amgdtans.shx
  4

  0
ENDTAB
  0
TABLE
  2
VIEW
  5
6
330
0
100
AcDbSymbolTable
 70
     0
  0
ENDTAB
  0
TABLE
  2
UCS
  5
7
330
0
100
AcDbSymbolTable
 70
     0
  0
ENDTAB
  0
TABLE
  2
APPID
  5
9
330
0
100
AcDbSymbolTable
 70
    16
  0
APPID
  5
12
330
9
100
AcDbSymbolTableRecord
100
AcDbRegAppTableRecord
  2
ACAD
 70
     0
  0
APPID
  5
30
330
9
100
AcDbSymbolTableRecord
100
AcDbRegAppTableRecord
  2
MCAD_NO_VIS
 70
     0
  0
APPID
  5
31
330
9
100
AcDbSymbolTableRecord
100
AcDbRegAppTableRecord
  2
ACAD_TEMP_GRAPHIC
 70
     0
  0
APPID
  5
2C2
330
9
100
AcDbSymbolTableRecord
100
AcDbRegAppTableRecord
  2
GENIUS_GENDTOL_13
 70
     0
  0
APPID
  5
339
330
9
100
AcDbSymbolTableRecord
100
AcDbRegAppTableRecord
  2
GENIUS_GENODEF_13
 70
     0
  0
APPID
  5
33A
330
9
100
AcDbSymbolTableRecord
100
AcDbRegAppTableRecord
  2
GENIUS_GENOBJ-N-RSBK_13
 70
     0
  0
APPID
  5
33B
330
9
100
AcDbSymbolTableRecord
100
AcDbRegAppTableRecord
  2
GENIUS_GENOBJ-N-LIB_13
 70
     0
  0
APPID
  5
33C
330
9
100
AcDbSymbolTableRecord
100
AcDbRegAppTableRecord
  2
GENIUS_GENSCALE_13
 70
     0
  0
APPID
  5
378
330
9
100
AcDbSymbolTableRecord
100
AcDbRegAppTableRecord
  2
GENIUS_GENDIMSH_14
 70
     0
  0
APPID
  5
C82
330
9
100
AcDbSymbolTableRecord
100
AcDbRegAppTableRecord
  2
GENIUS_GENOBJ-N-CRS_13
 70
     0
  0
APPID
  5
C83
330
9
100
AcDbSymbolTableRecord
100
AcDbRegAppTableRecord
  2
GENIUS_GENOENT_13
 70
     0
  0
APPID
  5
C84
330
9
100
AcDbSymbolTableRecord
100
AcDbRegAppTableRecord
  2
GENIUS_GENOREF_13
 70
     0
  0
APPID
  5
C85
330
9
100
AcDbSymbolTableRecord
100
AcDbRegAppTableRecord
  2
GENIUS_GENOLIS_13
 70
     0
  0
APPID
  5
CA0
330
9
100
AcDbSymbolTableRecord
100
AcDbRegAppTableRecord
  2
GENIUS_GENOBJ-N-CEN_13
 70
     0
  0
APPID
  5
1CFA
330
9
100
AcDbSymbolTableRecord
100
AcDbRegAppTableRecord
  2
GENIUS_GENFIL_13
 70
     0
  0
APPID
  5
1CFB
330
9
100
AcDbSymbolTableRecord
100
AcDbRegAppTableRecord
  2
GENIUS_GENOBJ-N-CHA_13
 70
     0
  0
ENDTAB
  0
TABLE
  2
DIMSTYLE
  5
A
330
0
100
AcDbSymbolTable
 70
     9
  0
DIMSTYLE
105
58
330
A
100
AcDbSymbolTableRecord
100
AcDbDimStyleTableRecord
  2
AM_JIS
 70
     0
  3

  4
"
  5
OPEN30
  6

  7

 40
0.5
 41
2.5
 42
1.0
 43
12.0
 44
1.0
 45
0.0
 46
0.0
 47
0.1
 48
0.1
140
3.2
141
0.0
142
0.0
143
0.0393701
144
1.0
145
0.0
146
0.71
147
1.5
 71
     0
 72
     0
 73
     0
 74
     0
 75
     0
 76
     0
 77
     3
 78
     8
170
     0
171
     2
172
     1
173
     0
174
     0
175
     0
176
   256
177
   256
178
     2
270
     2
271
     3
272
     3
273
     2
274
     2
340
6B
275
     0
280
     0
281
     0
282
     0
283
     0
284
     0
285
     0
286
     0
287
     3
288
     0
  0
DIMSTYLE
105
5F
330
A
100
AcDbSymbolTableRecord
100
AcDbDimStyleTableRecord
  2
AM_JIS$3
 70
     0
  3

  4
"
  5
OPEN30
  6

  7

 40
0.5
 41
2.5
 42
1.0
 43
10.0
 44
1.0
 45
0.0
 46
0.0
 47
0.1
 48
0.1
140
3.2
141
0.0
142
0.0
143
0.0393701
144
1.0
145
0.0
146
0.71
147
1.5
 71
     0
 72
     0
 73
     0
 74
     1
 75
     0
 76
     0
 77
     3
 78
     8
170
     0
171
     2
172
     0
173
     0
174
     0
175
     0
176
   256
177
   256
178
     2
270
     2
271
     2
272
     3
273
     2
274
     2
340
6B
275
     0
280
     0
281
     0
282
     0
283
     0
284
     0
285
     0
286
     0
287
     0
288
     1
  0
DIMSTYLE
105
60
330
A
100
AcDbSymbolTableRecord
100
AcDbDimStyleTableRecord
  2
AM_JIS$4
 70
     0
  3

  4
"
  5
OPEN30
  6

  7

 40
0.5
 41
2.5
 42
1.0
 43
10.0
 44
1.0
 45
0.0
 46
0.0
 47
0.1
 48
0.1
140
3.2
141
0.0
142
0.0
143
0.0393701
144
1.0
145
0.0
146
0.71
147
1.5
 71
     0
 72
     0
 73
     0
 74
     1
 75
     0
 76
     0
 77
     3
 78
     8
170
     0
171
     2
172
     0
173
     0
174
     0
175
     0
176
   256
177
   256
178
     2
270
     2
271
     2
272
     3
273
     2
274
     2
340
6B
275
     0
280
     0
281
     0
282
     0
283
     0
284
     0
285
     0
286
     0
287
     0
288
     1
  0
DIMSTYLE
105
61
330
A
100
AcDbSymbolTableRecord
100
AcDbDimStyleTableRecord
  2
AM_JIS$6
 70
     0
  3

  4
"
  5
OPEN30
  6

  7

 40
0.5
 41
2.5
 42
1.0
 43
10.0
 44
1.0
 45
0.0
 46
0.0
 47
0.1
 48
0.1
140
3.2
141
0.0
142
0.0
143
0.0393701
144
1.0
145
0.0
146
0.71
147
1.5
 71
     0
 72
     0
 73
     0
 74
     0
 75
     0
 76
     0
 77
     0
 78
     8
170
     0
171
     2
172
     1
173
     0
174
     0
175
     0
176
   256
177
   256
178
     2
270
     2
271
     2
272
     2
273
     2
274
     2
340
6B
275
     0
280
     0
281
     0
282
     0
283
     0
284
     0
285
     0
286
     0
287
     3
288
     0
  0
DIMSTYLE
105
62
330
A
100
AcDbSymbolTableRecord
100
AcDbDimStyleTableRecord
  2
AM_JIS$7
 70
     0
  3

  4
"
  5
OPEN30
  6

  7

 40
0.5
 41
2.5
 42
1.0
 43
10.0
 44
1.0
 45
0.0
 46
0.0
 47
0.1
 48
0.1
140
3.2
141
0.0
142
0.0
143
0.0393701
144
1.0
145
0.0
146
0.71
147
1.5
 71
     0
 72
     0
 73
     0
 74
     0
 75
     0
 76
     0
 77
     3
 78
     8
170
     0
171
     2
172
     1
173
     0
174
     0
175
     0
176
   256
177
   256
178
     2
270
     2
271
     2
272
     3
273
     2
274
     2
340
6B
275
     0
280
     0
281
     0
282
     0
283
     0
284
     0
285
     0
286
     0
287
     3
288
     0
  0
DIMSTYLE
105
63
330
A
100
AcDbSymbolTableRecord
100
AcDbDimStyleTableRecord
  2
AM_JIS$SF
 70
     0
  3

  4
"
  5
OPEN30
  6

  7

 40
0.5
 41
2.5
 42
1.0
 43
10.0
 44
1.0
 45
0.0
 46
0.0
 47
0.1
 48
0.1
140
3.2
141
0.0
142
0.0
143
0.0393701
144
1.0
145
0.0
146
0.71
147
1.5
 71
     0
 72
     0
 73
     0
 74
     0
 75
     1
 76
     1
 77
     3
 78
     8
170
     0
171
     2
172
     1
173
     0
174
     0
175
     0
176
   256
177
   256
178
     2
270
     2
271
     2
272
     2
273
     2
274
     2
340
6B
275
     0
280
     0
281
     0
282
     0
283
     0
284
     0
285
     0
286
     0
287
     3
288
     0
  0
DIMSTYLE
105
68
330
A
100
AcDbSymbolTableRecord
100
AcDbDimStyleTableRecord
  2
AM_JIS$SH
 70
     0
  3

  4
"
  5

  6
GENAXEH
  7
OPEN30
 40
0.5
 41
2.5
 42
1.0
 43
10.0
 44
1.0
 45
0.0
 46
0.0
 47
0.1
 48
0.1
140
3.2
141
0.0
142
0.0
143
0.0393701
144
2.0
145
0.0
146
0.71
147
1.5
 71
     0
 72
     0
 73
     0
 74
     0
 75
     1
 76
     1
 77
     3
 78
     8
170
     0
171
     2
172
     1
173
     1
174
     0
175
     0
176
   256
177
   256
178
     2
270
     2
271
     2
272
     2
273
     2
274
     2
340
6B
275
     0
280
     0
281
     0
282
     0
283
     0
284
     0
285
     0
286
     0
287
     3
288
     0
  0
DIMSTYLE
105
B34
102
{ACAD_REACTORS
330
2736
102
}
330
A
100
AcDbSymbolTableRecord
100
AcDbDimStyleTableRecord
  2
AM_JIS$2
 70
     0
  3

  4
"
  5
OPEN30
  6

  7

 40
0.5
 41
2.5
 42
1.0
 43
12.0
 44
1.0
 45
0.0
 46
0.0
 47
0.1
 48
0.1
140
3.2
141
0.0
142
0.0
143
0.0393701
144
1.0
145
0.0
146
0.71
147
1.5
 71
     0
 72
     0
 73
     0
 74
     0
 75
     0
 76
     0
 77
     3
 78
     8
170
     0
171
     2
172
     1
173
     0
174
     0
175
     0
176
   256
177
   256
178
     2
270
     2
271
     3
272
     3
273
     2
274
     2
340
6B
275
     0
280
     0
281
     0
282
     0
283
     0
284
     0
285
     0
286
     0
287
     3
288
     0
  0
DIMSTYLE
105
BA5
102
{ACAD_REACTORS
330
CC6
330
DF5
330
2424
330
254C
102
}
330
A
100
AcDbSymbolTableRecord
100
AcDbDimStyleTableRecord
  2
AM_JIS$0
 70
     0
  3

  4
"
  5
OPEN30
  6

  7

 40
0.5
 41
2.5
 42
0.0
 43
10.0
 44
1.0
 45
0.0
 46
0.0
 47
0.1
 48
0.1000000001
140
3.799999999999999
141
0.0
142
0.0
143
0.0393701
144
1.0
145
0.0
146
0.71
147
1.5
 71
     0
 72
     0
 73
     0
 74
     0
 75
     0
 76
     0
 77
     3
 78
     1
170
     0
171
     2
172
     1
173
     0
174
     0
175
     0
176
     3
177
     3
178
     2
270
     2
271
     2
272
     2
273
     2
274
     2
340
11
275
     1
280
     0
281
     0
282
     0
283
     0
284
     8
285
     0
286
     0
287
     0
288
     0
  0
ENDTAB
  0
TABLE
  2
BLOCK_RECORD
  5
1
330
0
100
AcDbSymbolTable
 70
    10
  0
BLOCK_RECORD
  5
1F
102
{ACAD_XDICTIONARY
360
74
102
}
330
1
100
AcDbSymbolTableRecord
100
AcDbBlockTableRecord
  2
*MODEL_SPACE
  0
BLOCK_RECORD
  5
101
102
{ACAD_XDICTIONARY
360
29BF
102
}
330
1
100
AcDbSymbolTableRecord
100
AcDbBlockTableRecord
  2
*PAPER_SPACE
  0
BLOCK_RECORD
  5
59
330
1
100
AcDbSymbolTableRecord
100
AcDbBlockTableRecord
  2
_OPEN30
  0
BLOCK_RECORD
  5
64
330
1
100
AcDbSymbolTableRecord
100
AcDbBlockTableRecord
  2
GENAXEH
  0
BLOCK_RECORD
  5
CC8
330
1
100
AcDbSymbolTableRecord
100
AcDbBlockTableRecord
  2
*D5
  0
BLOCK_RECORD
  5
DF6
330
1
100
AcDbSymbolTableRecord
100
AcDbBlockTableRecord
  2
*D6
  0
BLOCK_RECORD
  5
2425
330
1
100
AcDbSymbolTableRecord
100
AcDbBlockTableRecord
  2
*D7
  0
BLOCK_RECORD
  5
254D
330
1
100
AcDbSymbolTableRecord
100
AcDbBlockTableRecord
  2
*D8
  0
BLOCK_RECORD
  5
2737
330
1
100
AcDbSymbolTableRecord
100
AcDbBlockTableRecord
  2
*D9
  0
ENDTAB
  0
ENDSEC
  0
SECTION
  2
BLOCKS
  0
BLOCK
  5
20
330
1F
100
AcDbEntity
  8
0
100
AcDbBlockBegin
  2
*MODEL_SPACE
 70
     0
 10
0.0
 20
0.0
 30
0.0
  3
*MODEL_SPACE
  1

  0
ENDBLK
  5
21
330
1F
100
AcDbEntity
  8
0
100
AcDbBlockEnd
  0
BLOCK
  5
103
330
101
100
AcDbEntity
 67
     1
  8
0
100
AcDbBlockBegin
  2
*PAPER_SPACE
 70
     0
 10
0.0
 20
0.0
 30
0.0
  3
*PAPER_SPACE
  1

  0
ENDBLK
  5
104
330
101
100
AcDbEntity
 67
     1
  8
0
100
AcDbBlockEnd
  0
BLOCK
  5
5D
330
59
100
AcDbEntity
  8
0
100
AcDbBlockBegin
  2
_OPEN30
 70
     0
 10
0.0
 20
0.0
 30
0.0
  3
_OPEN30
  1

  0
LINE
  5
5A
330
59
100
AcDbEntity
  8
0
 62
     0
100
AcDbLine
 10
-1.0
 20
0.26794919
 30
0.0
 11
0.0
 21
0.0
 31
0.0
  0
LINE
  5
5B
330
59
100
AcDbEntity
  8
0
 62
     0
100
AcDbLine
 10
0.0
 20
0.0
 30
0.0
 11
-1.0
 21
-0.26794919
 31
0.0
  0
LINE
  5
5C
330
59
100
AcDbEntity
  8
0
 62
     0
100
AcDbLine
 10
0.0
 20
0.0
 30
0.0
 11
-1.0
 21
0.0
 31
0.0
  0
ENDBLK
  5
5E
330
59
100
AcDbEntity
  8
0
100
AcDbBlockEnd
  0
BLOCK
  5
66
330
64
100
AcDbEntity
  8
0
100
AcDbBlockBegin
  2
GENAXEH
 70
     0
 10
0.0
 20
0.0
 30
0.0
  3
GENAXEH
  1

  0
LINE
  5
65
330
64
100
AcDbEntity
  8
0
100
AcDbLine
 10
-1.0
 20
0.0
 30
0.0
 11
1.0
 21
0.0
 31
0.0
  0
ENDBLK
  5
67
330
64
100
AcDbEntity
  8
0
100
AcDbBlockEnd
  0
BLOCK
  5
CD2
330
CC8
100
AcDbEntity
  8
0
100
AcDbBlockBegin
  2
*D5
 70
     1
 10
0.0
 20
0.0
 30
0.0
  3
*D5
  1

  0
LINE
  5
2944
330
CC8
100
AcDbEntity
  8
AM_5
 62
     3
100
AcDbLine
 10
-101.0
 20
-2.750000000000297
 30
0.0
 11
-101.0
 21
-15.50000100000008
 31
0.0
  0
LINE
  5
2945
330
CC8
100
AcDbEntity
  8
AM_5
 62
     3
100
AcDbLine
 10
-1.000000000000048
 20
-2.599999856380097
 30
0.0
 11
-1.000000000000049
 21
-15.50000100000008
 31
0.0
  0
LINE
  5
2946
330
CC8
100
AcDbEntity
  8
AM_5
 62
     3
100
AcDbLine
 10
-99.75000000000003
 20
-15.00000100000008
 30
0.0
 11
-2.250000000000048
 21
-15.00000100000008
 31
0.0
  0
INSERT
  5
2947
330
CC8
100
AcDbEntity
  8
AM_5
 62
     3
100
AcDbBlockReference
  2
_OPEN30
 10
-101.0
 20
-15.00000100000008
 30
0.0
 41
1.25
 42
1.25
 43
1.25
 50
180.0
  0
INSERT
  5
2948
330
CC8
100
AcDbEntity
  8
AM_5
 62
     3
100
AcDbBlockReference
  2
_OPEN30
 10
-1.000000000000048
 20
-15.00000100000008
 30
0.0
 41
1.25
 42
1.25
 43
1.25
  0
MTEXT
  5
2949
330
CC8
100
AcDbEntity
  8
AM_5
 62
     2
100
AcDbMText
 10
-51.00000000000004
 20
-13.30000100000008
 30
0.0
 40
1.9
 41
0.0
 71
     5
 72
     1
  1
100
1001
ACAD
1000
MTEXTBEGIN
1070
    73
1070
     1
1070
    44
1040
1.0
1070
    74
1070
     0
1000
MTEXTEND
  0
POINT
  5
294A
330
CC8
100
AcDbEntity
  8
DEFPOINTS
 62
     0
100
AcDbPoint
 10
-101.0
 20
-2.750000000000297
 30
0.0
  0
POINT
  5
294B
330
CC8
100
AcDbEntity
  8
DEFPOINTS
 62
     0
100
AcDbPoint
 10
-1.000000000000048
 20
-2.599999856380097
 30
0.0
  0
POINT
  5
294C
330
CC8
100
AcDbEntity
  8
DEFPOINTS
 62
     0
100
AcDbPoint
 10
-1.000000000000048
 20
-15.00000100000008
 30
0.0
  0
ENDBLK
  5
CD3
330
CC8
100
AcDbEntity
  8
0
100
AcDbBlockEnd
  0
BLOCK
  5
E00
330
DF6
100
AcDbEntity
  8
0
100
AcDbBlockBegin
  2
*D6
 70
     1
 10
0.0
 20
0.0
 30
0.0
  3
*D6
  1

  0
LINE
  5
294D
330
DF6
100
AcDbEntity
  8
AM_5
 62
     3
100
AcDbLine
 10
-49.00000000000004
 20
-3.00000000000018
 30
0.0
 11
-49.00000000000004
 21
-10.50000100000005
 31
0.0
  0
LINE
  5
294E
330
DF6
100
AcDbEntity
  8
AM_5
 62
     3
100
AcDbLine
 10
-1.000000000000048
 20
-2.599999856380097
 30
0.0
 11
-1.000000000000048
 21
-10.50000100000005
 31
0.0
  0
LINE
  5
294F
330
DF6
100
AcDbEntity
  8
AM_5
 62
     3
100
AcDbLine
 10
-47.75000000000004
 20
-10.00000100000005
 30
0.0
 11
-2.250000000000048
 21
-10.00000100000005
 31
0.0
  0
INSERT
  5
2950
330
DF6
100
AcDbEntity
  8
AM_5
 62
     3
100
AcDbBlockReference
  2
_OPEN30
 10
-49.00000000000004
 20
-10.00000100000005
 30
0.0
 41
1.25
 42
1.25
 43
1.25
 50
180.0
  0
INSERT
  5
2951
330
DF6
100
AcDbEntity
  8
AM_5
 62
     3
100
AcDbBlockReference
  2
_OPEN30
 10
-1.000000000000048
 20
-10.00000100000005
 30
0.0
 41
1.25
 42
1.25
 43
1.25
  0
MTEXT
  5
2952
330
DF6
100
AcDbEntity
  8
AM_5
 62
     2
100
AcDbMText
 10
-25.00000000000004
 20
-8.300001000000053
 30
0.0
 40
1.9
 41
0.0
 71
     5
 72
     1
  1
48
1001
ACAD
1000
MTEXTBEGIN
1070
    73
1070
     1
1070
    44
1040
1.0
1070
    74
1070
     0
1000
MTEXTEND
  0
POINT
  5
2953
330
DF6
100
AcDbEntity
  8
DEFPOINTS
 62
     0
100
AcDbPoint
 10
-49.00000000000004
 20
-3.00000000000018
 30
0.0
  0
POINT
  5
2954
330
DF6
100
AcDbEntity
  8
DEFPOINTS
 62
     0
100
AcDbPoint
 10
-1.000000000000048
 20
-2.599999856380097
 30
0.0
  0
POINT
  5
2955
330
DF6
100
AcDbEntity
  8
DEFPOINTS
 62
     0
100
AcDbPoint
 10
-1.000000000000048
 20
-10.00000100000005
 30
0.0
  0
ENDBLK
  5
E01
330
DF6
100
AcDbEntity
  8
0
100
AcDbBlockEnd
  0
BLOCK
  5
2431
330
2425
100
AcDbEntity
  8
0
100
AcDbBlockBegin
  2
*D7
 70
     1
 10
0.0
 20
0.0
 30
0.0
  3
*D7
  1

  0
LINE
  5
2956
330
2425
100
AcDbEntity
  8
AM_5
 62
     3
100
AcDbLine
 10
-1.000000000000049
 20
-2.599999856380101
 30
0.0
 11
8.925011198283707
 21
-2.599999856380104
 31
0.0
  0
LINE
  5
2957
330
2425
100
AcDbEntity
  8
AM_5
 62
     3
100
AcDbLine
 10
-1.000013987220025
 20
2.600000143619896
 30
0.0
 11
8.925011198283709
 21
2.600000143619893
 31
0.0
  0
LINE
  5
2958
330
2425
100
AcDbEntity
  8
AM_5
 62
     3
100
AcDbLine
 10
8.425011198283707
 20
-3.849999856380104
 30
0.0
 11
8.425011198283705
 21
-5.099999856380105
 31
0.0
  0
LINE
  5
2959
330
2425
100
AcDbEntity
  8
AM_5
 62
     3
100
AcDbLine
 10
8.425011198283707
 20
3.850000143619893
 30
0.0
 11
8.42501119828371
 21
12.30000014361989
 31
0.0
  0
LINE
  5
295A
330
2425
100
AcDbEntity
  8
AM_5
 62
     3
100
AcDbLine
 10
8.425011198283707
 20
-2.599999856380104
 30
0.0
 11
8.425011198283707
 21
2.600000143619893
 31
0.0
  0
INSERT
  5
295B
330
2425
100
AcDbEntity
  8
AM_5
 62
     3
100
AcDbBlockReference
  2
_OPEN30
 10
8.425011198283707
 20
-2.599999856380104
 30
0.0
 41
1.25
 42
1.25
 43
1.25
 50
90.0
  0
INSERT
  5
295C
330
2425
100
AcDbEntity
  8
AM_5
 62
     3
100
AcDbBlockReference
  2
_OPEN30
 10
8.425011198283707
 20
2.600000143619893
 30
0.0
 41
1.25
 42
1.25
 43
1.25
 50
270.0
  0
MTEXT
  5
295D
330
2425
100
AcDbEntity
  8
AM_5
 62
     2
100
AcDbMText
 10
6.725011198283707
 20
8.700000143619895
 30
0.0
 40
1.9
 41
0.0
 71
     5
 72
     1
  1
%%c5.2
 11
0.0000000000000001
 21
1.0
 31
0.0
1001
ACAD
1000
MTEXTBEGIN
1070
    73
1070
     1
1070
    44
1040
1.0
1070
    74
1070
     0
1000
MTEXTEND
  0
POINT
  5
295E
330
2425
100
AcDbEntity
  8
DEFPOINTS
 62
     0
100
AcDbPoint
 10
-1.000000000000049
 20
-2.599999856380101
 30
0.0
  0
POINT
  5
295F
330
2425
100
AcDbEntity
  8
DEFPOINTS
 62
     0
100
AcDbPoint
 10
-1.000013987220025
 20
2.600000143619896
 30
0.0
  0
POINT
  5
2960
330
2425
100
AcDbEntity
  8
DEFPOINTS
 62
     0
100
AcDbPoint
 10
8.425011198283707
 20
2.600000143619893
 30
0.0
  0
ENDBLK
  5
2432
330
2425
100
AcDbEntity
  8
0
100
AcDbBlockEnd
  0
BLOCK
  5
2557
330
254D
100
AcDbEntity
  8
0
100
AcDbBlockBegin
  2
*D8
 70
     1
 10
0.0
 20
0.0
 30
0.0
  3
*D8
  1

  0
LINE
  5
2855
330
254D
100
AcDbEntity
  8
AM_5
 62
     3
100
AcDbLine
 10
-100.7499999999998
 20
2.999999999999717
 30
0.0
 11
-109.8750219808317
 21
2.999999999999699
 31
0.0
  0
LINE
  5
2856
330
254D
100
AcDbEntity
  8
AM_5
 62
     3
100
AcDbLine
 10
-100.7499999999996
 20
-3.000000000000833
 30
0.0
 11
-109.8750219808317
 21
-3.00000000000085
 31
0.0
  0
LINE
  5
2857
330
254D
100
AcDbEntity
  8
AM_5
 62
     3
100
AcDbLine
 10
-109.3750219808317
 20
1.7499999999997
 30
0.0
 11
-109.3750219808317
 21
-1.750000000000849
 31
0.0
  0
INSERT
  5
2858
330
254D
100
AcDbEntity
  8
AM_5
 62
     3
100
AcDbBlockReference
  2
_OPEN30
 10
-109.3750219808317
 20
2.9999999999997
 30
0.0
 41
1.25
 42
1.25
 43
1.25
 50
90.0000000000001
  0
INSERT
  5
2859
330
254D
100
AcDbEntity
  8
AM_5
 62
     3
100
AcDbBlockReference
  2
_OPEN30
 10
-109.3750219808317
 20
-3.000000000000849
 30
0.0
 41
1.25
 42
1.25
 43
1.25
 50
270.0000000000001
  0
MTEXT
  5
285A
330
254D
100
AcDbEntity
  8
AM_5
 62
     2
100
AcDbMText
 10
-111.0750219808317
 20
-0.0000000000005738
 30
0.0
 40
1.9
 41
0.0
 71
     5
 72
     1
  1
%%c6
 11
-0.000000000000002
 21
1.0
 31
0.0
1001
ACAD
1000
MTEXTBEGIN
1070
    73
1070
     1
1070
    44
1040
1.0
1070
    74
1070
     0
1000
MTEXTEND
  0
POINT
  5
285B
330
254D
100
AcDbEntity
  8
DEFPOINTS
 62
     0
100
AcDbPoint
 10
-100.7499999999998
 20
2.999999999999941
 30
0.0
  0
POINT
  5
285C
330
254D
100
AcDbEntity
  8
DEFPOINTS
 62
     0
100
AcDbPoint
 10
-100.7499999999996
 20
-3.000000000000609
 30
0.0
  0
POINT
  5
285D
330
254D
100
AcDbEntity
  8
DEFPOINTS
 62
     0
100
AcDbPoint
 10
-109.3750219808317
 20
-3.000000000000607
 30
0.0
  0
ENDBLK
  5
2558
330
254D
100
AcDbEntity
  8
0
100
AcDbBlockEnd
  0
BLOCK
  5
2747
330
2737
100
AcDbEntity
  8
0
100
AcDbBlockBegin
  2
*D9
 70
     1
 10
0.0
 20
0.0
 30
0.0
  3
*D9
  1

  0
LINE
  5
29C1
330
2737
100
AcDbEntity
  8
AM_5
100
AcDbLine
 10
0.17101007166283
 20
-0.4698463103929726
 30
0.0
 11
5.474729139433102
 21
-15.04169468822226
 31
0.0
  0
LINE
  5
29C2
330
2737
100
AcDbEntity
  8
AM_5
100
AcDbLine
 10
0.1710100716628072
 20
0.4698463103929407
 30
0.0
 11
5.474729139432372
 21
15.04169468822249
 31
0.0
  0
ARC
  5
29C3
330
2737
100
AcDbEntity
  8
AM_5
100
AcDbCircle
 10
-0.000000000000009
 20
-0.0000000000000201
 30
0.0
 40
15.50703714757516
100
AcDbArc
 50
294.6197818554178
 51
65.38021814458492
  0
INSERT
  5
29C4
330
2737
100
AcDbEntity
  8
AM_5
100
AcDbBlockReference
  2
_OPEN30
 10
5.303719067770263
 20
-14.57184837782931
 30
0.0
 41
1.25
 42
1.25
 43
1.25
 50
202.3098909277092
  0
INSERT
  5
29C5
330
2737
100
AcDbEntity
  8
AM_5
100
AcDbBlockReference
  2
_OPEN30
 10
5.303719067769556
 20
14.57184837782953
 30
0.0
 41
1.25
 42
1.25
 43
1.25
 50
157.6901090722935
  0
MTEXT
  5
29C6
330
2737
100
AcDbEntity
  8
AM_5
 62
     2
100
AcDbMText
 10
13.95703714757515
 20
0.0000000000003488
 30
0.0
 40
1.6
 41
0.0
 71
     5
 72
     1
  1
140°
  7
ASAMI
 11
-0.000000000000002
 21
1.0
 31
0.0
  0
POINT
  5
29C7
330
2737
100
AcDbEntity
  8
DEFPOINTS
 62
     0
100
AcDbPoint
 10
14.23881127889435
 20
-6.142023645371857
 30
0.0
  0
POINT
  5
29C8
330
2737
100
AcDbEntity
  8
DEFPOINTS
 62
     0
100
AcDbPoint
 10
-0.289208433385835
 20
-0.7945936402435147
 30
0.0
  0
POINT
  5
29C9
330
2737
100
AcDbEntity
  8
DEFPOINTS
 62
     0
100
AcDbPoint
 10
-0.2892084333858715
 20
0.7945936402434639
 30
0.0
  0
POINT
  5
29CA
330
2737
100
AcDbEntity
  8
DEFPOINTS
 62
     0
100
AcDbPoint
 10
-0.0000000000000168
 20
0.0000000000000012
 30
0.0
  0
POINT
  5
29CB
330
2737
100
AcDbEntity
  8
DEFPOINTS
 62
     0
100
AcDbPoint
 10
-0.0000000000000168
 20
-0.0000000000000414
 30
0.0
  0
ENDBLK
  5
2748
330
2737
100
AcDbEntity
  8
0
100
AcDbBlockEnd
  0
ENDSEC
  0
SECTION
  2
ENTITIES
  0
LINE
  5
C9F
330
1F
100
AcDbEntity
  8
AM_7
100
AcDbLine
 10
-102.3750209808316
 20
-0.0000000000000841
 30
0.0
 11
1.425010198283711
 21
0.0000000000000021
 31
0.0
1001
GENIUS_GENODEF_13
1002
{
1000
HIER
1070
     0
1002
}
1002
{
1000
MANEDIT
1070
     0
1002
}
1002
{
1000
NOSEL
1070
     0
1002
}
1002
{
1000
BEHIND
1070
     0
1002
}
1002
{
1000
REACTOR
1002
}
1001
GENIUS_GENOBJ-N-CEN_13
1002
{
1000
OWNER
1000
GEN
1002
}
  0
DIMENSION
  5
CC6
330
1F
100
AcDbEntity
  8
AM_5
100
AcDbDimension
  2
*D5
 10
-1.000000000000048
 20
-15.00000100000008
 30
0.0
 11
-51.00000000000004
 21
-13.30000100000008
 31
0.0
 70
    32
  1
<>
  3
AM_JIS$0
100
AcDbAlignedDimension
 13
-101.0
 23
-2.750000000000297
 33
0.0
 14
-1.000000000000048
 24
-2.599999856380097
 34
0.0
 50
0.0000000000001132
100
AcDbRotatedDimension
1001
GENIUS_GENDTOL_13
1000

1000
h7
1000

1040
0.0
1001
ACAD
1000
DSTYLE
1002
{
1070
   271
1070
     0
1002
}
  0
DIMENSION
  5
DF5
330
1F
100
AcDbEntity
  8
AM_5
100
AcDbDimension
  2
*D6
 10
-1.000000000000048
 20
-10.00000100000005
 30
0.0
 11
-25.00000000000004
 21
-8.300001000000053
 31
0.0
 70
    32
  1
<>
  3
AM_JIS$0
100
AcDbAlignedDimension
 13
-49.00000000000004
 23
-3.00000000000018
 33
0.0
 14
-1.000000000000048
 24
-2.599999856380097
 34
0.0
 50
0.0000000000001527
100
AcDbRotatedDimension
1001
GENIUS_GENDTOL_13
1000

1000
h7
1000

1040
0.0
1001
ACAD
1000
DSTYLE
1002
{
1070
   271
1070
     0
1002
}
  0
ARC
  5
144A
330
1F
100
AcDbEntity
  8
AM_11
 48
0.5
100
AcDbCircle
 10
-44.30277188618329
 20
-12.14665270677935
 30
0.0
 40
13.42998806635521
100
AcDbArc
 50
64.74833051131179
 51
115.2516644797366
  0
ARC
  5
144B
330
1F
100
AcDbEntity
  8
AM_11
 48
0.5
100
AcDbCircle
 10
-44.30277188618328
 20
12.14666095543165
 30
0.0
 40
13.42998806635521
100
AcDbArc
 50
244.7482808787518
 51
295.2516148471758
  0
ARC
  5
144E
330
1F
100
AcDbEntity
  8
AM_11
 48
0.5
100
AcDbCircle
 10
-32.84443855284996
 20
-12.14665270677935
 30
0.0
 40
13.42998806635521
100
AcDbArc
 50
64.74833051131179
 51
115.2516644797366
  0
ARC
  5
144F
330
1F
100
AcDbEntity
  8
AM_11
 48
0.5
100
AcDbCircle
 10
-32.84443855284996
 20
12.14666095543165
 30
0.0
 40
13.42998806635521
100
AcDbArc
 50
244.7482808787518
 51
295.2516148471758
  0
ARC
  5
1450
330
1F
100
AcDbEntity
  8
AM_11
 48
0.5
100
AcDbCircle
 10
-21.38610521951983
 20
12.14666095543165
 30
0.0
 40
13.42998806635521
100
AcDbArc
 50
244.7482808787518
 51
295.2516148471758
  0
ARC
  5
1451
330
1F
100
AcDbEntity
  8
AM_11
 48
0.5
100
AcDbCircle
 10
-21.38610521951983
 20
-12.14665270677935
 30
0.0
 40
13.42998806635521
100
AcDbArc
 50
64.74833051131179
 51
115.2516644797366
  0
ARC
  5
1452
330
1F
100
AcDbEntity
  8
AM_11
 48
0.5
100
AcDbCircle
 10
-9.927771886186496
 20
-12.14665270677935
 30
0.0
 40
13.42998806635521
100
AcDbArc
 50
64.74833051131179
 51
115.2516644797366
  0
ARC
  5
1453
330
1F
100
AcDbEntity
  8
AM_11
 48
0.5
100
AcDbCircle
 10
-9.927771886186496
 20
12.14666095543165
 30
0.0
 40
13.42998806635521
100
AcDbArc
 50
244.7482808787518
 51
295.2516148471758
  0
TEXT
  5
19BD
330
1F
100
AcDbEntity
  8
AM_6
100
AcDbText
 10
-61.83334382374916
 20
-26.25000100000011
 30
0.0
 40
2.5
  1
MDW052LHK
 50
0.0000000000001527
 72
     4
 11
-51.00001049041583
 21
-25.00000100000008
 31
0.0
100
AcDbText
  0
ARC
  5
1DAB
330
1F
100
AcDbEntity
  8
AM_11
 48
0.5
100
AcDbCircle
 10
-55.76108015507438
 20
-12.14665270677938
 30
0.0
 40
13.42998806635521
100
AcDbArc
 50
64.74833051131179
 51
115.2516644797366
  0
ARC
  5
1DAC
330
1F
100
AcDbEntity
  8
AM_11
 48
0.5
100
AcDbCircle
 10
-55.76108015507436
 20
12.14666095543162
 30
0.0
 40
13.42998806635521
100
AcDbArc
 50
244.7482808787518
 51
295.2516148471758
  0
ARC
  5
1DAD
330
1F
100
AcDbEntity
  8
AM_11
 48
0.5
100
AcDbCircle
 10
-67.21938842396546
 20
-12.14665270677942
 30
0.0
 40
13.42998806635521
100
AcDbArc
 50
64.74833051131179
 51
115.2516644797366
  0
ARC
  5
1DAE
330
1F
100
AcDbEntity
  8
AM_11
 48
0.5
100
AcDbCircle
 10
-67.21938842396546
 20
12.14666095543158
 30
0.0
 40
13.42998806635521
100
AcDbArc
 50
244.7482808787518
 51
295.2516148471758
  0
ARC
  5
1DAF
330
1F
100
AcDbEntity
  8
AM_11
 48
0.5
100
AcDbCircle
 10
-78.67769669285656
 20
-12.14665270677945
 30
0.0
 40
13.42998806635521
100
AcDbArc
 50
64.74833051131179
 51
115.2516644797366
  0
ARC
  5
1DB0
330
1F
100
AcDbEntity
  8
AM_11
 48
0.5
100
AcDbCircle
 10
-78.67769669285654
 20
12.14666095543155
 30
0.0
 40
13.42998806635521
100
AcDbArc
 50
244.7482808787518
 51
295.2516148471758
  0
ARC
  5
1F05
330
1F
100
AcDbEntity
  8
AM_11
 48
0.5
100
AcDbCircle
 10
-90.13601784622503
 20
-12.1466548782672
 30
0.0
 40
13.42998806635521
100
AcDbArc
 50
64.74833051131179
 51
115.2516644797366
  0
ARC
  5
1F06
330
1F
100
AcDbEntity
  8
AM_11
 48
0.5
100
AcDbCircle
 10
-90.13601784622501
 20
12.1466587839438
 30
0.0
 40
13.42998806635521
100
AcDbArc
 50
244.7482808787518
 51
295.2516148471758
  0
ARC
  5
1F0B
330
1F
100
AcDbEntity
  8
AM_11
 48
0.5
100
AcDbCircle
 10
-101.594343603469
 20
-12.1466548782672
 30
0.0
 40
13.42998806635521
100
AcDbArc
 50
64.74833051131179
 51
87.46363868627874
  0
ARC
  5
1F0C
330
1F
100
AcDbEntity
  8
AM_11
 48
0.5
100
AcDbCircle
 10
-101.5943436034689
 20
12.1466587839438
 30
0.0
 40
13.42998806635521
100
AcDbArc
 50
272.5363613137212
 51
295.2516148471758
  0
LINE
  5
1F19
330
1F
100
AcDbEntity
  8
AM_0
100
AcDbLine
 10
-100.75
 20
-3.000000000000058
 30
0.0
 11
-100.75
 21
2.999999999999941
 31
0.0
  0
LINE
  5
1F1A
330
1F
100
AcDbEntity
  8
AM_0
 48
0.5
100
AcDbLine
 10
-101.0
 20
-2.750000000000283
 30
0.0
 11
-101.0
 21
2.749999999999716
 31
0.0
  0
LINE
  5
1F1B
330
1F
100
AcDbEntity
  8
AM_0
100
AcDbLine
 10
-101.0
 20
-2.750000000000283
 30
0.0
 11
-100.75
 21
-3.000000000000282
 31
0.0
1001
GENIUS_GENFIL_13
1070
     0
1040
0.25
1040
0.25
1040
20.0
1040
0.0
1002
{
1002
}
1001
GENIUS_GENODEF_13
1002
{
1000
HIER
1070
     0
1002
}
1002
{
1000
MANEDIT
1070
     0
1002
}
1002
{
1000
NOSEL
1070
     0
1002
}
1002
{
1000
BEHIND
1070
     0
1002
}
1002
{
1000
REACTOR
1002
}
1001
GENIUS_GENOBJ-N-CHA_13
1002
{
1000
OWNER
1000
GEN
1002
}
  0
LINE
  5
1F1C
330
1F
100
AcDbEntity
  8
AM_0
100
AcDbLine
 10
-101.0
 20
2.749999999999716
 30
0.0
 11
-100.75
 21
2.999999999999717
 31
0.0
1001
GENIUS_GENFIL_13
1070
     0
1040
0.25
1040
0.25
1040
20.0
1040
0.0
1002
{
1002
}
1001
GENIUS_GENODEF_13
1002
{
1000
HIER
1070
     0
1002
}
1002
{
1000
MANEDIT
1070
     0
1002
}
1002
{
1000
NOSEL
1070
     0
1002
}
1002
{
1000
BEHIND
1070
     0
1002
}
1002
{
1000
REACTOR
1002
}
1001
GENIUS_GENOBJ-N-CHA_13
1002
{
1000
OWNER
1000
GEN
1002
}
  0
LINE
  5
1F2F
330
1F
100
AcDbEntity
  8
AM_0
 48
0.5
100
AcDbLine
 10
-49.00000000000004
 20
-3.00000000000018
 30
0.0
 11
-49.00000000000003
 21
3.000000000000043
 31
0.0
  0
LINE
  5
1F31
330
1F
100
AcDbEntity
  8
AM_0
100
AcDbLine
 10
-100.75
 20
2.999999999999941
 30
0.0
 11
-49.00000000000003
 21
3.000000000000043
 31
0.0
  0
LINE
  5
1F32
330
1F
100
AcDbEntity
  8
AM_0
100
AcDbLine
 10
-100.75
 20
-3.000000000000282
 30
0.0
 11
-49.00000000000004
 21
-3.00000000000018
 31
0.0
  0
LINE
  5
1F5B
330
1F
100
AcDbEntity
  8
AM_0
100
AcDbLine
 10
-49.00000000000003
 20
3.000000000000043
 30
0.0
 11
-48.30717992573017
 21
2.600000143620366
 31
0.0
  0
LINE
  5
1F5C
330
1F
100
AcDbEntity
  8
AM_0
100
AcDbLine
 10
-49.00000000000004
 20
-3.00000000000018
 30
0.0
 11
-48.30717992573023
 21
-2.60000014362052
 31
0.0
  0
DIMENSION
  5
2424
330
1F
100
AcDbEntity
  8
AM_5
100
AcDbDimension
  2
*D7
 10
8.425011198283707
 20
2.600000143619893
 30
0.0
 11
8.425011198283707
 21
8.700000143619895
 31
0.0
 70
   160
  1
%%c<>
  3
AM_JIS$0
100
AcDbAlignedDimension
 13
-1.000000000000049
 23
-2.599999856380101
 33
0.0
 14
-1.000013987220025
 24
2.600000143619896
 34
0.0
 50
89.99999999999955
100
AcDbRotatedDimension
1001
ACAD
1000
DSTYLE
1002
{
1070
   271
1070
     1
1002
}
1001
GENIUS_GENDTOL_13
1000

1000
h7
1000

1040
0.0
  0
LINE
  5
2434
330
1F
100
AcDbEntity
  8
AM_0
 48
0.5
100
AcDbLine
 10
-0.9166134198471972
 20
2.337511489582385
 30
0.0
 11
-1.000013987220025
 21
2.600000143619896
 31
0.0
  0
LINE
  5
2437
330
1F
100
AcDbEntity
  8
AM_0
 48
0.5
100
AcDbLine
 10
-0.9166099230416564
 20
-2.337496616649583
 30
0.0
 11
-1.000000000000049
 21
-2.599999856380101
 31
0.0
  0
LINE
  5
2442
330
1F
100
AcDbEntity
  8
AM_0
100
AcDbLine
 10
-48.30717992573024
 20
-2.600000143620517
 30
0.0
 11
-48.30717992573017
 21
2.60000014362037
 31
0.0
  0
ELLIPSE
  5
245F
330
1F
100
AcDbEntity
  8
AM_0
 48
0.5
100
AcDbEllipse
 10
3.925384326543456
 20
-3.305989277576228
 30
0.0
 11
2.436930427497456
 21
5.205145729177516
 31
0.0
210
0.0
220
0.0
230
1.0
 40
0.8524756746286305
 41
1.485882733847986
 42
1.776854386604848
  0
ELLIPSE
  5
2460
330
1F
100
AcDbEntity
  8
AM_0
 48
0.5
100
AcDbEllipse
 10
3.925384233732741
 20
3.3059878601966
 30
0.0
 11
-2.43693404402829
 21
5.205129135270516
 31
0.0
210
0.0
220
0.0
230
1.0
 40
0.8524775971145565
 41
1.364735592005148
 42
1.655708372890887
  0
DIMENSION
  5
254C
330
1F
100
AcDbEntity
  8
AM_5
100
AcDbDimension
  2
*D8
 10
-109.3750219808317
 20
-3.000000000000607
 30
0.0
 11
-111.0750219808317
 21
-0.0000000000003493
 31
0.0
 70
    32
  1
%%c<>
 51
359.9999999999998
  3
AM_JIS$0
100
AcDbAlignedDimension
 13
-100.7499999999998
 23
2.999999999999941
 33
0.0
 14
-100.7499999999996
 24
-3.000000000000609
 34
0.0
 50
270.0000000000002
100
AcDbRotatedDimension
1001
ACAD
1000
DSTYLE
1002
{
1070
   271
1070
     0
1002
}
1001
GENIUS_GENDTOL_13
1000

1000
h7
1000

1040
0.0
  0
LINE
  5
2651
330
1F
100
AcDbEntity
  8
AM_0
100
AcDbLine
 10
-0.2892084333858715
 20
0.7945936402434639
 30
0.0
 11
-0.0000000000000168
 21
0.0000000000000012
 31
0.0
  0
LINE
  5
2652
330
1F
100
AcDbEntity
  8
AM_0
100
AcDbLine
 10
-0.289208433385835
 20
-0.7945936402435147
 30
0.0
 11
-0.0000000000000168
 21
-0.0000000000000414
 31
0.0
  0
DIMENSION
  5
2736
330
1F
100
AcDbEntity
  8
AM_5
100
AcDbDimension
  2
*D9
 10
-0.0000000000000168
 20
-0.0000000000000414
 30
0.0
 11
13.95703714757515
 21
0.0000000000003184
 31
0.0
 70
    34
  1
<>
 51
359.9999999999998
  3
AM_JIS$2
100
AcDb2LineAngularDimension
 13
-0.2892084333858715
 23
0.7945936402434639
 33
0.0
 14
-0.0000000000000168
 24
0.0000000000000012
 34
0.0
 15
-0.289208433385835
 25
-0.7945936402435147
 35
0.0
 16
14.23881127889435
 26
-6.142023645371857
 36
0.0
1001
GENIUS_GENDTOL_13
1000

1000
h7
1000

1040
0.0
1001
ACAD
1000
DSTYLE
1002
{
1070
   271
1070
     0
1002
}
  0
LINE
  5
290E
330
1F
100
AcDbEntity
  8
AM_0
 48
0.5
100
AcDbLine
 10
0.0000000000000001
 20
0.0000000000000017
 30
0.0
 11
-1.350605487820051
 21
0.9983211681965387
 31
0.0
  0
LINE
  5
290F
330
1F
100
AcDbEntity
  8
AM_0
 48
0.5
100
AcDbLine
 10
-2.484100341793711
 20
-2.59999985638009
 30
0.0
 11
-1.000000000000049
 21
-2.599999856380102
 31
0.0
  0
ELLIPSE
  5
2910
330
1F
100
AcDbEntity
  8
AM_11
 48
0.5
100
AcDbEllipse
 10
1.530561447146877
 20
12.38483077808717
 30
0.0
 11
0.0000000000027357
 21
13.69332116569548
 31
0.0
210
0.0
220
0.0
230
1.0
 40
0.980769230769223
 41
2.7008670131354
 42
2.862597064176092
  0
ELLIPSE
  5
2911
330
1F
100
AcDbEntity
  8
AM_0
 48
0.5
100
AcDbEllipse
 10
2.84522755941086
 20
-0.5779440397295906
 30
0.0
 11
4.399991534751186
 21
0.0008289944083845
 31
0.0
210
0.0
220
0.0
230
1.0
 40
0.9454125399724944
 41
3.268581795492786
 42
3.649007528206638
  0
ELLIPSE
  5
2912
330
1F
100
AcDbEntity
  8
AM_0
 48
0.5
100
AcDbEllipse
 10
-4.92964190082821
 20
4.945486301074341
 30
0.0
 11
-4.691153305070741
 21
5.188024857207721
 31
0.0
210
0.0
220
0.0
230
0.9999999999999998
 40
0.6433021612408769
 41
3.033537088838444
 42
3.21713069541676
  0
ELLIPSE
  5
2913
330
1F
100
AcDbEntity
  8
AM_0
 48
0.5
100
AcDbEllipse
 10
-0.8184388478563088
 20
-0.6775972837484426
 30
0.0
 11
-0.0827391226641415
 21
0.4261807428998356
 31
0.0
210
0.0
220
0.0
230
1.0
 40
0.5268832972003242
 41
1.79186159025287
 42
4.927203479964846
  0
ELLIPSE
  5
2914
330
1F
100
AcDbEntity
  8
AM_0
 48
0.5
100
AcDbEllipse
 10
-0.8184388478563088
 20
-0.6775972837484426
 30
0.0
 11
-0.4002766453731248
 21
0.2107725241690904
 31
0.0
210
0.0
220
0.0
230
1.0
 40
0.4852563132082774
 41
4.452969585727512
 42
7.596409927057019
  0
SPLINE
  5
2915
330
1F
100
AcDbEntity
  8
AM_0
 48
0.5
100
AcDbSpline
210
0.0
220
0.0
230
1.0
 70
     8
 71
     3
 72
    10
 73
     6
 74
     0
 42
0.0000000001
 43
0.0000000001
 40
0.0
 40
0.0
 40
0.0
 40
0.0
 40
2.69986029516136
 40
4.147722969032201
 40
6.285750005020438
 40
6.285750005020438
 40
6.285750005020438
 40
6.285750005020438
 10
-3.024559656775803
 20
0.4705862845703876
 30
0.0
 10
-2.694692144898384
 20
0.2290283177606241
 30
0.0
 10
-2.187925532491258
 20
-0.1420707087650052
 30
0.0
 10
-0.9894905693326892
 20
0.0375848310825319
 30
0.0
 10
-1.215190731525523
 20
0.6426884612553242
 30
0.0
 10
-1.364318978128236
 20
1.011517760535834
 30
0.0
  0
ELLIPSE
  5
2916
330
1F
100
AcDbEntity
  8
AM_0
 48
0.5
100
AcDbEllipse
 10
1.756413141889948
 20
3.121460104557357
 30
0.0
 11
-5.542473077773961
 21
0.0000000000000274
 31
0.0
210
0.0
220
0.0
230
1.0
 40
0.9454545454545437
 41
0.5303675532340924
 42
0.9384884834289874
  0
ELLIPSE
  5
2917
330
1F
100
AcDbEntity
  8
AM_0
 48
0.5
100
AcDbEllipse
 10
-4.75948588053038
 20
4.363742717675727
 30
0.0
 11
-6.630541364351085
 21
0.000000000005919
 31
0.0
210
0.0
220
0.0
230
1.0
 40
0.9454545454546009
 41
2.081379652024182
 42
2.16987442970369
  0
LINE
  5
2918
330
1F
100
AcDbEntity
  8
AM_0
 48
0.5
100
AcDbLine
 10
-38.96967093149497
 20
1.317371893497944
 30
0.0
 11
-45.00000000000003
 21
-0.2102758878738342
 31
0.0
  0
ELLIPSE
  5
2919
330
1F
100
AcDbEntity
  8
AM_0
 48
0.5
100
AcDbEllipse
 10
-44.31251398722007
 20
-1.759738778498853
 30
0.0
 11
0.6877130802881025
 21
0.0004349571722743
 31
0.0
210
0.0
220
0.0
230
1.0
 40
0.945082190555053
 41
1.174967813383031
 42
3.115289881902848
  0
LINE
  5
291A
330
1F
100
AcDbEntity
  8
AM_0
 48
0.5
100
AcDbLine
 10
-18.98386885388436
 20
-2.599999856379985
 30
0.0
 11
-11.21485519408845
 21
-2.599999856380005
 31
0.0
  0
LINE
  5
291B
330
1F
100
AcDbEntity
  8
AM_11
 48
0.5
100
AcDbLine
 10
-44.08317947387395
 20
-2.599999856379709
 30
0.0
 11
-37.51114273070969
 21
-2.599999856379804
 31
0.0
  0
LINE
  5
291C
330
1F
100
AcDbEntity
  8
AM_0
 48
0.5
100
AcDbLine
 10
-37.51114622753177
 20
-2.599999856379768
 30
0.0
 11
-27.71462241985187
 21
-2.599999856379838
 31
0.0
  0
LINE
  5
291D
330
1F
100
AcDbEntity
  8
AM_11
 48
0.5
100
AcDbLine
 10
-27.714623706178
 20
-2.5999998563799
 30
0.0
 11
-18.98386885388437
 21
-2.600369233565084
 31
0.0
  0
LINE
  5
291E
330
1F
100
AcDbEntity
  8
AM_11
 48
0.5
100
AcDbLine
 10
-11.21485519408845
 20
-2.599999856380005
 30
0.0
 11
-2.484100341793711
 21
-2.59999985638009
 31
0.0
  0
ELLIPSE
  5
291F
330
1F
100
AcDbEntity
  8
AM_0
 48
0.5
100
AcDbEllipse
 10
-44.08317947387393
 20
-1.733333189713085
 30
0.0
 11
-0.9168791992086061
 21
0.0018797365220109
 31
0.0
210
0.0
220
0.0
230
1.0
 40
0.9452331911399186
 41
0.0134157028855215
 42
1.572733876880368
  0
SPLINE
  5
2920
330
1F
100
AcDbEntity
  8
AM_0
 48
0.5
100
AcDbSpline
210
0.0
220
0.0
230
1.0
 70
     8
 71
     3
 72
    26
 73
    22
 74
     0
 42
0.0000000001
 43
0.0000000001
 40
0.0
 40
0.0
 40
0.0
 40
0.0
 40
0.4632575220609015
 40
0.9271320558815228
 40
1.392223688852627
 40
1.859097508126575
 40
2.328267793346685
 40
2.800187610316366
 40
3.275232272894703
 40
3.753695215510249
 40
4.235780552632416
 40
4.721598429862242
 40
5.211170673809951
 40
5.70440888197023
 40
6.20117450816439
 40
6.701203715991866
 40
7.204183272409761
 40
7.709727705098289
 40
8.217394601127418
 40
8.726694734710479
 40
9.22133928350434
 40
9.22133928350434
 40
9.22133928350434
 40
9.22133928350434
 10
-36.21371936797786
 20
-2.599999856379817
 30
0.0
 10
-36.36814708842328
 20
-2.598452919436076
 30
0.0
 10
-36.67720821128368
 20
-2.595356985186397
 30
0.0
 10
-37.14068742200533
 20
-2.570400277410412
 30
0.0
 10
-37.60414684989241
 20
-2.530725636945478
 30
0.0
 10
-38.06757758911794
 20
-2.475120099433133
 30
0.0
 10
-38.53097503952118
 20
-2.40433731394091
 30
0.0
 10
-38.99432996842726
 20
-2.318691710729548
 30
0.0
 10
-39.4576420675868
 20
-2.218761944725078
 30
0.0
 10
-39.92090817722146
 20
-2.105154938997527
 30
0.0
 10
-40.38412720212532
 20
-1.978575606035854
 30
0.0
 10
-40.84730295460825
 20
-1.839811786136845
 30
0.0
 10
-41.31043351542118
 20
-1.6897203011601
 30
0.0
 10
-41.77352413196385
 20
-1.529221849493183
 30
0.0
 10
-42.23658099607694
 20
-1.359322095941388
 30
0.0
 10
-42.69960510825234
 20
-1.181051696193496
 30
0.0
 10
-43.16259992009148
 20
-0.9955182034363481
 30
0.0
 10
-43.62557393394938
 20
-0.8038663192633077
 30
0.0
 10
-44.08851949866647
 20
-0.6072502501856838
 30
0.0
 10
-44.54670960662888
 20
-0.4090412555891707
 30
0.0
 10
-44.85027779205884
 20
-0.2758830626648786
 30
0.0
 10
-45.00000000000004
 20
-0.2102758878738341
 30
0.0
  0
SPLINE
  5
2921
330
1F
100
AcDbEntity
  8
AM_0
100
AcDbSpline
210
0.0
220
0.0
230
1.0
 70
     8
 71
     3
 72
    11
 73
     7
 74
     0
 42
0.0000000001
 43
0.0000000001
 40
11.27226913003534
 40
11.27226913003534
 40
11.27226913003534
 40
11.2722691300354
 40
12.28301561507924
 40
13.29510212255852
 40
14.30984805882082
 40
15.18258238371378
 40
15.18258238371378
 40
15.18258238371378
 40
15.18258238371378
 10
-27.71462370617909
 20
-2.5999998563799
 30
0.0
 10
-27.86846421435681
 20
-2.587274700824832
 30
0.0
 10
-28.17585505826004
 20
-2.556467653047397
 30
0.0
 10
-28.63535401510285
 20
-2.494322217575111
 30
0.0
 10
-29.07142662737497
 20
-2.420096308884714
 30
0.0
 10
-29.35345279604377
 20
-2.363036643769651
 30
0.0
 10
-29.48341848525416
 20
-2.334850745247553
 30
0.0
  0
SPLINE
  5
2922
330
1F
100
AcDbEntity
  8
AM_0
100
AcDbSpline
210
0.0
220
0.0
230
1.0
 70
     8
 71
     3
 72
    17
 73
    13
 74
     0
 42
0.0000000001
 43
0.0000000001
 40
1.580019955310467
 40
1.580019955310467
 40
1.580019955310467
 40
1.580019955310467
 40
2.030549285115227
 40
3.082371838836284
 40
4.126290986361125
 40
5.162752068350215
 40
6.192395305374981
 40
7.216039564037012
 40
8.234688489606833
 40
9.249433870634691
 40
10.26152376260694
 40
11.27226744710342
 40
11.27226744710342
 40
11.27226744710342
 40
11.27226744710352
 10
-23.34890569590077
 20
-1.918876417514878
 30
0.0
 10
-23.41448026808615
 20
-1.938639252011089
 30
0.0
 10
-23.63352136976256
 20
-2.003414581776296
 30
0.0
 10
-24.0074788502442
 20
-2.105017004214537
 30
0.0
 10
-24.47068051102804
 20
-2.218798238862053
 30
0.0
 10
-24.93400969079541
 20
-2.31868305596085
 30
0.0
 10
-25.39736010014406
 20
-2.404336019845682
 30
0.0
 10
-25.86076099068938
 20
-2.475134086720822
 30
0.0
 10
-26.32419389627248
 20
-2.530673243236244
 30
0.0
 10
-26.78765565889804
 20
-2.570593577074097
 30
0.0
 10
-27.25113486006843
 20
-2.594638116409446
 30
0.0
 10
-27.56019598778957
 20
-2.599999871257236
 30
0.0
 10
-27.71462370617906
 20
-2.5999998563799
 30
0.0
  0
SPLINE
  5
2923
330
1F
100
AcDbEntity
  8
AM_0
100
AcDbSpline
210
0.0
220
0.0
230
1.0
 70
     8
 71
     3
 72
    22
 73
    18
 74
     0
 42
0.0000000001
 43
0.0000000001
 40
17.17441611292
 40
17.17441611292
 40
17.17441611292
 40
17.17441611292
 40
17.38177636558528
 40
18.41823744757437
 40
19.46215659509824
 40
20.51397914882054
 40
21.57394542641293
 40
22.64209583141747
 40
23.71826625065247
 40
24.80210429862395
 40
25.8930771157021
 40
26.99048705697709
 40
28.09349309193389
 40
29.20112995599786
 40
30.31233024745139
 40
31.42594771747373
 40
32.5407895042663
 40
32.54078950426994
 40
32.54078950426994
 40
32.54078950426994
 10
-29.48362118068814
 20
-2.334818674267435
 30
0.0
 10
-29.51465640873183
 20
-2.328799929280036
 30
0.0
 10
-29.70069565152853
 20
-2.292139095696748
 30
0.0
 10
-30.04150906106248
 20
-2.218629352848529
 30
0.0
 10
-30.50477520743395
 20
-2.105022832381126
 30
0.0
 10
-30.96799414795755
 20
-1.978443169051598
 30
0.0
 10
-31.43116915293304
 20
-1.839680504504264
 30
0.0
 10
-31.89429961053843
 20
-1.689585659035977
 30
0.0
 10
-32.35739122137264
 20
-1.529092742228103
 30
0.0
 10
-32.82044612968
 20
-1.359188091908634
 30
0.0
 10
-33.28346861981952
 20
-1.180919500746395
 30
0.0
 10
-33.74646384030773
 20
-0.9953867730316446
 30
0.0
 10
-34.2094358096638
 20
-0.8037307551177505
 30
0.0
 10
-34.67238918844912
 20
-0.6071305472128956
 30
0.0
 10
-35.13532808034244
 20
-0.4067950180570557
 30
0.0
 10
-35.59825934338084
 20
-0.2039603461480779
 30
0.0
 10
-35.90681960683104
 20
-0.0679234342534909
 30
0.0
 10
-36.06118450228201
 20
0.0001323864590569
 30
0.0
  0
SPLINE
  5
2924
330
1F
100
AcDbEntity
  8
AM_0
 48
0.5
100
AcDbSpline
210
0.0
220
0.0
230
1.0
 70
     8
 71
     3
 72
    22
 73
    18
 74
     0
 42
0.0000000001
 43
0.0000000001
 40
0.0
 40
0.0
 40
0.0
 40
0.0
 40
1.010743684496582
 40
2.022833993863546
 40
3.037578683882831
 40
4.056212471389632
 40
5.079857945358201
 40
6.109499720892564
 40
7.145961650132166
 40
8.189873411961459
 40
9.241710626092514
 40
10.30166235592959
 40
11.36982472628033
 40
12.44598212828784
 40
13.52983440361964
 40
14.62080578343036
 40
14.90544694398022
 40
14.90544694398022
 40
14.90544694398022
 40
14.90544694398022
 10
-37.51114622751574
 20
-2.599999856379804
 30
0.0
 10
-37.66557397745109
 20
-2.59845338151922
 30
0.0
 10
-37.97463522310278
 20
-2.595358371412698
 30
0.0
 10
-38.43811394846465
 20
-2.570394712672473
 30
0.0
 10
-38.9015738767978
 20
-2.530726747707202
 30
0.0
 10
-39.36500486645278
 20
-2.475121173474053
 30
0.0
 10
-39.82840103964727
 20
-2.404331729576592
 30
0.0
 10
-40.29175756209369
 20
-2.318693531453948
 30
0.0
 10
-40.75506764397443
 20
-2.218760134104501
 30
0.0
 10
-41.21833447117128
 20
-2.105151483580422
 30
0.0
 10
-41.68155387128466
 20
-1.978576933302797
 30
0.0
 10
-42.14472826505364
 20
-1.839806830242405
 30
0.0
 10
-42.60786063825118
 20
-1.689724232011486
 30
0.0
 10
-43.07095064301061
 20
-1.529221373303044
 30
0.0
 10
-43.53400695477761
 20
-1.359320729995261
 30
0.0
 10
-43.88202613349562
 20
-1.225335690177363
 30
0.0
 10
-44.07595456448365
 20
-1.148754148250699
 30
0.0
 10
-44.11605251540072
 20
-1.132841185493974
 30
0.0
  0
SPLINE
  5
2925
330
1F
100
AcDbEntity
  8
AM_0
100
AcDbSpline
210
0.0
220
0.0
230
1.0
 70
     8
 71
     3
 72
    11
 73
     7
 74
     0
 42
0.0000000001
 43
0.0000000001
 40
11.27226913003534
 40
11.27226913003534
 40
11.27226913003534
 40
11.2722691300354
 40
12.28301561507924
 40
13.29510212255852
 40
14.30984805882082
 40
15.18258238371378
 40
15.18258238371378
 40
15.18258238371378
 40
15.18258238371378
 10
-11.21485519408844
 20
-2.599999856380005
 30
0.0
 10
-11.36869570226616
 20
-2.587274700824937
 30
0.0
 10
-11.67608654616939
 20
-2.556467653047503
 30
0.0
 10
-12.13558550301221
 20
-2.494322217575216
 30
0.0
 10
-12.57165811528433
 20
-2.42009630888482
 30
0.0
 10
-12.85368428395313
 20
-2.363036643769759
 30
0.0
 10
-12.98364997316352
 20
-2.334850745247659
 30
0.0
  0
SPLINE
  5
2926
330
1F
100
AcDbEntity
  8
AM_0
100
AcDbSpline
210
0.0
220
0.0
230
1.0
 70
     8
 71
     3
 72
    22
 73
    18
 74
     0
 42
0.0000000001
 43
0.0000000001
 40
17.17441611292
 40
17.17441611292
 40
17.17441611292
 40
17.17441611292
 40
17.38177636558528
 40
18.41823744757437
 40
19.46215659509824
 40
20.51397914882054
 40
21.57394542641293
 40
22.64209583141747
 40
23.71826625065247
 40
24.80210429862395
 40
25.8930771157021
 40
26.99048705697709
 40
28.09349309193389
 40
29.20112995599786
 40
30.31233024745139
 40
31.42594771747373
 40
32.5407895042663
 40
32.54078950426994
 40
32.54078950426994
 40
32.54078950426994
 10
-12.98385266859749
 20
-2.33481867426754
 30
0.0
 10
-13.01488789664118
 20
-2.328799929280142
 30
0.0
 10
-13.20092713943789
 20
-2.292139095696853
 30
0.0
 10
-13.54174054897184
 20
-2.218629352848636
 30
0.0
 10
-14.0050066953433
 20
-2.105022832381234
 30
0.0
 10
-14.4682256358669
 20
-1.978443169051705
 30
0.0
 10
-14.93140064084238
 20
-1.839680504504371
 30
0.0
 10
-15.39453109844779
 20
-1.689585659036084
 30
0.0
 10
-15.857622709282
 20
-1.529092742228209
 30
0.0
 10
-16.32067761758936
 20
-1.359188091908741
 30
0.0
 10
-16.78370010772888
 20
-1.180919500746501
 30
0.0
 10
-17.24669532821709
 20
-0.995386773031751
 30
0.0
 10
-17.70966729757314
 20
-0.8037307551178571
 30
0.0
 10
-18.17262067635846
 20
-0.6071305472130021
 30
0.0
 10
-18.63555956825178
 20
-0.406795018057162
 30
0.0
 10
-19.09849083129019
 20
-0.2039603461481843
 30
0.0
 10
-19.40705109474039
 20
-0.0679234342535973
 30
0.0
 10
-19.56141599019136
 20
0.0001323864589505
 30
0.0
  0
SPLINE
  5
2927
330
1F
100
AcDbEntity
  8
AM_0
100
AcDbSpline
210
0.0
220
0.0
230
1.0
 70
     8
 71
     3
 72
    17
 73
    13
 74
     0
 42
0.0000000001
 43
0.0000000001
 40
1.580019955310467
 40
1.580019955310467
 40
1.580019955310467
 40
1.580019955310467
 40
2.030549285115227
 40
3.082371838836284
 40
4.126290986361125
 40
5.162752068350215
 40
6.192395305374981
 40
7.216039564037012
 40
8.234688489606833
 40
9.249433870634691
 40
10.26152376260694
 40
11.27226744710342
 40
11.27226744710342
 40
11.27226744710342
 40
11.27226744710352
 10
-6.849137183810126
 20
-1.918876417514984
 30
0.0
 10
-6.914711755995504
 20
-1.938639252011195
 30
0.0
 10
-7.133752857671919
 20
-2.003414581776402
 30
0.0
 10
-7.50771033815356
 20
-2.105017004214644
 30
0.0
 10
-7.970911998937398
 20
-2.218798238862162
 30
0.0
 10
-8.434241178704775
 20
-2.318683055960958
 30
0.0
 10
-8.897591588053421
 20
-2.404336019845787
 30
0.0
 10
-9.36099247859874
 20
-2.475134086720927
 30
0.0
 10
-9.824425384181848
 20
-2.530673243236349
 30
0.0
 10
-10.2878871468074
 20
-2.570593577074203
 30
0.0
 10
-10.75136634797778
 20
-2.594638116409551
 30
0.0
 10
-11.06042747569892
 20
-2.599999871257344
 30
0.0
 10
-11.21485519408841
 20
-2.599999856380005
 30
0.0
  0
SPLINE
  5
2928
330
1F
100
AcDbEntity
  8
AM_0
100
AcDbSpline
210
0.0
220
0.0
230
1.0
 70
     8
 71
     3
 72
    13
 73
     9
 74
     0
 42
0.0000000001
 43
0.0000000001
 40
16.03460056234195
 40
16.03460056234195
 40
16.03460056234195
 40
16.03460056234195
 40
16.35212717791071
 40
17.38177067057215
 40
18.41822498539278
 40
19.46214186516937
 40
20.5139635832251
 40
21.34083983469381
 40
21.34083983469381
 40
21.34083983469381
 40
21.34083983469381
 10
-44.08317976163245
 20
-2.599999856379709
 30
0.0
 10
-43.95219228489157
 20
-2.591459431274767
 30
0.0
 10
-43.75037122560441
 20
-2.553238496319451
 30
0.0
 10
-43.39486174417698
 20
-2.47834747842047
 30
0.0
 10
-42.93447572615788
 20
-2.366986962745537
 30
0.0
 10
-42.4745174099017
 20
-2.241947235234314
 30
0.0
 10
-42.04890465520883
 20
-2.114145411070631
 30
0.0
 10
-41.77737121271478
 20
-2.026144759950161
 30
0.0
 10
-41.65825111890672
 20
-1.98636766378163
 30
0.0
  0
LINE
  5
2929
330
1F
100
AcDbEntity
  8
AM_0
100
AcDbLine
 10
-48.30717942821443
 20
-2.599999856379629
 30
0.0
 11
-44.08317947387395
 21
-2.599999856379709
 31
0.0
1001
GENIUS_GENODEF_13
1002
{
1000
HIER
1070
     0
1002
}
1002
{
1000
MANEDIT
1070
     0
1002
}
1002
{
1000
NOSEL
1070
     0
1002
}
1002
{
1000
BEHIND
1070
     0
1002
}
1002
{
1000
REACTOR
1002
}
1001
GENIUS_GENOBJ-N-CEN_13
1002
{
1000
OWNER
1000
GEN
1002
}
  0
LINE
  5
292A
330
1F
100
AcDbEntity
  8
AM_0
 48
0.5
100
AcDbLine
 10
-2.484100341793658
 20
2.600000143619911
 30
0.0
 11
-1.000013987220025
 21
2.600000143619896
 31
0.0
  0
LINE
  5
292B
330
1F
100
AcDbEntity
  8
AM_0
 48
0.5
100
AcDbLine
 10
-21.01131057738908
 20
2.600000143620091
 30
0.0
 11
-11.2148551940884
 21
2.600000143619997
 31
0.0
  0
LINE
  5
292C
330
1F
100
AcDbEntity
  8
AM_11
 48
0.5
100
AcDbLine
 10
-43.08276823419546
 20
2.600369520805358
 30
0.0
 11
-37.51114273070962
 21
2.600000143620198
 31
0.0
  0
LINE
  5
292D
330
1F
100
AcDbEntity
  8
AM_0
100
AcDbLine
 10
-37.51114273070962
 20
2.600000143620198
 30
0.0
 11
-26.58293608087492
 21
2.600369520805251
 31
0.0
  0
LINE
  5
292E
330
1F
100
AcDbEntity
  8
AM_11
 48
0.5
100
AcDbLine
 10
-26.58293608087492
 20
2.600369520805251
 30
0.0
 11
-21.01130305764128
 21
2.600000143620091
 31
0.0
  0
LINE
  5
292F
330
1F
100
AcDbEntity
  8
AM_11
 48
0.5
100
AcDbLine
 10
-11.2148551940884
 20
2.600000143619997
 30
0.0
 11
-2.484100341793658
 21
2.600000143619911
 31
0.0
  0
SPLINE
  5
2930
330
1F
100
AcDbEntity
  8
AM_0
100
AcDbSpline
210
0.0
220
0.0
230
1.0
 70
     8
 71
     3
 72
    23
 73
    19
 74
     0
 42
0.0000000001
 43
0.0000000001
 40
16.03460024169435
 40
16.03460024169435
 40
16.03460024169435
 40
16.03460024169435
 40
16.35212704903564
 40
17.38177054169784
 40
18.41822485651776
 40
19.46214173629503
 40
20.51396345435107
 40
21.57393551351153
 40
22.64208202342361
 40
23.7182574881101
 40
24.80209208578934
 40
25.89306333925047
 40
26.99048218457928
 40
28.09348763352352
 40
29.20111863782268
 40
30.31232390128032
 40
31.42594612798585
 40
32.5407912310448
 40
32.5407912310486
 40
32.5407912310486
 40
32.5407912310486
 10
-26.58293608087492
 20
2.600369520805252
 30
0.0
 10
-26.53531928788003
 20
2.591592378664251
 30
0.0
 10
-26.33349839559552
 20
2.553370395020939
 30
0.0
 10
-25.97798872037428
 20
2.478480251481963
 30
0.0
 10
-25.51760276029266
 20
2.367119427030135
 30
0.0
 10
-25.05764442834585
 20
2.242079783140921
 30
0.0
 10
-24.59808654522919
 20
2.104084985496287
 30
0.0
 10
-24.13891280041902
 20
1.953904358182393
 30
0.0
 10
-23.68009665477335
 20
1.792396396998112
 30
0.0
 10
-23.22160615807971
 20
1.620501037765562
 30
0.0
 10
-22.76341525726132
 20
1.439191713881943
 30
0.0
 10
-22.30548721749225
 20
1.249523422056912
 30
0.0
 10
-21.84778492882569
 20
1.052598596348429
 30
0.0
 10
-21.39027789586364
 20
0.849549471948141
 30
0.0
 10
-20.93292783954824
 20
0.6415567517079886
 30
0.0
 10
-20.4756923995783
 20
0.42983496051884
 30
0.0
 10
-20.01853434408185
 20
0.2156109688283974
 30
0.0
 10
-19.71384416874706
 20
0.0719854960467545
 30
0.0
 10
-19.56141599018931
 20
0.0001323864580163
 30
0.0
  0
SPLINE
  5
2931
330
1F
100
AcDbEntity
  8
AM_0
100
AcDbSpline
210
0.0
220
0.0
230
1.0
 70
     8
 71
     3
 72
    46
 73
    42
 74
     0
 42
0.0000000001
 43
0.0000000001
 40
0.0
 40
0.0
 40
0.0
 40
0.0
 40
0.9269782822765129
 40
1.392069915247614
 40
1.858943734521565
 40
2.328114019741209
 40
2.800033836711347
 40
3.275078499289677
 40
3.753541441904786
 40
4.235633498381826
 40
4.721451375611676
 40
5.211020311238912
 40
5.704265086722058
 40
6.201024192041711
 40
6.701053399869214
 40
7.204032956287514
 40
7.709577388975612
 40
8.217244285004754
 40
8.726544418588229
 40
9.236953160217939
 40
9.747921574214178
 40
10.25888998821083
 40
10.76929872984054
 40
11.2785988634236
 40
11.78626575945273
 40
12.29181019214125
 40
12.79478974855896
 40
13.29481895638662
 40
13.79158132214193
 40
14.28482609762508
 40
14.77439503325231
 40
15.26021291048202
 40
15.74229824760474
 40
16.22076119021984
 40
16.69580585279818
 40
17.16772533483959
 40
17.63689589856451
 40
18.10377665611729
 40
18.56886813072882
 40
19.0327428558558
 40
19.49600034591619
 40
19.49600034591619
 40
19.49600034591619
 40
19.49600034591619
 10
-17.68644199434648
 20
-2.599999856379996
 30
0.0
 10
-17.99551821740347
 20
-2.594076855397616
 30
0.0
 10
-18.4596668602167
 20
-2.585182114675854
 30
0.0
 10
-19.07686555126946
 20
-2.530418830102788
 30
0.0
 10
-19.5403012735846
 20
-2.475202871573673
 30
0.0
 10
-20.00369738317778
 20
-2.40431496012986
 30
0.0
 10
-20.46705265930496
 20
-2.318697718006056
 30
0.0
 10
-20.93036472161922
 20
-2.218760468558705
 30
0.0
 10
-21.39363279414247
 20
-2.105154239528171
 30
0.0
 10
-21.85685481516816
 20
-1.978576589978023
 30
0.0
 10
-22.32003171056603
 20
-1.839812601431279
 30
0.0
 10
-22.78316223453104
 20
-1.689717941365401
 30
0.0
 10
-23.24625382750284
 20
-1.529224974561852
 30
0.0
 10
-23.70930874019916
 20
-1.359320336867353
 30
0.0
 10
-24.17233123084179
 20
-1.181051745738223
 30
0.0
 10
-24.63532644482878
 20
-0.9955190050282554
 30
0.0
 10
-25.0982984398736
 20
-0.8038630394513502
 30
0.0
 10
-25.56125172186193
 20
-0.6072626340835551
 30
0.0
 10
-26.02419119941826
 20
-0.4069277492200555
 30
0.0
 10
-26.48712110152502
 20
-0.2040903035796739
 30
0.0
 10
-26.95004711216125
 20
0.0000001435787996
 30
0.0
 10
-27.41297312269578
 20
0.204090590985283
 30
0.0
 10
-27.87590302510757
 20
0.4069280358819934
 30
0.0
 10
-28.33884250154893
 20
0.6072629234632813
 30
0.0
 10
-28.80179578767169
 20
0.8038633187517964
 30
0.0
 10
-29.2647677673864
 20
0.9955193217016404
 30
0.0
 10
-29.727763038146
 20
1.181051924006481
 30
0.0
 10
-30.19078632537867
 20
1.359321414645753
 30
0.0
 10
-30.653843037283
 20
1.52922450867049
 30
0.0
 10
-31.11693545633925
 20
1.689718298427006
 30
0.0
 10
-31.58006596952126
 20
1.839813003154034
 30
0.0
 10
-32.04324096224104
 20
1.978575716578307
 30
0.0
 10
-32.50645989691365
 20
2.10515532417747
 30
0.0
 10
-32.96972607840772
 20
2.218762017301888
 30
0.0
 10
-33.43303787258129
 20
2.318692728329714
 30
0.0
 10
-33.89639348841219
 20
2.404334802827579
 30
0.0
 10
-34.3597925554351
 20
2.475121485424875
 30
0.0
 10
-34.82322588978343
 20
2.530726154015767
 30
0.0
 10
-35.28668789652666
 20
2.570397157129269
 30
0.0
 10
-35.750166726596
 20
2.595360598483664
 30
0.0
 10
-36.05922797885061
 20
2.598454315118395
 30
0.0
 10
-36.21365572674789
 20
2.600000143620185
 30
0.0
  0
SPLINE
  5
2932
330
1F
100
AcDbEntity
  8
AM_0
100
AcDbSpline
210
0.0
220
0.0
230
1.0
 70
     8
 71
     3
 72
    55
 73
    51
 74
     0
 42
0.0000000001
 43
0.0000000001
 40
0.0
 40
0.0
 40
0.0
 40
0.0
 40
1.010743684496582
 40
2.022833576467832
 40
3.037578957496688
 40
4.056212745003489
 40
5.079857003664532
 40
6.109500240690281
 40
7.145961322679372
 40
8.189895241603872
 40
9.241717795325891
 40
10.30168407291828
 40
11.36983447792315
 40
12.44600489715814
 40
13.52984294512926
 40
14.62081576220742
 40
15.7182257034828
 40
16.82123173843959
 40
17.92886860250316
 40
19.0400688939571
 40
20.15368796660465
 40
21.26852814259644
 40
22.38336992938901
 40
23.49698739941135
 40
24.6081876908653
 40
25.71582455492886
 40
26.81883757994213
 40
27.91624752121713
 40
29.00722033829659
 40
30.09105838626677
 40
31.16722880550176
 40
32.23537921050758
 40
33.29534548809967
 40
34.347168041821
 40
35.39108718934584
 40
36.42754827133493
 40
37.45720575381954
 40
38.48085062012849
 40
39.49948440763516
 40
40.51422944315121
 40
41.52631975251916
 40
42.53706336719636
 40
43.54780698187354
 40
44.55989729124051
 40
45.57464232675757
 40
46.59327611426424
 40
47.6169209805722
 40
48.64656348684535
 40
49.68302456883444
 40
50.58557219878025
 40
50.58557219878025
 40
50.58557219878025
 40
50.58557219878025
 10
-18.98386885388436
 20
-2.599999856379985
 30
0.0
 10
-19.13829657431121
 20
-2.598452919368833
 30
0.0
 10
-19.44735769713428
 20
-2.595356984984253
 30
0.0
 10
-19.91083690813531
 20
-2.570400278221956
 30
0.0
 10
-20.37429633495635
 20
-2.530725633889058
 30
0.0
 10
-20.83772707818899
 20
-2.47512011091616
 30
0.0
 10
-21.30112451352391
 20
-2.404337270749732
 30
0.0
 10
-21.76447949916581
 20
-2.318691873399981
 30
0.0
 10
-22.22779358501657
 20
-2.218760856790058
 30
0.0
 10
-22.69106266241659
 20
-2.105156150652363
 30
0.0
 10
-23.15428357565914
 20
-1.978575280990867
 30
0.0
 10
-23.61745863364438
 20
-1.839812782839605
 30
0.0
 10
-24.0805890768475
 20
-1.689717892200195
 30
0.0
 10
-24.5436806917124
 20
-1.529224987893567
 30
0.0
 10
-25.00673559844501
 20
-1.359320333203309
 30
0.0
 10
-25.4697580908321
 20
-1.181051746938789
 30
0.0
 10
-25.93275330385577
 20
-0.9955190039146048
 30
0.0
 10
-26.39572530100918
 20
-0.8038630427183639
 30
0.0
 10
-26.85867857548836
 20
-0.6072626220674304
 30
0.0
 10
-27.32161808109005
 20
-0.4069277941936153
 30
0.0
 10
-27.7845478782344
 20
-0.2040901352882869
 30
0.0
 10
-28.2474745042072
 20
-0.0000003868743397
 30
0.0
 10
-28.71039905202679
 20
0.2040930352822691
 30
0.0
 10
-29.17333040081091
 20
0.4069275354687307
 30
0.0
 10
-29.63626933490758
 20
0.6072629697446644
 30
0.0
 10
-30.09922343482731
 20
0.8038641393555714
 30
0.0
 10
-30.56219735261065
 20
0.9955184649261868
 30
0.0
 10
-31.0251932963631
 20
1.181052148859524
 30
0.0
 10
-31.48821585559524
 20
1.359320590566599
 30
0.0
 10
-31.95127074547877
 20
1.529225280987168
 30
0.0
 10
-32.41436236152948
 20
1.689718185528564
 30
0.0
 10
-32.87749281652885
 20
1.839813040278023
 30
0.0
 10
-33.34066782670937
 20
1.97857568011856
 30
0.0
 10
-33.8038867491986
 20
2.105155432072601
 30
0.0
 10
-34.26715296181446
 20
2.218761626148508
 30
0.0
 10
-34.73046687579974
 20
2.318694652245458
 30
0.0
 10
-35.19382516995154
 20
2.40433026770195
 30
0.0
 10
-35.65722413622064
 20
2.475135016653735
 30
0.0
 10
-36.12065501683487
 20
2.530674626456299
 30
0.0
 10
-36.58411476568161
 20
2.570590200451424
 30
0.0
 10
-37.0475935837075
 20
2.594642284377495
 30
0.0
 10
-37.51108258639936
 20
2.602677289756561
 30
0.0
 10
-37.97457158840924
 20
2.594642284364904
 30
0.0
 10
-38.43805040848498
 20
2.570590200501975
 30
0.0
 10
-38.90151014978476
 20
2.530674626265844
 30
0.0
 10
-39.36494105869439
 20
2.475135017369481
 30
0.0
 10
-39.82833765943212
 20
2.404330610195203
 30
0.0
 10
-40.29169412812859
 20
2.318695527823374
 30
0.0
 10
-40.73394216391596
 20
2.223297952853494
 30
0.0
 10
-41.0208777259986
 20
2.153532804420491
 30
0.0
 10
-41.15399910299084
 20
2.119532844240195
 30
0.0
  0
SPLINE
  5
2933
330
1F
100
AcDbEntity
  8
AM_0
100
AcDbSpline
210
0.0
220
0.0
230
1.0
 70
     8
 71
     3
 72
    23
 73
    19
 74
     0
 42
0.0000000001
 43
0.0000000001
 40
16.03460024169435
 40
16.03460024169435
 40
16.03460024169435
 40
16.03460024169435
 40
16.35212704903564
 40
17.38177054169784
 40
18.41822485651776
 40
19.46214173629503
 40
20.51396345435107
 40
21.57393551351153
 40
22.64208202342361
 40
23.7182574881101
 40
24.80209208578934
 40
25.89306333925047
 40
26.99048218457928
 40
28.09348763352352
 40
29.20111863782268
 40
30.31232390128032
 40
31.42594612798585
 40
32.5407912310448
 40
32.5407912310486
 40
32.5407912310486
 40
32.5407912310486
 10
-43.08276823419546
 20
2.600369520805358
 30
0.0
 10
-43.03515144120057
 20
2.591592378664355
 30
0.0
 10
-42.83333054891605
 20
2.553370395021044
 30
0.0
 10
-42.47782087369482
 20
2.478480251482067
 30
0.0
 10
-42.01743491361319
 20
2.367119427030241
 30
0.0
 10
-41.55747658166638
 20
2.242079783141027
 30
0.0
 10
-41.09791869854972
 20
2.104084985496392
 30
0.0
 10
-40.63874495373954
 20
1.953904358182498
 30
0.0
 10
-40.17992880809391
 20
1.792396396998216
 30
0.0
 10
-39.72143831140027
 20
1.620501037765666
 30
0.0
 10
-39.26324741058189
 20
1.439191713882048
 30
0.0
 10
-38.80531937081282
 20
1.249523422057017
 30
0.0
 10
-38.34761708214626
 20
1.052598596348534
 30
0.0
 10
-37.8901100491842
 20
0.8495494719482456
 30
0.0
 10
-37.43275999286879
 20
0.6415567517080935
 30
0.0
 10
-36.97552455289884
 20
0.4298349605189449
 30
0.0
 10
-36.5183664974024
 20
0.2156109688285022
 30
0.0
 10
-36.21367632206761
 20
0.0719854960468593
 30
0.0
 10
-36.06124814350986
 20
0.0001323864581211
 30
0.0
  0
SPLINE
  5
2934
330
1F
100
AcDbEntity
  8
AM_0
 48
0.5
100
AcDbSpline
210
0.0
220
0.0
230
1.0
 70
     8
 71
     3
 72
    17
 73
    13
 74
     0
 42
0.0000000001
 43
0.0000000001
 40
0.0
 40
0.0
 40
0.0
 40
0.0
 40
1.010743614677189
 40
2.022833924044153
 40
3.037578959561199
 40
4.056212747067873
 40
5.079857613375832
 40
6.109500119648989
 40
7.14596120163808
 40
8.18989512056258
 40
9.241717674284874
 40
9.693948937866434
 40
9.693948937866434
 40
9.693948937866434
 40
9.693948937866434
 10
-2.484100341793658
 20
2.600000143619911
 30
0.0
 10
-2.638528090324514
 20
2.598454321406794
 30
0.0
 10
-2.947589343847012
 20
2.59536061735781
 30
0.0
 10
-3.411068164388106
 20
2.570397081431416
 30
0.0
 10
-3.874527903775186
 20
2.530726636352045
 30
0.0
 10
-4.337958819910655
 20
2.475121004250378
 30
0.0
 10
-4.801355393466568
 20
2.404334325132617
 30
0.0
 10
-5.264711964511857
 20
2.318694791376664
 30
0.0
 10
-5.728022314022589
 20
2.218753692983303
 30
0.0
 10
-6.191304420300107
 20
2.105183859165755
 30
0.0
 10
-6.565277817160056
 20
2.002874606287524
 30
0.0
 10
-6.784896922260266
 20
1.938916610524305
 30
0.0
 10
-6.850814794900697
 20
1.9193394961748
 30
0.0
  0
SPLINE
  5
2935
330
1F
100
AcDbEntity
  8
AM_0
 48
0.5
100
AcDbSpline
210
0.0
220
0.0
230
1.0
 70
     8
 71
     3
 72
    25
 73
    21
 74
     0
 42
0.0000000001
 43
0.0000000001
 40
6.846175049578289
 40
6.846175049578289
 40
6.846175049578289
 40
6.846175049578289
 40
7.604337694224321
 40
8.711974558287883
 40
9.814980593243754
 40
10.91239053451967
 40
12.0033633515982
 40
13.08720139956839
 40
14.16337181880432
 40
15.23152222380919
 40
16.29148850140128
 40
17.34331105512262
 40
18.38723020264746
 40
19.42369128463655
 40
20.45333379090873
 40
21.47697865721768
 40
22.49561244472435
 40
23.5103574802404
 40
24.52244778960836
 40
25.53320666051913
 40
25.53320666051913
 40
25.53320666051913
 40
25.53320666051913
 10
-3.024633756897771
 20
0.4706171654320958
 30
0.0
 10
-3.12992036822863
 20
0.5162685413491208
 30
0.0
 10
-3.389246916617739
 20
0.6281574218965221
 30
0.0
 10
-3.802998788893616
 20
0.8038632424223598
 30
0.0
 10
-4.26597073294785
 20
0.9955193144928893
 30
0.0
 10
-4.728965960161833
 20
1.181052027786612
 30
0.0
 10
-5.191988448527441
 20
1.35932062284519
 30
0.0
 10
-5.655043357257849
 20
1.529225271890302
 30
0.0
 10
-6.118134968156476
 20
1.689718189922504
 30
0.0
 10
-6.581265425093589
 20
1.839813031794104
 30
0.0
 10
-7.044440432648305
 20
1.978575709369331
 30
0.0
 10
-7.507659363626385
 20
2.105155324695779
 30
0.0
 10
-7.970925545232213
 20
2.218762022299128
 30
0.0
 10
-8.434237342578116
 20
2.318692708040542
 30
0.0
 10
-8.897592945734073
 20
2.404334878313485
 30
0.0
 10
-9.360989776343929
 20
2.475120857089353
 30
0.0
 10
-9.824420624139067
 20
2.53072667586755
 30
0.0
 10
-10.28788038164121
 20
2.570397069668289
 30
0.0
 10
-10.75136152550193
 20
2.595360750428363
 30
0.0
 10
-11.06042511306622
 20
2.598454357959837
 30
0.0
 10
-11.2148551940884
 20
2.600000143619996
 30
0.0
  0
SPLINE
  5
2936
330
1F
100
AcDbEntity
  8
AM_0
100
AcDbSpline
210
0.0
220
0.0
230
1.0
 70
     8
 71
     3
 72
    46
 73
    42
 74
     0
 42
0.0000000001
 43
0.0000000001
 40
0.0
 40
0.0
 40
0.0
 40
0.0
 40
0.9269782822765142
 40
1.392069915247616
 40
1.858943734521566
 40
2.32811401974121
 40
2.800033836711342
 40
3.275078499289676
 40
3.753541441904785
 40
4.23563349838183
 40
4.721451375611675
 40
5.211020311238911
 40
5.704265086722057
 40
6.201024192041715
 40
6.701053399869211
 40
7.204032956287519
 40
7.709577388975613
 40
8.217244285004758
 40
8.726544418588229
 40
9.236953160217939
 40
9.747921574214178
 40
10.25888998821083
 40
10.76929872984054
 40
11.27859886342359
 40
11.78626575945272
 40
12.29181019214125
 40
12.79478974855896
 40
13.29481895638662
 40
13.79158132214193
 40
14.28482609762507
 40
14.77439503325231
 40
15.26021291048201
 40
15.74229824760473
 40
16.22076119021984
 40
16.69580585279817
 40
17.16772533483958
 40
17.63689589856451
 40
18.10377665611729
 40
18.56886813072882
 40
19.03274285585579
 40
19.49600034591619
 40
19.49600034591619
 40
19.49600034591619
 40
19.49600034591619
 10
-1.186673482255833
 20
-2.599999856380103
 30
0.0
 10
-1.49574970531282
 20
-2.594076855397722
 30
0.0
 10
-1.959898348126061
 20
-2.585182114675961
 30
0.0
 10
-2.577097039178822
 20
-2.530418830102895
 30
0.0
 10
-3.040532761493962
 20
-2.475202871573783
 30
0.0
 10
-3.503928871087131
 20
-2.404314960129966
 30
0.0
 10
-3.967284147214308
 20
-2.318697718006163
 30
0.0
 10
-4.43059620952857
 20
-2.218760468558811
 30
0.0
 10
-4.893864282051825
 20
-2.105154239528275
 30
0.0
 10
-5.357086303077519
 20
-1.97857658997813
 30
0.0
 10
-5.820263198475378
 20
-1.839812601431384
 30
0.0
 10
-6.283393722440384
 20
-1.689717941365508
 30
0.0
 10
-6.74648531541219
 20
-1.529224974561958
 30
0.0
 10
-7.209540228108513
 20
-1.359320336867463
 30
0.0
 10
-7.672562718751143
 20
-1.181051745738326
 30
0.0
 10
-8.135557932738123
 20
-0.9955190050283654
 30
0.0
 10
-8.598529927782966
 20
-0.8038630394514543
 30
0.0
 10
-9.061483209771292
 20
-0.6072626340836638
 30
0.0
 10
-9.524422687327625
 20
-0.4069277492201606
 30
0.0
 10
-9.987352589434365
 20
-0.2040903035797802
 30
0.0
 10
-10.4502786000706
 20
0.0000001435786927
 30
0.0
 10
-10.91320461060513
 20
0.2040905909851772
 30
0.0
 10
-11.37613451301691
 20
0.4069280358818869
 30
0.0
 10
-11.83907398945826
 20
0.6072629234631746
 30
0.0
 10
-12.30202727558103
 20
0.8038633187516918
 30
0.0
 10
-12.76499925529575
 20
0.995519321701532
 30
0.0
 10
-13.22799452605537
 20
1.181051924006376
 30
0.0
 10
-13.69101781328803
 20
1.359321414645647
 30
0.0
 10
-14.15407452519235
 20
1.529224508670381
 30
0.0
 10
-14.61716694424859
 20
1.689718298426902
 30
0.0
 10
-15.0802974574306
 20
1.839813003153926
 30
0.0
 10
-15.5434724501504
 20
1.978575716578202
 30
0.0
 10
-16.00669138482301
 20
2.105155324177364
 30
0.0
 10
-16.46995756631707
 20
2.218762017301779
 30
0.0
 10
-16.93326936049064
 20
2.318692728329606
 30
0.0
 10
-17.39662497632155
 20
2.404334802827472
 30
0.0
 10
-17.86002404334445
 20
2.475121485424766
 30
0.0
 10
-18.32345737769281
 20
2.530726154015659
 30
0.0
 10
-18.78691938443603
 20
2.570397157129162
 30
0.0
 10
-19.25039821450535
 20
2.59536059848356
 30
0.0
 10
-19.55945946675997
 20
2.598454315118289
 30
0.0
 10
-19.71388721465725
 20
2.600000143620079
 30
0.0
  0
SPLINE
  5
2937
330
1F
100
AcDbEntity
  8
AM_0
100
AcDbSpline
210
0.0
220
0.0
230
1.0
 70
     8
 71
     3
 72
    55
 73
    51
 74
     0
 42
0.0000000001
 43
0.0000000001
 40
0.0
 40
0.0
 40
0.0
 40
0.0
 40
1.010743684496582
 40
2.022833576467832
 40
3.037578957496688
 40
4.056212745003489
 40
5.079857003664532
 40
6.109500240690281
 40
7.145961322679372
 40
8.189895241603872
 40
9.241717795325891
 40
10.30168407291828
 40
11.36983447792315
 40
12.44600489715814
 40
13.52984294512926
 40
14.62081576220742
 40
15.7182257034828
 40
16.82123173843959
 40
17.92886860250316
 40
19.0400688939571
 40
20.15368796660465
 40
21.26852814259644
 40
22.38336992938901
 40
23.49698739941135
 40
24.6081876908653
 40
25.71582455492886
 40
26.81883757994213
 40
27.91624752121713
 40
29.00722033829659
 40
30.09105838626677
 40
31.16722880550176
 40
32.23537921050758
 40
33.29534548809967
 40
34.347168041821
 40
35.39108718934584
 40
36.42754827133493
 40
37.45720575381954
 40
38.48085062012849
 40
39.49948440763516
 40
40.51422944315121
 40
41.52631975251916
 40
42.53706336719636
 40
43.54780698187354
 40
44.55989729124051
 40
45.57464232675757
 40
46.59327611426424
 40
47.6169209805722
 40
48.64656348684535
 40
49.68302456883444
 40
50.58557219878025
 40
50.58557219878025
 40
50.58557219878025
 40
50.58557219878025
 10
-2.484100341793711
 20
-2.59999985638009
 30
0.0
 10
-2.638528062220566
 20
-2.598452919368938
 30
0.0
 10
-2.94758918504363
 20
-2.59535698498436
 30
0.0
 10
-3.411068396044665
 20
-2.570400278222065
 30
0.0
 10
-3.87452782286571
 20
-2.530725633889165
 30
0.0
 10
-4.337958566098345
 20
-2.475120110916269
 30
0.0
 10
-4.801356001433269
 20
-2.404337270749841
 30
0.0
 10
-5.264710987075169
 20
-2.318691873400088
 30
0.0
 10
-5.728025072925927
 20
-2.218760856790166
 30
0.0
 10
-6.191294150325944
 20
-2.10515615065247
 30
0.0
 10
-6.654515063568489
 20
-1.978575280990972
 30
0.0
 10
-7.117690121553731
 20
-1.839812782839712
 30
0.0
 10
-7.580820564756845
 20
-1.689717892200302
 30
0.0
 10
-8.043912179621752
 20
-1.529224987893674
 30
0.0
 10
-8.506967086354361
 20
-1.359320333203415
 30
0.0
 10
-8.969989578741445
 20
-1.181051746938896
 30
0.0
 10
-9.432984791765111
 20
-0.9955190039147115
 30
0.0
 10
-9.895956788918544
 20
-0.8038630427184701
 30
0.0
 10
-10.35891006339772
 20
-0.6072626220675368
 30
0.0
 10
-10.8218495689994
 20
-0.4069277941937218
 30
0.0
 10
-11.28477936614375
 20
-0.2040901352883933
 30
0.0
 10
-11.74770599211654
 20
-0.0000003868744461
 30
0.0
 10
-12.21063053993613
 20
0.2040930352821627
 30
0.0
 10
-12.67356188872026
 20
0.4069275354686244
 30
0.0
 10
-13.13650082281692
 20
0.6072629697445581
 30
0.0
 10
-13.59945492273666
 20
0.8038641393554652
 30
0.0
 10
-14.06242884052002
 20
0.9955184649260802
 30
0.0
 10
-14.52542478427245
 20
1.181052148859418
 30
0.0
 10
-14.98844734350458
 20
1.359320590566493
 30
0.0
 10
-15.4515022333881
 20
1.529225280987061
 30
0.0
 10
-15.9145938494388
 20
1.689718185528458
 30
0.0
 10
-16.37772430443821
 20
1.839813040277917
 30
0.0
 10
-16.84089931461874
 20
1.978575680118454
 30
0.0
 10
-17.30411823710796
 20
2.105155432072495
 30
0.0
 10
-17.76738444972382
 20
2.218761626148402
 30
0.0
 10
-18.23069836370909
 20
2.318694652245353
 30
0.0
 10
-18.69405665786089
 20
2.404330267701842
 30
0.0
 10
-19.15745562412999
 20
2.475135016653627
 30
0.0
 10
-19.62088650474423
 20
2.530674626456191
 30
0.0
 10
-20.08434625359097
 20
2.570590200451317
 30
0.0
 10
-20.54782507161687
 20
2.594642284377387
 30
0.0
 10
-21.01131407430871
 20
2.602677289756452
 30
0.0
 10
-21.47480307631859
 20
2.594642284364798
 30
0.0
 10
-21.93828189639434
 20
2.570590200501869
 30
0.0
 10
-22.40174163769412
 20
2.530674626265739
 30
0.0
 10
-22.86517254660375
 20
2.475135017369376
 30
0.0
 10
-23.32856914734147
 20
2.404330610195096
 30
0.0
 10
-23.79192561603795
 20
2.318695527823269
 30
0.0
 10
-24.23417365182532
 20
2.223297952853388
 30
0.0
 10
-24.52110921390797
 20
2.153532804420384
 30
0.0
 10
-24.65423059090019
 20
2.11953284424009
 30
0.0
  0
LINE
  5
2938
330
1F
100
AcDbEntity
  8
AM_0
100
AcDbLine
 10
-48.30717992573017
 20
2.60000014362037
 30
0.0
 11
-43.08076509923839
 21
2.600000143620283
 31
0.0
1001
GENIUS_GENODEF_13
1002
{
1000
HIER
1070
     0
1002
}
1002
{
1000
MANEDIT
1070
     0
1002
}
1002
{
1000
NOSEL
1070
     0
1002
}
1002
{
1000
BEHIND
1070
     0
1002
}
1002
{
1000
REACTOR
1002
}
1001
GENIUS_GENOBJ-N-CEN_13
1002
{
1000
OWNER
1000
GEN
1002
}
  0
VIEWPORT
  5
110
330
101
100
AcDbEntity
 67
     1
  8
0
100
AcDbViewport
 10
420.5
 20
297.0
 30
0.0
 40
948.9782706766916
 41
628.452
 68
     1
 69
     1
1001
ACAD
1000
MVIEW
1002
{
1070
    16
1010
0.0
1020
0.0
1030
0.0
1010
0.0
1020
0.0
1030
1.0
1040
0.0
1040
628.452
1040
420.5
1040
297.0
1040
50.0
1040
0.0
1040
0.0
1070
     0
1070
   100
1070
     1
1070
     1
1070
     0
1070
     0
1070
     0
1070
     0
1040
0.0
1040
0.0
1040
0.0
1040
10.0
1040
10.0
1040
10.0
1040
10.0
1070
     0
1002
{
1002
}
1002
}
  0
ENDSEC
  0
SECTION
  2
OBJECTS
  0
DICTIONARY
  5
C
330
0
100
AcDbDictionary
  3
ACAD_GROUP
350
D
  3
ACAD_LAYOUT
350
1A
  3
ACAD_MLINESTYLE
350
17
  3
ACAD_PLOTSETTINGS
350
19
  3
ACAD_PLOTSTYLENAME
350
E
  3
ACDBVARIABLEDICTIONARY
350
34
  3
ACMDICTIONARY
350
43
  3
AMG
350
2B
  3
AMGSNAPSETTINGS
350
6E
  3
DWGPROPS
350
298B
  3
ACDBHEADERROUNDTRIPXREC
350
2997
  0
DICTIONARY
  5
74
330
1F
100
AcDbDictionary
280
     1
  3
ACAD_INDEX
360
298D
  3
ACAD_LAYOUTSELFREF
360
29BA
  0
DICTIONARY
  5
29BF
330
101
100
AcDbDictionary
280
     1
  3
ACAD_LAYOUTSELFREF
360
29C0
  0
DICTIONARY
  5
D
102
{ACAD_REACTORS
330
C
102
}
330
C
100
AcDbDictionary
  0
DICTIONARY
  5
1A
102
{ACAD_REACTORS
330
C
102
}
330
C
100
AcDbDictionary
  0
DICTIONARY
  5
17
102
{ACAD_REACTORS
330
C
102
}
330
C
100
AcDbDictionary
  3
STANDARD
350
18
  0
DICTIONARY
  5
19
102
{ACAD_REACTORS
330
C
102
}
330
C
100
AcDbDictionary
  0
ACDBDICTIONARYWDFLT
  5
E
102
{ACAD_REACTORS
330
C
102
}
330
C
100
AcDbDictionary
281
     1
  3
Normal
350
F
100
AcDbDictionaryWithDefault
340
F
  0
DICTIONARY
  5
34
102
{ACAD_REACTORS
330
C
102
}
330
C
100
AcDbDictionary
  3
INDEXCTL
350
35
  3
SORTENTS
350
B5E
  0
DICTIONARY
  5
43
102
{ACAD_REACTORS
330
C
102
}
330
C
100
AcDbDictionary
  3
ACMSTDDICTIONARY
350
260
  0
DICTIONARY
  5
2B
102
{ACAD_REACTORS
330
C
102
}
330
C
100
AcDbDictionary
  3
ACMGSETTINGS
350
2C
  0
DICTIONARY
  5
6E
102
{ACAD_REACTORS
330
C
102
}
330
C
100
AcDbDictionary
  0
XRECORD
  5
298B
102
{ACAD_REACTORS
330
C
102
}
330
C
100
AcDbXrecord
  1
DWGPROPS COOKIE
  2

  3

  4

  6

  7

  8

  9

300
AmdtFileType=82
301
=
302
=
303
=
304
=
305
=
306
=
307
=
308
=
309
=
 40
0.0757941087962963
 41
2452800.443498622
 42
2452948.69487015
  1

 90
        1
  0
DICTIONARY
  5
2997
102
{ACAD_REACTORS
330
C
102
}
330
C
100
AcDbDictionary
  3
TSTACKALIGN
350
2998
  3
TSTACKSIZE
350
2999
  3
HYPERLINKBASE
350
299A
  3
STYLESHEET
350
299B
  3
LAYOUTDICT
350
299C
  3
PLOTSETDICT
350
299D
  3
PLOTSTYLNAMDICT
350
299E
  3
LWETCUNION
350
299F
  3
INSUNITS
350
29A0
  3
CEPSNTYPE
350
29A1
  3
FINGERPRINTGUID
350
29A2
  3
VERSIONGUID
350
29A3
  3
PSVPSCALE
350
29A4
  3
DIMSTYLEDATA
350
29A5
  3
PUCSORTHOREF
350
29A6
  3
PUCSORTHOVIEW
350
29A7
  3
PUCSBASE
350
29A8
  3
PUCSORGTOP
350
29A9
  3
PUCSORGBOTTOM
350
29AA
  3
PUCSORGLEFT
350
29AB
  3
PUCSORGRIGHT
350
29AC
  3
PUCSORGFRONT
350
29AD
  3
PUCSORGBACK
350
29AE
  3
UCSORTHOREF
350
29AF
  3
UCSORTHOVIEW
350
29B0
  3
UCSBASE
350
29B1
  3
UCSORGTOP
350
29B2
  3
UCSORGBOTTOM
350
29B3
  3
UCSORGLEFT
350
29B4
  3
UCSORGRIGHT
350
29B5
  3
UCSORGFRONT
350
29B6
  3
UCSORGBACK
350
29B7
  0
DICTIONARY
  5
298D
102
{ACAD_REACTORS
330
74
102
}
330
74
100
AcDbDictionary
  3
*A1
350
298E
  0
XRECORD
  5
29BA
102
{ACAD_REACTORS
330
74
102
}
330
74
100
AcDbXrecord
340
1F
  0
XRECORD
  5
29C0
102
{ACAD_REACTORS
330
29BF
102
}
330
29BF
100
AcDbXrecord
340
101
  0
MLINESTYLE
  5
18
102
{ACAD_REACTORS
330
17
102
}
330
17
100
AcDbMlineStyle
  2
STANDARD
 70
     0
  3

 62
   256
 51
90.0
 52
90.0
 71
     2
 49
0.5
 62
   256
  6
BYLAYER
 49
-0.5
 62
   256
  6
BYLAYER
  0
ACDBPLACEHOLDER
  5
F
102
{ACAD_REACTORS
330
E
102
}
330
E
100
AcDbPlaceHolder
280
     0
  0
DICTIONARYVAR
  5
35
102
{ACAD_REACTORS
330
34
102
}
330
34
100
DictionaryVariables
280
     0
  1
1
  0
DICTIONARYVAR
  5
B5E
102
{ACAD_REACTORS
330
34
102
}
330
34
100
DictionaryVariables
280
     0
  1
96
  0
DICTIONARY
  5
260
102
{ACAD_REACTORS
330
43
102
}
330
43
100
AcDbDictionary
  0
DICTIONARY
  5
2C
102
{ACAD_REACTORS
330
2B
102
}
330
2B
100
AcDbDictionary
  3
DWGSETTINGS
350
2D
  0
XRECORD
  5
2998
102
{ACAD_REACTORS
330
2997
102
}
330
2997
100
AcDbXrecord
 90
        1
  0
XRECORD
  5
2999
102
{ACAD_REACTORS
330
2997
102
}
330
2997
100
AcDbXrecord
 90
       70
  0
XRECORD
  5
299A
102
{ACAD_REACTORS
330
2997
102
}
330
2997
100
AcDbXrecord
  1

  0
XRECORD
  5
299B
102
{ACAD_REACTORS
330
2997
102
}
330
2997
100
AcDbXrecord
  1
ASAMI.ctb
  0
XRECORD
  5
299C
102
{ACAD_REACTORS
330
2997
102
}
330
2997
100
AcDbXrecord
340
1A
  0
XRECORD
  5
299D
102
{ACAD_REACTORS
330
2997
102
}
330
2997
100
AcDbXrecord
340
19
  0
XRECORD
  5
299E
102
{ACAD_REACTORS
330
2997
102
}
330
2997
100
AcDbXrecord
340
E
  0
XRECORD
  5
299F
102
{ACAD_REACTORS
330
2997
102
}
330
2997
100
AcDbXrecord
 90
    10781
  0
XRECORD
  5
29A0
102
{ACAD_REACTORS
330
2997
102
}
330
2997
100
AcDbXrecord
 90
        4
  0
XRECORD
  5
29A1
102
{ACAD_REACTORS
330
2997
102
}
330
2997
100
AcDbXrecord
 90
        0
  0
XRECORD
  5
29A2
102
{ACAD_REACTORS
330
2997
102
}
330
2997
100
AcDbXrecord
  1
{AFB28963-8C59-40AE-9337-C84526B81ACE}
  0
XRECORD
  5
29A3
102
{ACAD_REACTORS
330
2997
102
}
330
2997
100
AcDbXrecord
  1
{B2055799-FD13-42E8-A602-19FD75829C80}
  0
XRECORD
  5
29A4
102
{ACAD_REACTORS
330
2997
102
}
330
2997
100
AcDbXrecord
 40
0.0
  0
XRECORD
  5
29A5
102
{ACAD_REACTORS
330
2997
102
}
330
2997
100
AcDbXrecord
1000
DSTYLE
1002
{
1070
    79
 70
     2
1070
   341
340
59
1070
   342
340
59
1070
   371
 70
    -1
1070
   372
 70
    -1
1002
}
  0
XRECORD
  5
29A6
102
{ACAD_REACTORS
330
2997
102
}
330
2997
100
AcDbXrecord
340
0
  0
XRECORD
  5
29A7
102
{ACAD_REACTORS
330
2997
102
}
330
2997
100
AcDbXrecord
 70
     0
  0
XRECORD
  5
29A8
102
{ACAD_REACTORS
330
2997
102
}
330
2997
100
AcDbXrecord
340
0
  0
XRECORD
  5
29A9
102
{ACAD_REACTORS
330
2997
102
}
330
2997
100
AcDbXrecord
 10
0.0
 20
0.0
 30
0.0
  0
XRECORD
  5
29AA
102
{ACAD_REACTORS
330
2997
102
}
330
2997
100
AcDbXrecord
 10
0.0
 20
0.0
 30
0.0
  0
XRECORD
  5
29AB
102
{ACAD_REACTORS
330
2997
102
}
330
2997
100
AcDbXrecord
 10
0.0
 20
0.0
 30
0.0
  0
XRECORD
  5
29AC
102
{ACAD_REACTORS
330
2997
102
}
330
2997
100
AcDbXrecord
 10
0.0
 20
0.0
 30
0.0
  0
XRECORD
  5
29AD
102
{ACAD_REACTORS
330
2997
102
}
330
2997
100
AcDbXrecord
 10
0.0
 20
0.0
 30
0.0
  0
XRECORD
  5
29AE
102
{ACAD_REACTORS
330
2997
102
}
330
2997
100
AcDbXrecord
 10
0.0
 20
0.0
 30
0.0
  0
XRECORD
  5
29AF
102
{ACAD_REACTORS
330
2997
102
}
330
2997
100
AcDbXrecord
340
0
  0
XRECORD
  5
29B0
102
{ACAD_REACTORS
330
2997
102
}
330
2997
100
AcDbXrecord
 70
     0
  0
XRECORD
  5
29B1
102
{ACAD_REACTORS
330
2997
102
}
330
2997
100
AcDbXrecord
340
0
  0
XRECORD
  5
29B2
102
{ACAD_REACTORS
330
2997
102
}
330
2997
100
AcDbXrecord
 10
0.0
 20
0.0
 30
0.0
  0
XRECORD
  5
29B3
102
{ACAD_REACTORS
330
2997
102
}
330
2997
100
AcDbXrecord
 10
0.0
 20
0.0
 30
0.0
  0
XRECORD
  5
29B4
102
{ACAD_REACTORS
330
2997
102
}
330
2997
100
AcDbXrecord
 10
0.0
 20
0.0
 30
0.0
  0
XRECORD
  5
29B5
102
{ACAD_REACTORS
330
2997
102
}
330
2997
100
AcDbXrecord
 10
0.0
 20
0.0
 30
0.0
  0
XRECORD
  5
29B6
102
{ACAD_REACTORS
330
2997
102
}
330
2997
100
AcDbXrecord
 10
0.0
 20
0.0
 30
0.0
  0
XRECORD
  5
29B7
102
{ACAD_REACTORS
330
2997
102
}
330
2997
100
AcDbXrecord
 10
0.0
 20
0.0
 30
0.0
  0
LAYER_INDEX
  5
298E
102
{ACAD_REACTORS
330
298D
102
}
330
298D
100
AcDbIndex
 40
2453151.692773055
100
AcDbLayerIndex
  8
0
360
298F
 90
        0
  8
AM_0
360
2990
 90
       52
  8
AM_7
360
2991
 90
        1
  8
AM_11
360
2992
 90
       25
  8
AM_5
360
2993
 90
        5
  8
Defpoints
360
2994
 90
        0
  8
AM_6
360
2995
 90
        1
  0
XRECORD
  5
2D
102
{ACAD_REACTORS
330
2C
102
}
330
2C
100
AcDbXrecord
  1
VERSION
140
15.0
  1
PRODUCT
  2
AutoCAD Mechanical 2000
  0
IDBUFFER
  5
298F
330
0
100
AcDbIdBuffer
  0
IDBUFFER
  5
2990
330
0
100
AcDbIdBuffer
330
2935
330
2936
330
2937
330
2938
330
1F19
330
1F1A
330
1F1B
330
1F1C
330
1F2F
330
1F31
330
1F32
330
1F5B
330
1F5C
330
2434
330
2437
330
2442
330
245F
330
2460
330
2651
330
2652
330
290E
330
290F
330
2911
330
2912
330
2913
330
2914
330
2915
330
2916
330
2917
330
2918
330
2919
330
291A
330
291C
330
291F
330
2920
330
2921
330
2922
330
2923
330
2924
330
2925
330
2926
330
2927
330
2928
330
2929
330
292A
330
292B
330
292D
330
2930
330
2931
330
2932
330
2933
330
2934
  0
IDBUFFER
  5
2991
330
0
100
AcDbIdBuffer
330
C9F
  0
IDBUFFER
  5
2992
330
0
100
AcDbIdBuffer
330
1F0B
330
1F0C
330
2910
330
291B
330
291D
330
291E
330
292C
330
292E
330
292F
330
144A
330
144B
330
144E
330
144F
330
1450
330
1451
330
1452
330
1453
330
1DAB
330
1DAC
330
1DAD
330
1DAE
330
1DAF
330
1DB0
330
1F05
330
1F06
  0
IDBUFFER
  5
2993
330
0
100
AcDbIdBuffer
330
CC6
330
DF5
330
2424
330
254C
330
2736
  0
IDBUFFER
  5
2994
330
0
100
AcDbIdBuffer
  0
IDBUFFER
  5
2995
330
0
100
AcDbIdBuffer
330
19BD
  0
ENDSEC
  0
EOF
